  0
SECTION
  2
HEADER
  9
$ACADVER
  1
AC1015
  9
$ACADMAINTVER
 70
    20
  9
$DWGCODEPAGE
  3
ANSI_1252
  9
$INSBASE
 10
0.0
 20
0.0
 30
0.0
  9
$EXTMIN
 10
9.985046933848025
 20
-0.0181263349739993
 30
-1.000469949823797
  9
$EXTMAX
 10
420.0256371126474
 20
270.0210127418332
 30
6.700480422101275
  9
$LIMMIN
 10
0.0
 20
0.0
  9
$LIMMAX
 10
420.0
 20
297.0
  9
$ORTHOMODE
 70
     1
  9
$REGENMODE
 70
     1
  9
$FILLMODE
 70
     1
  9
$QTEXTMODE
 70
     0
  9
$MIRRTEXT
 70
     0
  9
$LTSCALE
 40
23.1
  9
$ATTMODE
 70
     1
  9
$TEXTSIZE
 40
0.2
  9
$TRACEWID
 40
0.05
  9
$TEXTSTYLE
  7
Standard
  9
$CLAYER
  8
0
  9
$CELTYPE
  6
ByLayer
  9
$CECOLOR
 62
   256
  9
$CELTSCALE
 40
1.0
  9
$DISPSILH
 70
     0
  9
$DIMSCALE
 40
0.0
  9
$DIMASZ
 40
4.5
  9
$DIMEXO
 40
1.0
  9
$DIMDLI
 40
3.75
  9
$DIMRND
 40
0.0
  9
$DIMDLE
 40
0.0
  9
$DIMEXE
 40
2.0
  9
$DIMTP
 40
0.0
  9
$DIMTM
 40
0.0
  9
$DIMTXT
 40
5.0
  9
$DIMCEN
 40
2.5
  9
$DIMTSZ
 40
0.0
  9
$DIMTOL
 70
     0
  9
$DIMLIM
 70
     0
  9
$DIMTIH
 70
     0
  9
$DIMTOH
 70
     0
  9
$DIMSE1
 70
     0
  9
$DIMSE2
 70
     0
  9
$DIMTAD
 70
     0
  9
$DIMZIN
 70
     8
  9
$DIMBLK
  1

  9
$DIMASO
 70
     1
  9
$DIMSHO
 70
     1
  9
$DIMPOST
  1

  9
$DIMAPOST
  1

  9
$DIMALT
 70
     0
  9
$DIMALTD
 70
     4
  9
$DIMALTF
 40
0.0394
  9
$DIMLFAC
 40
1.0
  9
$DIMTOFL
 70
     1
  9
$DIMTVP
 40
0.0
  9
$DIMTIX
 70
     0
  9
$DIMSOXD
 70
     0
  9
$DIMSAH
 70
     0
  9
$DIMBLK1
  1

  9
$DIMBLK2
  1

  9
$DIMSTYLE
  2
H035
  9
$DIMCLRD
 70
     7
  9
$DIMCLRE
 70
     7
  9
$DIMCLRT
 70
     7
  9
$DIMTFAC
 40
1.0
  9
$DIMGAP
 40
1.0
  9
$DIMJUST
 70
     0
  9
$DIMSD1
 70
     0
  9
$DIMSD2
 70
     0
  9
$DIMTOLJ
 70
     1
  9
$DIMTZIN
 70
     0
  9
$DIMALTZ
 70
     0
  9
$DIMALTTZ
 70
     0
  9
$DIMUPT
 70
     0
  9
$DIMDEC
 70
     0
  9
$DIMTDEC
 70
     0
  9
$DIMALTU
 70
     8
  9
$DIMALTTD
 70
     4
  9
$DIMTXSTY
  7
Standard
  9
$DIMAUNIT
 70
     0
  9
$DIMADEC
 70
     0
  9
$DIMALTRND
 40
0.0
  9
$DIMAZIN
 70
     0
  9
$DIMDSEP
 70
    46
  9
$DIMATFIT
 70
     3
  9
$DIMFRAC
 70
     0
  9
$DIMLDRBLK
  1

  9
$DIMLUNIT
 70
     6
  9
$DIMLWD
 70
    -2
  9
$DIMLWE
 70
    -2
  9
$DIMTMOVE
 70
     0
  9
$LUNITS
 70
     2
  9
$LUPREC
 70
     4
  9
$SKETCHINC
 40
0.1
  9
$FILLETRAD
 40
0.0
  9
$AUNITS
 70
     0
  9
$AUPREC
 70
     0
  9
$MENU
  1
.
  9
$ELEVATION
 40
0.0
  9
$PELEVATION
 40
0.0
  9
$THICKNESS
 40
0.0
  9
$LIMCHECK
 70
     0
  9
$CHAMFERA
 40
0.0
  9
$CHAMFERB
 40
0.0
  9
$CHAMFERC
 40
0.0
  9
$CHAMFERD
 40
0.0
  9
$SKPOLY
 70
     0
  9
$TDCREATE
 40
2452829.459279745
  9
$TDUCREATE
 40
2452829.375946412
  9
$TDUPDATE
 40
2453948.398917709
  9
$TDUUPDATE
 40
2453948.315584375
  9
$TDINDWG
 40
0.3088382639
  9
$TDUSRTIMER
 40
0.3088238773
  9
$USRTIMER
 70
     1
  9
$ANGBASE
 50
0.0
  9
$ANGDIR
 70
     0
  9
$PDMODE
 70
     0
  9
$PDSIZE
 40
0.0
  9
$PLINEWID
 40
0.0
  9
$SPLFRAME
 70
     0
  9
$SPLINETYPE
 70
     6
  9
$SPLINESEGS
 70
     8
  9
$HANDSEED
  5
3BD4
  9
$SURFTAB1
 70
     6
  9
$SURFTAB2
 70
     6
  9
$SURFTYPE
 70
     6
  9
$SURFU
 70
     6
  9
$SURFV
 70
     6
  9
$UCSBASE
  2

  9
$UCSNAME
  2

  9
$UCSORG
 10
0.0
 20
0.0
 30
0.0
  9
$UCSXDIR
 10
1.0
 20
0.0
 30
0.0
  9
$UCSYDIR
 10
0.0
 20
1.0
 30
0.0
  9
$UCSORTHOREF
  2

  9
$UCSORTHOVIEW
 70
     0
  9
$UCSORGTOP
 10
0.0
 20
0.0
 30
0.0
  9
$UCSORGBOTTOM
 10
0.0
 20
0.0
 30
0.0
  9
$UCSORGLEFT
 10
0.0
 20
0.0
 30
0.0
  9
$UCSORGRIGHT
 10
0.0
 20
0.0
 30
0.0
  9
$UCSORGFRONT
 10
0.0
 20
0.0
 30
0.0
  9
$UCSORGBACK
 10
0.0
 20
0.0
 30
0.0
  9
$PUCSBASE
  2

  9
$PUCSNAME
  2

  9
$PUCSORG
 10
0.0
 20
0.0
 30
0.0
  9
$PUCSXDIR
 10
1.0
 20
0.0
 30
0.0
  9
$PUCSYDIR
 10
0.0
 20
1.0
 30
0.0
  9
$PUCSORTHOREF
  2

  9
$PUCSORTHOVIEW
 70
     0
  9
$PUCSORGTOP
 10
0.0
 20
0.0
 30
0.0
  9
$PUCSORGBOTTOM
 10
0.0
 20
0.0
 30
0.0
  9
$PUCSORGLEFT
 10
0.0
 20
0.0
 30
0.0
  9
$PUCSORGRIGHT
 10
0.0
 20
0.0
 30
0.0
  9
$PUCSORGFRONT
 10
0.0
 20
0.0
 30
0.0
  9
$PUCSORGBACK
 10
0.0
 20
0.0
 30
0.0
  9
$USERI1
 70
     0
  9
$USERI2
 70
     0
  9
$USERI3
 70
     0
  9
$USERI4
 70
     0
  9
$USERI5
 70
     0
  9
$USERR1
 40
0.0
  9
$USERR2
 40
0.0
  9
$USERR3
 40
0.0
  9
$USERR4
 40
0.0
  9
$USERR5
 40
0.0
  9
$WORLDVIEW
 70
     1
  9
$SHADEDGE
 70
     3
  9
$SHADEDIF
 70
    70
  9
$TILEMODE
 70
     1
  9
$MAXACTVP
 70
    64
  9
$PINSBASE
 10
0.0
 20
0.0
 30
0.0
  9
$PLIMCHECK
 70
     0
  9
$PEXTMIN
 10
1.000000000000000E+20
 20
1.000000000000000E+20
 30
1.000000000000000E+20
  9
$PEXTMAX
 10
-1.000000000000000E+20
 20
-1.000000000000000E+20
 30
-1.000000000000000E+20
  9
$PLIMMIN
 10
0.0
 20
0.0
  9
$PLIMMAX
 10
12.0
 20
9.0
  9
$UNITMODE
 70
     0
  9
$VISRETAIN
 70
     1
  9
$PLINEGEN
 70
     0
  9
$PSLTSCALE
 70
     1
  9
$TREEDEPTH
 70
  3020
  9
$CMLSTYLE
  2
Standard
  9
$CMLJUST
 70
     0
  9
$CMLSCALE
 40
1.0
  9
$PROXYGRAPHICS
 70
     1
  9
$MEASUREMENT
 70
     0
  9
$CELWEIGHT
370
    -1
  9
$ENDCAPS
280
     0
  9
$JOINSTYLE
280
     0
  9
$LWDISPLAY
290
     0
  9
$INSUNITS
 70
     0
  9
$HYPERLINKBASE
  1

  9
$STYLESHEET
  1
monochrome.ctb
  9
$XEDIT
290
     1
  9
$CEPSNTYPE
380
     0
  9
$PSTYLEMODE
290
     1
  9
$FINGERPRINTGUID
  2
{D88032C4-1185-41D3-97DD-7638FCF99E3F}
  9
$VERSIONGUID
  2
{DE15ADE6-6AB3-417B-A6AC-5A9B7919E740}
  9
$EXTNAMES
290
     1
  9
$PSVPSCALE
 40
0.0
  9
$OLESTARTUP
290
     0
  0
ENDSEC
  0
SECTION
  2
CLASSES
  0
CLASS
  1
ACDBDICTIONARYWDFLT
  2
AcDbDictionaryWithDefault
  3
ObjectDBX Classes
 90
        0
280
     0
281
     0
  0
CLASS
  1
DICTIONARYVAR
  2
AcDbDictionaryVar
  3
ObjectDBX Classes
 90
        0
280
     0
281
     0
  0
CLASS
  1
ACDBPLACEHOLDER
  2
AcDbPlaceHolder
  3
ObjectDBX Classes
 90
        0
280
     0
281
     0
  0
CLASS
  1
LAYOUT
  2
AcDbLayout
  3
ObjectDBX Classes
 90
        0
280
     0
281
     0
  0
CLASS
  1
MATERIAL
  2
AcDbMaterial
  3
ObjectDBX Classes
 90
     1024
280
     0
281
     0
  0
CLASS
  1
VISUALSTYLE
  2
AcDbVisualStyle
  3
ObjectDBX Classes
 90
     4095
280
     0
281
     0
  0
CLASS
  1
TABLESTYLE
  2
AcDbTableStyle
  3
ObjectDBX Classes
 90
     4095
280
     0
281
     0
  0
CLASS
  1
SORTENTSTABLE
  2
AcDbSortentsTable
  3
ObjectDBX Classes
 90
        0
280
     0
281
     0
  0
ENDSEC
  0
SECTION
  2
TABLES
  0
TABLE
  2
VPORT
  5
8
330
0
100
AcDbSymbolTable
 70
     1
  0
VPORT
  5
3B90
330
8
100
AcDbSymbolTableRecord
100
AcDbViewportTableRecord
  2
*Active
 70
     0
 10
0.0
 20
0.0
 11
1.0
 21
1.0
 12
215.0053420232478
 22
135.0014432034296
 13
0.0
 23
0.0
 14
1.0
 24
1.0
 15
0.0
 25
0.0
 16
0.0
 26
0.0
 36
1.0
 17
0.0
 27
0.0
 37
0.0
 40
271.7060473427134
 41
1.918640576725025
 42
50.0
 43
0.0
 44
0.0
 50
0.0
 51
0.0
 71
     0
 72
   100
 73
     1
 74
     1
 75
     0
 76
     0
 77
     0
 78
     0
281
     0
 65
     1
110
0.0
120
0.0
130
0.0
111
1.0
121
0.0
131
0.0
112
0.0
122
1.0
132
0.0
 79
     0
146
0.0
  0
ENDTAB
  0
TABLE
  2
LTYPE
  5
5
330
0
100
AcDbSymbolTable
 70
     3
  0
LTYPE
  5
13
330
5
100
AcDbSymbolTableRecord
100
AcDbLinetypeTableRecord
  2
ByBlock
 70
     0
  3

 72
    65
 73
     0
 40
0.0
  0
LTYPE
  5
14
330
5
100
AcDbSymbolTableRecord
100
AcDbLinetypeTableRecord
  2
ByLayer
 70
     0
  3

 72
    65
 73
     0
 40
0.0
  0
LTYPE
  5
15
330
5
100
AcDbSymbolTableRecord
100
AcDbLinetypeTableRecord
  2
CONTINUOUS
 70
     0
  3
Solid line
 72
    65
 73
     0
 40
0.0
  0
LTYPE
  5
26
330
5
100
AcDbSymbolTableRecord
100
AcDbLinetypeTableRecord
  2
CENTER
 70
     0
  3
____ _ ____ _ ____ _ ____ _ ____ _ ____ _ ____
 72
    65
 73
     4
 40
0.6
 49
0.375
 74
     0
 49
-0.075
 74
     0
 49
0.075
 74
     0
 49
-0.075
 74
     0
  0
ENDTAB
  0
TABLE
  2
LAYER
  5
2
330
0
100
AcDbSymbolTable
 70
    10
  0
LAYER
  5
10
330
2
100
AcDbSymbolTableRecord
100
AcDbLayerTableRecord
  2
0
 70
     0
 62
     7
  6
CONTINUOUS
370
    -3
390
F
  0
LAYER
  5
130
330
2
100
AcDbSymbolTableRecord
100
AcDbLayerTableRecord
  2
DEFPOINTS
 70
     0
 62
     7
  6
CONTINUOUS
290
     0
370
    -3
390
F
  0
LAYER
  5
56B
330
2
100
AcDbSymbolTableRecord
100
AcDbLayerTableRecord
  2
91000_TIP
 70
     0
 62
     7
  6
CONTINUOUS
370
    -3
390
F
  0
LAYER
  5
1E9D
330
2
100
AcDbSymbolTableRecord
100
AcDbLayerTableRecord
  2
10000_Front
 70
     0
 62
     7
  6
CONTINUOUS
370
    -3
390
F
  0
LAYER
  5
1E9E
330
2
100
AcDbSymbolTableRecord
100
AcDbLayerTableRecord
  2
10100_Front_Dim
 70
     0
 62
     7
  6
CONTINUOUS
370
    -3
390
F
  0
LAYER
  5
1E9F
330
2
100
AcDbSymbolTableRecord
100
AcDbLayerTableRecord
  2
11000_Left
 70
     0
 62
     7
  6
CONTINUOUS
370
    -3
390
F
  0
LAYER
  5
1EA0
330
2
100
AcDbSymbolTableRecord
100
AcDbLayerTableRecord
  2
11100_Left_Dim
 70
     0
 62
     7
  6
CONTINUOUS
370
    -3
390
F
  0
LAYER
  5
1EA1
330
2
100
AcDbSymbolTableRecord
100
AcDbLayerTableRecord
  2
90000_Frame
 70
     0
 62
     7
  6
CONTINUOUS
370
    -3
390
F
  0
LAYER
  5
21DD
330
2
100
AcDbSymbolTableRecord
100
AcDbLayerTableRecord
  2
30000_Drilling
 70
     0
 62
     7
  6
CONTINUOUS
370
    -3
390
F
  0
LAYER
  5
21DE
330
2
100
AcDbSymbolTableRecord
100
AcDbLayerTableRecord
  2
30100_Drilling_DIM
 70
     0
 62
     7
  6
CONTINUOUS
370
    -3
390
F
  0
ENDTAB
  0
TABLE
  2
STYLE
  5
3
330
0
100
AcDbSymbolTable
 70
     1
  0
STYLE
  5
11
330
3
100
AcDbSymbolTableRecord
100
AcDbTextStyleTableRecord
  2
Standard
 70
     0
 40
0.0
 41
1.0
 50
0.0
 71
     0
 42
0.2
  3
txt
  4

  0
ENDTAB
  0
TABLE
  2
VIEW
  5
6
330
0
100
AcDbSymbolTable
 70
     0
  0
ENDTAB
  0
TABLE
  2
UCS
  5
7
330
0
100
AcDbSymbolTable
 70
     0
  0
ENDTAB
  0
TABLE
  2
APPID
  5
9
330
0
100
AcDbSymbolTable
 70
     3
  0
APPID
  5
12
330
9
100
AcDbSymbolTableRecord
100
AcDbRegAppTableRecord
  2
ACAD
 70
     0
  0
APPID
  5
132
330
9
100
AcDbSymbolTableRecord
100
AcDbRegAppTableRecord
  2
AUSTER_ANSICHT
 70
     0
  0
APPID
  5
133
330
9
100
AcDbSymbolTableRecord
100
AcDbRegAppTableRecord
  2
AUSTER_FOLIE
 70
     0
  0
ENDTAB
  0
TABLE
  2
DIMSTYLE
  5
A
330
0
100
AcDbSymbolTable
 70
     4
100
AcDbDimStyleTable
 71
     3
340
5D3
340
21DF
340
BA
  0
DIMSTYLE
105
BA
330
A
100
AcDbSymbolTableRecord
100
AcDbDimStyleTableRecord
  2
Standard
 70
     0
340
11
  0
DIMSTYLE
105
5D3
330
A
100
AcDbSymbolTableRecord
100
AcDbDimStyleTableRecord
  2
H035
 70
     0
 40
0.0
 41
4.5
 42
1.0
 43
3.75
 44
2.0
 73
     0
 74
     0
 78
     8
140
5.0
141
2.5
143
0.0394
147
1.0
171
     4
172
     1
176
     7
177
     7
178
     7
271
     0
272
     0
273
     8
274
     4
277
     6
340
11
  0
DIMSTYLE
105
21DF
102
{ACAD_REACTORS
330
205D
330
205C
330
205B
330
205A
330
2059
330
2057
330
2058
330
3744
330
3742
330
3743
330
3901
102
}
330
A
100
AcDbSymbolTableRecord
100
AcDbDimStyleTableRecord
  2
DSTYLE1
 70
     0
 41
3.0
 42
0.0
 44
1.0
 73
     0
 74
     0
 77
     1
 78
     3
140
2.5
143
0.039370079
147
1.0
271
     3
272
     3
274
     0
279
     2
340
11
  0
ENDTAB
  0
TABLE
  2
BLOCK_RECORD
  5
1
330
0
100
AcDbSymbolTable
 70
    13
  0
BLOCK_RECORD
  5
20
102
{ACAD_XDICTIONARY
360
3BB4
102
}
330
1
100
AcDbSymbolTableRecord
100
AcDbBlockTableRecord
  2
*Model_Space
340
23
  0
BLOCK_RECORD
  5
1C
330
1
100
AcDbSymbolTableRecord
100
AcDbBlockTableRecord
  2
*Paper_Space
340
1F
  0
BLOCK_RECORD
  5
3A
330
1
100
AcDbSymbolTableRecord
100
AcDbBlockTableRecord
  2
SIEMENS_OUTLINE_BL0
340
0
102
{BLKREFS
331
AA
102
}
  0
BLOCK_RECORD
  5
205F
330
1
100
AcDbSymbolTableRecord
100
AcDbBlockTableRecord
  2
*D1
340
0
  0
BLOCK_RECORD
  5
206C
330
1
100
AcDbSymbolTableRecord
100
AcDbBlockTableRecord
  2
*D2
340
0
  0
BLOCK_RECORD
  5
2078
330
1
100
AcDbSymbolTableRecord
100
AcDbBlockTableRecord
  2
*D3
340
0
  0
BLOCK_RECORD
  5
2085
330
1
100
AcDbSymbolTableRecord
100
AcDbBlockTableRecord
  2
*D4
340
0
  0
BLOCK_RECORD
  5
2092
330
1
100
AcDbSymbolTableRecord
100
AcDbBlockTableRecord
  2
*D5
340
0
  0
BLOCK_RECORD
  5
209F
330
1
100
AcDbSymbolTableRecord
100
AcDbBlockTableRecord
  2
*D6
340
0
  0
BLOCK_RECORD
  5
20AC
330
1
100
AcDbSymbolTableRecord
100
AcDbBlockTableRecord
  2
*D7
340
0
  0
BLOCK_RECORD
  5
3745
330
1
100
AcDbSymbolTableRecord
100
AcDbBlockTableRecord
  2
*D8
340
0
  0
BLOCK_RECORD
  5
3754
330
1
100
AcDbSymbolTableRecord
100
AcDbBlockTableRecord
  2
*D9
340
0
  0
BLOCK_RECORD
  5
3761
330
1
100
AcDbSymbolTableRecord
100
AcDbBlockTableRecord
  2
*D10
340
0
  0
BLOCK_RECORD
  5
3902
330
1
100
AcDbSymbolTableRecord
100
AcDbBlockTableRecord
  2
*D11
340
0
  0
ENDTAB
  0
ENDSEC
  0
SECTION
  2
BLOCKS
  0
BLOCK
  5
21
330
20
100
AcDbEntity
  8
0
100
AcDbBlockBegin
  2
*Model_Space
 70
     0
 10
0.0
 20
0.0
 30
0.0
  3
*Model_Space
  1

  0
ENDBLK
  5
22
330
20
100
AcDbEntity
  8
0
100
AcDbBlockEnd
  0
BLOCK
  5
1D
330
1C
100
AcDbEntity
 67
     1
  8
0
100
AcDbBlockBegin
  2
*Paper_Space
 70
     0
 10
0.0
 20
0.0
 30
0.0
  3
*Paper_Space
  1

  0
ENDBLK
  5
1E
330
1C
100
AcDbEntity
 67
     1
  8
0
100
AcDbBlockEnd
  0
BLOCK
  5
3B
330
3A
100
AcDbEntity
  8
0
  6
Continuous
 62
     7
100
AcDbBlockBegin
  2
SIEMENS_OUTLINE_BL0
 70
     0
 10
0.0
 20
0.0
 30
0.0
  3
SIEMENS_OUTLINE_BL0
  1

  0
LINE
  5
3C
330
3A
100
AcDbEntity
  8
0
  6
Continuous
 62
     7
100
AcDbLine
 10
289.1235341257
 20
21.4969115175
 30
0.0
 11
289.1235341257
 21
16.7436424342
 31
0.0
  0
LINE
  5
3D
330
3A
100
AcDbEntity
  8
0
  6
Continuous
 62
     7
100
AcDbLine
 10
290.5495148507
 20
21.4969115175
 30
0.0
 11
290.5495148507
 21
16.7436424342
 31
0.0
  0
LINE
  5
3E
330
3A
100
AcDbEntity
  8
0
  6
Continuous
 62
     7
100
AcDbLine
 10
289.1235341257
 20
16.7436424342
 30
0.0
 11
290.5495148507
 21
16.7436424342
 31
0.0
  0
LINE
  5
3F
330
3A
100
AcDbEntity
  8
0
  6
Continuous
 62
     7
100
AcDbLine
 10
289.1235341257
 20
21.4969115175
 30
0.0
 11
290.5495148507
 21
21.4969115175
 31
0.0
  0
LINE
  5
40
330
3A
100
AcDbEntity
  8
0
  6
Continuous
 62
     7
100
AcDbLine
 10
291.6427667399
 20
21.4969115175
 30
0.0
 11
291.6427667399
 21
16.7436424342
 31
0.0
  0
LINE
  5
41
330
3A
100
AcDbEntity
  8
0
  6
Continuous
 62
     7
100
AcDbLine
 10
291.6427667399
 20
16.7436424342
 30
0.0
 11
295.2077185523
 21
16.7436424342
 31
0.0
  0
LINE
  5
42
330
3A
100
AcDbEntity
  8
0
  6
Continuous
 62
     7
100
AcDbLine
 10
295.2077185523
 20
17.64676356
 30
0.0
 11
293.021214774
 21
17.64676356
 31
0.0
  0
LINE
  5
43
330
3A
100
AcDbEntity
  8
0
  6
Continuous
 62
     7
100
AcDbLine
 10
295.2077185523
 20
17.64676356
 30
0.0
 11
295.2077185523
 21
16.7436424342
 31
0.0
  0
LINE
  5
44
330
3A
100
AcDbEntity
  8
0
  6
Continuous
 62
     7
100
AcDbLine
 10
295.1601858615
 20
21.4969115175
 30
0.0
 11
291.6427667399
 21
21.4969115175
 31
0.0
  0
LINE
  5
45
330
3A
100
AcDbEntity
  8
0
  6
Continuous
 62
     7
100
AcDbLine
 10
295.1601858615
 20
20.6175567371
 30
0.0
 11
293.021214774
 21
20.6175567371
 31
0.0
  0
LINE
  5
46
330
3A
100
AcDbEntity
  8
0
  6
Continuous
 62
     7
100
AcDbLine
 10
295.1601858615
 20
21.4969115175
 30
0.0
 11
295.1601858615
 21
20.6175567371
 31
0.0
  0
LINE
  5
47
330
3A
100
AcDbEntity
  8
0
  6
Continuous
 62
     7
100
AcDbLine
 10
294.8749897165
 20
18.7637817946
 30
0.0
 11
293.021214774
 21
18.7637817946
 31
0.0
  0
LINE
  5
48
330
3A
100
AcDbEntity
  8
0
  6
Continuous
 62
     7
100
AcDbLine
 10
294.8749897165
 20
19.5480711933
 30
0.0
 11
294.8749897165
 21
18.7637817946
 31
0.0
  0
LINE
  5
49
330
3A
100
AcDbEntity
  8
0
  6
Continuous
 62
     7
100
AcDbLine
 10
294.8749897165
 20
19.5480711933
 30
0.0
 11
293.021214774
 21
19.5480711933
 31
0.0
  0
LINE
  5
4A
330
3A
100
AcDbEntity
  8
0
  6
Continuous
 62
     7
100
AcDbLine
 10
293.021214774
 20
20.6175567371
 30
0.0
 11
293.021214774
 21
19.5480711933
 31
0.0
  0
LINE
  5
4B
330
3A
100
AcDbEntity
  8
0
  6
Continuous
 62
     7
100
AcDbLine
 10
293.021214774
 20
18.7637817946
 30
0.0
 11
293.021214774
 21
17.64676356
 31
0.0
  0
LINE
  5
4C
330
3A
100
AcDbEntity
  8
0
  6
Continuous
 62
     7
100
AcDbLine
 10
296.0157742965
 20
16.7436424342
 30
0.0
 11
296.0157742965
 21
21.4969115175
 31
0.0
  0
LINE
  5
4D
330
3A
100
AcDbEntity
  8
0
  6
Continuous
 62
     7
100
AcDbLine
 10
296.0157742965
 20
16.7436424342
 30
0.0
 11
296.9664281131
 21
16.7436424342
 31
0.0
  0
LINE
  5
4E
330
3A
100
AcDbEntity
  8
0
  6
Continuous
 62
     7
100
AcDbLine
 10
301.8622952689
 20
21.4969115175
 30
0.0
 11
301.8622952689
 21
16.7436424342
 31
0.0
  0
LINE
  5
4F
330
3A
100
AcDbEntity
  8
0
  6
Continuous
 62
     7
100
AcDbLine
 10
301.8622952689
 20
16.7436424342
 30
0.0
 11
300.4838472348
 21
16.7436424342
 31
0.0
  0
LINE
  5
50
330
3A
100
AcDbEntity
  8
0
  6
Continuous
 62
     7
100
AcDbLine
 10
298.2973434565
 20
16.6961097434
 30
0.0
 11
299.1529318914
 21
16.6961097434
 31
0.0
  0
LINE
  5
51
330
3A
100
AcDbEntity
  8
0
  6
Continuous
 62
     7
100
AcDbLine
 10
298.2973434565
 20
16.6961097434
 30
0.0
 11
296.9664281131
 21
19.7857346475
 31
0.0
  0
LINE
  5
52
330
3A
100
AcDbEntity
  8
0
  6
Continuous
 62
     7
100
AcDbLine
 10
296.9664281131
 20
16.7436424342
 30
0.0
 11
296.9664281131
 21
19.7857346475
 31
0.0
  0
LINE
  5
53
330
3A
100
AcDbEntity
  8
0
  6
Continuous
 62
     7
100
AcDbLine
 10
300.4838472348
 20
19.8332673383
 30
0.0
 11
299.1529318914
 21
16.6961097434
 31
0.0
  0
LINE
  5
54
330
3A
100
AcDbEntity
  8
0
  6
Continuous
 62
     7
100
AcDbLine
 10
297.7269511665
 20
21.4969115175
 30
0.0
 11
296.0157742965
 21
21.4969115175
 31
0.0
  0
LINE
  5
55
330
3A
100
AcDbEntity
  8
0
  6
Continuous
 62
     7
100
AcDbLine
 10
301.8622952689
 20
21.4969115175
 30
0.0
 11
300.1511183989
 21
21.4969115175
 31
0.0
  0
LINE
  5
56
330
3A
100
AcDbEntity
  8
0
  6
Continuous
 62
     7
100
AcDbLine
 10
297.7269511665
 20
21.4969115175
 30
0.0
 11
298.9628011281
 21
18.5974173767
 31
0.0
  0
LINE
  5
57
330
3A
100
AcDbEntity
  8
0
  6
Continuous
 62
     7
100
AcDbLine
 10
300.1511183989
 20
21.4969115175
 30
0.0
 11
298.9628011281
 21
18.5974173767
 31
0.0
  0
LINE
  5
58
330
3A
100
AcDbEntity
  8
0
  6
Continuous
 62
     7
100
AcDbLine
 10
300.4838472348
 20
19.8332673383
 30
0.0
 11
300.4838472348
 21
16.7436424342
 31
0.0
  0
LINE
  5
59
330
3A
100
AcDbEntity
  8
0
  6
Continuous
 62
     7
100
AcDbLine
 10
302.9555471581
 20
21.4969115175
 30
0.0
 11
302.9555471581
 21
16.7436424342
 31
0.0
  0
LINE
  5
5A
330
3A
100
AcDbEntity
  8
0
  6
Continuous
 62
     7
100
AcDbLine
 10
302.9555471581
 20
16.7436424342
 30
0.0
 11
306.5204989705
 21
16.7436424342
 31
0.0
  0
LINE
  5
5B
330
3A
100
AcDbEntity
  8
0
  6
Continuous
 62
     7
100
AcDbLine
 10
306.5204989705
 20
17.64676356
 30
0.0
 11
304.3339951922
 21
17.64676356
 31
0.0
  0
LINE
  5
5C
330
3A
100
AcDbEntity
  8
0
  6
Continuous
 62
     7
100
AcDbLine
 10
306.5204989705
 20
17.64676356
 30
0.0
 11
306.5204989705
 21
16.7436424342
 31
0.0
  0
LINE
  5
5D
330
3A
100
AcDbEntity
  8
0
  6
Continuous
 62
     7
100
AcDbLine
 10
306.4729662797
 20
21.4969115175
 30
0.0
 11
302.9555471581
 21
21.4969115175
 31
0.0
  0
LINE
  5
5E
330
3A
100
AcDbEntity
  8
0
  6
Continuous
 62
     7
100
AcDbLine
 10
306.4729662797
 20
20.6175567371
 30
0.0
 11
304.3339951922
 21
20.6175567371
 31
0.0
  0
LINE
  5
5F
330
3A
100
AcDbEntity
  8
0
  6
Continuous
 62
     7
100
AcDbLine
 10
306.4729662797
 20
21.4969115175
 30
0.0
 11
306.4729662797
 21
20.6175567371
 31
0.0
  0
LINE
  5
60
330
3A
100
AcDbEntity
  8
0
  6
Continuous
 62
     7
100
AcDbLine
 10
306.1877701347
 20
18.7637817946
 30
0.0
 11
304.3339951922
 21
18.7637817946
 31
0.0
  0
LINE
  5
61
330
3A
100
AcDbEntity
  8
0
  6
Continuous
 62
     7
100
AcDbLine
 10
306.1877701347
 20
19.5480711933
 30
0.0
 11
306.1877701347
 21
18.7637817946
 31
0.0
  0
LINE
  5
62
330
3A
100
AcDbEntity
  8
0
  6
Continuous
 62
     7
100
AcDbLine
 10
306.1877701347
 20
19.5480711933
 30
0.0
 11
304.3339951922
 21
19.5480711933
 31
0.0
  0
LINE
  5
63
330
3A
100
AcDbEntity
  8
0
  6
Continuous
 62
     7
100
AcDbLine
 10
304.3339951922
 20
20.6175567371
 30
0.0
 11
304.3339951922
 21
19.5480711933
 31
0.0
  0
LINE
  5
64
330
3A
100
AcDbEntity
  8
0
  6
Continuous
 62
     7
100
AcDbLine
 10
304.3339951922
 20
18.7637817946
 30
0.0
 11
304.3339951922
 21
17.64676356
 31
0.0
  0
LINE
  5
65
330
3A
100
AcDbEntity
  8
0
  6
Continuous
 62
     7
100
AcDbLine
 10
307.3047883693
 20
16.7436424342
 30
0.0
 11
307.3047883693
 21
21.4969115175
 31
0.0
  0
LINE
  5
66
330
3A
100
AcDbEntity
  8
0
  6
Continuous
 62
     7
100
AcDbLine
 10
311.4876651625
 20
21.4969115175
 30
0.0
 11
311.4876651625
 21
16.7436424342
 31
0.0
  0
LINE
  5
67
330
3A
100
AcDbEntity
  8
0
  6
Continuous
 62
     7
100
AcDbLine
 10
307.3047883693
 20
16.7436424342
 30
0.0
 11
308.2554421859
 21
16.7436424342
 31
0.0
  0
LINE
  5
68
330
3A
100
AcDbEntity
  8
0
  6
Continuous
 62
     7
100
AcDbLine
 10
311.4876651625
 20
21.4969115175
 30
0.0
 11
310.5370113459
 21
21.4969115175
 31
0.0
  0
LINE
  5
69
330
3A
100
AcDbEntity
  8
0
  6
Continuous
 62
     7
100
AcDbLine
 10
308.8496008213
 20
21.4969115175
 30
0.0
 11
307.3047883693
 21
21.4969115175
 31
0.0
  0
LINE
  5
6A
330
3A
100
AcDbEntity
  8
0
  6
Continuous
 62
     7
100
AcDbLine
 10
311.4876651625
 20
16.7436424342
 30
0.0
 11
309.9666190559
 21
16.7436424342
 31
0.0
  0
LINE
  5
6B
330
3A
100
AcDbEntity
  8
0
  6
Continuous
 62
     7
100
AcDbLine
 10
309.9666190559
 20
16.7436424342
 30
0.0
 11
308.2554421859
 21
19.7857346475
 31
0.0
  0
LINE
  5
6C
330
3A
100
AcDbEntity
  8
0
  6
Continuous
 62
     7
100
AcDbLine
 10
308.8496008213
 20
21.4969115175
 30
0.0
 11
310.5370113459
 21
18.5498846858
 31
0.0
  0
LINE
  5
6D
330
3A
100
AcDbEntity
  8
0
  6
Continuous
 62
     7
100
AcDbLine
 10
310.5370113459
 20
21.4969115175
 30
0.0
 11
310.5370113459
 21
18.5498846858
 31
0.0
  0
LINE
  5
6E
330
3A
100
AcDbEntity
  8
0
  6
Continuous
 62
     7
100
AcDbLine
 10
308.2554421859
 20
16.7436424342
 30
0.0
 11
308.2554421859
 21
19.7857346475
 31
0.0
  0
LINE
  5
6F
330
3A
100
AcDbEntity
  8
0
  6
Continuous
 62
     7
100
AcDbLine
 10
312.2957209067
 20
16.8387078159
 30
0.0
 11
312.2957209067
 21
17.7893616325
 31
0.0
  0
LINE
  5
70
330
3A
100
AcDbEntity
  8
0
  6
Continuous
 62
     7
100
AcDbLine
 10
315.623009265
 20
20.49872501
 30
0.0
 11
315.623009265
 21
21.4493788266
 31
0.0
  0
ARC
  5
71
330
3A
100
AcDbEntity
  8
0
  6
Continuous
 62
     7
100
AcDbCircle
 10
314.0003620317
 20
18.7008009792
 30
0.0
 40
1.111619360599997
100
AcDbArc
 50
277.7099956934
 51
295.6884927746
  0
ARC
  5
72
330
3A
100
AcDbEntity
  8
0
  6
Continuous
 62
     7
100
AcDbCircle
 10
314.2846720145
 20
17.9759752156
 30
0.0
 40
0.3401689265
100
AcDbArc
 50
305.503221255
 51
72.46528985229999
  0
ARC
  5
73
330
3A
100
AcDbEntity
  8
0
  6
Continuous
 62
     7
100
AcDbCircle
 10
313.7186782063
 20
21.3776821252
 30
0.0
 40
4.756794641099999
100
AcDbArc
 50
252.5939200548001
 51
280.9816604256
  0
ARC
  5
74
330
3A
100
AcDbEntity
  8
0
  6
Continuous
 62
     7
100
AcDbCircle
 10
314.1735135694
 20
18.7596683887
 30
0.0
 40
2.100726595299998
100
AcDbArc
 50
282.405835852
 51
311.8644433928
  0
ARC
  5
75
330
3A
100
AcDbEntity
  8
0
  6
Continuous
 62
     7
100
AcDbCircle
 10
313.8999492223
 20
20.3680101102
 30
0.0
 40
0.3029626476
100
AcDbArc
 50
154.4400348282
 51
221.8201698801
  0
ARC
  5
76
330
3A
100
AcDbEntity
  8
0
  6
Continuous
 62
     7
100
AcDbCircle
 10
313.9791703737
 20
20.2887889588
 30
0.0
 40
0.4103089737
100
AcDbArc
 50
102.8287828681
 51
149.2259639003
  0
ARC
  5
77
330
3A
100
AcDbEntity
  8
0
  6
Continuous
 62
     7
100
AcDbCircle
 10
314.3961972093
 20
18.546453629
 30
0.0
 40
2.201836557
100
AcDbArc
 50
84.0400061857
 51
103.3427657870999
  0
ARC
  5
78
330
3A
100
AcDbEntity
  8
0
  6
Continuous
 62
     7
100
AcDbCircle
 10
314.0552333846
 20
16.1290897051
 30
0.0
 40
4.642373736499997
100
AcDbArc
 50
70.2625858546
 51
82.95241863799999
  0
ARC
  5
79
330
3A
100
AcDbEntity
  8
0
  6
Continuous
 62
     7
100
AcDbCircle
 10
313.5412151824001
 20
20.8007125947
 30
0.0
 40
3.258755990899997
100
AcDbArc
 50
247.5300206145
 51
280.7579522143
  0
ARC
  5
7A
330
3A
100
AcDbEntity
  8
0
  6
Continuous
 62
     7
100
AcDbCircle
 10
307.1562487104
 20
2.5491926343
 30
0.0
 40
17.3316084133
100
AcDbArc
 50
65.34146746500001
 51
67.39977707359999
  0
ARC
  5
7B
330
3A
100
AcDbEntity
  8
0
  6
Continuous
 62
     7
100
AcDbCircle
 10
317.9521111158
 20
28.3416189974
 30
0.0
 40
10.6291642039
100
AcDbArc
 50
242.8620101252001
 51
247.1042029186
  0
ARC
  5
7C
330
3A
100
AcDbEntity
  8
0
  6
Continuous
 62
     7
100
AcDbCircle
 10
314.0972098893
 20
20.8076875004
 30
0.0
 40
2.166291629199998
100
AcDbArc
 50
227.3119280794
 51
242.7040315235
  0
ARC
  5
7D
330
3A
100
AcDbEntity
  8
0
  6
Continuous
 62
     7
100
AcDbCircle
 10
313.4931790796
 20
20.1020098596
 30
0.0
 40
1.238521734
100
AcDbArc
 50
194.7952194236
 51
225.7176549047
  0
ARC
  5
7E
330
3A
100
AcDbEntity
  8
0
  6
Continuous
 62
     7
100
AcDbCircle
 10
313.5553372138
 20
20.1422298287
 30
0.0
 40
1.309092072899999
100
AcDbArc
 50
164.1974860461
 51
195.8025139539
  0
ARC
  5
7F
330
3A
100
AcDbEntity
  8
0
  6
Continuous
 62
     7
100
AcDbCircle
 10
314.1123609345001
 20
19.2539626688
 30
0.0
 40
2.366924815299999
100
AcDbArc
 50
86.22180229280001
 51
120.4272602309
  0
ARC
  5
80
330
3A
100
AcDbEntity
  8
0
  6
Continuous
 62
     7
100
AcDbCircle
 10
313.8435041519
 20
12.5577948477
 30
0.0
 40
9.0679051661
100
AcDbArc
 50
78.68270492259998
 51
87.3147599624
  0
ARC
  5
81
330
3A
100
AcDbEntity
  8
0
  6
Continuous
 62
     7
100
AcDbCircle
 10
313.3874349735
 20
20.2497375912
 30
0.0
 40
1.119747444
100
AcDbArc
 50
142.813917903
 51
167.1522951417
  0
ARC
  5
82
330
3A
100
AcDbEntity
  8
0
  6
Continuous
 62
     7
100
AcDbCircle
 10
313.7327443151
 20
19.9431558946
 30
0.0
 40
1.580546684499998
100
AcDbArc
 50
121.2140948535
 51
141.5254768286
  0
ARC
  5
83
330
3A
100
AcDbEntity
  8
0
  6
Continuous
 62
     7
100
AcDbCircle
 10
314.3099186807
 20
20.7542132232
 30
0.0
 40
0.8661276051999998
100
AcDbArc
 50
222.7760387596
 51
239.0362434679
  0
ARC
  5
84
330
3A
100
AcDbEntity
  8
0
  6
Continuous
 62
     7
100
AcDbCircle
 10
311.8032091024
 20
13.4239410246
 30
0.0
 40
6.858773576299999
100
AcDbArc
 50
59.90202725599999
 51
68.2036481279
  0
ARC
  5
85
330
3A
100
AcDbEntity
  8
0
  6
Continuous
 62
     7
100
AcDbCircle
 10
315.2117035963
 20
22.3498275319
 30
0.0
 40
2.698741017099999
100
AcDbArc
 50
240.0481997804
 51
251.3779673736999
  0
ARC
  5
86
330
3A
100
AcDbEntity
  8
0
  6
Continuous
 62
     7
100
AcDbCircle
 10
314.5462464295
 20
18.1929289165
 30
0.0
 40
1.4334474881
100
AcDbArc
 50
315.8904553224
 51
333.5229264373
  0
ARC
  5
87
330
3A
100
AcDbEntity
  8
0
  6
Continuous
 62
     7
100
AcDbCircle
 10
314.5508846732
 20
18.1395217664
 30
0.0
 40
1.406228711899998
100
AcDbArc
 50
335.3867972702
 51
24.3915119402
  0
ARC
  5
88
330
3A
100
AcDbEntity
  8
0
  6
Continuous
 62
     7
100
AcDbCircle
 10
314.4786797697
 20
18.0616650746
 30
0.0
 40
1.504702514799999
100
AcDbArc
 50
25.95629166050001
 51
59.4834829668
  0
LINE
  5
89
330
3A
100
AcDbEntity
  8
0
  6
Continuous
 62
     7
100
AcDbLine
 10
284.7029938783
 20
16.8387078159
 30
0.0
 11
284.7029938783
 21
17.7893616325
 31
0.0
  0
LINE
  5
8A
330
3A
100
AcDbEntity
  8
0
  6
Continuous
 62
     7
100
AcDbLine
 10
288.0302822366
 20
20.49872501
 30
0.0
 11
288.0302822366
 21
21.4493788266
 31
0.0
  0
ARC
  5
8B
330
3A
100
AcDbEntity
  8
0
  6
Continuous
 62
     7
100
AcDbCircle
 10
286.4076350033
 20
18.7008009792
 30
0.0
 40
1.111619360599997
100
AcDbArc
 50
277.7099956934
 51
295.6884927746
  0
ARC
  5
8C
330
3A
100
AcDbEntity
  8
0
  6
Continuous
 62
     7
100
AcDbCircle
 10
286.691944986
 20
17.9759752156
 30
0.0
 40
0.3401689265
100
AcDbArc
 50
305.5032212556
 51
72.4652898515
  0
ARC
  5
8D
330
3A
100
AcDbEntity
  8
0
  6
Continuous
 62
     7
100
AcDbCircle
 10
286.1259511779
 20
21.3776821252
 30
0.0
 40
4.756794641099999
100
AcDbArc
 50
252.5939200545
 51
280.9816604253
  0
ARC
  5
8E
330
3A
100
AcDbEntity
  8
0
  6
Continuous
 62
     7
100
AcDbCircle
 10
286.580786541
 20
18.7596683887
 30
0.0
 40
2.100726595299998
100
AcDbArc
 50
282.4058358513
 51
311.8644433923
  0
ARC
  5
8F
330
3A
100
AcDbEntity
  8
0
  6
Continuous
 62
     7
100
AcDbCircle
 10
286.3072221939
 20
20.3680101102
 30
0.0
 40
0.3029626476
100
AcDbArc
 50
154.4400348282
 51
221.8201698801
  0
ARC
  5
90
330
3A
100
AcDbEntity
  8
0
  6
Continuous
 62
     7
100
AcDbCircle
 10
286.3864433453
 20
20.2887889588
 30
0.0
 40
0.4103089737
100
AcDbArc
 50
102.8287828727
 51
149.2259639027
  0
ARC
  5
91
330
3A
100
AcDbEntity
  8
0
  6
Continuous
 62
     7
100
AcDbCircle
 10
286.8034701809
 20
18.546453629
 30
0.0
 40
2.201836557
100
AcDbArc
 50
84.0400061859
 51
103.3427657872
  0
ARC
  5
92
330
3A
100
AcDbEntity
  8
0
  6
Continuous
 62
     7
100
AcDbCircle
 10
286.4625063562
 20
16.1290897051
 30
0.0
 40
4.642373736499997
100
AcDbArc
 50
70.2625858546
 51
82.9524186379
  0
ARC
  5
93
330
3A
100
AcDbEntity
  8
0
  6
Continuous
 62
     7
100
AcDbCircle
 10
285.948488154
 20
20.8007125947
 30
0.0
 40
3.258755990899997
100
AcDbArc
 50
247.5300206148
 51
280.7579522145
  0
ARC
  5
94
330
3A
100
AcDbEntity
  8
0
  6
Continuous
 62
     7
100
AcDbCircle
 10
279.563521682
 20
2.5491926343
 30
0.0
 40
17.3316084133
100
AcDbArc
 50
65.34146746500001
 51
67.39977707359999
  0
ARC
  5
95
330
3A
100
AcDbEntity
  8
0
  6
Continuous
 62
     7
100
AcDbCircle
 10
290.3593840874
 20
28.3416189974
 30
0.0
 40
10.6291642039
100
AcDbArc
 50
242.8620101252001
 51
247.1042029185
  0
ARC
  5
96
330
3A
100
AcDbEntity
  8
0
  6
Continuous
 62
     7
100
AcDbCircle
 10
286.5044828608
 20
20.8076875004
 30
0.0
 40
2.166291629199998
100
AcDbArc
 50
227.3119280794
 51
242.7040315235
  0
ARC
  5
97
330
3A
100
AcDbEntity
  8
0
  6
Continuous
 62
     7
100
AcDbCircle
 10
285.9004520512
 20
20.1020098596
 30
0.0
 40
1.238521734
100
AcDbArc
 50
194.7952194234
 51
225.7176549042
  0
ARC
  5
98
330
3A
100
AcDbEntity
  8
0
  6
Continuous
 62
     7
100
AcDbCircle
 10
286.519633906
 20
19.2539626688
 30
0.0
 40
2.366924815299999
100
AcDbArc
 50
86.22180229280001
 51
120.4272602309
  0
ARC
  5
99
330
3A
100
AcDbEntity
  8
0
  6
Continuous
 62
     7
100
AcDbCircle
 10
286.2507771235
 20
12.5577948477
 30
0.0
 40
9.0679051661
100
AcDbArc
 50
78.68270492259998
 51
87.3147599624
  0
ARC
  5
9A
330
3A
100
AcDbEntity
  8
0
  6
Continuous
 62
     7
100
AcDbCircle
 10
286.1400172867
 20
19.9431558946
 30
0.0
 40
1.580546684599998
100
AcDbArc
 50
121.2140948541
 51
141.525476829
  0
ARC
  5
9B
330
3A
100
AcDbEntity
  8
0
  6
Continuous
 62
     7
100
AcDbCircle
 10
286.7171916523
 20
20.7542132232
 30
0.0
 40
0.8661276051999998
100
AcDbArc
 50
222.7760387596
 51
239.0362434679
  0
ARC
  5
9C
330
3A
100
AcDbEntity
  8
0
  6
Continuous
 62
     7
100
AcDbCircle
 10
284.210482074
 20
13.4239410246
 30
0.0
 40
6.858773576299999
100
AcDbArc
 50
59.90202725620001
 51
68.20364812820002
  0
ARC
  5
9D
330
3A
100
AcDbEntity
  8
0
  6
Continuous
 62
     7
100
AcDbCircle
 10
287.6189765678
 20
22.3498275319
 30
0.0
 40
2.698741017099999
100
AcDbArc
 50
240.0481997804
 51
251.3779673734
  0
ARC
  5
9E
330
3A
100
AcDbEntity
  8
0
  6
Continuous
 62
     7
100
AcDbCircle
 10
286.953519401
 20
18.1929289165
 30
0.0
 40
1.4334474881
100
AcDbArc
 50
315.8904553226
 51
333.5229264375
  0
ARC
  5
9F
330
3A
100
AcDbEntity
  8
0
  6
Continuous
 62
     7
100
AcDbCircle
 10
286.9581576447
 20
18.1395217664
 30
0.0
 40
1.406228711899998
100
AcDbArc
 50
335.3867972703
 51
24.3915119403
  0
ARC
  5
A0
330
3A
100
AcDbEntity
  8
0
  6
Continuous
 62
     7
100
AcDbCircle
 10
286.8859527412
 20
18.0616650746
 30
0.0
 40
1.504702514699999
100
AcDbArc
 50
25.9562916611
 51
59.4834829676
  0
LINE
  5
A1
330
3A
100
AcDbEntity
  8
0
  6
Continuous
 62
     7
100
AcDbLine
 10
284.8948224676
 20
20.9161059766
 30
0.0
 11
285.1688882922
 21
21.1901790542
 31
0.0
  0
ARC
  5
A2
330
3A
100
AcDbEntity
  8
0
  6
Continuous
 62
     7
100
AcDbCircle
 10
285.9626101853
 20
20.1422298287
 30
0.0
 40
1.309092072899999
100
AcDbArc
 50
164.1974860461
 51
195.8025139539
  0
ARC
  5
A3
330
3A
100
AcDbEntity
  8
0
  6
Continuous
 62
     7
100
AcDbCircle
 10
285.7947079451
 20
20.2497375912
 30
0.0
 40
1.119747444
100
AcDbArc
 50
142.813917903
 51
167.1522951417
  0
ENDBLK
  5
A4
330
3A
100
AcDbEntity
  8
0
100
AcDbBlockEnd
  0
BLOCK
  5
206A
330
205F
100
AcDbEntity
  8
0
100
AcDbBlockBegin
  2
*D1
 70
     1
 10
0.0
 20
0.0
 30
0.0
  3
*D1
  1

  0
LINE
  5
3B2D
330
205F
100
AcDbEntity
  8
11100_Left_Dim
  6
Continuous
 62
     0
370
    -2
100
AcDbLine
 10
172.3283722453248
 20
165.2426619055075
 30
0.0
 11
172.3283722453248
 21
222.3402446906641
 31
0.0
  0
LINE
  5
3B2E
330
205F
100
AcDbEntity
  8
11100_Left_Dim
  6
Continuous
 62
     0
370
    -2
100
AcDbLine
 10
282.0539580672438
 20
147.480923800622
 30
0.0
 11
282.0539580672438
 21
222.3402446906641
 31
0.0
  0
LINE
  5
3B2F
330
205F
100
AcDbEntity
  8
11100_Left_Dim
  6
Continuous
 62
     0
370
    -2
100
AcDbLine
 10
174.3283722453248
 20
221.3402446906641
 30
0.0
 11
223.4411651562843
 21
221.3402446906641
 31
0.0
  0
LINE
  5
3B30
330
205F
100
AcDbEntity
  8
11100_Left_Dim
  6
Continuous
 62
     0
370
    -2
100
AcDbLine
 10
280.0539580672438
 20
221.3402446906641
 30
0.0
 11
230.9411651562843
 21
221.3402446906641
 31
0.0
  0
SOLID
  5
3B31
330
205F
100
AcDbEntity
  8
11100_Left_Dim
  6
Continuous
 62
     0
100
AcDbTrace
 10
174.3283722453248
 20
221.6735780239974
 30
0.0
 11
174.3283722453248
 21
221.0069113573307
 31
0.0
 12
172.3283722453248
 22
221.3402446906641
 32
0.0
 13
172.3283722453248
 23
221.3402446906641
 33
0.0
  0
SOLID
  5
3B32
330
205F
100
AcDbEntity
  8
11100_Left_Dim
  6
Continuous
 62
     0
100
AcDbTrace
 10
280.0539580672438
 20
221.6735780239974
 30
0.0
 11
280.0539580672438
 21
221.0069113573307
 31
0.0
 12
282.0539580672438
 22
221.3402446906641
 32
0.0
 13
282.0539580672438
 23
221.3402446906641
 33
0.0
  0
MTEXT
  5
3B33
330
205F
100
AcDbEntity
  8
11100_Left_Dim
  6
Continuous
 62
     0
370
    13
100
AcDbMText
 10
227.1911651562843
 20
221.3402446906641
 30
0.0
 40
3.0
 41
0.0
 71
     5
 72
     1
  1
\A1;110
 73
     1
 44
1.0
1001
ACAD
1000
MTEXTBEGIN
1070
    73
1070
     1
1070
    44
1040
1.0
1070
    74
1070
     0
1000
MTEXTEND
  0
POINT
  5
3B34
330
205F
100
AcDbEntity
  8
DEFPOINTS
  6
Continuous
 62
     0
100
AcDbPoint
 10
172.3283722453248
 20
164.2426619055076
 30
0.0
  0
POINT
  5
3B35
330
205F
100
AcDbEntity
  8
DEFPOINTS
  6
Continuous
 62
     0
100
AcDbPoint
 10
282.0539580672438
 20
146.480923800622
 30
0.0
  0
POINT
  5
3B36
330
205F
100
AcDbEntity
  8
DEFPOINTS
  6
Continuous
 62
     0
100
AcDbPoint
 10
282.0539580672438
 20
221.3402446906641
 30
0.0
  0
ENDBLK
  5
206B
330
205F
100
AcDbEntity
  8
0
100
AcDbBlockEnd
  0
BLOCK
  5
2076
330
206C
100
AcDbEntity
  8
0
100
AcDbBlockBegin
  2
*D2
 70
     1
 10
0.0
 20
0.0
 30
0.0
  3
*D2
  1

  0
LINE
  5
3B21
330
206C
100
AcDbEntity
  8
11100_Left_Dim
  6
Continuous
 62
     0
370
    -2
100
AcDbLine
 10
167.3283722453248
 20
194.7850026112313
 30
0.0
 11
167.3283722453248
 21
213.8835997878324
 31
0.0
  0
LINE
  5
3B22
330
206C
100
AcDbEntity
  8
11100_Left_Dim
  6
Continuous
 62
     0
370
    -2
100
AcDbLine
 10
172.3280722453246
 20
165.2429559055076
 30
0.0
 11
172.3280722453246
 21
213.8835997878324
 31
0.0
  0
LINE
  5
3B23
330
206C
100
AcDbEntity
  8
11100_Left_Dim
  6
Continuous
 62
     0
370
    -2
100
AcDbLine
 10
165.3283722453248
 20
212.8835997878324
 30
0.0
 11
163.3283722453248
 21
212.8835997878324
 31
0.0
  0
LINE
  5
3B24
330
206C
100
AcDbEntity
  8
11100_Left_Dim
  6
Continuous
 62
     0
370
    -2
100
AcDbLine
 10
174.3280722453246
 20
212.8835997878324
 30
0.0
 11
176.3280722453246
 21
212.8835997878324
 31
0.0
  0
LINE
  5
3B25
330
206C
100
AcDbEntity
  8
11100_Left_Dim
  6
Continuous
 62
     0
370
    -2
100
AcDbLine
 10
167.3283722453248
 20
212.8835997878324
 30
0.0
 11
167.8282222453247
 21
212.8835997878324
 31
0.0
  0
LINE
  5
3B26
330
206C
100
AcDbEntity
  8
11100_Left_Dim
  6
Continuous
 62
     0
370
    -2
100
AcDbLine
 10
172.3280722453246
 20
212.8835997878324
 30
0.0
 11
171.8282222453247
 21
212.8835997878324
 31
0.0
  0
SOLID
  5
3B27
330
206C
100
AcDbEntity
  8
11100_Left_Dim
  6
Continuous
 62
     0
100
AcDbTrace
 10
165.3283722453248
 20
213.2169331211658
 30
0.0
 11
165.3283722453248
 21
212.5502664544991
 31
0.0
 12
167.3283722453248
 22
212.8835997878324
 32
0.0
 13
167.3283722453248
 23
212.8835997878324
 33
0.0
  0
SOLID
  5
3B28
330
206C
100
AcDbEntity
  8
11100_Left_Dim
  6
Continuous
 62
     0
100
AcDbTrace
 10
174.3280722453246
 20
213.2169331211658
 30
0.0
 11
174.3280722453246
 21
212.5502664544991
 31
0.0
 12
172.3280722453246
 22
212.8835997878324
 32
0.0
 13
172.3280722453246
 23
212.8835997878324
 33
0.0
  0
MTEXT
  5
3B29
330
206C
100
AcDbEntity
  8
11100_Left_Dim
  6
Continuous
 62
     0
370
    13
100
AcDbMText
 10
169.8282222453247
 20
212.8835997878324
 30
0.0
 40
3.0
 41
0.0
 71
     5
 72
     1
  1
\A1;5
 73
     1
 44
1.0
1001
ACAD
1000
MTEXTBEGIN
1070
    73
1070
     1
1070
    44
1040
1.0
1070
    74
1070
     0
1000
MTEXTEND
  0
POINT
  5
3B2A
330
206C
100
AcDbEntity
  8
DEFPOINTS
  6
Continuous
 62
     0
100
AcDbPoint
 10
167.3283722453248
 20
193.7850026112313
 30
0.0
  0
POINT
  5
3B2B
330
206C
100
AcDbEntity
  8
DEFPOINTS
  6
Continuous
 62
     0
100
AcDbPoint
 10
172.3280722453246
 20
164.2429559055076
 30
-0.65
  0
POINT
  5
3B2C
330
206C
100
AcDbEntity
  8
DEFPOINTS
  6
Continuous
 62
     0
100
AcDbPoint
 10
172.3280722453246
 20
212.8835997878324
 30
0.0
  0
ENDBLK
  5
2077
330
206C
100
AcDbEntity
  8
0
100
AcDbBlockEnd
  0
BLOCK
  5
2083
330
2078
100
AcDbEntity
  8
0
100
AcDbBlockBegin
  2
*D3
 70
     1
 10
0.0
 20
0.0
 30
0.0
  3
*D3
  1

  0
LINE
  5
3B41
330
2078
100
AcDbEntity
  8
10100_Front_Dim
  6
Continuous
 62
     0
370
    -2
100
AcDbLine
 10
93.96288706612171
 20
202.2427239055076
 30
0.0
 11
121.7744168056636
 21
202.2427239055076
 31
0.0
  0
LINE
  5
3B42
330
2078
100
AcDbEntity
  8
10100_Front_Dim
  6
Continuous
 62
     0
370
    -2
100
AcDbLine
 10
93.96286879945662
 20
91.24272390550755
 30
0.0
 11
121.7744168056636
 21
91.24272390550755
 31
0.0
  0
LINE
  5
3B43
330
2078
100
AcDbEntity
  8
10100_Front_Dim
  6
Continuous
 62
     0
370
    -2
100
AcDbLine
 10
120.7744168056636
 20
200.2427239055076
 30
0.0
 11
120.7744168056636
 21
150.2427239055075
 31
0.0
  0
LINE
  5
3B44
330
2078
100
AcDbEntity
  8
10100_Front_Dim
  6
Continuous
 62
     0
370
    -2
100
AcDbLine
 10
120.7744168056636
 20
93.24272390550754
 30
0.0
 11
120.7744168056636
 21
143.2427239055076
 31
0.0
  0
SOLID
  5
3B45
330
2078
100
AcDbEntity
  8
10100_Front_Dim
  6
Continuous
 62
     0
100
AcDbTrace
 10
120.4410834723303
 20
200.2427239055076
 30
0.0
 11
121.1077501389969
 21
200.2427239055076
 31
0.0
 12
120.7744168056636
 22
202.2427239055076
 32
0.0
 13
120.7744168056636
 23
202.2427239055076
 33
0.0
  0
SOLID
  5
3B46
330
2078
100
AcDbEntity
  8
10100_Front_Dim
  6
Continuous
 62
     0
100
AcDbTrace
 10
120.4410834723302
 20
93.24272390550754
 30
0.0
 11
121.1077501389969
 21
93.24272390550754
 31
0.0
 12
120.7744168056636
 22
91.24272390550755
 32
0.0
 13
120.7744168056636
 23
91.24272390550755
 33
0.0
  0
MTEXT
  5
3B47
330
2078
100
AcDbEntity
  8
10100_Front_Dim
  6
Continuous
 62
     0
370
    13
100
AcDbMText
 10
120.7744168056636
 20
146.7427239055076
 30
0.0
 40
3.0
 41
0.0
 71
     5
 72
     1
  1
\A1;111
 11
0.0000000000000001
 21
1.0
 31
0.0
 73
     1
 44
1.0
1001
ACAD
1000
MTEXTBEGIN
1070
    73
1070
     1
1070
    44
1040
1.0
1070
    74
1070
     0
1000
MTEXTEND
  0
POINT
  5
3B48
330
2078
100
AcDbEntity
  8
DEFPOINTS
  6
Continuous
 62
     0
100
AcDbPoint
 10
92.96288706612171
 20
202.2427239055076
 30
5.0
  0
POINT
  5
3B49
330
2078
100
AcDbEntity
  8
DEFPOINTS
  6
Continuous
 62
     0
100
AcDbPoint
 10
92.96286879945663
 20
91.24272390550755
 30
5.0
  0
POINT
  5
3B4A
330
2078
100
AcDbEntity
  8
DEFPOINTS
  6
Continuous
 62
     0
100
AcDbPoint
 10
120.7744168056636
 20
91.24272390550755
 30
0.0
  0
ENDBLK
  5
2084
330
2078
100
AcDbEntity
  8
0
100
AcDbBlockEnd
  0
BLOCK
  5
2090
330
2085
100
AcDbEntity
  8
0
100
AcDbBlockBegin
  2
*D4
 70
     1
 10
0.0
 20
0.0
 30
0.0
  3
*D4
  1

  0
LINE
  5
3B37
330
2085
100
AcDbEntity
  8
10100_Front_Dim
  6
Continuous
 62
     0
370
    -2
100
AcDbLine
 10
101.6314530661218
 20
178.6576619055075
 30
0.0
 11
114.3673393569979
 21
178.6576619055075
 31
0.0
  0
LINE
  5
3B38
330
2085
100
AcDbEntity
  8
10100_Front_Dim
  6
Continuous
 62
     0
370
    -2
100
AcDbLine
 10
101.6314530661218
 20
114.8546619055078
 30
0.0
 11
114.3673393569979
 21
114.8546619055078
 31
0.0
  0
LINE
  5
3B39
330
2085
100
AcDbEntity
  8
10100_Front_Dim
  6
Continuous
 62
     0
370
    -2
100
AcDbLine
 10
113.3673393569979
 20
176.6576619055075
 30
0.0
 11
113.3673393569979
 21
150.2561619055076
 31
0.0
  0
LINE
  5
3B3A
330
2085
100
AcDbEntity
  8
10100_Front_Dim
  6
Continuous
 62
     0
370
    -2
100
AcDbLine
 10
113.3673393569979
 20
116.8546619055078
 30
0.0
 11
113.3673393569979
 21
143.2561619055076
 31
0.0
  0
SOLID
  5
3B3B
330
2085
100
AcDbEntity
  8
10100_Front_Dim
  6
Continuous
 62
     0
100
AcDbTrace
 10
113.0340060236646
 20
176.6576619055075
 30
0.0
 11
113.7006726903312
 21
176.6576619055075
 31
0.0
 12
113.3673393569979
 22
178.6576619055075
 32
0.0
 13
113.3673393569979
 23
178.6576619055075
 33
0.0
  0
SOLID
  5
3B3C
330
2085
100
AcDbEntity
  8
10100_Front_Dim
  6
Continuous
 62
     0
100
AcDbTrace
 10
113.0340060236646
 20
116.8546619055078
 30
0.0
 11
113.7006726903312
 21
116.8546619055078
 31
0.0
 12
113.3673393569979
 22
114.8546619055078
 32
0.0
 13
113.3673393569979
 23
114.8546619055078
 33
0.0
  0
MTEXT
  5
3B3D
330
2085
100
AcDbEntity
  8
10100_Front_Dim
  6
Continuous
 62
     0
370
    13
100
AcDbMText
 10
113.3673393569979
 20
146.7561619055076
 30
0.0
 40
3.0
 41
0.0
 71
     5
 72
     1
  1
\A1;64
 11
0.0000000000000001
 21
1.0
 31
0.0
 73
     1
 44
1.0
1001
ACAD
1000
MTEXTBEGIN
1070
    73
1070
     1
1070
    44
1040
1.0
1070
    74
1070
     0
1000
MTEXTEND
  0
POINT
  5
3B3E
330
2085
100
AcDbEntity
  8
DEFPOINTS
  6
Continuous
 62
     0
100
AcDbPoint
 10
100.6314530661218
 20
178.6576619055075
 30
0.0
  0
POINT
  5
3B3F
330
2085
100
AcDbEntity
  8
DEFPOINTS
  6
Continuous
 62
     0
100
AcDbPoint
 10
100.6314530661218
 20
114.8546619055078
 30
0.0
  0
POINT
  5
3B40
330
2085
100
AcDbEntity
  8
DEFPOINTS
  6
Continuous
 62
     0
100
AcDbPoint
 10
113.3673393569979
 20
114.8546619055078
 30
0.0
  0
ENDBLK
  5
2091
330
2085
100
AcDbEntity
  8
0
100
AcDbBlockEnd
  0
BLOCK
  5
209D
330
2092
100
AcDbEntity
  8
0
100
AcDbBlockBegin
  2
*D5
 70
     1
 10
0.0
 20
0.0
 30
0.0
  3
*D5
  1

  0
LINE
  5
3B17
330
2092
100
AcDbEntity
  8
10100_Front_Dim
  6
Continuous
 62
     0
370
    -2
100
AcDbLine
 10
60.7628870661216
 20
184.5531789055075
 30
0.0
 11
60.7628870661216
 21
222.3402446906641
 31
0.0
  0
LINE
  5
3B18
330
2092
100
AcDbEntity
  8
10100_Front_Dim
  6
Continuous
 62
     0
370
    -2
100
AcDbLine
 10
95.73138706612169
 20
184.5577449055076
 30
0.0
 11
95.73138706612169
 21
222.3402446906641
 31
0.0
  0
LINE
  5
3B19
330
2092
100
AcDbEntity
  8
10100_Front_Dim
  6
Continuous
 62
     0
370
    -2
100
AcDbLine
 10
62.76288706612159
 20
221.3402446906641
 30
0.0
 11
74.74713706612165
 21
221.3402446906641
 31
0.0
  0
LINE
  5
3B1A
330
2092
100
AcDbEntity
  8
10100_Front_Dim
  6
Continuous
 62
     0
370
    -2
100
AcDbLine
 10
93.73138706612172
 20
221.3402446906641
 30
0.0
 11
81.74713706612164
 21
221.3402446906641
 31
0.0
  0
SOLID
  5
3B1B
330
2092
100
AcDbEntity
  8
10100_Front_Dim
  6
Continuous
 62
     0
100
AcDbTrace
 10
62.76288706612159
 20
221.6735780239974
 30
0.0
 11
62.76288706612159
 21
221.0069113573307
 31
0.0
 12
60.7628870661216
 22
221.3402446906641
 32
0.0
 13
60.7628870661216
 23
221.3402446906641
 33
0.0
  0
SOLID
  5
3B1C
330
2092
100
AcDbEntity
  8
10100_Front_Dim
  6
Continuous
 62
     0
100
AcDbTrace
 10
93.73138706612172
 20
221.6735780239974
 30
0.0
 11
93.73138706612172
 21
221.0069113573307
 31
0.0
 12
95.73138706612169
 22
221.3402446906641
 32
0.0
 13
95.73138706612169
 23
221.3402446906641
 33
0.0
  0
MTEXT
  5
3B1D
330
2092
100
AcDbEntity
  8
10100_Front_Dim
  6
Continuous
 62
     0
370
    13
100
AcDbMText
 10
78.24713706612165
 20
221.3402446906641
 30
0.0
 40
3.0
 41
0.0
 71
     5
 72
     1
  1
\A1;35
 73
     1
 44
1.0
1001
ACAD
1000
MTEXTBEGIN
1070
    73
1070
     1
1070
    44
1040
1.0
1070
    74
1070
     0
1000
MTEXTEND
  0
POINT
  5
3B1E
330
2092
100
AcDbEntity
  8
DEFPOINTS
  6
Continuous
 62
     0
100
AcDbPoint
 10
60.7628870661216
 20
183.5531789055075
 30
0.0
  0
POINT
  5
3B1F
330
2092
100
AcDbEntity
  8
DEFPOINTS
  6
Continuous
 62
     0
100
AcDbPoint
 10
95.73138706612169
 20
183.5577449055076
 30
0.0
  0
POINT
  5
3B20
330
2092
100
AcDbEntity
  8
DEFPOINTS
  6
Continuous
 62
     0
100
AcDbPoint
 10
95.73138706612169
 20
221.3402446906641
 30
0.0
  0
ENDBLK
  5
209E
330
2092
100
AcDbEntity
  8
0
100
AcDbBlockEnd
  0
BLOCK
  5
20AA
330
209F
100
AcDbEntity
  8
0
100
AcDbBlockBegin
  2
*D6
 70
     1
 10
0.0
 20
0.0
 30
0.0
  3
*D6
  1

  0
LINE
  5
3B0D
330
209F
100
AcDbEntity
  8
10100_Front_Dim
  6
Continuous
 62
     0
370
    -2
100
AcDbLine
 10
69.5095030677221
 20
199.5313525750678
 30
0.0
 11
69.5095030677221
 21
215.482034166682
 31
0.0
  0
LINE
  5
3B0E
330
209F
100
AcDbEntity
  8
10100_Front_Dim
  6
Continuous
 62
     0
370
    -2
100
AcDbLine
 10
86.98488436427117
 20
199.531239605831
 30
0.0
 11
86.98488436427117
 21
215.482034166682
 31
0.0
  0
LINE
  5
3B0F
330
209F
100
AcDbEntity
  8
10100_Front_Dim
  6
Continuous
 62
     0
370
    -2
100
AcDbLine
 10
71.50950306772211
 20
214.482034166682
 30
0.0
 11
75.2471515661216
 21
214.482034166682
 31
0.0
  0
LINE
  5
3B10
330
209F
100
AcDbEntity
  8
10100_Front_Dim
  6
Continuous
 62
     0
370
    -2
100
AcDbLine
 10
84.98488436427114
 20
214.482034166682
 30
0.0
 11
81.24715156612159
 21
214.482034166682
 31
0.0
  0
SOLID
  5
3B11
330
209F
100
AcDbEntity
  8
10100_Front_Dim
  6
Continuous
 62
     0
100
AcDbTrace
 10
71.50950306772211
 20
214.8153675000154
 30
0.0
 11
71.50950306772211
 21
214.1487008333487
 31
0.0
 12
69.5095030677221
 22
214.482034166682
 32
0.0
 13
69.5095030677221
 23
214.482034166682
 33
0.0
  0
SOLID
  5
3B12
330
209F
100
AcDbEntity
  8
10100_Front_Dim
  6
Continuous
 62
     0
100
AcDbTrace
 10
84.98488436427114
 20
214.8153675000154
 30
0.0
 11
84.98488436427114
 21
214.1487008333487
 31
0.0
 12
86.98488436427117
 22
214.482034166682
 32
0.0
 13
86.98488436427117
 23
214.482034166682
 33
0.0
  0
MTEXT
  5
3B13
330
209F
100
AcDbEntity
  8
10100_Front_Dim
  6
Continuous
 62
     0
370
    13
100
AcDbMText
 10
78.2471515661216
 20
214.482034166682
 30
0.0
 40
3.0
 41
0.0
 71
     5
 72
     1
  1
\A1;17
 73
     1
 44
1.0
1001
ACAD
1000
MTEXTBEGIN
1070
    73
1070
     1
1070
    44
1040
1.0
1070
    74
1070
     0
1000
MTEXTEND
  0
POINT
  5
3B14
330
209F
100
AcDbEntity
  8
DEFPOINTS
  6
Continuous
 62
     0
100
AcDbPoint
 10
69.5095030677221
 20
198.5313525750678
 30
0.0
  0
POINT
  5
3B15
330
209F
100
AcDbEntity
  8
DEFPOINTS
  6
Continuous
 62
     0
100
AcDbPoint
 10
86.98488436427117
 20
198.531239605831
 30
0.0
  0
POINT
  5
3B16
330
209F
100
AcDbEntity
  8
DEFPOINTS
  6
Continuous
 62
     0
100
AcDbPoint
 10
86.98488436427117
 20
214.482034166682
 30
0.0
  0
ENDBLK
  5
20AB
330
209F
100
AcDbEntity
  8
0
100
AcDbBlockEnd
  0
BLOCK
  5
20B7
330
20AC
100
AcDbEntity
  8
0
100
AcDbBlockBegin
  2
*D7
 70
     1
 10
0.0
 20
0.0
 30
0.0
  3
*D7
  1

  0
LINE
  5
3B03
330
20AC
100
AcDbEntity
  8
10100_Front_Dim
  6
Continuous
 62
     0
370
    -2
100
AcDbLine
 10
50.7628870661216
 20
198.7427239055075
 30
0.0
 11
50.7628870661216
 21
230.2023858132258
 31
0.0
  0
LINE
  5
3B04
330
20AC
100
AcDbEntity
  8
10100_Front_Dim
  6
Continuous
 62
     0
370
    -2
100
AcDbLine
 10
105.7628870661216
 20
198.7427239055075
 30
0.0
 11
105.7628870661216
 21
230.2023858132258
 31
0.0
  0
LINE
  5
3B05
330
20AC
100
AcDbEntity
  8
10100_Front_Dim
  6
Continuous
 62
     0
370
    -2
100
AcDbLine
 10
52.76288706612159
 20
229.2023858132258
 30
0.0
 11
74.76288706612159
 21
229.2023858132258
 31
0.0
  0
LINE
  5
3B06
330
20AC
100
AcDbEntity
  8
10100_Front_Dim
  6
Continuous
 62
     0
370
    -2
100
AcDbLine
 10
103.7628870661216
 20
229.2023858132258
 30
0.0
 11
81.7628870661216
 21
229.2023858132258
 31
0.0
  0
SOLID
  5
3B07
330
20AC
100
AcDbEntity
  8
10100_Front_Dim
  6
Continuous
 62
     0
100
AcDbTrace
 10
52.76288706612159
 20
229.5357191465591
 30
0.0
 11
52.76288706612159
 21
228.8690524798925
 31
0.0
 12
50.7628870661216
 22
229.2023858132258
 32
0.0
 13
50.7628870661216
 23
229.2023858132258
 33
0.0
  0
SOLID
  5
3B08
330
20AC
100
AcDbEntity
  8
10100_Front_Dim
  6
Continuous
 62
     0
100
AcDbTrace
 10
103.7628870661216
 20
229.5357191465591
 30
0.0
 11
103.7628870661216
 21
228.8690524798925
 31
0.0
 12
105.7628870661216
 22
229.2023858132258
 32
0.0
 13
105.7628870661216
 23
229.2023858132258
 33
0.0
  0
MTEXT
  5
3B09
330
20AC
100
AcDbEntity
  8
10100_Front_Dim
  6
Continuous
 62
     0
370
    13
100
AcDbMText
 10
78.26288706612159
 20
229.2023858132258
 30
0.0
 40
3.0
 41
0.0
 71
     5
 72
     1
  1
\A1;55
 73
     1
 44
1.0
1001
ACAD
1000
MTEXTBEGIN
1070
    73
1070
     1
1070
    44
1040
1.0
1070
    74
1070
     0
1000
MTEXTEND
  0
POINT
  5
3B0A
330
20AC
100
AcDbEntity
  8
DEFPOINTS
  6
Continuous
 62
     0
100
AcDbPoint
 10
50.7628870661216
 20
197.7427239055075
 30
0.0
  0
POINT
  5
3B0B
330
20AC
100
AcDbEntity
  8
DEFPOINTS
  6
Continuous
 62
     0
100
AcDbPoint
 10
105.7628870661216
 20
197.7427239055075
 30
0.0
  0
POINT
  5
3B0C
330
20AC
100
AcDbEntity
  8
DEFPOINTS
  6
Continuous
 62
     0
100
AcDbPoint
 10
105.7628870661216
 20
229.2023858132258
 30
0.0
  0
ENDBLK
  5
20B8
330
20AC
100
AcDbEntity
  8
0
100
AcDbBlockEnd
  0
BLOCK
  5
3752
330
3745
100
AcDbEntity
  8
0
100
AcDbBlockBegin
  2
*D8
 70
     1
 10
0.0
 20
0.0
 30
0.0
  3
*D8
  1

  0
LINE
  5
3B5F
330
3745
100
AcDbEntity
  8
30100_Drilling_DIM
  6
Continuous
 62
     0
370
    -2
100
AcDbLine
 10
377.9738775139305
 20
193.2426619055077
 30
0.0
 11
377.9738775139305
 21
181.1384211601131
 31
0.0
  0
LINE
  5
3B60
330
3745
100
AcDbEntity
  8
30100_Drilling_DIM
  6
Continuous
 62
     0
370
    -2
100
AcDbLine
 10
382.9738775139305
 20
193.2426619055077
 30
0.0
 11
382.9738775139305
 21
181.1384211601131
 31
0.0
  0
LINE
  5
3B61
330
3745
100
AcDbEntity
  8
30100_Drilling_DIM
  6
Continuous
 62
     0
370
    -2
100
AcDbLine
 10
375.9738775139305
 20
182.1384211601131
 30
0.0
 11
373.9738775139305
 21
182.1384211601131
 31
0.0
  0
LINE
  5
3B62
330
3745
100
AcDbEntity
  8
30100_Drilling_DIM
  6
Continuous
 62
     0
370
    -2
100
AcDbLine
 10
384.9738775139305
 20
182.1384211601131
 30
0.0
 11
386.9738775139305
 21
182.1384211601131
 31
0.0
  0
LINE
  5
3B63
330
3745
100
AcDbEntity
  8
30100_Drilling_DIM
  6
Continuous
 62
     0
370
    -2
100
AcDbLine
 10
377.9738775139305
 20
182.1384211601131
 30
0.0
 11
378.4738775139305
 21
182.1384211601131
 31
0.0
  0
LINE
  5
3B64
330
3745
100
AcDbEntity
  8
30100_Drilling_DIM
  6
Continuous
 62
     0
370
    -2
100
AcDbLine
 10
382.9738775139305
 20
182.1384211601131
 30
0.0
 11
382.4738775139305
 21
182.1384211601131
 31
0.0
  0
SOLID
  5
3B65
330
3745
100
AcDbEntity
  8
30100_Drilling_DIM
  6
Continuous
 62
     0
100
AcDbTrace
 10
375.9738775139305
 20
182.4717544934464
 30
0.0
 11
375.9738775139305
 21
181.8050878267795
 31
0.0
 12
377.9738775139305
 22
182.1384211601131
 32
0.0
 13
377.9738775139305
 23
182.1384211601131
 33
0.0
  0
SOLID
  5
3B66
330
3745
100
AcDbEntity
  8
30100_Drilling_DIM
  6
Continuous
 62
     0
100
AcDbTrace
 10
384.9738775139305
 20
182.4717544934464
 30
0.0
 11
384.9738775139305
 21
181.8050878267795
 31
0.0
 12
382.9738775139305
 22
182.1384211601131
 32
0.0
 13
382.9738775139305
 23
182.1384211601131
 33
0.0
  0
MTEXT
  5
3B67
330
3745
100
AcDbEntity
  8
30100_Drilling_DIM
  6
Continuous
 62
     0
370
    13
100
AcDbMText
 10
380.4738775139305
 20
182.1384211601131
 30
0.0
 40
3.0
 41
0.0
 71
     5
 72
     1
  1
\A1;5
 73
     1
 44
1.0
1001
ACAD
1000
MTEXTBEGIN
1070
    73
1070
     1
1070
    44
1040
1.0
1070
    74
1070
     0
1000
MTEXTEND
  0
POINT
  5
3B68
330
3745
100
AcDbEntity
  8
DEFPOINTS
  6
Continuous
 62
     0
100
AcDbPoint
 10
377.9738775139305
 20
194.2426619055077
 30
0.0
  0
POINT
  5
3B69
330
3745
100
AcDbEntity
  8
DEFPOINTS
  6
Continuous
 62
     0
100
AcDbPoint
 10
382.9738775139305
 20
194.2426619055077
 30
0.0
  0
POINT
  5
3B6A
330
3745
100
AcDbEntity
  8
DEFPOINTS
  6
Continuous
 62
     0
100
AcDbPoint
 10
382.9738775139305
 20
182.1384211601131
 30
0.0
  0
ENDBLK
  5
3753
330
3745
100
AcDbEntity
  8
0
100
AcDbBlockEnd
  0
BLOCK
  5
375F
330
3754
100
AcDbEntity
  8
0
100
AcDbBlockBegin
  2
*D9
 70
     1
 10
0.0
 20
0.0
 30
0.0
  3
*D9
  1

  0
LINE
  5
3B55
330
3754
100
AcDbEntity
  8
30100_Drilling_DIM
  6
Continuous
 62
     0
370
    -2
100
AcDbLine
 10
335.4733775139305
 20
103.2425019055077
 30
0.0
 11
335.4733775139305
 21
205.6478322882796
 31
0.0
  0
LINE
  5
3B56
330
3754
100
AcDbEntity
  8
30100_Drilling_DIM
  6
Continuous
 62
     0
370
    -2
100
AcDbLine
 10
380.4738775139305
 20
197.6426619055078
 30
0.0
 11
380.4738775139305
 21
205.6478322882796
 31
0.0
  0
LINE
  5
3B57
330
3754
100
AcDbEntity
  8
30100_Drilling_DIM
  6
Continuous
 62
     0
370
    -2
100
AcDbLine
 10
337.4733775139305
 20
204.6478322882796
 30
0.0
 11
354.4736275139305
 21
204.6478322882796
 31
0.0
  0
LINE
  5
3B58
330
3754
100
AcDbEntity
  8
30100_Drilling_DIM
  6
Continuous
 62
     0
370
    -2
100
AcDbLine
 10
378.4738775139305
 20
204.6478322882796
 30
0.0
 11
361.4736275139305
 21
204.6478322882796
 31
0.0
  0
SOLID
  5
3B59
330
3754
100
AcDbEntity
  8
30100_Drilling_DIM
  6
Continuous
 62
     0
100
AcDbTrace
 10
337.4733775139305
 20
204.9811656216129
 30
0.0
 11
337.4733775139305
 21
204.3144989549463
 31
0.0
 12
335.4733775139305
 22
204.6478322882796
 32
0.0
 13
335.4733775139305
 23
204.6478322882796
 33
0.0
  0
SOLID
  5
3B5A
330
3754
100
AcDbEntity
  8
30100_Drilling_DIM
  6
Continuous
 62
     0
100
AcDbTrace
 10
378.4738775139305
 20
204.9811656216129
 30
0.0
 11
378.4738775139305
 21
204.3144989549463
 31
0.0
 12
380.4738775139305
 22
204.6478322882796
 32
0.0
 13
380.4738775139305
 23
204.6478322882796
 33
0.0
  0
MTEXT
  5
3B5B
330
3754
100
AcDbEntity
  8
30100_Drilling_DIM
  6
Continuous
 62
     0
370
    13
100
AcDbMText
 10
357.9736275139305
 20
204.6478322882796
 30
0.0
 40
3.0
 41
0.0
 71
     5
 72
     1
  1
\A1;45
 73
     1
 44
1.0
1001
ACAD
1000
MTEXTBEGIN
1070
    73
1070
     1
1070
    44
1040
1.0
1070
    74
1070
     0
1000
MTEXTEND
  0
POINT
  5
3B5C
330
3754
100
AcDbEntity
  8
DEFPOINTS
  6
Continuous
 62
     0
100
AcDbPoint
 10
335.4733775139305
 20
102.2425019055077
 30
0.0
  0
POINT
  5
3B5D
330
3754
100
AcDbEntity
  8
DEFPOINTS
  6
Continuous
 62
     0
100
AcDbPoint
 10
380.4738775139305
 20
196.6426619055078
 30
0.0
  0
POINT
  5
3B5E
330
3754
100
AcDbEntity
  8
DEFPOINTS
  6
Continuous
 62
     0
100
AcDbPoint
 10
380.4738775139305
 20
204.6478322882796
 30
0.0
  0
ENDBLK
  5
3760
330
3754
100
AcDbEntity
  8
0
100
AcDbBlockEnd
  0
BLOCK
  5
376C
330
3761
100
AcDbEntity
  8
0
100
AcDbBlockBegin
  2
*D10
 70
     1
 10
0.0
 20
0.0
 30
0.0
  3
*D10
  1

  0
LINE
  5
3B4B
330
3761
100
AcDbEntity
  8
30100_Drilling_DIM
  6
Continuous
 62
     0
370
    -2
100
AcDbLine
 10
331.9733775139305
 20
99.74250190550772
 30
0.0
 11
325.1497977927726
 21
99.74250190550772
 31
0.0
  0
LINE
  5
3B4C
330
3761
100
AcDbEntity
  8
30100_Drilling_DIM
  6
Continuous
 62
     0
370
    -2
100
AcDbLine
 10
377.0738775139306
 20
194.2426619055077
 30
0.0
 11
325.1497977927727
 21
194.2426619055077
 31
0.0
  0
LINE
  5
3B4D
330
3761
100
AcDbEntity
  8
30100_Drilling_DIM
  6
Continuous
 62
     0
370
    -2
100
AcDbLine
 10
326.1497977927726
 20
101.7425019055077
 30
0.0
 11
326.1497977927727
 21
143.4925819055077
 31
0.0
  0
LINE
  5
3B4E
330
3761
100
AcDbEntity
  8
30100_Drilling_DIM
  6
Continuous
 62
     0
370
    -2
100
AcDbLine
 10
326.1497977927727
 20
192.2426619055077
 30
0.0
 11
326.1497977927727
 21
150.4925819055076
 31
0.0
  0
MTEXT
  5
3B4F
330
3761
100
AcDbEntity
  8
30100_Drilling_DIM
  6
Continuous
 62
     0
370
    13
100
AcDbMText
 10
326.1497977927727
 20
146.9925819055078
 30
0.0
 40
3.0
 41
0.0
 71
     5
 72
     1
  1
\A1;95
 11
0.0000000000000001
 21
1.0
 31
0.0
 73
     1
 44
1.0
1001
ACAD
1000
MTEXTBEGIN
1070
    73
1070
     1
1070
    44
1040
1.0
1070
    74
1070
     0
1000
MTEXTEND
  0
SOLID
  5
3B50
330
3761
100
AcDbEntity
  8
30100_Drilling_DIM
  6
Continuous
 62
     0
100
AcDbTrace
 10
325.8164644594393
 20
101.7425019055077
 30
0.0
 11
326.483131126106
 21
101.7425019055077
 31
0.0
 12
326.1497977927726
 22
99.74250190550772
 32
0.0
 13
326.1497977927726
 23
99.74250190550772
 33
0.0
  0
SOLID
  5
3B51
330
3761
100
AcDbEntity
  8
30100_Drilling_DIM
  6
Continuous
 62
     0
100
AcDbTrace
 10
325.8164644594394
 20
192.2426619055077
 30
0.0
 11
326.483131126106
 21
192.2426619055077
 31
0.0
 12
326.1497977927727
 22
194.2426619055077
 32
0.0
 13
326.1497977927727
 23
194.2426619055077
 33
0.0
  0
POINT
  5
3B52
330
3761
100
AcDbEntity
  8
DEFPOINTS
  6
Continuous
 62
     0
100
AcDbPoint
 10
332.9733775139305
 20
99.74250190550772
 30
0.0
  0
POINT
  5
3B53
330
3761
100
AcDbEntity
  8
DEFPOINTS
  6
Continuous
 62
     0
100
AcDbPoint
 10
378.0738775139306
 20
194.2426619055077
 30
0.0
  0
POINT
  5
3B54
330
3761
100
AcDbEntity
  8
DEFPOINTS
  6
Continuous
 62
     0
100
AcDbPoint
 10
326.1497977927727
 20
194.2426619055077
 30
0.0
  0
ENDBLK
  5
376D
330
3761
100
AcDbEntity
  8
0
100
AcDbBlockEnd
  0
BLOCK
  5
390D
330
3902
100
AcDbEntity
  8
0
100
AcDbBlockBegin
  2
*D11
 70
     1
 10
0.0
 20
0.0
 30
0.0
  3
*D11
  1

  0
LINE
  5
3AF9
330
3902
100
AcDbEntity
  8
11100_Left_Dim
  6
Continuous
 62
     0
370
    -2
100
AcDbLine
 10
172.3283722453248
 20
165.2426619055075
 30
0.0
 11
172.3283722453248
 21
213.8835997878324
 31
0.0
  0
LINE
  5
3AFA
330
3902
100
AcDbEntity
  8
11100_Left_Dim
  6
Continuous
 62
     0
370
    -2
100
AcDbLine
 10
236.3283722453249
 20
190.2426619055077
 30
0.0
 11
236.3283722453249
 21
213.8835997878324
 31
0.0
  0
LINE
  5
3AFB
330
3902
100
AcDbEntity
  8
11100_Left_Dim
  6
Continuous
 62
     0
370
    -2
100
AcDbLine
 10
174.3283722453248
 20
212.8835997878324
 30
0.0
 11
200.8283722453248
 21
212.8835997878324
 31
0.0
  0
LINE
  5
3AFC
330
3902
100
AcDbEntity
  8
11100_Left_Dim
  6
Continuous
 62
     0
370
    -2
100
AcDbLine
 10
234.3283722453249
 20
212.8835997878324
 30
0.0
 11
207.8283722453248
 21
212.8835997878324
 31
0.0
  0
SOLID
  5
3AFD
330
3902
100
AcDbEntity
  8
11100_Left_Dim
  6
Continuous
 62
     0
100
AcDbTrace
 10
174.3283722453248
 20
213.2169331211658
 30
0.0
 11
174.3283722453248
 21
212.5502664544991
 31
0.0
 12
172.3283722453248
 22
212.8835997878324
 32
0.0
 13
172.3283722453248
 23
212.8835997878324
 33
0.0
  0
SOLID
  5
3AFE
330
3902
100
AcDbEntity
  8
11100_Left_Dim
  6
Continuous
 62
     0
100
AcDbTrace
 10
234.3283722453249
 20
213.2169331211658
 30
0.0
 11
234.3283722453249
 21
212.5502664544991
 31
0.0
 12
236.3283722453249
 22
212.8835997878324
 32
0.0
 13
236.3283722453249
 23
212.8835997878324
 33
0.0
  0
MTEXT
  5
3AFF
330
3902
100
AcDbEntity
  8
11100_Left_Dim
  6
Continuous
 62
     0
370
    13
100
AcDbMText
 10
204.3283722453248
 20
212.8835997878324
 30
0.0
 40
3.0
 41
0.0
 71
     5
 72
     1
  1
\A1;64
 73
     1
 44
1.0
1001
ACAD
1000
MTEXTBEGIN
1070
    73
1070
     1
1070
    44
1040
1.0
1070
    74
1070
     0
1000
MTEXTEND
  0
POINT
  5
3B00
330
3902
100
AcDbEntity
  8
DEFPOINTS
  6
Continuous
 62
     0
100
AcDbPoint
 10
172.3283722453248
 20
164.2426619055076
 30
0.0
  0
POINT
  5
3B01
330
3902
100
AcDbEntity
  8
DEFPOINTS
  6
Continuous
 62
     0
100
AcDbPoint
 10
236.3283722453249
 20
189.2426619055077
 30
0.0
  0
POINT
  5
3B02
330
3902
100
AcDbEntity
  8
DEFPOINTS
  6
Continuous
 62
     0
100
AcDbPoint
 10
236.3283722453249
 20
212.8835997878324
 30
0.0
  0
ENDBLK
  5
390E
330
3902
100
AcDbEntity
  8
0
100
AcDbBlockEnd
  0
ENDSEC
  0
SECTION
  2
ENTITIES
  0
INSERT
  5
AA
330
20
100
AcDbEntity
  8
90000_Frame
  6
Continuous
 62
     7
100
AcDbBlockReference
  2
SIEMENS_OUTLINE_BL0
 10
0.0
 20
0.0
 30
0.0
  0
LINE
  5
AB
330
20
100
AcDbEntity
  8
90000_Frame
  6
Continuous
 62
     7
100
AcDbLine
 10
275.0
 20
10.0
 30
0.0
 11
410.0
 21
10.0
 31
0.0
  0
LINE
  5
AC
330
20
100
AcDbEntity
  8
90000_Frame
  6
Continuous
 62
     7
100
AcDbLine
 10
275.0
 20
10.0
 30
0.0
 11
275.0
 21
28.0
 31
0.0
  0
LINE
  5
AD
330
20
100
AcDbEntity
  8
90000_Frame
  6
Continuous
 62
     7
100
AcDbLine
 10
325.0
 20
16.0
 30
0.0
 11
410.0
 21
16.0
 31
0.0
  0
LINE
  5
AE
330
20
100
AcDbEntity
  8
90000_Frame
  6
Continuous
 62
     7
100
AcDbLine
 10
275.0
 20
28.0
 30
0.0
 11
410.0
 21
28.0
 31
0.0
  0
LINE
  5
AF
330
20
100
AcDbEntity
  8
90000_Frame
  6
Continuous
 62
     7
100
AcDbLine
 10
325.0
 20
10.0
 30
0.0
 11
325.0
 21
28.0
 31
0.0
  0
LINE
  5
B0
330
20
100
AcDbEntity
  8
90000_Frame
  6
Continuous
 62
     7
100
AcDbLine
 10
367.5
 20
10.0
 30
0.0
 11
367.5
 21
16.0
 31
0.0
  0
LINE
  5
B1
330
20
100
AcDbEntity
  8
90000_Frame
  6
Continuous
 62
     7
100
AcDbLine
 10
410.0
 20
10.0
 30
0.0
 11
410.0
 21
28.0
 31
0.0
  0
TEXT
  5
B2
330
20
100
AcDbEntity
  8
90000_Frame
  6
Continuous
 62
     7
100
AcDbText
 10
325.66
 20
11.9
 30
0.0
 40
2.2
  1
Format / Size: DIN A3
 41
0.7994987468660284
 72
     5
 11
359.079047619
 21
11.9
 31
0.0
100
AcDbText
  0
TEXT
  5
B3
330
20
100
AcDbEntity
  8
90000_Frame
  6
Continuous
 62
     7
100
AcDbText
 10
368.16
 20
11.9
 30
0.0
 40
2.2
  1
Massstab / Scale: 1:1
 41
0.7732634338148471
 72
     5
 11
399.0647619048001
 21
11.9
 31
0.0
100
AcDbText
  0
TEXT
  5
B4
330
20
100
AcDbEntity
  8
90000_Frame
  6
Continuous
 62
     7
100
AcDbText
 10
332.8687290768514
 20
20.25
 30
0.0
 40
3.5
  1
3RT103__00000106_000_ALL
 41
0.9358763214845183
 72
     5
 11
402.747494414362
 21
20.25
 31
0.0
100
AcDbText
  0
LINE
  5
B7
330
20
100
AcDbEntity
  8
90000_Frame
  6
Continuous
 62
     7
100
AcDbLine
 10
10.0
 20
0.0
 30
0.0
 11
420.0
 21
0.0
 31
0.0
  0
LINE
  5
B9
330
20
100
AcDbEntity
  8
90000_Frame
  6
Continuous
 62
     7
100
AcDbLine
 10
420.0
 20
0.0
 30
0.0
 11
420.0
 21
270.0
 31
0.0
  0
LINE
  5
579
330
20
100
AcDbEntity
  8
91000_TIP
  6
Continuous
 62
     7
100
AcDbLine
 10
247.4563071792281
 20
21.48959916975296
 30
0.0
 11
257.4563069750281
 21
23.98959911875299
 31
0.0
  0
LINE
  5
57A
330
20
100
AcDbEntity
  8
91000_TIP
  6
CENTER
 62
     7
100
AcDbLine
 10
246.1767967072281
 20
18.98959922085298
 30
0.0
 11
269.7787859713281
 21
18.98959922085298
 31
0.0
  0
LINE
  5
57B
330
20
100
AcDbEntity
  8
91000_TIP
  6
Continuous
 62
     7
100
AcDbLine
 10
247.4563071792281
 20
16.48959927195296
 30
0.0
 11
257.4563069750281
 21
13.98959932295296
 31
0.0
  0
LINE
  5
57C
330
20
100
AcDbEntity
  8
91000_TIP
  6
Continuous
 62
     7
100
AcDbLine
 10
247.4563071792281
 20
21.48959916975296
 30
0.0
 11
247.4563071792281
 21
16.48959927195296
 31
0.0
  0
LINE
  5
57D
330
20
100
AcDbEntity
  8
91000_TIP
  6
Continuous
 62
     7
100
AcDbLine
 10
257.4563069750281
 20
23.98959911875299
 30
0.0
 11
257.4563069750281
 21
13.98959932295296
 31
0.0
  0
LINE
  5
57E
330
20
100
AcDbEntity
  8
91000_TIP
  6
CENTER
 62
     7
100
AcDbLine
 10
263.9563068422281
 20
13.26811801445298
 30
0.0
 11
263.9563068422281
 21
24.55150401445298
 31
0.0
  0
CIRCLE
  5
57F
330
20
100
AcDbEntity
  8
91000_TIP
  6
Continuous
 62
     7
100
AcDbCircle
 10
263.9563068422281
 20
18.98959922085298
 30
0.0
 40
4.9999998979
  0
CIRCLE
  5
580
330
20
100
AcDbEntity
  8
91000_TIP
  6
Continuous
 62
     7
100
AcDbCircle
 10
263.9563068422281
 20
18.98959922085298
 30
0.0
 40
2.499999948899997
  0
LINE
  5
19C4
330
20
100
AcDbEntity
  8
11000_Left
  6
Continuous
 62
     7
370
    13
100
AcDbLine
 39
0.5
 10
207.3283722453249
 20
113.7426619055076
 30
0.0
 11
221.3283722453248
 21
113.7426619055076
 31
0.0
1001
AUSTER_ANSICHT
1002
{
1000
Det03
1002
}
1001
AUSTER_FOLIE
1002
{
1000
GERAEUSCHARMES_S2_CC
1000
BAHNSCHUETZ_ANSTEUERBAU_S2_CC
1002
}
  0
LINE
  5
19C5
330
20
100
AcDbEntity
  8
11000_Left
  6
Continuous
370
    13
100
AcDbLine
 39
0.5
 10
207.3283722453249
 20
199.2426619055077
 30
0.0
 11
217.2283722453247
 21
199.2426619055077
 31
0.0
1001
AUSTER_ANSICHT
1002
{
1000
Det03
1002
}
1001
AUSTER_FOLIE
1002
{
1000
GERAEUSCHARMES_S2_CC
1000
BAHNSCHUETZ_ANSTEUERBAU_S2_CC
1002
}
  0
LINE
  5
19C6
330
20
100
AcDbEntity
  8
11000_Left
  6
Continuous
370
    13
100
AcDbLine
 39
0.5
 10
207.3283722453248
 20
94.2426659055077
 30
0.0
 11
221.2283722453247
 21
94.24267190550743
 31
0.0
1001
AUSTER_ANSICHT
1002
{
1000
Det03
1002
}
1001
AUSTER_FOLIE
1002
{
1000
GERAEUSCHARMES_S2_CC
1000
BAHNSCHUETZ_ANSTEUERBAU_S2_CC
1002
}
  0
LINE
  5
19C7
330
20
100
AcDbEntity
  8
11000_Left
  6
Continuous
 62
     7
370
    13
100
AcDbLine
 39
0.5
 10
207.3283722453249
 20
94.24267190550743
 30
0.0
 11
207.3283722453249
 21
109.2426619055076
 31
0.0
1001
AUSTER_ANSICHT
1002
{
1000
Det03
1002
}
1001
AUSTER_FOLIE
1002
{
1000
GERAEUSCHARMES_S2_CC
1000
BAHNSCHUETZ_ANSTEUERBAU_S2_CC
1002
}
  0
LINE
  5
19C8
330
20
100
AcDbEntity
  8
11000_Left
  6
Continuous
370
    13
100
AcDbLine
 39
0.5
 10
167.3283722453247
 20
128.1280619055076
 30
0.0
 11
167.3283722453247
 21
126.9219619055076
 31
0.0
1001
AUSTER_ANSICHT
1002
{
1000
Det03
1002
}
1001
AUSTER_FOLIE
1002
{
1000
GERAEUSCHARMES_S2_CC
1000
BAHNSCHUETZ_ANSTEUERBAU_S2_CC
1002
}
  0
ARC
  5
19C9
330
20
100
AcDbEntity
  8
11000_Left
  6
Continuous
370
    50
100
AcDbCircle
 39
0.5
 10
167.7283722453248
 20
94.64267190550776
 30
0.0
 40
0.4
100
AcDbArc
 50
180.0
 51
270.0
1001
AUSTER_ANSICHT
1002
{
1000
Det03
1002
}
1001
AUSTER_FOLIE
1002
{
1000
GERAEUSCHARMES_S2_CC
1000
BAHNSCHUETZ_ANSTEUERBAU_S2_CC
1002
}
  0
LINE
  5
19CA
330
20
100
AcDbEntity
  8
11000_Left
  6
Continuous
370
    50
100
AcDbLine
 39
0.5
 10
167.7283722453248
 20
94.24267190550743
 30
0.0
 11
207.3283722453249
 21
94.24267190550743
 31
0.0
1001
AUSTER_ANSICHT
1002
{
1000
Det03
1002
}
1001
AUSTER_FOLIE
1002
{
1000
GERAEUSCHARMES_S2_CC
1000
BAHNSCHUETZ_ANSTEUERBAU_S2_CC
1002
}
  0
LINE
  5
19CB
330
20
100
AcDbEntity
  8
11000_Left
  6
Continuous
370
    13
100
AcDbLine
 39
0.5
 10
207.3283722453249
 20
94.24267190550743
 30
0.0
 11
207.3283722453249
 21
94.64267190550776
 31
0.0
1001
AUSTER_ANSICHT
1002
{
1000
Det03
1002
}
1001
AUSTER_FOLIE
1002
{
1000
GERAEUSCHARMES_S2_CC
1000
BAHNSCHUETZ_ANSTEUERBAU_S2_CC
1002
}
  0
ARC
  5
19CC
330
20
100
AcDbEntity
  8
11000_Left
  6
Continuous
370
    50
100
AcDbCircle
 39
0.5
 10
168.6563722453247
 20
198.8426619055077
 30
0.0
 40
0.4
100
AcDbArc
 50
90.0
 51
168.690099999999
1001
AUSTER_ANSICHT
1002
{
1000
Det03
1002
}
1001
AUSTER_FOLIE
1002
{
1000
GERAEUSCHARMES_S2_CC
1000
BAHNSCHUETZ_ANSTEUERBAU_S2_CC
1002
}
  0
LINE
  5
19CD
330
20
100
AcDbEntity
  8
11000_Left
  6
Continuous
370
    50
100
AcDbLine
 39
0.5
 10
168.6563722453247
 20
199.2426619055077
 30
0.0
 11
175.3283722453246
 21
199.2426619055077
 31
0.0
1001
AUSTER_ANSICHT
1002
{
1000
Det03
1002
}
1001
AUSTER_FOLIE
1002
{
1000
GERAEUSCHARMES_S2_CC
1000
BAHNSCHUETZ_ANSTEUERBAU_S2_CC
1002
}
  0
LINE
  5
19CE
330
20
100
AcDbEntity
  8
11000_Left
  6
Continuous
370
    50
100
AcDbLine
 39
0.5
 10
195.3283722453248
 20
199.2426619055077
 30
0.0
 11
207.3283722453249
 21
199.2426619055077
 31
0.0
1001
AUSTER_ANSICHT
1002
{
1000
Det03
1002
}
1001
AUSTER_FOLIE
1002
{
1000
GERAEUSCHARMES_S2_CC
1000
BAHNSCHUETZ_ANSTEUERBAU_S2_CC
1002
}
  0
LINE
  5
19CF
330
20
100
AcDbEntity
  8
11000_Left
  6
Continuous
 62
     7
370
    13
100
AcDbLine
 39
0.5
 10
207.3283722453249
 20
197.7426619055077
 30
0.0
 11
207.3283722453249
 21
199.2426619055077
 31
0.0
1001
AUSTER_ANSICHT
1002
{
1000
Det03
1002
}
1001
AUSTER_FOLIE
1002
{
1000
GERAEUSCHARMES_S2_CC
1000
BAHNSCHUETZ_ANSTEUERBAU_S2_CC
1002
}
  0
LINE
  5
19D0
330
20
100
AcDbEntity
  8
11000_Left
  6
Continuous
 62
     7
370
    13
100
AcDbLine
 39
0.5
 10
188.6283722453246
 20
116.2426619055077
 30
0.0
 11
170.1283722453245
 21
116.2426619055077
 31
0.0
1001
AUSTER_ANSICHT
1002
{
1000
Det03
1002
}
1001
AUSTER_FOLIE
1002
{
1000
GERAEUSCHARMES_S2_CC
1000
BAHNSCHUETZ_ANSTEUERBAU_S2_CC
1002
}
  0
LINE
  5
19D1
330
20
100
AcDbEntity
  8
11000_Left
  6
Continuous
 62
     7
370
    13
100
AcDbLine
 39
0.5
 10
188.6283722453246
 20
118.2426619055076
 30
0.0
 11
188.6283722453246
 21
116.2426619055077
 31
0.0
1001
AUSTER_ANSICHT
1002
{
1000
Det03
1002
}
1001
AUSTER_FOLIE
1002
{
1000
GERAEUSCHARMES_S2_CC
1000
BAHNSCHUETZ_ANSTEUERBAU_S2_CC
1002
}
  0
LINE
  5
19D2
330
20
100
AcDbEntity
  8
11000_Left
  6
Continuous
 62
     7
370
    13
100
AcDbLine
 39
0.5
 10
170.1283722453245
 20
118.2426619055076
 30
0.0
 11
188.6283722453246
 21
118.2426619055076
 31
0.0
1001
AUSTER_ANSICHT
1002
{
1000
Det03
1002
}
1001
AUSTER_FOLIE
1002
{
1000
GERAEUSCHARMES_S2_CC
1000
BAHNSCHUETZ_ANSTEUERBAU_S2_CC
1002
}
  0
LINE
  5
19D3
330
20
100
AcDbEntity
  8
11000_Left
  6
Continuous
 62
     7
370
    13
100
AcDbLine
 39
0.5
 10
188.6283722453246
 20
175.2426619055077
 30
0.0
 11
170.1283722453245
 21
175.2426619055077
 31
0.0
1001
AUSTER_ANSICHT
1002
{
1000
Det03
1002
}
1001
AUSTER_FOLIE
1002
{
1000
GERAEUSCHARMES_S2_CC
1000
BAHNSCHUETZ_ANSTEUERBAU_S2_CC
1002
}
  0
LINE
  5
19D4
330
20
100
AcDbEntity
  8
11000_Left
  6
Continuous
 62
     7
370
    13
100
AcDbLine
 39
0.5
 10
188.6283722453246
 20
177.2426619055077
 30
0.0
 11
188.6283722453246
 21
175.2426619055077
 31
0.0
1001
AUSTER_ANSICHT
1002
{
1000
Det03
1002
}
1001
AUSTER_FOLIE
1002
{
1000
GERAEUSCHARMES_S2_CC
1000
BAHNSCHUETZ_ANSTEUERBAU_S2_CC
1002
}
  0
LINE
  5
19D5
330
20
100
AcDbEntity
  8
11000_Left
  6
Continuous
 62
     7
370
    13
100
AcDbLine
 39
0.5
 10
170.1283722453245
 20
177.2426619055077
 30
0.0
 11
188.6283722453246
 21
177.2426619055077
 31
0.0
1001
AUSTER_ANSICHT
1002
{
1000
Det03
1002
}
1001
AUSTER_FOLIE
1002
{
1000
GERAEUSCHARMES_S2_CC
1000
BAHNSCHUETZ_ANSTEUERBAU_S2_CC
1002
}
  0
LINE
  5
19D6
330
20
100
AcDbEntity
  8
11000_Left
  6
Continuous
 62
     7
370
    13
100
AcDbLine
 39
0.5
 10
170.1283722453245
 20
116.2426619055077
 30
0.0
 11
170.1283722453245
 21
113.2426619055076
 31
0.0
1001
AUSTER_ANSICHT
1002
{
1000
Det03
1002
}
1001
AUSTER_FOLIE
1002
{
1000
GERAEUSCHARMES_S2_CC
1000
BAHNSCHUETZ_ANSTEUERBAU_S2_CC
1002
}
  0
LINE
  5
19D7
330
20
100
AcDbEntity
  8
11000_Left
  6
Continuous
 62
     7
370
    13
100
AcDbLine
 39
0.5
 10
170.1283722453245
 20
121.2426619055076
 30
0.0
 11
170.1283722453245
 21
118.2426619055076
 31
0.0
1001
AUSTER_ANSICHT
1002
{
1000
Det03
1002
}
1001
AUSTER_FOLIE
1002
{
1000
GERAEUSCHARMES_S2_CC
1000
BAHNSCHUETZ_ANSTEUERBAU_S2_CC
1002
}
  0
LINE
  5
19D8
330
20
100
AcDbEntity
  8
11000_Left
  6
Continuous
 62
     7
370
    13
100
AcDbLine
 39
0.5
 10
170.1283722453245
 20
175.2426619055077
 30
0.0
 11
170.1283722453245
 21
172.2426619055077
 31
0.0
1001
AUSTER_ANSICHT
1002
{
1000
Det03
1002
}
1001
AUSTER_FOLIE
1002
{
1000
GERAEUSCHARMES_S2_CC
1000
BAHNSCHUETZ_ANSTEUERBAU_S2_CC
1002
}
  0
LINE
  5
19D9
330
20
100
AcDbEntity
  8
11000_Left
  6
Continuous
 62
     7
370
    13
100
AcDbLine
 39
0.5
 10
170.1283722453245
 20
180.2426619055077
 30
0.0
 11
170.1283722453245
 21
177.2426619055077
 31
0.0
1001
AUSTER_ANSICHT
1002
{
1000
Det03
1002
}
1001
AUSTER_FOLIE
1002
{
1000
GERAEUSCHARMES_S2_CC
1000
BAHNSCHUETZ_ANSTEUERBAU_S2_CC
1002
}
  0
LINE
  5
19DA
330
20
100
AcDbEntity
  8
11000_Left
  6
Continuous
 62
     7
370
    13
100
AcDbLine
 39
0.5
 10
170.1283722453245
 20
113.2426619055076
 30
0.0
 11
167.3283722453247
 21
113.2426619055076
 31
0.0
1001
AUSTER_ANSICHT
1002
{
1000
Det03
1002
}
1001
AUSTER_FOLIE
1002
{
1000
GERAEUSCHARMES_S2_CC
1000
BAHNSCHUETZ_ANSTEUERBAU_S2_CC
1002
}
  0
LINE
  5
19DB
330
20
100
AcDbEntity
  8
11000_Left
  6
Continuous
 62
     7
370
    13
100
AcDbLine
 39
0.5
 10
167.3283722453247
 20
121.2426619055076
 30
0.0
 11
170.1283722453245
 21
121.2426619055076
 31
0.0
1001
AUSTER_ANSICHT
1002
{
1000
Det03
1002
}
1001
AUSTER_FOLIE
1002
{
1000
GERAEUSCHARMES_S2_CC
1000
BAHNSCHUETZ_ANSTEUERBAU_S2_CC
1002
}
  0
LINE
  5
19DC
330
20
100
AcDbEntity
  8
11000_Left
  6
Continuous
 62
     7
370
    13
100
AcDbLine
 39
0.5
 10
167.3283722453247
 20
172.2426619055077
 30
0.0
 11
170.1283722453245
 21
172.2426619055077
 31
0.0
1001
AUSTER_ANSICHT
1002
{
1000
Det03
1002
}
1001
AUSTER_FOLIE
1002
{
1000
GERAEUSCHARMES_S2_CC
1000
BAHNSCHUETZ_ANSTEUERBAU_S2_CC
1002
}
  0
LINE
  5
19DD
330
20
100
AcDbEntity
  8
11000_Left
  6
Continuous
 62
     7
370
    13
100
AcDbLine
 39
0.5
 10
167.3283722453247
 20
180.2426619055077
 30
0.0
 11
170.1283722453245
 21
180.2426619055077
 31
0.0
1001
AUSTER_ANSICHT
1002
{
1000
Det03
1002
}
1001
AUSTER_FOLIE
1002
{
1000
GERAEUSCHARMES_S2_CC
1000
BAHNSCHUETZ_ANSTEUERBAU_S2_CC
1002
}
  0
LINE
  5
19DE
330
20
100
AcDbEntity
  8
11000_Left
  6
Continuous
 62
     7
370
    13
100
AcDbLine
 39
0.5
 10
191.2283722453248
 20
178.6426619055077
 30
0.0
 11
207.3283722453249
 21
178.6426619055077
 31
0.0
1001
AUSTER_ANSICHT
1002
{
1000
Det03
1002
}
1001
AUSTER_FOLIE
1002
{
1000
GERAEUSCHARMES_S2_CC
1000
BAHNSCHUETZ_ANSTEUERBAU_S2_CC
1002
}
  0
LINE
  5
19DF
330
20
100
AcDbEntity
  8
11000_Left
  6
Continuous
 62
     7
370
    13
100
AcDbLine
 39
0.5
 10
191.2283722453248
 20
173.8426619055077
 30
0.0
 11
191.2283722453248
 21
178.6426619055077
 31
0.0
1001
AUSTER_ANSICHT
1002
{
1000
Det03
1002
}
1001
AUSTER_FOLIE
1002
{
1000
GERAEUSCHARMES_S2_CC
1000
BAHNSCHUETZ_ANSTEUERBAU_S2_CC
1002
}
  0
LINE
  5
19E0
330
20
100
AcDbEntity
  8
11000_Left
  6
Continuous
 62
     7
370
    13
100
AcDbLine
 39
0.5
 10
207.3283722453249
 20
173.8426619055077
 30
0.0
 11
191.2283722453248
 21
173.8426619055077
 31
0.0
1001
AUSTER_ANSICHT
1002
{
1000
Det03
1002
}
1001
AUSTER_FOLIE
1002
{
1000
GERAEUSCHARMES_S2_CC
1000
BAHNSCHUETZ_ANSTEUERBAU_S2_CC
1002
}
  0
LINE
  5
19E1
330
20
100
AcDbEntity
  8
11000_Left
  6
Continuous
 62
     7
370
    13
100
AcDbLine
 39
0.5
 10
191.2283722453248
 20
119.6426619055078
 30
0.0
 11
207.3283722453249
 21
119.6426619055078
 31
0.0
1001
AUSTER_ANSICHT
1002
{
1000
Det03
1002
}
1001
AUSTER_FOLIE
1002
{
1000
GERAEUSCHARMES_S2_CC
1000
BAHNSCHUETZ_ANSTEUERBAU_S2_CC
1002
}
  0
LINE
  5
19E2
330
20
100
AcDbEntity
  8
11000_Left
  6
Continuous
 62
     7
370
    13
100
AcDbLine
 39
0.5
 10
191.2283722453248
 20
114.8426619055076
 30
0.0
 11
191.2283722453248
 21
119.6426619055078
 31
0.0
1001
AUSTER_ANSICHT
1002
{
1000
Det03
1002
}
1001
AUSTER_FOLIE
1002
{
1000
GERAEUSCHARMES_S2_CC
1000
BAHNSCHUETZ_ANSTEUERBAU_S2_CC
1002
}
  0
LINE
  5
19E3
330
20
100
AcDbEntity
  8
11000_Left
  6
Continuous
 62
     7
370
    13
100
AcDbLine
 39
0.5
 10
207.3283722453249
 20
114.8426619055076
 30
0.0
 11
191.2283722453248
 21
114.8426619055076
 31
0.0
1001
AUSTER_ANSICHT
1002
{
1000
Det03
1002
}
1001
AUSTER_FOLIE
1002
{
1000
GERAEUSCHARMES_S2_CC
1000
BAHNSCHUETZ_ANSTEUERBAU_S2_CC
1002
}
  0
LINE
  5
19E4
330
20
100
AcDbEntity
  8
11000_Left
  6
Continuous
 62
     7
370
    13
100
AcDbLine
 39
0.5
 10
207.3283722453249
 20
113.7426619055076
 30
0.0
 11
207.3283722453249
 21
114.1426619055078
 31
0.0
1001
AUSTER_ANSICHT
1002
{
1000
Det03
1002
}
1001
AUSTER_FOLIE
1002
{
1000
GERAEUSCHARMES_S2_CC
1000
BAHNSCHUETZ_ANSTEUERBAU_S2_CC
1002
}
  0
LINE
  5
19E5
330
20
100
AcDbEntity
  8
11000_Left
  6
Continuous
 62
     7
370
    13
100
AcDbLine
 39
0.5
 10
207.3283722453249
 20
109.2426619055076
 30
0.0
 11
207.3283722453249
 21
113.7426619055076
 31
0.0
1001
AUSTER_ANSICHT
1002
{
1000
Det03
1002
}
1001
AUSTER_FOLIE
1002
{
1000
GERAEUSCHARMES_S2_CC
1000
BAHNSCHUETZ_ANSTEUERBAU_S2_CC
1002
}
  0
ARC
  5
19E6
330
20
100
AcDbEntity
  8
11000_Left
  6
Continuous
370
    13
100
AcDbCircle
 39
0.5
 10
171.7455722453248
 20
130.0985619055076
 30
0.0
 40
1.0
100
AcDbArc
 50
189.9999999999986
 51
224.1791000000028
1001
AUSTER_ANSICHT
1002
{
1000
Det03
1002
}
1001
AUSTER_FOLIE
1002
{
1000
GERAEUSCHARMES_S2_CC
1000
BAHNSCHUETZ_ANSTEUERBAU_S2_CC
1002
}
  0
ARC
  5
19E7
330
20
100
AcDbEntity
  8
11000_Left
  6
Continuous
370
    13
100
AcDbCircle
 39
0.5
 10
170.1283722453245
 20
130.8426619055076
 30
0.0
 40
0.4
100
AcDbArc
 50
90.0
 51
139.999999999997
1001
AUSTER_ANSICHT
1002
{
1000
Det03
1002
}
1001
AUSTER_FOLIE
1002
{
1000
GERAEUSCHARMES_S2_CC
1000
BAHNSCHUETZ_ANSTEUERBAU_S2_CC
1002
}
  0
LINE
  5
19E8
330
20
100
AcDbEntity
  8
11000_Left
  6
Continuous
370
    50
100
AcDbLine
 39
0.5
 10
167.3283722453247
 20
193.8957619055077
 30
0.0
 11
167.3283722453247
 21
162.2426619055076
 31
0.0
1001
AUSTER_ANSICHT
1002
{
1000
Det03
1002
}
1001
AUSTER_FOLIE
1002
{
1000
GERAEUSCHARMES_S2_CC
1000
BAHNSCHUETZ_ANSTEUERBAU_S2_CC
1002
}
  0
LINE
  5
19E9
330
20
100
AcDbEntity
  8
11000_Left
  6
Continuous
370
    50
100
AcDbLine
 39
0.5
 10
172.3283722453248
 20
164.2426619055076
 30
0.0
 11
172.3283722453248
 21
128.9426619055076
 31
0.0
1001
AUSTER_ANSICHT
1002
{
1000
Det03
1002
}
1001
AUSTER_FOLIE
1002
{
1000
GERAEUSCHARMES_S2_CC
1000
BAHNSCHUETZ_ANSTEUERBAU_S2_CC
1002
}
  0
LINE
  5
19EA
330
20
100
AcDbEntity
  8
11000_Left
  6
Continuous
370
    50
100
AcDbLine
 39
0.5
 10
171.3283722453247
 20
164.2426619055076
 30
0.0
 11
172.3283722453248
 21
164.2426619055076
 31
0.0
1001
AUSTER_ANSICHT
1002
{
1000
Det03
1002
}
1001
AUSTER_FOLIE
1002
{
1000
GERAEUSCHARMES_S2_CC
1000
BAHNSCHUETZ_ANSTEUERBAU_S2_CC
1002
}
  0
LINE
  5
19EB
330
20
100
AcDbEntity
  8
11000_Left
  6
Continuous
370
    50
100
AcDbLine
 39
0.5
 10
171.0736722453248
 20
163.5426619055076
 30
0.0
 11
171.3283722453247
 21
164.2426619055076
 31
0.0
1001
AUSTER_ANSICHT
1002
{
1000
Det03
1002
}
1001
AUSTER_FOLIE
1002
{
1000
GERAEUSCHARMES_S2_CC
1000
BAHNSCHUETZ_ANSTEUERBAU_S2_CC
1002
}
  0
LINE
  5
19EC
330
20
100
AcDbEntity
  8
11000_Left
  6
Continuous
370
    50
100
AcDbLine
 39
0.5
 10
169.2170722453247
 20
162.2426619055076
 30
0.0
 11
171.0736722453248
 21
163.5426619055076
 31
0.0
1001
AUSTER_ANSICHT
1002
{
1000
Det03
1002
}
1001
AUSTER_FOLIE
1002
{
1000
GERAEUSCHARMES_S2_CC
1000
BAHNSCHUETZ_ANSTEUERBAU_S2_CC
1002
}
  0
LINE
  5
19ED
330
20
100
AcDbEntity
  8
11000_Left
  6
Continuous
370
    50
100
AcDbLine
 39
0.5
 10
167.3283722453247
 20
162.2426619055076
 30
0.0
 11
169.2170722453247
 21
162.2426619055076
 31
0.0
1001
AUSTER_ANSICHT
1002
{
1000
Det03
1002
}
1001
AUSTER_FOLIE
1002
{
1000
GERAEUSCHARMES_S2_CC
1000
BAHNSCHUETZ_ANSTEUERBAU_S2_CC
1002
}
  0
LINE
  5
19EE
330
20
100
AcDbEntity
  8
11000_Left
  6
Continuous
370
    13
100
AcDbLine
 39
0.5
 10
170.1283722453245
 20
131.2426619055076
 30
0.0
 11
170.5283722453249
 21
131.2426619055076
 31
0.0
1001
AUSTER_ANSICHT
1002
{
1000
Det03
1002
}
1001
AUSTER_FOLIE
1002
{
1000
GERAEUSCHARMES_S2_CC
1000
BAHNSCHUETZ_ANSTEUERBAU_S2_CC
1002
}
  0
LINE
  5
19EF
330
20
100
AcDbEntity
  8
11000_Left
  6
Continuous
370
    13
100
AcDbLine
 39
0.5
 10
170.5283722453249
 20
131.2426619055076
 30
0.0
 11
170.7607722453247
 21
129.9248619055078
 31
0.0
1001
AUSTER_ANSICHT
1002
{
1000
Det03
1002
}
1001
AUSTER_FOLIE
1002
{
1000
GERAEUSCHARMES_S2_CC
1000
BAHNSCHUETZ_ANSTEUERBAU_S2_CC
1002
}
  0
LINE
  5
19F0
330
20
100
AcDbEntity
  8
11000_Left
  6
Continuous
370
    50
100
AcDbLine
 39
0.5
 10
172.3283722453248
 20
128.9426619055076
 30
0.0
 11
170.8283722453248
 21
128.9426619055076
 31
0.0
1001
AUSTER_ANSICHT
1002
{
1000
Det03
1002
}
1001
AUSTER_FOLIE
1002
{
1000
GERAEUSCHARMES_S2_CC
1000
BAHNSCHUETZ_ANSTEUERBAU_S2_CC
1002
}
  0
LINE
  5
19F1
330
20
100
AcDbEntity
  8
11000_Left
  6
Continuous
370
    13
100
AcDbLine
 39
0.5
 10
171.0283722453248
 20
129.4016619055078
 30
0.0
 11
171.0283722453248
 21
128.9426619055076
 31
0.0
1001
AUSTER_ANSICHT
1002
{
1000
Det03
1002
}
1001
AUSTER_FOLIE
1002
{
1000
GERAEUSCHARMES_S2_CC
1000
BAHNSCHUETZ_ANSTEUERBAU_S2_CC
1002
}
  0
LINE
  5
19F2
330
20
100
AcDbEntity
  8
11000_Left
  6
Continuous
370
    13
100
AcDbLine
 39
0.5
 10
169.8219722453246
 20
131.0997619055077
 30
0.0
 11
167.3283722453247
 21
128.1280619055076
 31
0.0
1001
AUSTER_ANSICHT
1002
{
1000
Det03
1002
}
1001
AUSTER_FOLIE
1002
{
1000
GERAEUSCHARMES_S2_CC
1000
BAHNSCHUETZ_ANSTEUERBAU_S2_CC
1002
}
  0
LINE
  5
19F3
330
20
100
AcDbEntity
  8
11000_Left
  6
Continuous
370
    50
100
AcDbLine
 39
0.5
 10
170.8283722453248
 20
128.9426619055076
 30
0.0
 11
167.3283722453247
 21
126.9219619055076
 31
0.0
1001
AUSTER_ANSICHT
1002
{
1000
Det03
1002
}
1001
AUSTER_FOLIE
1002
{
1000
GERAEUSCHARMES_S2_CC
1000
BAHNSCHUETZ_ANSTEUERBAU_S2_CC
1002
}
  0
LINE
  5
19F4
330
20
100
AcDbEntity
  8
11000_Left
  6
Continuous
370
    50
100
AcDbLine
 39
0.5
 10
168.2640722453248
 20
198.9211619055075
 30
0.0
 11
167.3283722453247
 21
193.8957619055077
 31
0.0
1001
AUSTER_ANSICHT
1002
{
1000
Det03
1002
}
1001
AUSTER_FOLIE
1002
{
1000
GERAEUSCHARMES_S2_CC
1000
BAHNSCHUETZ_ANSTEUERBAU_S2_CC
1002
}
  0
LINE
  5
19F5
330
20
100
AcDbEntity
  8
11000_Left
  6
Continuous
 62
     7
370
    13
100
AcDbLine
 39
0.5
 10
207.3283722453249
 20
197.7426619055077
 30
0.0
 11
207.3283722453249
 21
114.1426619055078
 31
0.0
1001
AUSTER_ANSICHT
1002
{
1000
Det03
1002
}
1001
AUSTER_FOLIE
1002
{
1000
GERAEUSCHARMES_S2_CC
1000
BAHNSCHUETZ_ANSTEUERBAU_S2_CC
1002
}
  0
LINE
  5
19F6
330
20
100
AcDbEntity
  8
11000_Left
370
    50
100
AcDbLine
 10
195.3283722453248
 20
199.2426619055077
 30
0.0
 11
168.6563722453247
 21
199.2426619055077
 31
0.0
1001
AUSTER_FOLIE
1002
{
1000
GERAEUSCHARMES_S2_CC
1000
BAHNSCHUETZ_ANSTEUERBAU_S2_CC
1002
}
1001
AUSTER_ANSICHT
1002
{
1000
Det03
1002
}
  0
LINE
  5
19F7
330
20
100
AcDbEntity
  8
11000_Left
  6
CENTER
 62
     7
 48
5.0
370
    13
100
AcDbLine
 39
0.25
 10
246.3283722453248
 20
117.7804619055077
 30
0.0
 11
246.3283722453248
 21
104.2426619055076
 31
0.0
1001
AUSTER_ANSICHT
1002
{
1000
Det03
1002
}
1001
AUSTER_FOLIE
1002
{
1000
GERAEUSCHARMES_S2_CC
1000
BAHNSCHUETZ_ANSTEUERBAU_S2_CC
1002
}
  0
LINE
  5
19F8
330
20
100
AcDbEntity
  8
11000_Left
  6
CENTER
 62
     7
 48
5.0
370
    13
100
AcDbLine
 39
0.25
 10
236.3283722453249
 20
104.2426619055076
 30
0.0
 11
236.3283722453249
 21
117.7804619055077
 31
0.0
1001
AUSTER_ANSICHT
1002
{
1000
Det03
1002
}
1001
AUSTER_FOLIE
1002
{
1000
GERAEUSCHARMES_S2_CC
1000
BAHNSCHUETZ_ANSTEUERBAU_S2_CC
1002
}
  0
LINE
  5
19F9
330
20
100
AcDbEntity
  8
11000_Left
  6
CENTER
 62
     7
 48
5.0
370
    13
100
AcDbLine
 39
0.25
 10
235.3283722453247
 20
117.7804619055077
 30
0.0
 11
235.3283722453247
 21
104.2426619055076
 31
0.0
1001
AUSTER_ANSICHT
1002
{
1000
Det03
1002
}
1001
AUSTER_FOLIE
1002
{
1000
GERAEUSCHARMES_S2_CC
1000
BAHNSCHUETZ_ANSTEUERBAU_S2_CC
1002
}
  0
LINE
  5
19FA
330
20
100
AcDbEntity
  8
11000_Left
  6
CENTER
 62
     7
 48
5.0
370
    13
100
AcDbLine
 39
0.25
 10
225.3283722453248
 20
104.2426619055076
 30
0.0
 11
225.3283722453248
 21
117.7804619055077
 31
0.0
1001
AUSTER_ANSICHT
1002
{
1000
Det03
1002
}
1001
AUSTER_FOLIE
1002
{
1000
GERAEUSCHARMES_S2_CC
1000
BAHNSCHUETZ_ANSTEUERBAU_S2_CC
1002
}
  0
ARC
  5
19FB
330
20
100
AcDbEntity
  8
11000_Left
  6
Continuous
370
    50
100
AcDbCircle
 39
0.5
 10
-17.94592775467527
 20
146.7426619055077
 30
0.0
 40
300.0
100
AcDbArc
 50
352.1237999999971
 51
7.876100000003037
1001
AUSTER_ANSICHT
1002
{
1000
Det03
1002
}
1001
AUSTER_FOLIE
1002
{
1000
GERAEUSCHARMES_S2_CC
1000
BAHNSCHUETZ_ANSTEUERBAU_S2_CC
1002
}
  0
LINE
  5
19FC
330
20
100
AcDbEntity
  8
11000_Left
  6
Continuous
 62
     7
370
    13
100
AcDbLine
 39
0.5
 10
273.8283722453248
 20
105.7426619055076
 30
0.0
 11
273.8283722453248
 21
118.3926619055078
 31
0.0
1001
AUSTER_ANSICHT
1002
{
1000
Det03
1002
}
1001
AUSTER_FOLIE
1002
{
1000
GERAEUSCHARMES_S2_CC
1000
BAHNSCHUETZ_ANSTEUERBAU_S2_CC
1002
}
  0
LINE
  5
19FD
330
20
100
AcDbEntity
  8
11000_Left
  6
Continuous
 62
     7
370
    13
100
AcDbLine
 39
0.5
 10
221.7283722453247
 20
118.3926619055078
 30
0.0
 11
221.7283722453247
 21
104.2426619055076
 31
0.0
1001
AUSTER_ANSICHT
1002
{
1000
Det03
1002
}
1001
AUSTER_FOLIE
1002
{
1000
GERAEUSCHARMES_S2_CC
1000
BAHNSCHUETZ_ANSTEUERBAU_S2_CC
1002
}
  0
ARC
  5
19FE
330
20
100
AcDbEntity
  8
11000_Left
  6
Continuous
370
    50
100
AcDbCircle
 39
0.5
 10
248.2283722453249
 20
102.6426619055078
 30
0.0
 40
0.4
100
AcDbArc
 50
270.0
 51
0.0
1001
AUSTER_ANSICHT
1002
{
1000
Det03
1002
}
1001
AUSTER_FOLIE
1002
{
1000
GERAEUSCHARMES_S2_CC
1000
BAHNSCHUETZ_ANSTEUERBAU_S2_CC
1002
}
  0
ARC
  5
19FF
330
20
100
AcDbEntity
  8
11000_Left
  6
Continuous
370
    50
100
AcDbCircle
 39
0.5
 10
278.3339722453249
 20
105.0426619055075
 30
0.0
 40
0.8
100
AcDbArc
 50
270.0
 51
351.9885000000015
1001
AUSTER_ANSICHT
1002
{
1000
Det03
1002
}
1001
AUSTER_FOLIE
1002
{
1000
GERAEUSCHARMES_S2_CC
1000
BAHNSCHUETZ_ANSTEUERBAU_S2_CC
1002
}
  0
LINE
  5
1A00
330
20
100
AcDbEntity
  8
11000_Left
  6
Continuous
 62
     7
370
    13
100
AcDbLine
 39
0.5
 10
273.8283722453248
 20
105.7426619055076
 30
0.0
 11
273.8283722453248
 21
104.2426619055076
 31
0.0
1001
AUSTER_ANSICHT
1002
{
1000
Det03
1002
}
1001
AUSTER_FOLIE
1002
{
1000
GERAEUSCHARMES_S2_CC
1000
BAHNSCHUETZ_ANSTEUERBAU_S2_CC
1002
}
  0
LINE
  5
1A01
330
20
100
AcDbEntity
  8
11000_Left
  6
Continuous
370
    50
100
AcDbLine
 39
0.5
 10
236.1283722453247
 20
102.2426619055076
 30
0.0
 11
236.1283722453247
 21
102.6426619055078
 31
0.0
1001
AUSTER_ANSICHT
1002
{
1000
Det03
1002
}
1001
AUSTER_FOLIE
1002
{
1000
GERAEUSCHARMES_S2_CC
1000
BAHNSCHUETZ_ANSTEUERBAU_S2_CC
1002
}
  0
LINE
  5
1A02
330
20
100
AcDbEntity
  8
11000_Left
  6
Continuous
370
    50
100
AcDbLine
 39
0.5
 10
236.5283722453249
 20
102.2426619055076
 30
0.0
 11
236.1283722453247
 21
102.2426619055076
 31
0.0
1001
AUSTER_ANSICHT
1002
{
1000
Det03
1002
}
1001
AUSTER_FOLIE
1002
{
1000
GERAEUSCHARMES_S2_CC
1000
BAHNSCHUETZ_ANSTEUERBAU_S2_CC
1002
}
  0
LINE
  5
1A03
330
20
100
AcDbEntity
  8
11000_Left
  6
Continuous
370
    50
100
AcDbLine
 39
0.5
 10
236.1283722453247
 20
102.6426619055078
 30
0.0
 11
236.1283722453247
 21
104.2426619055076
 31
0.0
1001
AUSTER_ANSICHT
1002
{
1000
Det03
1002
}
1001
AUSTER_FOLIE
1002
{
1000
GERAEUSCHARMES_S2_CC
1000
BAHNSCHUETZ_ANSTEUERBAU_S2_CC
1002
}
  0
LINE
  5
1A04
330
20
100
AcDbEntity
  8
11000_Left
  6
Continuous
370
    50
100
AcDbLine
 39
0.5
 10
248.2283722453249
 20
102.2426619055076
 30
0.0
 11
236.5283722453249
 21
102.2426619055076
 31
0.0
1001
AUSTER_ANSICHT
1002
{
1000
Det03
1002
}
1001
AUSTER_FOLIE
1002
{
1000
GERAEUSCHARMES_S2_CC
1000
BAHNSCHUETZ_ANSTEUERBAU_S2_CC
1002
}
  0
LINE
  5
1A05
330
20
100
AcDbEntity
  8
11000_Left
  6
Continuous
370
    50
100
AcDbLine
 39
0.5
 10
248.6283722453247
 20
104.2426619055076
 30
0.0
 11
248.6283722453247
 21
102.6426619055078
 31
0.0
1001
AUSTER_ANSICHT
1002
{
1000
Det03
1002
}
1001
AUSTER_FOLIE
1002
{
1000
GERAEUSCHARMES_S2_CC
1000
BAHNSCHUETZ_ANSTEUERBAU_S2_CC
1002
}
  0
LINE
  5
1A06
330
20
100
AcDbEntity
  8
11000_Left
  6
Continuous
370
    50
100
AcDbLine
 39
0.5
 10
278.3339722453249
 20
104.2426619055076
 30
0.0
 11
248.6283722453247
 21
104.2426619055076
 31
0.0
1001
AUSTER_ANSICHT
1002
{
1000
Det03
1002
}
1001
AUSTER_FOLIE
1002
{
1000
GERAEUSCHARMES_S2_CC
1000
BAHNSCHUETZ_ANSTEUERBAU_S2_CC
1002
}
  0
LINE
  5
1A07
330
20
100
AcDbEntity
  8
11000_Left
  6
Continuous
370
    50
100
AcDbLine
 39
0.5
 10
279.2240722453249
 20
105.6327619055078
 30
0.0
 11
279.1261722453246
 21
104.9311619055075
 31
0.0
1001
AUSTER_ANSICHT
1002
{
1000
Det03
1002
}
1001
AUSTER_FOLIE
1002
{
1000
GERAEUSCHARMES_S2_CC
1000
BAHNSCHUETZ_ANSTEUERBAU_S2_CC
1002
}
  0
LINE
  5
1A08
330
20
100
AcDbEntity
  8
11000_Left
  6
Continuous
370
    50
100
AcDbLine
 39
0.5
 10
223.0283722453248
 20
104.2426619055076
 30
0.0
 11
221.7283722453247
 21
104.2426619055076
 31
0.0
1001
AUSTER_ANSICHT
1002
{
1000
Det03
1002
}
1001
AUSTER_FOLIE
1002
{
1000
GERAEUSCHARMES_S2_CC
1000
BAHNSCHUETZ_ANSTEUERBAU_S2_CC
1002
}
  0
ARC
  5
1A0A
330
20
100
AcDbEntity
  8
11000_Left
370
    13
100
AcDbCircle
 39
0.5
 10
221.2283722453247
 20
94.74267190550756
 30
0.0
 40
0.5
100
AcDbArc
 50
270.0
 51
0.0
1001
AUSTER_ANSICHT
1002
{
1000
Det03
1002
}
1001
AUSTER_FOLIE
1002
{
1000
GERAEUSCHARMES_S2_CC
1000
BAHNSCHUETZ_ANSTEUERBAU_S2_CC
1002
}
  0
ARC
  5
1A0E
330
20
100
AcDbEntity
  8
11000_Left
  6
Continuous
370
    13
100
AcDbCircle
 39
0.5
 10
220.9283722453247
 20
198.8426619055077
 30
0.0
 40
0.4
100
AcDbArc
 50
0.0
 51
90.0
1001
AUSTER_ANSICHT
1002
{
1000
Det03
1002
}
1001
AUSTER_FOLIE
1002
{
1000
GERAEUSCHARMES_S2_CC
1000
BAHNSCHUETZ_ANSTEUERBAU_S2_CC
1002
}
  0
LINE
  5
1A0F
330
20
100
AcDbEntity
  8
11000_Left
  6
Continuous
370
    13
100
AcDbLine
 39
0.5
 10
217.2283722453247
 20
199.2426619055077
 30
0.0
 11
220.9283722453247
 21
199.2426619055077
 31
0.0
1001
AUSTER_ANSICHT
1002
{
1000
Det03
1002
}
1001
AUSTER_FOLIE
1002
{
1000
GERAEUSCHARMES_S2_CC
1000
BAHNSCHUETZ_ANSTEUERBAU_S2_CC
1002
}
  0
ARC
  5
1A10
330
20
100
AcDbEntity
  8
11000_Left
  6
Continuous
370
    50
100
AcDbCircle
 39
0.5
 10
248.2283722453249
 20
190.8426619055077
 30
0.0
 40
0.4
100
AcDbArc
 50
0.0
 51
90.0
1001
AUSTER_ANSICHT
1002
{
1000
Det03
1002
}
1001
AUSTER_FOLIE
1002
{
1000
GERAEUSCHARMES_S2_CC
1000
BAHNSCHUETZ_ANSTEUERBAU_S2_CC
1002
}
  0
ARC
  5
1A11
330
20
100
AcDbEntity
  8
11000_Left
  6
Continuous
370
    50
100
AcDbCircle
 39
0.5
 10
278.3339722453249
 20
188.4426619055076
 30
0.0
 40
0.8
100
AcDbArc
 50
8.011488000000477
 51
90.0
1001
AUSTER_ANSICHT
1002
{
1000
Det03
1002
}
1001
AUSTER_FOLIE
1002
{
1000
GERAEUSCHARMES_S2_CC
1000
BAHNSCHUETZ_ANSTEUERBAU_S2_CC
1002
}
  0
ARC
  5
1A12
330
20
100
AcDbEntity
  8
11000_Left
  6
Continuous
 62
     7
370
    13
100
AcDbCircle
 39
0.5
 10
239.3283722453249
 20
171.6426619055076
 30
0.0
 40
0.8
100
AcDbArc
 50
90.0
 51
180.0
1001
AUSTER_ANSICHT
1002
{
1000
Det03
1002
}
1001
AUSTER_FOLIE
1002
{
1000
GERAEUSCHARMES_S2_CC
1000
BAHNSCHUETZ_ANSTEUERBAU_S2_CC
1002
}
  0
ARC
  5
1A13
330
20
100
AcDbEntity
  8
11000_Left
  6
Continuous
 62
     7
370
    13
100
AcDbCircle
 39
0.5
 10
239.3283722453249
 20
152.4426619055076
 30
0.0
 40
0.8
100
AcDbArc
 50
180.0
 51
270.0
1001
AUSTER_ANSICHT
1002
{
1000
Det03
1002
}
1001
AUSTER_FOLIE
1002
{
1000
GERAEUSCHARMES_S2_CC
1000
BAHNSCHUETZ_ANSTEUERBAU_S2_CC
1002
}
  0
ARC
  5
1A14
330
20
100
AcDbEntity
  8
11000_Left
  6
Continuous
 62
     7
370
    13
100
AcDbCircle
 39
0.5
 10
239.3283722453249
 20
141.0426619055076
 30
0.0
 40
0.8
100
AcDbArc
 50
90.0
 51
180.0
1001
AUSTER_ANSICHT
1002
{
1000
Det03
1002
}
1001
AUSTER_FOLIE
1002
{
1000
GERAEUSCHARMES_S2_CC
1000
BAHNSCHUETZ_ANSTEUERBAU_S2_CC
1002
}
  0
ARC
  5
1A15
330
20
100
AcDbEntity
  8
11000_Left
  6
Continuous
 62
     7
370
    13
100
AcDbCircle
 39
0.5
 10
238.5140722453247
 20
144.3926619055076
 30
0.0
 40
0.9
100
AcDbArc
 50
270.0
 51
0.0
1001
AUSTER_ANSICHT
1002
{
1000
Det03
1002
}
1001
AUSTER_FOLIE
1002
{
1000
GERAEUSCHARMES_S2_CC
1000
BAHNSCHUETZ_ANSTEUERBAU_S2_CC
1002
}
  0
ARC
  5
1A16
330
20
100
AcDbEntity
  8
11000_Left
  6
Continuous
 62
     7
370
    13
100
AcDbCircle
 39
0.5
 10
238.5140722453247
 20
149.0926619055076
 30
0.0
 40
0.9
100
AcDbArc
 50
0.0
 51
90.0
1001
AUSTER_ANSICHT
1002
{
1000
Det03
1002
}
1001
AUSTER_FOLIE
1002
{
1000
GERAEUSCHARMES_S2_CC
1000
BAHNSCHUETZ_ANSTEUERBAU_S2_CC
1002
}
  0
ARC
  5
1A17
330
20
100
AcDbEntity
  8
11000_Left
  6
Continuous
 62
     7
370
    13
100
AcDbCircle
 39
0.5
 10
239.3283722453249
 20
121.8426619055077
 30
0.0
 40
0.8
100
AcDbArc
 50
180.0
 51
270.0
1001
AUSTER_ANSICHT
1002
{
1000
Det03
1002
}
1001
AUSTER_FOLIE
1002
{
1000
GERAEUSCHARMES_S2_CC
1000
BAHNSCHUETZ_ANSTEUERBAU_S2_CC
1002
}
  0
ARC
  5
1A18
330
20
100
AcDbEntity
  8
11000_Left
  6
Continuous
 62
     7
370
    13
100
AcDbCircle
 39
0.5
 10
244.8283722453249
 20
142.6426619055076
 30
0.0
 40
0.8
100
AcDbArc
 50
270.0
 51
0.0
1001
AUSTER_ANSICHT
1002
{
1000
Det03
1002
}
1001
AUSTER_FOLIE
1002
{
1000
GERAEUSCHARMES_S2_CC
1000
BAHNSCHUETZ_ANSTEUERBAU_S2_CC
1002
}
  0
ARC
  5
1A19
330
20
100
AcDbEntity
  8
11000_Left
  6
Continuous
 62
     7
370
    13
100
AcDbCircle
 39
0.5
 10
244.8283722453249
 20
150.8426619055077
 30
0.0
 40
0.8
100
AcDbArc
 50
0.0
 51
90.0
1001
AUSTER_ANSICHT
1002
{
1000
Det03
1002
}
1001
AUSTER_FOLIE
1002
{
1000
GERAEUSCHARMES_S2_CC
1000
BAHNSCHUETZ_ANSTEUERBAU_S2_CC
1002
}
  0
ARC
  5
1A1A
330
20
100
AcDbEntity
  8
11000_Left
  6
Continuous
 62
     7
370
    13
100
AcDbCircle
 39
0.5
 10
222.9283722453247
 20
144.3926619055076
 30
0.0
 40
0.9
100
AcDbArc
 50
180.0
 51
270.0
1001
AUSTER_ANSICHT
1002
{
1000
Det03
1002
}
1001
AUSTER_FOLIE
1002
{
1000
GERAEUSCHARMES_S2_CC
1000
BAHNSCHUETZ_ANSTEUERBAU_S2_CC
1002
}
  0
ARC
  5
1A1B
330
20
100
AcDbEntity
  8
11000_Left
  6
Continuous
 62
     7
370
    13
100
AcDbCircle
 39
0.5
 10
222.9283722453247
 20
149.0926619055076
 30
0.0
 40
0.9
100
AcDbArc
 50
90.0
 51
180.0
1001
AUSTER_ANSICHT
1002
{
1000
Det03
1002
}
1001
AUSTER_FOLIE
1002
{
1000
GERAEUSCHARMES_S2_CC
1000
BAHNSCHUETZ_ANSTEUERBAU_S2_CC
1002
}
  0
LINE
  5
1A1C
330
20
100
AcDbEntity
  8
11000_Left
  6
Continuous
370
    50
100
AcDbLine
 39
0.5
 10
236.1283722453247
 20
189.2426619055077
 30
0.0
 11
236.1283722453247
 21
191.2426619055077
 31
0.0
1001
AUSTER_ANSICHT
1002
{
1000
Det03
1002
}
1001
AUSTER_FOLIE
1002
{
1000
GERAEUSCHARMES_S2_CC
1000
BAHNSCHUETZ_ANSTEUERBAU_S2_CC
1002
}
  0
LINE
  5
1A1D
330
20
100
AcDbEntity
  8
11000_Left
  6
Continuous
370
    50
100
AcDbLine
 39
0.5
 10
236.1283722453247
 20
191.2426619055077
 30
0.0
 11
248.2283722453249
 21
191.2426619055077
 31
0.0
1001
AUSTER_ANSICHT
1002
{
1000
Det03
1002
}
1001
AUSTER_FOLIE
1002
{
1000
GERAEUSCHARMES_S2_CC
1000
BAHNSCHUETZ_ANSTEUERBAU_S2_CC
1002
}
  0
LINE
  5
1A1E
330
20
100
AcDbEntity
  8
11000_Left
  6
Continuous
 62
     7
370
    13
100
AcDbLine
 39
0.5
 10
273.8283722453248
 20
189.2426619055077
 30
0.0
 11
273.8283722453248
 21
118.5426619055077
 31
0.0
1001
AUSTER_ANSICHT
1002
{
1000
Det03
1002
}
1001
AUSTER_FOLIE
1002
{
1000
GERAEUSCHARMES_S2_CC
1000
BAHNSCHUETZ_ANSTEUERBAU_S2_CC
1002
}
  0
LINE
  5
1A1F
330
20
100
AcDbEntity
  8
11000_Left
  6
Continuous
 62
     7
370
    13
100
AcDbLine
 39
0.5
 10
273.8283722453248
 20
174.9426619055076
 30
0.0
 11
241.6283722453247
 21
174.9426619055076
 31
0.0
1001
AUSTER_ANSICHT
1002
{
1000
Det03
1002
}
1001
AUSTER_FOLIE
1002
{
1000
GERAEUSCHARMES_S2_CC
1000
BAHNSCHUETZ_ANSTEUERBAU_S2_CC
1002
}
  0
LINE
  5
1A20
330
20
100
AcDbEntity
  8
11000_Left
  6
Continuous
370
    50
100
AcDbLine
 39
0.5
 10
223.0283722453248
 20
189.2426619055077
 30
0.0
 11
236.1283722453247
 21
189.2426619055077
 31
0.0
1001
AUSTER_ANSICHT
1002
{
1000
Det03
1002
}
1001
AUSTER_FOLIE
1002
{
1000
GERAEUSCHARMES_S2_CC
1000
BAHNSCHUETZ_ANSTEUERBAU_S2_CC
1002
}
  0
LINE
  5
1A21
330
20
100
AcDbEntity
  8
11000_Left
  6
Continuous
 62
     7
370
    13
100
AcDbLine
 39
0.5
 10
221.3283722453248
 20
165.2426619055075
 30
0.0
 11
221.3283722453248
 21
171.7426619055077
 31
0.0
1001
AUSTER_ANSICHT
1002
{
1000
Det03
1002
}
1001
AUSTER_FOLIE
1002
{
1000
GERAEUSCHARMES_S2_CC
1000
BAHNSCHUETZ_ANSTEUERBAU_S2_CC
1002
}
  0
LINE
  5
1A22
330
20
100
AcDbEntity
  8
11000_Left
  6
Continuous
 62
     7
370
    13
100
AcDbLine
 39
0.5
 10
227.8283722453249
 20
165.2426619055075
 30
0.0
 11
221.3283722453248
 21
165.2426619055075
 31
0.0
1001
AUSTER_ANSICHT
1002
{
1000
Det03
1002
}
1001
AUSTER_FOLIE
1002
{
1000
GERAEUSCHARMES_S2_CC
1000
BAHNSCHUETZ_ANSTEUERBAU_S2_CC
1002
}
  0
LINE
  5
1A23
330
20
100
AcDbEntity
  8
11000_Left
  6
Continuous
 62
     7
370
    13
100
AcDbLine
 39
0.5
 10
221.3283722453248
 20
171.7426619055077
 30
0.0
 11
227.8283722453249
 21
171.7426619055077
 31
0.0
1001
AUSTER_ANSICHT
1002
{
1000
Det03
1002
}
1001
AUSTER_FOLIE
1002
{
1000
GERAEUSCHARMES_S2_CC
1000
BAHNSCHUETZ_ANSTEUERBAU_S2_CC
1002
}
  0
LINE
  5
1A24
330
20
100
AcDbEntity
  8
11000_Left
  6
Continuous
 62
     7
370
    13
100
AcDbLine
 39
0.5
 10
239.4140722453248
 20
149.1926619055076
 30
0.0
 11
239.4140722453248
 21
144.2926619055076
 31
0.0
1001
AUSTER_ANSICHT
1002
{
1000
Det03
1002
}
1001
AUSTER_FOLIE
1002
{
1000
GERAEUSCHARMES_S2_CC
1000
BAHNSCHUETZ_ANSTEUERBAU_S2_CC
1002
}
  0
LINE
  5
1A25
330
20
100
AcDbEntity
  8
11000_Left
  6
Continuous
 62
     7
370
    13
100
AcDbLine
 39
0.5
 10
239.3283722453249
 20
172.4426619055076
 30
0.0
 11
241.6283722453247
 21
172.4426619055076
 31
0.0
1001
AUSTER_ANSICHT
1002
{
1000
Det03
1002
}
1001
AUSTER_FOLIE
1002
{
1000
GERAEUSCHARMES_S2_CC
1000
BAHNSCHUETZ_ANSTEUERBAU_S2_CC
1002
}
  0
LINE
  5
1A26
330
20
100
AcDbEntity
  8
11000_Left
  6
Continuous
 62
     7
370
    13
100
AcDbLine
 39
0.5
 10
238.5283722453249
 20
152.4426619055076
 30
0.0
 11
238.5283722453249
 21
171.6426619055076
 31
0.0
1001
AUSTER_ANSICHT
1002
{
1000
Det03
1002
}
1001
AUSTER_FOLIE
1002
{
1000
GERAEUSCHARMES_S2_CC
1000
BAHNSCHUETZ_ANSTEUERBAU_S2_CC
1002
}
  0
LINE
  5
1A27
330
20
100
AcDbEntity
  8
11000_Left
  6
Continuous
 62
     7
370
    13
100
AcDbLine
 39
0.5
 10
241.6283722453247
 20
174.9426619055076
 30
0.0
 11
221.3283722453248
 21
174.9426619055076
 31
0.0
1001
AUSTER_ANSICHT
1002
{
1000
Det03
1002
}
1001
AUSTER_FOLIE
1002
{
1000
GERAEUSCHARMES_S2_CC
1000
BAHNSCHUETZ_ANSTEUERBAU_S2_CC
1002
}
  0
LINE
  5
1A28
330
20
100
AcDbEntity
  8
11000_Left
  6
Continuous
 62
     7
370
    13
100
AcDbLine
 39
0.5
 10
227.8283722453249
 20
171.7426619055077
 30
0.0
 11
227.8283722453249
 21
165.2426619055075
 31
0.0
1001
AUSTER_ANSICHT
1002
{
1000
Det03
1002
}
1001
AUSTER_FOLIE
1002
{
1000
GERAEUSCHARMES_S2_CC
1000
BAHNSCHUETZ_ANSTEUERBAU_S2_CC
1002
}
  0
LINE
  5
1A29
330
20
100
AcDbEntity
  8
11000_Left
  6
Continuous
 62
     7
370
    13
100
AcDbLine
 39
0.5
 10
239.3283722453249
 20
141.8426619055076
 30
0.0
 11
244.8283722453249
 21
141.8426619055076
 31
0.0
1001
AUSTER_ANSICHT
1002
{
1000
Det03
1002
}
1001
AUSTER_FOLIE
1002
{
1000
GERAEUSCHARMES_S2_CC
1000
BAHNSCHUETZ_ANSTEUERBAU_S2_CC
1002
}
  0
LINE
  5
1A2A
330
20
100
AcDbEntity
  8
11000_Left
  6
Continuous
 62
     7
370
    13
100
AcDbLine
 39
0.5
 10
245.6283722453246
 20
150.8426619055077
 30
0.0
 11
245.6283722453246
 21
142.6426619055076
 31
0.0
1001
AUSTER_ANSICHT
1002
{
1000
Det03
1002
}
1001
AUSTER_FOLIE
1002
{
1000
GERAEUSCHARMES_S2_CC
1000
BAHNSCHUETZ_ANSTEUERBAU_S2_CC
1002
}
  0
LINE
  5
1A2B
330
20
100
AcDbEntity
  8
11000_Left
  6
Continuous
370
    50
100
AcDbLine
 39
0.5
 10
248.6283722453247
 20
190.8426619055077
 30
0.0
 11
248.6283722453247
 21
189.2426619055077
 31
0.0
1001
AUSTER_ANSICHT
1002
{
1000
Det03
1002
}
1001
AUSTER_FOLIE
1002
{
1000
GERAEUSCHARMES_S2_CC
1000
BAHNSCHUETZ_ANSTEUERBAU_S2_CC
1002
}
  0
LINE
  5
1A2C
330
20
100
AcDbEntity
  8
11000_Left
  6
Continuous
 62
     7
370
    13
100
AcDbLine
 39
0.5
 10
239.3283722453249
 20
151.6426619055077
 30
0.0
 11
244.8283722453249
 21
151.6426619055077
 31
0.0
1001
AUSTER_ANSICHT
1002
{
1000
Det03
1002
}
1001
AUSTER_FOLIE
1002
{
1000
GERAEUSCHARMES_S2_CC
1000
BAHNSCHUETZ_ANSTEUERBAU_S2_CC
1002
}
  0
LINE
  5
1A2D
330
20
100
AcDbEntity
  8
11000_Left
  6
Continuous
370
    50
100
AcDbLine
 39
0.5
 10
279.1261722453246
 20
188.5541619055077
 30
0.0
 11
279.2240722453249
 21
187.8522619055077
 31
0.0
1001
AUSTER_ANSICHT
1002
{
1000
Det03
1002
}
1001
AUSTER_FOLIE
1002
{
1000
GERAEUSCHARMES_S2_CC
1000
BAHNSCHUETZ_ANSTEUERBAU_S2_CC
1002
}
  0
LINE
  5
1A2E
330
20
100
AcDbEntity
  8
11000_Left
  6
Continuous
 62
     7
370
    13
100
AcDbLine
 39
0.5
 10
238.6140722453248
 20
143.4926619055076
 30
0.0
 11
222.8283722453247
 21
143.4926619055076
 31
0.0
1001
AUSTER_ANSICHT
1002
{
1000
Det03
1002
}
1001
AUSTER_FOLIE
1002
{
1000
GERAEUSCHARMES_S2_CC
1000
BAHNSCHUETZ_ANSTEUERBAU_S2_CC
1002
}
  0
LINE
  5
1A2F
330
20
100
AcDbEntity
  8
11000_Left
  6
Continuous
 62
     7
370
    13
100
AcDbLine
 39
0.5
 10
222.8283722453247
 20
149.9926619055077
 30
0.0
 11
238.6140722453248
 21
149.9926619055077
 31
0.0
1001
AUSTER_ANSICHT
1002
{
1000
Det03
1002
}
1001
AUSTER_FOLIE
1002
{
1000
GERAEUSCHARMES_S2_CC
1000
BAHNSCHUETZ_ANSTEUERBAU_S2_CC
1002
}
  0
LINE
  5
1A30
330
20
100
AcDbEntity
  8
11000_Left
  6
Continuous
 62
     7
370
    13
100
AcDbLine
 39
0.5
 10
222.0283722453249
 20
149.0926619055076
 30
0.0
 11
222.0283722453249
 21
144.3926619055076
 31
0.0
1001
AUSTER_ANSICHT
1002
{
1000
Det03
1002
}
1001
AUSTER_FOLIE
1002
{
1000
GERAEUSCHARMES_S2_CC
1000
BAHNSCHUETZ_ANSTEUERBAU_S2_CC
1002
}
  0
LINE
  5
1A31
330
20
100
AcDbEntity
  8
11000_Left
  6
Continuous
 62
     7
370
    13
100
AcDbLine
 39
0.5
 10
241.6283722453247
 20
118.5426619055077
 30
0.0
 11
241.6283722453247
 21
121.0426619055075
 31
0.0
1001
AUSTER_ANSICHT
1002
{
1000
Det03
1002
}
1001
AUSTER_FOLIE
1002
{
1000
GERAEUSCHARMES_S2_CC
1000
BAHNSCHUETZ_ANSTEUERBAU_S2_CC
1002
}
  0
LINE
  5
1A32
330
20
100
AcDbEntity
  8
11000_Left
  6
Continuous
370
    13
100
AcDbLine
 39
0.5
 10
221.3283722453248
 20
113.7426619055076
 30
0.0
 11
221.7275722453247
 21
113.7426619055076
 31
0.0
1001
AUSTER_ANSICHT
1002
{
1000
Det03
1002
}
1001
AUSTER_FOLIE
1002
{
1000
GERAEUSCHARMES_S2_CC
1000
BAHNSCHUETZ_ANSTEUERBAU_S2_CC
1002
}
  0
LINE
  5
1A33
330
20
100
AcDbEntity
  8
11000_Left
  6
Continuous
 62
     7
370
    13
100
AcDbLine
 39
0.5
 10
221.3283722453248
 20
128.2426619055076
 30
0.0
 11
227.8283722453249
 21
128.2426619055076
 31
0.0
1001
AUSTER_ANSICHT
1002
{
1000
Det03
1002
}
1001
AUSTER_FOLIE
1002
{
1000
GERAEUSCHARMES_S2_CC
1000
BAHNSCHUETZ_ANSTEUERBAU_S2_CC
1002
}
  0
LINE
  5
1A34
330
20
100
AcDbEntity
  8
11000_Left
  6
Continuous
 62
     7
370
    13
100
AcDbLine
 39
0.5
 10
221.3283722453248
 20
121.7426619055076
 30
0.0
 11
221.3283722453248
 21
128.2426619055076
 31
0.0
1001
AUSTER_ANSICHT
1002
{
1000
Det03
1002
}
1001
AUSTER_FOLIE
1002
{
1000
GERAEUSCHARMES_S2_CC
1000
BAHNSCHUETZ_ANSTEUERBAU_S2_CC
1002
}
  0
LINE
  5
1A35
330
20
100
AcDbEntity
  8
11000_Left
  6
Continuous
 62
     7
370
    13
100
AcDbLine
 39
0.5
 10
227.8283722453249
 20
121.7426619055076
 30
0.0
 11
221.3283722453248
 21
121.7426619055076
 31
0.0
1001
AUSTER_ANSICHT
1002
{
1000
Det03
1002
}
1001
AUSTER_FOLIE
1002
{
1000
GERAEUSCHARMES_S2_CC
1000
BAHNSCHUETZ_ANSTEUERBAU_S2_CC
1002
}
  0
LINE
  5
1A36
330
20
100
AcDbEntity
  8
11000_Left
  6
Continuous
 62
     7
370
    13
100
AcDbLine
 39
0.5
 10
238.5283722453249
 20
121.8426619055077
 30
0.0
 11
238.5283722453249
 21
141.0426619055076
 31
0.0
1001
AUSTER_ANSICHT
1002
{
1000
Det03
1002
}
1001
AUSTER_FOLIE
1002
{
1000
GERAEUSCHARMES_S2_CC
1000
BAHNSCHUETZ_ANSTEUERBAU_S2_CC
1002
}
  0
LINE
  5
1A37
330
20
100
AcDbEntity
  8
11000_Left
  6
Continuous
 62
     7
370
    13
100
AcDbLine
 39
0.5
 10
241.6283722453247
 20
121.0426619055077
 30
0.0
 11
239.3283722453249
 21
121.0426619055077
 31
0.0
1001
AUSTER_ANSICHT
1002
{
1000
Det03
1002
}
1001
AUSTER_FOLIE
1002
{
1000
GERAEUSCHARMES_S2_CC
1000
BAHNSCHUETZ_ANSTEUERBAU_S2_CC
1002
}
  0
LINE
  5
1A38
330
20
100
AcDbEntity
  8
11000_Left
  6
Continuous
 62
     7
370
    13
100
AcDbLine
 39
0.5
 10
227.8283722453249
 20
128.2426619055076
 30
0.0
 11
227.8283722453249
 21
121.7426619055076
 31
0.0
1001
AUSTER_ANSICHT
1002
{
1000
Det03
1002
}
1001
AUSTER_FOLIE
1002
{
1000
GERAEUSCHARMES_S2_CC
1000
BAHNSCHUETZ_ANSTEUERBAU_S2_CC
1002
}
  0
LINE
  5
1A39
330
20
100
AcDbEntity
  8
11000_Left
  6
Continuous
 62
     7
370
    13
100
AcDbLine
 39
0.5
 10
273.8283722453248
 20
118.3926619055078
 30
0.0
 11
221.7283722453247
 21
118.3926619055078
 31
0.0
1001
AUSTER_ANSICHT
1002
{
1000
Det03
1002
}
1001
AUSTER_FOLIE
1002
{
1000
GERAEUSCHARMES_S2_CC
1000
BAHNSCHUETZ_ANSTEUERBAU_S2_CC
1002
}
  0
LINE
  5
1A3A
330
20
100
AcDbEntity
  8
11000_Left
  6
Continuous
370
    50
100
AcDbLine
 39
0.5
 10
221.3283722453248
 20
189.2426619055077
 30
0.0
 11
223.0283722453248
 21
189.2426619055077
 31
0.0
1001
AUSTER_ANSICHT
1002
{
1000
Det03
1002
}
1001
AUSTER_FOLIE
1002
{
1000
GERAEUSCHARMES_S2_CC
1000
BAHNSCHUETZ_ANSTEUERBAU_S2_CC
1002
}
  0
ARC
  5
1A3B
330
20
100
AcDbEntity
  8
11000_Left
  6
Continuous
 62
     7
370
    13
100
AcDbCircle
 39
0.5
 10
239.3283722453249
 20
121.8426619055077
 30
0.0
 40
0.8
100
AcDbArc
 50
180.0
 51
270.0
1001
AUSTER_ANSICHT
1002
{
1000
Det03
1002
}
1001
AUSTER_FOLIE
1002
{
1000
GERAEUSCHARMES_S2_CC
1000
BAHNSCHUETZ_ANSTEUERBAU_S2_CC
1002
}
  0
LINE
  5
1A3C
330
20
100
AcDbEntity
  8
11000_Left
  6
Continuous
 62
     7
370
    13
100
AcDbLine
 39
0.5
 10
227.8283722453249
 20
165.2426619055075
 30
0.0
 11
221.3283722453248
 21
165.2426619055075
 31
0.0
1001
AUSTER_ANSICHT
1002
{
1000
Det03
1002
}
1001
AUSTER_FOLIE
1002
{
1000
GERAEUSCHARMES_S2_CC
1000
BAHNSCHUETZ_ANSTEUERBAU_S2_CC
1002
}
  0
ARC
  5
1A3D
330
20
100
AcDbEntity
  8
11000_Left
  6
Continuous
 62
     7
370
    13
100
AcDbCircle
 39
0.5
 10
239.3283722453249
 20
121.8426619055077
 30
0.0
 40
0.8
100
AcDbArc
 50
180.0
 51
270.0
1001
AUSTER_ANSICHT
1002
{
1000
Det03
1002
}
1001
AUSTER_FOLIE
1002
{
1000
GERAEUSCHARMES_S2_CC
1000
BAHNSCHUETZ_ANSTEUERBAU_S2_CC
1002
}
  0
LINE
  5
1A3E
330
20
100
AcDbEntity
  8
11000_Left
  6
Continuous
 62
     7
370
    13
100
AcDbLine
 39
0.5
 10
227.8283722453249
 20
165.2426619055075
 30
0.0
 11
221.3283722453248
 21
165.2426619055075
 31
0.0
1001
AUSTER_ANSICHT
1002
{
1000
Det03
1002
}
1001
AUSTER_FOLIE
1002
{
1000
GERAEUSCHARMES_S2_CC
1000
BAHNSCHUETZ_ANSTEUERBAU_S2_CC
1002
}
  0
ARC
  5
1A3F
330
20
100
AcDbEntity
  8
11000_Left
  6
Continuous
 62
     7
370
    13
100
AcDbCircle
 39
0.5
 10
239.3283722453249
 20
121.8426619055077
 30
0.0
 40
0.8
100
AcDbArc
 50
180.0
 51
270.0
1001
AUSTER_ANSICHT
1002
{
1000
Det03
1002
}
1001
AUSTER_FOLIE
1002
{
1000
GERAEUSCHARMES_S2_CC
1000
BAHNSCHUETZ_ANSTEUERBAU_S2_CC
1002
}
  0
LINE
  5
1A40
330
20
100
AcDbEntity
  8
11000_Left
  6
Continuous
 62
     7
370
    13
100
AcDbLine
 39
0.5
 10
227.8283722453249
 20
165.2426619055075
 30
0.0
 11
221.3283722453248
 21
165.2426619055075
 31
0.0
1001
AUSTER_ANSICHT
1002
{
1000
Det03
1002
}
1001
AUSTER_FOLIE
1002
{
1000
GERAEUSCHARMES_S2_CC
1000
BAHNSCHUETZ_ANSTEUERBAU_S2_CC
1002
}
  0
LINE
  5
1A42
330
20
100
AcDbEntity
  8
11000_Left
  6
Continuous
 62
     7
370
    13
100
AcDbLine
 39
0.5
 10
221.3283722453248
 20
174.9426619055076
 30
0.0
 11
221.3283722453248
 21
189.2426619055077
 31
0.0
1001
AUSTER_ANSICHT
1002
{
1000
Det03
1002
}
1001
AUSTER_FOLIE
1002
{
1000
GERAEUSCHARMES_S2_CC
1000
BAHNSCHUETZ_ANSTEUERBAU_S2_CC
1002
}
  0
LINE
  5
1A44
330
20
100
AcDbEntity
  8
11000_Left
  6
CENTER
 62
     7
 48
5.0
370
    13
100
AcDbLine
 39
0.25
 10
225.3283722453248
 20
117.7804619055077
 30
0.0
 11
235.3283722453247
 21
117.7804619055077
 31
0.0
1001
AUSTER_ANSICHT
1002
{
1000
Det03
1002
}
1001
AUSTER_FOLIE
1002
{
1000
GERAEUSCHARMES_S2_CC
1000
BAHNSCHUETZ_ANSTEUERBAU_S2_CC
1002
}
  0
LINE
  5
1A45
330
20
100
AcDbEntity
  8
11000_Left
  6
CENTER
 62
     7
 48
5.0
370
    13
100
AcDbLine
 39
0.25
 10
236.3283722453249
 20
117.7804619055077
 30
0.0
 11
246.3283722453248
 21
117.7804619055077
 31
0.0
1001
AUSTER_ANSICHT
1002
{
1000
Det03
1002
}
1001
AUSTER_FOLIE
1002
{
1000
GERAEUSCHARMES_S2_CC
1000
BAHNSCHUETZ_ANSTEUERBAU_S2_CC
1002
}
  0
LINE
  5
1A46
330
20
100
AcDbEntity
  8
11000_Left
  6
CENTER
 62
     7
 48
5.0
370
    13
100
AcDbLine
 39
0.25
 10
225.3283722453248
 20
175.7048619055075
 30
0.0
 11
235.3283722453247
 21
175.7048619055075
 31
0.0
1001
AUSTER_ANSICHT
1002
{
1000
Det03
1002
}
1001
AUSTER_FOLIE
1002
{
1000
GERAEUSCHARMES_S2_CC
1000
BAHNSCHUETZ_ANSTEUERBAU_S2_CC
1002
}
  0
LINE
  5
1A47
330
20
100
AcDbEntity
  8
11000_Left
  6
CENTER
 62
     7
 48
5.0
370
    13
100
AcDbLine
 39
0.25
 10
225.3283722453248
 20
189.2426619055077
 30
0.0
 11
225.3283722453248
 21
175.7048619055075
 31
0.0
1001
AUSTER_ANSICHT
1002
{
1000
Det03
1002
}
1001
AUSTER_FOLIE
1002
{
1000
GERAEUSCHARMES_S2_CC
1000
BAHNSCHUETZ_ANSTEUERBAU_S2_CC
1002
}
  0
LINE
  5
1A48
330
20
100
AcDbEntity
  8
11000_Left
  6
CENTER
 62
     7
 48
5.0
370
    13
100
AcDbLine
 39
0.25
 10
236.3283722453249
 20
175.7048619055075
 30
0.0
 11
246.3283722453248
 21
175.7048619055075
 31
0.0
1001
AUSTER_ANSICHT
1002
{
1000
Det03
1002
}
1001
AUSTER_FOLIE
1002
{
1000
GERAEUSCHARMES_S2_CC
1000
BAHNSCHUETZ_ANSTEUERBAU_S2_CC
1002
}
  0
LINE
  5
1A49
330
20
100
AcDbEntity
  8
11000_Left
  6
CENTER
 62
     7
 48
5.0
370
    13
100
AcDbLine
 39
0.25
 10
236.3283722453249
 20
189.2426619055077
 30
0.0
 11
236.3283722453249
 21
175.7048619055075
 31
0.0
1001
AUSTER_ANSICHT
1002
{
1000
Det03
1002
}
1001
AUSTER_FOLIE
1002
{
1000
GERAEUSCHARMES_S2_CC
1000
BAHNSCHUETZ_ANSTEUERBAU_S2_CC
1002
}
  0
LINE
  5
1A4A
330
20
100
AcDbEntity
  8
11000_Left
  6
CENTER
 62
     7
 48
5.0
370
    13
100
AcDbLine
 39
0.25
 10
235.3283722453247
 20
175.7048619055075
 30
0.0
 11
235.3283722453247
 21
189.2426619055077
 31
0.0
1001
AUSTER_ANSICHT
1002
{
1000
Det03
1002
}
1001
AUSTER_FOLIE
1002
{
1000
GERAEUSCHARMES_S2_CC
1000
BAHNSCHUETZ_ANSTEUERBAU_S2_CC
1002
}
  0
LINE
  5
1A4B
330
20
100
AcDbEntity
  8
11000_Left
  6
CENTER
 62
     7
 48
5.0
370
    13
100
AcDbLine
 39
0.25
 10
246.3283722453248
 20
175.7048619055075
 30
0.0
 11
246.3283722453248
 21
189.2426619055077
 31
0.0
1001
AUSTER_ANSICHT
1002
{
1000
Det03
1002
}
1001
AUSTER_FOLIE
1002
{
1000
GERAEUSCHARMES_S2_CC
1000
BAHNSCHUETZ_ANSTEUERBAU_S2_CC
1002
}
  0
LINE
  5
1A9D
330
20
100
AcDbEntity
  8
11000_Left
  6
Continuous
370
    50
100
AcDbLine
 39
0.5
 10
172.3283722453248
 20
164.2426619055076
 30
0.0
 11
172.3283722453248
 21
128.9426619055076
 31
0.0
1001
AUSTER_ANSICHT
1002
{
1000
Det03
1002
}
1001
AUSTER_FOLIE
1002
{
1000
GERAEUSCHARMES_S2_CC
1000
BAHNSCHUETZ_ANSTEUERBAU_S2_CC
1002
}
  0
ARC
  5
1A9E
330
20
100
AcDbEntity
  8
11000_Left
  6
CENTER
 62
     7
 48
5.0
370
    13
100
AcDbCircle
 39
0.25
 10
170.8280722453246
 20
161.7429559055076
 30
-1.0
 40
0.5
100
AcDbArc
 50
270.0
 51
0.0
1001
AUSTER_ANSICHT
1002
{
1000
Det03
1002
}
1001
AUSTER_FOLIE
1002
{
1000
GERAEUSCHARMES_S2_CC
1000
BAHNSCHUETZ_ANSTEUERBAU_S2_CC
1002
}
  0
ARC
  5
1A9F
330
20
100
AcDbEntity
  8
11000_Left
  6
CENTER
 62
     7
 48
5.0
370
    13
100
AcDbCircle
 39
0.25
 10
168.4280722453248
 20
160.9929559055076
 30
-1.0
 40
1.9
100
AcDbArc
 50
270.0
 51
0.0
1001
AUSTER_ANSICHT
1002
{
1000
Det03
1002
}
1001
AUSTER_FOLIE
1002
{
1000
GERAEUSCHARMES_S2_CC
1000
BAHNSCHUETZ_ANSTEUERBAU_S2_CC
1002
}
  0
LINE
  5
1AA0
330
20
100
AcDbEntity
  8
11000_Left
  6
CENTER
 62
     7
 48
5.0
370
    13
100
AcDbLine
 39
0.25
 10
171.3280722453248
 20
161.7429559055076
 30
-1.0
 11
171.3280722453248
 21
164.2429559055076
 31
-1.0
1001
AUSTER_ANSICHT
1002
{
1000
Det03
1002
}
1001
AUSTER_FOLIE
1002
{
1000
GERAEUSCHARMES_S2_CC
1000
BAHNSCHUETZ_ANSTEUERBAU_S2_CC
1002
}
  0
LINE
  5
1AA1
330
20
100
AcDbEntity
  8
11000_Left
  6
CENTER
 62
     7
 48
5.0
370
    13
100
AcDbLine
 39
0.25
 10
170.3280722453247
 20
160.9929559055076
 30
-1.0
 11
170.3280722453247
 21
161.2429559055076
 31
-1.0
1001
AUSTER_ANSICHT
1002
{
1000
Det03
1002
}
1001
AUSTER_FOLIE
1002
{
1000
GERAEUSCHARMES_S2_CC
1000
BAHNSCHUETZ_ANSTEUERBAU_S2_CC
1002
}
  0
LINE
  5
1AA2
330
20
100
AcDbEntity
  8
11000_Left
  6
CENTER
 62
     7
 48
5.0
370
    13
100
AcDbLine
 39
0.25
 10
170.8280722453246
 20
161.2429559055076
 30
-1.0
 11
170.3280722453247
 21
161.2429559055076
 31
-1.0
1001
AUSTER_ANSICHT
1002
{
1000
Det03
1002
}
1001
AUSTER_FOLIE
1002
{
1000
GERAEUSCHARMES_S2_CC
1000
BAHNSCHUETZ_ANSTEUERBAU_S2_CC
1002
}
  0
LINE
  5
1AA3
330
20
100
AcDbEntity
  8
11000_Left
  6
CENTER
 62
     7
 48
5.0
370
    13
100
AcDbLine
 39
0.25
 10
172.3280722453246
 20
159.0929559055076
 30
-1.0
 11
170.3280722453247
 21
157.0929559055076
 31
-1.0
1001
AUSTER_ANSICHT
1002
{
1000
Det03
1002
}
1001
AUSTER_FOLIE
1002
{
1000
GERAEUSCHARMES_S2_CC
1000
BAHNSCHUETZ_ANSTEUERBAU_S2_CC
1002
}
  0
ARC
  5
1AA4
330
20
100
AcDbEntity
  8
11000_Left
  6
CENTER
 62
     7
 48
5.0
370
    13
100
AcDbCircle
 39
0.25
 10
165.8280722453246
 20
158.0929559055076
 30
0.0
 40
1.0
100
AcDbArc
 50
90.0
 51
180.0
1001
AUSTER_ANSICHT
1002
{
1000
Det03
1002
}
1001
AUSTER_FOLIE
1002
{
1000
GERAEUSCHARMES_S2_CC
1000
BAHNSCHUETZ_ANSTEUERBAU_S2_CC
1002
}
  0
LINE
  5
1AA5
330
20
100
AcDbEntity
  8
11000_Left
  6
CENTER
 62
     7
 48
5.0
370
    13
100
AcDbLine
 39
0.25
 10
168.4280722453248
 20
159.0929559055076
 30
0.0
 11
165.8280722453246
 21
159.0929559055076
 31
0.0
1001
AUSTER_ANSICHT
1002
{
1000
Det03
1002
}
1001
AUSTER_FOLIE
1002
{
1000
GERAEUSCHARMES_S2_CC
1000
BAHNSCHUETZ_ANSTEUERBAU_S2_CC
1002
}
  0
LINE
  5
1AA6
330
20
100
AcDbEntity
  8
11000_Left
  6
CENTER
 62
     7
 48
5.0
370
    13
100
AcDbLine
 39
0.25
 10
164.8280722453247
 20
158.0929559055076
 30
0.0
 11
164.8280722453247
 21
135.0929559055076
 31
0.0
1001
AUSTER_ANSICHT
1002
{
1000
Det03
1002
}
1001
AUSTER_FOLIE
1002
{
1000
GERAEUSCHARMES_S2_CC
1000
BAHNSCHUETZ_ANSTEUERBAU_S2_CC
1002
}
  0
ARC
  5
1AA7
330
20
100
AcDbEntity
  8
11000_Left
  6
CENTER
 62
     7
 48
5.0
370
    13
100
AcDbCircle
 39
0.25
 10
168.3280722453247
 20
156.0929559055076
 30
-1.0
 40
1.0
100
AcDbArc
 50
90.0
 51
180.0
1001
AUSTER_ANSICHT
1002
{
1000
Det03
1002
}
1001
AUSTER_FOLIE
1002
{
1000
GERAEUSCHARMES_S2_CC
1000
BAHNSCHUETZ_ANSTEUERBAU_S2_CC
1002
}
  0
ARC
  5
1AA8
330
20
100
AcDbEntity
  8
11000_Left
  6
CENTER
 62
     7
 48
5.0
370
    13
100
AcDbCircle
 39
0.25
 10
168.3280722453247
 20
137.0929559055076
 30
-1.0
 40
1.0
100
AcDbArc
 50
180.0
 51
270.0
1001
AUSTER_ANSICHT
1002
{
1000
Det03
1002
}
1001
AUSTER_FOLIE
1002
{
1000
GERAEUSCHARMES_S2_CC
1000
BAHNSCHUETZ_ANSTEUERBAU_S2_CC
1002
}
  0
ARC
  5
1AA9
330
20
100
AcDbEntity
  8
11000_Left
  6
CENTER
 62
     7
 48
5.0
370
    13
100
AcDbCircle
 39
0.25
 10
168.4280722453248
 20
132.1929559055075
 30
-1.0
 40
1.9
100
AcDbArc
 50
0.0000000107542442
 51
90.0
1001
AUSTER_ANSICHT
1002
{
1000
Det03
1002
}
1001
AUSTER_FOLIE
1002
{
1000
GERAEUSCHARMES_S2_CC
1000
BAHNSCHUETZ_ANSTEUERBAU_S2_CC
1002
}
  0
ARC
  5
1AAA
330
20
100
AcDbEntity
  8
11000_Left
  6
CENTER
 62
     7
 48
5.0
370
    13
100
AcDbCircle
 39
0.25
 10
170.8280722453246
 20
131.4429559055076
 30
-1.0
 40
0.5
100
AcDbArc
 50
0.0
 51
90.0
1001
AUSTER_ANSICHT
1002
{
1000
Det03
1002
}
1001
AUSTER_FOLIE
1002
{
1000
GERAEUSCHARMES_S2_CC
1000
BAHNSCHUETZ_ANSTEUERBAU_S2_CC
1002
}
  0
LINE
  5
1AAB
330
20
100
AcDbEntity
  8
11000_Left
  6
CENTER
 62
     7
 48
5.0
370
    13
100
AcDbLine
 39
0.25
 10
167.3280722453248
 20
156.0929559055076
 30
-1.0
 11
167.3280722453248
 21
146.5929559055076
 31
-1.0
1001
AUSTER_ANSICHT
1002
{
1000
Det03
1002
}
1001
AUSTER_FOLIE
1002
{
1000
GERAEUSCHARMES_S2_CC
1000
BAHNSCHUETZ_ANSTEUERBAU_S2_CC
1002
}
  0
LINE
  5
1AAC
330
20
100
AcDbEntity
  8
11000_Left
  6
CENTER
 62
     7
 48
5.0
370
    13
100
AcDbLine
 39
0.25
 10
168.3280722453247
 20
157.0929559055076
 30
-1.0
 11
170.3280722453247
 21
157.0929559055076
 31
-1.0
1001
AUSTER_ANSICHT
1002
{
1000
Det03
1002
}
1001
AUSTER_FOLIE
1002
{
1000
GERAEUSCHARMES_S2_CC
1000
BAHNSCHUETZ_ANSTEUERBAU_S2_CC
1002
}
  0
LINE
  5
1AAD
330
20
100
AcDbEntity
  8
11000_Left
  6
CENTER
 62
     7
 48
5.0
370
    13
100
AcDbLine
 39
0.25
 10
170.3280722453247
 20
132.1929559055075
 30
-1.0
 11
170.3280722453247
 21
131.9429559055075
 31
-1.0
1001
AUSTER_ANSICHT
1002
{
1000
Det03
1002
}
1001
AUSTER_FOLIE
1002
{
1000
GERAEUSCHARMES_S2_CC
1000
BAHNSCHUETZ_ANSTEUERBAU_S2_CC
1002
}
  0
LINE
  5
1AAE
330
20
100
AcDbEntity
  8
11000_Left
  6
CENTER
 62
     7
 48
5.0
370
    13
100
AcDbLine
 39
0.25
 10
170.8280722453246
 20
131.9429559055075
 30
-1.0
 11
170.3280722453247
 21
131.9429559055075
 31
-1.0
1001
AUSTER_ANSICHT
1002
{
1000
Det03
1002
}
1001
AUSTER_FOLIE
1002
{
1000
GERAEUSCHARMES_S2_CC
1000
BAHNSCHUETZ_ANSTEUERBAU_S2_CC
1002
}
  0
LINE
  5
1AAF
330
20
100
AcDbEntity
  8
11000_Left
  6
CENTER
 62
     7
 48
5.0
370
    13
100
AcDbLine
 39
0.25
 10
172.3280722453246
 20
134.0929559055076
 30
-1.0
 11
170.3280722453247
 21
136.0929559055076
 31
-1.0
1001
AUSTER_ANSICHT
1002
{
1000
Det03
1002
}
1001
AUSTER_FOLIE
1002
{
1000
GERAEUSCHARMES_S2_CC
1000
BAHNSCHUETZ_ANSTEUERBAU_S2_CC
1002
}
  0
LINE
  5
1AB0
330
20
100
AcDbEntity
  8
11000_Left
  6
CENTER
 62
     7
 48
5.0
370
    13
100
AcDbLine
 39
0.25
 10
168.3280722453247
 20
136.0929559055076
 30
-1.0
 11
170.3280722453247
 21
136.0929559055076
 31
-1.0
1001
AUSTER_ANSICHT
1002
{
1000
Det03
1002
}
1001
AUSTER_FOLIE
1002
{
1000
GERAEUSCHARMES_S2_CC
1000
BAHNSCHUETZ_ANSTEUERBAU_S2_CC
1002
}
  0
LINE
  5
1AB1
330
20
100
AcDbEntity
  8
11000_Left
  6
CENTER
 62
     7
 48
5.0
370
    13
100
AcDbLine
 39
0.25
 10
167.3280722453248
 20
137.0929559055076
 30
-1.0
 11
167.3280722453248
 21
146.5929559055076
 31
-1.0
1001
AUSTER_ANSICHT
1002
{
1000
Det03
1002
}
1001
AUSTER_FOLIE
1002
{
1000
GERAEUSCHARMES_S2_CC
1000
BAHNSCHUETZ_ANSTEUERBAU_S2_CC
1002
}
  0
ARC
  5
1AB2
330
20
100
AcDbEntity
  8
11000_Left
  6
CENTER
 62
     7
 48
5.0
370
    13
100
AcDbCircle
 39
0.25
 10
165.8280722453246
 20
135.0929559055076
 30
0.0
 40
1.0
100
AcDbArc
 50
180.0
 51
270.0
1001
AUSTER_ANSICHT
1002
{
1000
Det03
1002
}
1001
AUSTER_FOLIE
1002
{
1000
GERAEUSCHARMES_S2_CC
1000
BAHNSCHUETZ_ANSTEUERBAU_S2_CC
1002
}
  0
LINE
  5
1AB3
330
20
100
AcDbEntity
  8
11000_Left
  6
CENTER
 62
     7
 48
5.0
370
    13
100
AcDbLine
 39
0.25
 10
168.4280722453248
 20
134.0929559055076
 30
0.0
 11
165.8280722453246
 21
134.0929559055076
 31
0.0
1001
AUSTER_ANSICHT
1002
{
1000
Det03
1002
}
1001
AUSTER_FOLIE
1002
{
1000
GERAEUSCHARMES_S2_CC
1000
BAHNSCHUETZ_ANSTEUERBAU_S2_CC
1002
}
  0
LINE
  5
1AB4
330
20
100
AcDbEntity
  8
11000_Left
  6
CENTER
 62
     7
 48
5.0
370
    13
100
AcDbLine
 39
0.25
 10
171.3280722453248
 20
131.4429559055076
 30
-1.0
 11
171.3280722453248
 21
128.9429559055074
 31
-1.0
1001
AUSTER_ANSICHT
1002
{
1000
Det03
1002
}
1001
AUSTER_FOLIE
1002
{
1000
GERAEUSCHARMES_S2_CC
1000
BAHNSCHUETZ_ANSTEUERBAU_S2_CC
1002
}
  0
LINE
  5
1AB5
330
20
100
AcDbEntity
  8
11000_Left
370
    13
100
AcDbLine
 39
0.35
 10
172.3280722453246
 20
164.2429559055076
 30
-1.0
 11
172.3280722453246
 21
159.0929559055076
 31
-1.0
1001
AUSTER_ANSICHT
1002
{
1000
Det03
1002
}
1001
AUSTER_FOLIE
1002
{
1000
GERAEUSCHARMES_S2_CC
1000
BAHNSCHUETZ_ANSTEUERBAU_S2_CC
1002
}
  0
LINE
  5
1AB6
330
20
100
AcDbEntity
  8
11000_Left
370
    50
100
AcDbLine
 39
0.35
 10
172.3280722453246
 20
128.9429559055074
 30
-1.0
 11
172.3280722453246
 21
134.0929559055076
 31
-1.0
1001
AUSTER_ANSICHT
1002
{
1000
Det03
1002
}
1001
AUSTER_FOLIE
1002
{
1000
GERAEUSCHARMES_S2_CC
1000
BAHNSCHUETZ_ANSTEUERBAU_S2_CC
1002
}
  0
LINE
  5
1AB7
330
20
100
AcDbEntity
  8
11000_Left
  6
Continuous
 62
     7
370
    13
100
AcDbLine
 39
0.5
 10
241.6283722453247
 20
172.4426619055076
 30
0.0
 11
241.6283722453247
 21
174.9426619055076
 31
0.0
1001
AUSTER_ANSICHT
1002
{
1000
Det03
1002
}
1001
AUSTER_FOLIE
1002
{
1000
GERAEUSCHARMES_S2_CC
1000
BAHNSCHUETZ_ANSTEUERBAU_S2_CC
1002
}
  0
ARC
  5
1BB2
330
20
100
AcDbEntity
  8
10000_Front
  6
Continuous
370
    13
100
AcDbCircle
 39
0.5
 10
104.2629230661217
 20
187.7426619055077
 30
0.0
 40
1.5
100
AcDbArc
 50
0.0
 51
90.0
1001
AUSTER_ANSICHT
1002
{
1000
Det03
1002
}
1001
AUSTER_FOLIE
1002
{
1000
GERAEUSCHARMES_S2_CC
1000
BAHNSCHUETZ_ANSTEUERBAU_S2_CC
1002
}
  0
LINE
  5
1C3F
330
20
100
AcDbEntity
  8
10000_Front
  6
Continuous
 62
     7
370
    13
100
AcDbLine
 39
0.5
 10
53.99792306612188
 20
196.5195619055075
 30
0.0
 11
53.99792306612188
 21
195.5272619055076
 31
0.0
1001
AUSTER_ANSICHT
1002
{
1000
Det03
1002
}
1001
AUSTER_FOLIE
1002
{
1000
GERAEUSCHARMES_S2_CC
1000
BAHNSCHUETZ_ANSTEUERBAU_S2_CC
1002
}
  0
LINE
  5
1C40
330
20
100
AcDbEntity
  8
10000_Front
  6
Continuous
 62
     7
370
    13
100
AcDbLine
 39
0.5
 10
55.02792306612178
 20
195.5272619055076
 30
0.0
 11
55.02792306612178
 21
196.5195619055075
 31
0.0
1001
AUSTER_ANSICHT
1002
{
1000
Det03
1002
}
1001
AUSTER_FOLIE
1002
{
1000
GERAEUSCHARMES_S2_CC
1000
BAHNSCHUETZ_ANSTEUERBAU_S2_CC
1002
}
  0
LINE
  5
1C41
330
20
100
AcDbEntity
  8
10000_Front
  6
Continuous
370
    50
100
AcDbLine
 39
0.5
 10
50.76292306612185
 20
197.7426619055077
 30
0.0
 11
50.76292306612185
 21
187.7429619055075
 31
0.0
1001
AUSTER_ANSICHT
1002
{
1000
Det03
1002
}
1001
AUSTER_FOLIE
1002
{
1000
GERAEUSCHARMES_S2_CC
1000
BAHNSCHUETZ_ANSTEUERBAU_S2_CC
1002
}
  0
LINE
  5
1C42
330
20
100
AcDbEntity
  8
10000_Front
  6
Continuous
370
    50
100
AcDbLine
 39
0.5
 10
105.7629230661218
 20
197.7426619055077
 30
0.0
 11
105.7629230661218
 21
188.2707619055077
 31
0.0
1001
AUSTER_ANSICHT
1002
{
1000
Det03
1002
}
1001
AUSTER_FOLIE
1002
{
1000
GERAEUSCHARMES_S2_CC
1000
BAHNSCHUETZ_ANSTEUERBAU_S2_CC
1002
}
  0
LINE
  5
1C43
330
20
100
AcDbEntity
  8
10000_Front
  6
Continuous
 62
     7
370
    13
100
AcDbLine
 39
0.5
 10
59.04392306612185
 20
198.8426619055077
 30
0.0
 11
59.04392306612185
 21
194.7426619055077
 31
0.0
1001
AUSTER_ANSICHT
1002
{
1000
Det03
1002
}
1001
AUSTER_FOLIE
1002
{
1000
GERAEUSCHARMES_S2_CC
1000
BAHNSCHUETZ_ANSTEUERBAU_S2_CC
1002
}
  0
LINE
  5
1C44
330
20
100
AcDbEntity
  8
10000_Front
  6
Continuous
 62
     7
370
    13
100
AcDbLine
 39
0.5
 10
96.26292306612185
 20
191.2444619055077
 30
0.0
 11
96.26292306612185
 21
198.8426619055077
 31
0.0
1001
AUSTER_ANSICHT
1002
{
1000
Det03
1002
}
1001
AUSTER_FOLIE
1002
{
1000
GERAEUSCHARMES_S2_CC
1000
BAHNSCHUETZ_ANSTEUERBAU_S2_CC
1002
}
  0
LINE
  5
1C45
330
20
100
AcDbEntity
  8
10000_Front
  6
Continuous
370
    13
100
AcDbLine
 39
0.5
 10
92.96292306612178
 20
191.2432619055076
 30
0.0
 11
92.96289688498669
 21
199.242661905422
 31
3.636268755651169
1001
AUSTER_ANSICHT
1002
{
1000
Det03
1002
}
1001
AUSTER_FOLIE
1002
{
1000
GERAEUSCHARMES_S2_CC
1000
BAHNSCHUETZ_ANSTEUERBAU_S2_CC
1002
}
  0
LINE
  5
1C46
330
20
100
AcDbEntity
  8
10000_Front
  6
Continuous
370
    50
100
AcDbLine
 39
0.5
 10
63.55820706612171
 20
202.2427239055076
 30
5.0
 11
63.55949333860795
 21
199.2426591613038
 31
3.63626750826369
1001
AUSTER_ANSICHT
1002
{
1000
Det03
1002
}
1001
AUSTER_FOLIE
1002
{
1000
GERAEUSCHARMES_S2_CC
1000
BAHNSCHUETZ_ANSTEUERBAU_S2_CC
1002
}
  0
CIRCLE
  5
1C48
330
20
100
AcDbEntity
  8
10000_Front
  6
Continuous
 62
     7
370
    13
100
AcDbCircle
 39
0.5
 10
54.51292306612185
 20
194.7426619055077
 30
0.0
 40
3.1
1001
AUSTER_ANSICHT
1002
{
1000
Det03
1002
}
1001
AUSTER_FOLIE
1002
{
1000
GERAEUSCHARMES_S2_CC
1000
BAHNSCHUETZ_ANSTEUERBAU_S2_CC
1002
}
  0
CIRCLE
  5
1C49
330
20
100
AcDbEntity
  8
10000_Front
  6
Continuous
 62
     7
370
    13
100
AcDbCircle
 39
0.5
 10
54.51292306612185
 20
194.7426619055077
 30
0.0
 40
3.1
1001
AUSTER_ANSICHT
1002
{
1000
Det03
1002
}
1001
AUSTER_FOLIE
1002
{
1000
GERAEUSCHARMES_S2_CC
1000
BAHNSCHUETZ_ANSTEUERBAU_S2_CC
1002
}
  0
CIRCLE
  5
1C4A
330
20
100
AcDbEntity
  8
10000_Front
  6
Continuous
370
    13
100
AcDbCircle
 39
0.5
 10
100.7629230661218
 20
194.2426619055077
 30
0.0
 40
2.5
1001
AUSTER_ANSICHT
1002
{
1000
Det03
1002
}
1001
AUSTER_FOLIE
1002
{
1000
GERAEUSCHARMES_S2_CC
1000
BAHNSCHUETZ_ANSTEUERBAU_S2_CC
1002
}
  0
LINE
  5
1C4C
330
20
100
AcDbEntity
  8
10000_Front
  6
Continuous
 62
     7
370
    13
100
AcDbLine
 39
0.5
 10
77.64718706612189
 20
114.1526619055078
 30
0.0
 11
77.64718706612189
 21
112.4300619055076
 31
0.0
1001
AUSTER_ANSICHT
1002
{
1000
Det03
1002
}
1001
AUSTER_FOLIE
1002
{
1000
GERAEUSCHARMES_S2_CC
1000
BAHNSCHUETZ_ANSTEUERBAU_S2_CC
1002
}
  0
LINE
  5
1C4D
330
20
100
AcDbEntity
  8
10000_Front
  6
Continuous
 62
     7
370
    13
100
AcDbLine
 39
0.5
 10
77.64718706612189
 20
114.1526619055078
 30
0.0
 11
77.64718706612189
 21
112.4300619055076
 31
0.0
1001
AUSTER_ANSICHT
1002
{
1000
Det03
1002
}
1001
AUSTER_FOLIE
1002
{
1000
GERAEUSCHARMES_S2_CC
1000
BAHNSCHUETZ_ANSTEUERBAU_S2_CC
1002
}
  0
LINE
  5
1C4E
330
20
100
AcDbEntity
  8
10000_Front
  6
Continuous
 62
     7
370
    13
100
AcDbLine
 39
0.5
 10
53.99792306612188
 20
195.3469619055076
 30
0.0
 11
51.72722306612188
 21
195.3469619055076
 31
0.0
1001
AUSTER_ANSICHT
1002
{
1000
Det03
1002
}
1001
AUSTER_FOLIE
1002
{
1000
GERAEUSCHARMES_S2_CC
1000
BAHNSCHUETZ_ANSTEUERBAU_S2_CC
1002
}
  0
LINE
  5
1C4F
330
20
100
AcDbEntity
  8
10000_Front
  6
Continuous
370
    13
100
AcDbLine
 39
0.5
 10
52.91293306612192
 20
191.2426619055077
 30
0.0
 11
66.71293306612188
 21
191.2426619055077
 31
0.0
1001
AUSTER_ANSICHT
1002
{
1000
Det03
1002
}
1001
AUSTER_FOLIE
1002
{
1000
GERAEUSCHARMES_S2_CC
1000
BAHNSCHUETZ_ANSTEUERBAU_S2_CC
1002
}
  0
LINE
  5
1C50
330
20
100
AcDbEntity
  8
10000_Front
  6
Continuous
370
    13
100
AcDbLine
 39
0.5
 10
67.21293306612188
 20
189.2426619055077
 30
0.0
 11
67.21293306612188
 21
190.7426619055077
 31
0.0
1001
AUSTER_ANSICHT
1002
{
1000
Det03
1002
}
1001
AUSTER_FOLIE
1002
{
1000
GERAEUSCHARMES_S2_CC
1000
BAHNSCHUETZ_ANSTEUERBAU_S2_CC
1002
}
  0
LINE
  5
1C51
330
20
100
AcDbEntity
  8
10000_Front
  6
Continuous
370
    13
100
AcDbLine
 39
0.5
 10
71.81293306612168
 20
189.2724619055077
 30
0.0
 11
71.81293306612168
 21
190.7426619055077
 31
0.0
1001
AUSTER_ANSICHT
1002
{
1000
Det03
1002
}
1001
AUSTER_FOLIE
1002
{
1000
GERAEUSCHARMES_S2_CC
1000
BAHNSCHUETZ_ANSTEUERBAU_S2_CC
1002
}
  0
LINE
  5
1C52
330
20
100
AcDbEntity
  8
10000_Front
  6
Continuous
370
    13
100
AcDbLine
 39
0.5
 10
72.31293206612197
 20
191.2426619055077
 30
0.0
 11
84.31293206612179
 21
191.2426619055077
 31
0.0
1001
AUSTER_ANSICHT
1002
{
1000
Det03
1002
}
1001
AUSTER_FOLIE
1002
{
1000
GERAEUSCHARMES_S2_CC
1000
BAHNSCHUETZ_ANSTEUERBAU_S2_CC
1002
}
  0
LINE
  5
1C53
330
20
100
AcDbEntity
  8
10000_Front
  6
Continuous
 62
     7
370
    13
100
AcDbLine
 39
0.5
 10
56.31838306612177
 20
179.3574619055076
 30
0.0
 11
60.16292306612188
 21
179.3574619055076
 31
0.0
1001
AUSTER_ANSICHT
1002
{
1000
Det03
1002
}
1001
AUSTER_FOLIE
1002
{
1000
GERAEUSCHARMES_S2_CC
1000
BAHNSCHUETZ_ANSTEUERBAU_S2_CC
1002
}
  0
LINE
  5
1C54
330
20
100
AcDbEntity
  8
10000_Front
  6
Continuous
 62
     7
370
    13
100
AcDbLine
 39
0.5
 10
60.16292306612188
 20
179.3574619055076
 30
0.0
 11
60.16292306612188
 21
181.0800619055077
 31
0.0
1001
AUSTER_ANSICHT
1002
{
1000
Det03
1002
}
1001
AUSTER_FOLIE
1002
{
1000
GERAEUSCHARMES_S2_CC
1000
BAHNSCHUETZ_ANSTEUERBAU_S2_CC
1002
}
  0
LINE
  5
1C55
330
20
100
AcDbEntity
  8
10000_Front
  6
Continuous
 62
     7
370
    13
100
AcDbLine
 39
0.5
 10
61.36292306612188
 20
181.0800619055077
 30
0.0
 11
61.36292306612188
 21
179.3574619055076
 31
0.0
1001
AUSTER_ANSICHT
1002
{
1000
Det03
1002
}
1001
AUSTER_FOLIE
1002
{
1000
GERAEUSCHARMES_S2_CC
1000
BAHNSCHUETZ_ANSTEUERBAU_S2_CC
1002
}
  0
LINE
  5
1C56
330
20
100
AcDbEntity
  8
10000_Front
  6
Continuous
 62
     7
370
    13
100
AcDbLine
 39
0.5
 10
61.36292306612188
 20
179.3574619055076
 30
0.0
 11
65.20746306612188
 21
179.3574619055076
 31
0.0
1001
AUSTER_ANSICHT
1002
{
1000
Det03
1002
}
1001
AUSTER_FOLIE
1002
{
1000
GERAEUSCHARMES_S2_CC
1000
BAHNSCHUETZ_ANSTEUERBAU_S2_CC
1002
}
  0
LINE
  5
1C57
330
20
100
AcDbEntity
  8
10000_Front
  6
Continuous
 62
     7
370
    13
100
AcDbLine
 39
0.5
 10
65.20746306612188
 20
177.9488619055076
 30
0.0
 11
61.36292306612188
 21
177.9488619055076
 31
0.0
1001
AUSTER_ANSICHT
1002
{
1000
Det03
1002
}
1001
AUSTER_FOLIE
1002
{
1000
GERAEUSCHARMES_S2_CC
1000
BAHNSCHUETZ_ANSTEUERBAU_S2_CC
1002
}
  0
LINE
  5
1C58
330
20
100
AcDbEntity
  8
10000_Front
  6
Continuous
 62
     7
370
    13
100
AcDbLine
 39
0.5
 10
61.36292306612188
 20
177.9488619055076
 30
0.0
 11
61.36292306612188
 21
176.2261619055076
 31
0.0
1001
AUSTER_ANSICHT
1002
{
1000
Det03
1002
}
1001
AUSTER_FOLIE
1002
{
1000
GERAEUSCHARMES_S2_CC
1000
BAHNSCHUETZ_ANSTEUERBAU_S2_CC
1002
}
  0
LINE
  5
1C59
330
20
100
AcDbEntity
  8
10000_Front
  6
Continuous
 62
     7
370
    13
100
AcDbLine
 39
0.5
 10
60.16292306612188
 20
176.2261619055076
 30
0.0
 11
60.16292306612188
 21
177.9488619055076
 31
0.0
1001
AUSTER_ANSICHT
1002
{
1000
Det03
1002
}
1001
AUSTER_FOLIE
1002
{
1000
GERAEUSCHARMES_S2_CC
1000
BAHNSCHUETZ_ANSTEUERBAU_S2_CC
1002
}
  0
LINE
  5
1C5A
330
20
100
AcDbEntity
  8
10000_Front
  6
Continuous
 62
     7
370
    13
100
AcDbLine
 39
0.5
 10
60.16292306612188
 20
177.9488619055076
 30
0.0
 11
56.31838306612177
 21
177.9488619055076
 31
0.0
1001
AUSTER_ANSICHT
1002
{
1000
Det03
1002
}
1001
AUSTER_FOLIE
1002
{
1000
GERAEUSCHARMES_S2_CC
1000
BAHNSCHUETZ_ANSTEUERBAU_S2_CC
1002
}
  0
LINE
  5
1C5B
330
20
100
AcDbEntity
  8
10000_Front
  6
Continuous
 62
     7
370
    13
100
AcDbLine
 39
0.5
 10
73.80264606612178
 20
179.3597619055075
 30
0.0
 11
77.64718706612189
 21
179.3597619055075
 31
0.0
1001
AUSTER_ANSICHT
1002
{
1000
Det03
1002
}
1001
AUSTER_FOLIE
1002
{
1000
GERAEUSCHARMES_S2_CC
1000
BAHNSCHUETZ_ANSTEUERBAU_S2_CC
1002
}
  0
LINE
  5
1C5C
330
20
100
AcDbEntity
  8
10000_Front
  6
Continuous
 62
     7
370
    13
100
AcDbLine
 39
0.5
 10
77.64718706612189
 20
179.3597619055075
 30
0.0
 11
77.64718706612189
 21
181.0823619055077
 31
0.0
1001
AUSTER_ANSICHT
1002
{
1000
Det03
1002
}
1001
AUSTER_FOLIE
1002
{
1000
GERAEUSCHARMES_S2_CC
1000
BAHNSCHUETZ_ANSTEUERBAU_S2_CC
1002
}
  0
LINE
  5
1C5D
330
20
100
AcDbEntity
  8
10000_Front
  6
Continuous
 62
     7
370
    13
100
AcDbLine
 39
0.5
 10
78.84718706612187
 20
181.0823619055077
 30
0.0
 11
78.84718706612187
 21
179.3597619055075
 31
0.0
1001
AUSTER_ANSICHT
1002
{
1000
Det03
1002
}
1001
AUSTER_FOLIE
1002
{
1000
GERAEUSCHARMES_S2_CC
1000
BAHNSCHUETZ_ANSTEUERBAU_S2_CC
1002
}
  0
LINE
  5
1C5E
330
20
100
AcDbEntity
  8
10000_Front
  6
Continuous
 62
     7
370
    13
100
AcDbLine
 39
0.5
 10
78.84718706612187
 20
179.3597619055075
 30
0.0
 11
82.69172936612187
 21
179.3597619055075
 31
0.0
1001
AUSTER_ANSICHT
1002
{
1000
Det03
1002
}
1001
AUSTER_FOLIE
1002
{
1000
GERAEUSCHARMES_S2_CC
1000
BAHNSCHUETZ_ANSTEUERBAU_S2_CC
1002
}
  0
LINE
  5
1C5F
330
20
100
AcDbEntity
  8
10000_Front
  6
Continuous
 62
     7
370
    13
100
AcDbLine
 39
0.5
 10
82.69172936612187
 20
177.9510619055077
 30
0.0
 11
78.84718706612187
 21
177.9510619055077
 31
0.0
1001
AUSTER_ANSICHT
1002
{
1000
Det03
1002
}
1001
AUSTER_FOLIE
1002
{
1000
GERAEUSCHARMES_S2_CC
1000
BAHNSCHUETZ_ANSTEUERBAU_S2_CC
1002
}
  0
LINE
  5
1C60
330
20
100
AcDbEntity
  8
10000_Front
  6
Continuous
 62
     7
370
    13
100
AcDbLine
 39
0.5
 10
78.84718706612187
 20
177.9510619055077
 30
0.0
 11
78.84718706612187
 21
176.2284619055076
 31
0.0
1001
AUSTER_ANSICHT
1002
{
1000
Det03
1002
}
1001
AUSTER_FOLIE
1002
{
1000
GERAEUSCHARMES_S2_CC
1000
BAHNSCHUETZ_ANSTEUERBAU_S2_CC
1002
}
  0
LINE
  5
1C61
330
20
100
AcDbEntity
  8
10000_Front
  6
Continuous
 62
     7
370
    13
100
AcDbLine
 39
0.5
 10
77.64718706612189
 20
176.2284619055076
 30
0.0
 11
77.64718706612189
 21
177.9510619055077
 31
0.0
1001
AUSTER_ANSICHT
1002
{
1000
Det03
1002
}
1001
AUSTER_FOLIE
1002
{
1000
GERAEUSCHARMES_S2_CC
1000
BAHNSCHUETZ_ANSTEUERBAU_S2_CC
1002
}
  0
LINE
  5
1C62
330
20
100
AcDbEntity
  8
10000_Front
  6
Continuous
 62
     7
370
    13
100
AcDbLine
 39
0.5
 10
77.64718706612189
 20
177.9510619055077
 30
0.0
 11
73.80264606612178
 21
177.9510619055077
 31
0.0
1001
AUSTER_ANSICHT
1002
{
1000
Det03
1002
}
1001
AUSTER_FOLIE
1002
{
1000
GERAEUSCHARMES_S2_CC
1000
BAHNSCHUETZ_ANSTEUERBAU_S2_CC
1002
}
  0
LINE
  5
1C63
330
20
100
AcDbEntity
  8
10000_Front
  6
Continuous
 62
     7
370
    13
100
AcDbLine
 39
0.5
 10
91.28691106612189
 20
179.3619619055075
 30
0.0
 11
95.13145306612187
 21
179.3619619055075
 31
0.0
1001
AUSTER_ANSICHT
1002
{
1000
Det03
1002
}
1001
AUSTER_FOLIE
1002
{
1000
GERAEUSCHARMES_S2_CC
1000
BAHNSCHUETZ_ANSTEUERBAU_S2_CC
1002
}
  0
LINE
  5
1C64
330
20
100
AcDbEntity
  8
10000_Front
  6
Continuous
 62
     7
370
    13
100
AcDbLine
 39
0.5
 10
95.13145306612187
 20
179.3619619055075
 30
0.0
 11
95.13145306612187
 21
181.0846619055077
 31
0.0
1001
AUSTER_ANSICHT
1002
{
1000
Det03
1002
}
1001
AUSTER_FOLIE
1002
{
1000
GERAEUSCHARMES_S2_CC
1000
BAHNSCHUETZ_ANSTEUERBAU_S2_CC
1002
}
  0
LINE
  5
1C65
330
20
100
AcDbEntity
  8
10000_Front
  6
Continuous
 62
     7
370
    13
100
AcDbLine
 39
0.5
 10
96.33145306612188
 20
181.0846619055077
 30
0.0
 11
96.33145306612188
 21
179.3619619055075
 31
0.0
1001
AUSTER_ANSICHT
1002
{
1000
Det03
1002
}
1001
AUSTER_FOLIE
1002
{
1000
GERAEUSCHARMES_S2_CC
1000
BAHNSCHUETZ_ANSTEUERBAU_S2_CC
1002
}
  0
LINE
  5
1C66
330
20
100
AcDbEntity
  8
10000_Front
  6
Continuous
 62
     7
370
    13
100
AcDbLine
 39
0.5
 10
96.33145306612188
 20
179.3619619055075
 30
0.0
 11
100.1759930661218
 21
179.3619619055075
 31
0.0
1001
AUSTER_ANSICHT
1002
{
1000
Det03
1002
}
1001
AUSTER_FOLIE
1002
{
1000
GERAEUSCHARMES_S2_CC
1000
BAHNSCHUETZ_ANSTEUERBAU_S2_CC
1002
}
  0
LINE
  5
1C67
330
20
100
AcDbEntity
  8
10000_Front
  6
Continuous
 62
     7
370
    13
100
AcDbLine
 39
0.5
 10
100.1759930661218
 20
177.9533619055077
 30
0.0
 11
96.33145306612188
 21
177.9533619055077
 31
0.0
1001
AUSTER_ANSICHT
1002
{
1000
Det03
1002
}
1001
AUSTER_FOLIE
1002
{
1000
GERAEUSCHARMES_S2_CC
1000
BAHNSCHUETZ_ANSTEUERBAU_S2_CC
1002
}
  0
LINE
  5
1C68
330
20
100
AcDbEntity
  8
10000_Front
  6
Continuous
 62
     7
370
    13
100
AcDbLine
 39
0.5
 10
96.33145306612188
 20
177.9533619055077
 30
0.0
 11
96.33145306612188
 21
176.2307619055076
 31
0.0
1001
AUSTER_ANSICHT
1002
{
1000
Det03
1002
}
1001
AUSTER_FOLIE
1002
{
1000
GERAEUSCHARMES_S2_CC
1000
BAHNSCHUETZ_ANSTEUERBAU_S2_CC
1002
}
  0
LINE
  5
1C69
330
20
100
AcDbEntity
  8
10000_Front
  6
Continuous
 62
     7
370
    13
100
AcDbLine
 39
0.5
 10
95.13145306612187
 20
176.2307619055076
 30
0.0
 11
95.13145306612187
 21
177.9533619055077
 31
0.0
1001
AUSTER_ANSICHT
1002
{
1000
Det03
1002
}
1001
AUSTER_FOLIE
1002
{
1000
GERAEUSCHARMES_S2_CC
1000
BAHNSCHUETZ_ANSTEUERBAU_S2_CC
1002
}
  0
LINE
  5
1C6A
330
20
100
AcDbEntity
  8
10000_Front
  6
Continuous
 62
     7
370
    13
100
AcDbLine
 39
0.5
 10
95.13145306612187
 20
177.9533619055077
 30
0.0
 11
91.28691106612189
 21
177.9533619055077
 31
0.0
1001
AUSTER_ANSICHT
1002
{
1000
Det03
1002
}
1001
AUSTER_FOLIE
1002
{
1000
GERAEUSCHARMES_S2_CC
1000
BAHNSCHUETZ_ANSTEUERBAU_S2_CC
1002
}
  0
LINE
  5
1C6B
330
20
100
AcDbEntity
  8
10000_Front
  6
Continuous
 62
     7
370
    13
100
AcDbLine
 39
0.5
 10
56.31838306612177
 20
114.1549619055074
 30
0.0
 11
60.16292306612188
 21
114.1549619055074
 31
0.0
1001
AUSTER_ANSICHT
1002
{
1000
Det03
1002
}
1001
AUSTER_FOLIE
1002
{
1000
GERAEUSCHARMES_S2_CC
1000
BAHNSCHUETZ_ANSTEUERBAU_S2_CC
1002
}
  0
LINE
  5
1C6C
330
20
100
AcDbEntity
  8
10000_Front
  6
Continuous
 62
     7
370
    13
100
AcDbLine
 39
0.5
 10
60.16292306612188
 20
114.1549619055074
 30
0.0
 11
60.16292306612188
 21
112.4323619055076
 31
0.0
1001
AUSTER_ANSICHT
1002
{
1000
Det03
1002
}
1001
AUSTER_FOLIE
1002
{
1000
GERAEUSCHARMES_S2_CC
1000
BAHNSCHUETZ_ANSTEUERBAU_S2_CC
1002
}
  0
LINE
  5
1C6D
330
20
100
AcDbEntity
  8
10000_Front
  6
Continuous
 62
     7
370
    13
100
AcDbLine
 39
0.5
 10
61.36292306612188
 20
112.4323619055076
 30
0.0
 11
61.36292306612188
 21
114.1549619055074
 31
0.0
1001
AUSTER_ANSICHT
1002
{
1000
Det03
1002
}
1001
AUSTER_FOLIE
1002
{
1000
GERAEUSCHARMES_S2_CC
1000
BAHNSCHUETZ_ANSTEUERBAU_S2_CC
1002
}
  0
LINE
  5
1C6E
330
20
100
AcDbEntity
  8
10000_Front
  6
Continuous
 62
     7
370
    13
100
AcDbLine
 39
0.5
 10
61.36292306612188
 20
114.1549619055074
 30
0.0
 11
65.20746306612188
 21
114.1549619055074
 31
0.0
1001
AUSTER_ANSICHT
1002
{
1000
Det03
1002
}
1001
AUSTER_FOLIE
1002
{
1000
GERAEUSCHARMES_S2_CC
1000
BAHNSCHUETZ_ANSTEUERBAU_S2_CC
1002
}
  0
LINE
  5
1C6F
330
20
100
AcDbEntity
  8
10000_Front
  6
Continuous
 62
     7
370
    13
100
AcDbLine
 39
0.5
 10
65.20746306612188
 20
115.5635619055077
 30
0.0
 11
61.36292306612188
 21
115.5635619055077
 31
0.0
1001
AUSTER_ANSICHT
1002
{
1000
Det03
1002
}
1001
AUSTER_FOLIE
1002
{
1000
GERAEUSCHARMES_S2_CC
1000
BAHNSCHUETZ_ANSTEUERBAU_S2_CC
1002
}
  0
LINE
  5
1C70
330
20
100
AcDbEntity
  8
10000_Front
  6
Continuous
 62
     7
370
    13
100
AcDbLine
 39
0.5
 10
61.36292306612188
 20
115.5635619055077
 30
0.0
 11
61.36292306612188
 21
117.2861619055076
 31
0.0
1001
AUSTER_ANSICHT
1002
{
1000
Det03
1002
}
1001
AUSTER_FOLIE
1002
{
1000
GERAEUSCHARMES_S2_CC
1000
BAHNSCHUETZ_ANSTEUERBAU_S2_CC
1002
}
  0
LINE
  5
1C71
330
20
100
AcDbEntity
  8
10000_Front
  6
Continuous
 62
     7
370
    13
100
AcDbLine
 39
0.5
 10
60.16292306612188
 20
117.2861619055076
 30
0.0
 11
60.16292306612188
 21
115.5635619055077
 31
0.0
1001
AUSTER_ANSICHT
1002
{
1000
Det03
1002
}
1001
AUSTER_FOLIE
1002
{
1000
GERAEUSCHARMES_S2_CC
1000
BAHNSCHUETZ_ANSTEUERBAU_S2_CC
1002
}
  0
LINE
  5
1C72
330
20
100
AcDbEntity
  8
10000_Front
  6
Continuous
 62
     7
370
    13
100
AcDbLine
 39
0.5
 10
60.16292306612188
 20
115.5635619055077
 30
0.0
 11
56.31838306612177
 21
115.5635619055077
 31
0.0
1001
AUSTER_ANSICHT
1002
{
1000
Det03
1002
}
1001
AUSTER_FOLIE
1002
{
1000
GERAEUSCHARMES_S2_CC
1000
BAHNSCHUETZ_ANSTEUERBAU_S2_CC
1002
}
  0
LINE
  5
1C73
330
20
100
AcDbEntity
  8
10000_Front
  6
Continuous
 62
     7
370
    13
100
AcDbLine
 39
0.5
 10
73.80264606612178
 20
114.1526619055078
 30
0.0
 11
77.64718706612189
 21
114.1526619055078
 31
0.0
1001
AUSTER_ANSICHT
1002
{
1000
Det03
1002
}
1001
AUSTER_FOLIE
1002
{
1000
GERAEUSCHARMES_S2_CC
1000
BAHNSCHUETZ_ANSTEUERBAU_S2_CC
1002
}
  0
LINE
  5
1C74
330
20
100
AcDbEntity
  8
10000_Front
  6
Continuous
 62
     7
370
    13
100
AcDbLine
 39
0.5
 10
77.64718706612189
 20
114.1526619055078
 30
0.0
 11
77.64718706612189
 21
112.4300619055076
 31
0.0
1001
AUSTER_ANSICHT
1002
{
1000
Det03
1002
}
1001
AUSTER_FOLIE
1002
{
1000
GERAEUSCHARMES_S2_CC
1000
BAHNSCHUETZ_ANSTEUERBAU_S2_CC
1002
}
  0
LINE
  5
1C75
330
20
100
AcDbEntity
  8
10000_Front
  6
Continuous
 62
     7
370
    13
100
AcDbLine
 39
0.5
 10
78.84718706612187
 20
112.4300619055076
 30
0.0
 11
78.84718706612187
 21
114.1526619055078
 31
0.0
1001
AUSTER_ANSICHT
1002
{
1000
Det03
1002
}
1001
AUSTER_FOLIE
1002
{
1000
GERAEUSCHARMES_S2_CC
1000
BAHNSCHUETZ_ANSTEUERBAU_S2_CC
1002
}
  0
LINE
  5
1C76
330
20
100
AcDbEntity
  8
10000_Front
  6
Continuous
 62
     7
370
    13
100
AcDbLine
 39
0.5
 10
78.84718706612187
 20
114.1526619055078
 30
0.0
 11
82.69172936612187
 21
114.1526619055078
 31
0.0
1001
AUSTER_ANSICHT
1002
{
1000
Det03
1002
}
1001
AUSTER_FOLIE
1002
{
1000
GERAEUSCHARMES_S2_CC
1000
BAHNSCHUETZ_ANSTEUERBAU_S2_CC
1002
}
  0
LINE
  5
1C77
330
20
100
AcDbEntity
  8
10000_Front
  6
Continuous
 62
     7
370
    13
100
AcDbLine
 39
0.5
 10
82.69172936612187
 20
115.5612619055077
 30
0.0
 11
78.84718706612187
 21
115.5612619055077
 31
0.0
1001
AUSTER_ANSICHT
1002
{
1000
Det03
1002
}
1001
AUSTER_FOLIE
1002
{
1000
GERAEUSCHARMES_S2_CC
1000
BAHNSCHUETZ_ANSTEUERBAU_S2_CC
1002
}
  0
LINE
  5
1C78
330
20
100
AcDbEntity
  8
10000_Front
  6
Continuous
 62
     7
370
    13
100
AcDbLine
 39
0.5
 10
78.84718706612187
 20
115.5612619055077
 30
0.0
 11
78.84718706612187
 21
117.2838619055076
 31
0.0
1001
AUSTER_ANSICHT
1002
{
1000
Det03
1002
}
1001
AUSTER_FOLIE
1002
{
1000
GERAEUSCHARMES_S2_CC
1000
BAHNSCHUETZ_ANSTEUERBAU_S2_CC
1002
}
  0
LINE
  5
1C79
330
20
100
AcDbEntity
  8
10000_Front
  6
Continuous
 62
     7
370
    13
100
AcDbLine
 39
0.5
 10
77.64718706612189
 20
117.2838619055076
 30
0.0
 11
77.64718706612189
 21
115.5612619055077
 31
0.0
1001
AUSTER_ANSICHT
1002
{
1000
Det03
1002
}
1001
AUSTER_FOLIE
1002
{
1000
GERAEUSCHARMES_S2_CC
1000
BAHNSCHUETZ_ANSTEUERBAU_S2_CC
1002
}
  0
LINE
  5
1C7A
330
20
100
AcDbEntity
  8
10000_Front
  6
Continuous
 62
     7
370
    13
100
AcDbLine
 39
0.5
 10
77.64718706612189
 20
115.5612619055077
 30
0.0
 11
73.80264606612178
 21
115.5612619055077
 31
0.0
1001
AUSTER_ANSICHT
1002
{
1000
Det03
1002
}
1001
AUSTER_FOLIE
1002
{
1000
GERAEUSCHARMES_S2_CC
1000
BAHNSCHUETZ_ANSTEUERBAU_S2_CC
1002
}
  0
LINE
  5
1C7B
330
20
100
AcDbEntity
  8
10000_Front
  6
Continuous
 62
     7
370
    13
100
AcDbLine
 39
0.5
 10
91.28691106612189
 20
114.1503619055075
 30
0.0
 11
95.13145306612187
 21
114.1503619055075
 31
0.0
1001
AUSTER_ANSICHT
1002
{
1000
Det03
1002
}
1001
AUSTER_FOLIE
1002
{
1000
GERAEUSCHARMES_S2_CC
1000
BAHNSCHUETZ_ANSTEUERBAU_S2_CC
1002
}
  0
LINE
  5
1C7C
330
20
100
AcDbEntity
  8
10000_Front
  6
Continuous
 62
     7
370
    13
100
AcDbLine
 39
0.5
 10
95.13145306612187
 20
114.1503619055075
 30
0.0
 11
95.13145306612187
 21
112.4277619055077
 31
0.0
1001
AUSTER_ANSICHT
1002
{
1000
Det03
1002
}
1001
AUSTER_FOLIE
1002
{
1000
GERAEUSCHARMES_S2_CC
1000
BAHNSCHUETZ_ANSTEUERBAU_S2_CC
1002
}
  0
LINE
  5
1C7D
330
20
100
AcDbEntity
  8
10000_Front
  6
Continuous
 62
     7
370
    13
100
AcDbLine
 39
0.5
 10
96.33145306612188
 20
112.4277619055077
 30
0.0
 11
96.33145306612188
 21
114.1503619055075
 31
0.0
1001
AUSTER_ANSICHT
1002
{
1000
Det03
1002
}
1001
AUSTER_FOLIE
1002
{
1000
GERAEUSCHARMES_S2_CC
1000
BAHNSCHUETZ_ANSTEUERBAU_S2_CC
1002
}
  0
LINE
  5
1C7E
330
20
100
AcDbEntity
  8
10000_Front
  6
Continuous
 62
     7
370
    13
100
AcDbLine
 39
0.5
 10
96.33145306612188
 20
114.1503619055075
 30
0.0
 11
100.1759930661218
 21
114.1503619055075
 31
0.0
1001
AUSTER_ANSICHT
1002
{
1000
Det03
1002
}
1001
AUSTER_FOLIE
1002
{
1000
GERAEUSCHARMES_S2_CC
1000
BAHNSCHUETZ_ANSTEUERBAU_S2_CC
1002
}
  0
LINE
  5
1C7F
330
20
100
AcDbEntity
  8
10000_Front
  6
Continuous
 62
     7
370
    13
100
AcDbLine
 39
0.5
 10
100.1759930661218
 20
115.5589619055078
 30
0.0
 11
96.33145306612188
 21
115.5589619055078
 31
0.0
1001
AUSTER_ANSICHT
1002
{
1000
Det03
1002
}
1001
AUSTER_FOLIE
1002
{
1000
GERAEUSCHARMES_S2_CC
1000
BAHNSCHUETZ_ANSTEUERBAU_S2_CC
1002
}
  0
LINE
  5
1C80
330
20
100
AcDbEntity
  8
10000_Front
  6
Continuous
 62
     7
370
    13
100
AcDbLine
 39
0.5
 10
96.33145306612188
 20
115.5589619055078
 30
0.0
 11
96.33145306612188
 21
117.2816619055075
 31
0.0
1001
AUSTER_ANSICHT
1002
{
1000
Det03
1002
}
1001
AUSTER_FOLIE
1002
{
1000
GERAEUSCHARMES_S2_CC
1000
BAHNSCHUETZ_ANSTEUERBAU_S2_CC
1002
}
  0
LINE
  5
1C81
330
20
100
AcDbEntity
  8
10000_Front
  6
Continuous
 62
     7
370
    13
100
AcDbLine
 39
0.5
 10
95.13145306612187
 20
117.2816619055075
 30
0.0
 11
95.13145306612187
 21
115.5589619055078
 31
0.0
1001
AUSTER_ANSICHT
1002
{
1000
Det03
1002
}
1001
AUSTER_FOLIE
1002
{
1000
GERAEUSCHARMES_S2_CC
1000
BAHNSCHUETZ_ANSTEUERBAU_S2_CC
1002
}
  0
LINE
  5
1C82
330
20
100
AcDbEntity
  8
10000_Front
  6
Continuous
 62
     7
370
    13
100
AcDbLine
 39
0.5
 10
95.13145306612187
 20
115.5589619055078
 30
0.0
 11
91.28691106612189
 21
115.5589619055078
 31
0.0
1001
AUSTER_ANSICHT
1002
{
1000
Det03
1002
}
1001
AUSTER_FOLIE
1002
{
1000
GERAEUSCHARMES_S2_CC
1000
BAHNSCHUETZ_ANSTEUERBAU_S2_CC
1002
}
  0
LINE
  5
1C83
330
20
100
AcDbEntity
  8
10000_Front
  6
Continuous
 62
     7
370
    13
100
AcDbLine
 39
0.5
 10
51.72722306612188
 20
194.1383619055076
 30
0.0
 11
53.99792306612188
 21
194.1383619055076
 31
0.0
1001
AUSTER_ANSICHT
1002
{
1000
Det03
1002
}
1001
AUSTER_FOLIE
1002
{
1000
GERAEUSCHARMES_S2_CC
1000
BAHNSCHUETZ_ANSTEUERBAU_S2_CC
1002
}
  0
LINE
  5
1C84
330
20
100
AcDbEntity
  8
10000_Front
  6
Continuous
 62
     7
370
    13
100
AcDbLine
 39
0.5
 10
55.02792306612178
 20
194.1383619055076
 30
0.0
 11
57.29862306612186
 21
194.1383619055076
 31
0.0
1001
AUSTER_ANSICHT
1002
{
1000
Det03
1002
}
1001
AUSTER_FOLIE
1002
{
1000
GERAEUSCHARMES_S2_CC
1000
BAHNSCHUETZ_ANSTEUERBAU_S2_CC
1002
}
  0
LINE
  5
1C85
330
20
100
AcDbEntity
  8
10000_Front
  6
Continuous
 62
     7
370
    13
100
AcDbLine
 39
0.5
 10
57.29862306612186
 20
195.3469619055076
 30
0.0
 11
55.02792306612178
 21
195.3469619055076
 31
0.0
1001
AUSTER_ANSICHT
1002
{
1000
Det03
1002
}
1001
AUSTER_FOLIE
1002
{
1000
GERAEUSCHARMES_S2_CC
1000
BAHNSCHUETZ_ANSTEUERBAU_S2_CC
1002
}
  0
LINE
  5
1C86
330
20
100
AcDbEntity
  8
10000_Front
  6
Continuous
 62
     7
370
    13
100
AcDbLine
 39
0.5
 10
55.02792306612178
 20
192.9657619055076
 30
0.0
 11
55.02792306612178
 21
193.9580619055075
 31
0.0
1001
AUSTER_ANSICHT
1002
{
1000
Det03
1002
}
1001
AUSTER_FOLIE
1002
{
1000
GERAEUSCHARMES_S2_CC
1000
BAHNSCHUETZ_ANSTEUERBAU_S2_CC
1002
}
  0
LINE
  5
1C87
330
20
100
AcDbEntity
  8
10000_Front
  6
Continuous
 62
     7
370
    13
100
AcDbLine
 39
0.5
 10
53.99792306612188
 20
193.9580619055075
 30
0.0
 11
53.99792306612188
 21
192.9657619055076
 31
0.0
1001
AUSTER_ANSICHT
1002
{
1000
Det03
1002
}
1001
AUSTER_FOLIE
1002
{
1000
GERAEUSCHARMES_S2_CC
1000
BAHNSCHUETZ_ANSTEUERBAU_S2_CC
1002
}
  0
LINE
  5
1C88
330
20
100
AcDbEntity
  8
10000_Front
  6
Continuous
 62
     7
370
    13
100
AcDbLine
 39
0.5
 10
55.02792306612178
 20
195.5272619055076
 30
0.0
 11
55.02792306612178
 21
195.3469619055076
 31
0.0
1001
AUSTER_ANSICHT
1002
{
1000
Det03
1002
}
1001
AUSTER_FOLIE
1002
{
1000
GERAEUSCHARMES_S2_CC
1000
BAHNSCHUETZ_ANSTEUERBAU_S2_CC
1002
}
  0
LINE
  5
1C89
330
20
100
AcDbEntity
  8
10000_Front
  6
Continuous
 62
     7
370
    13
100
AcDbLine
 39
0.5
 10
55.02792306612178
 20
193.9580619055075
 30
0.0
 11
55.02792306612178
 21
194.1383619055076
 31
0.0
1001
AUSTER_ANSICHT
1002
{
1000
Det03
1002
}
1001
AUSTER_FOLIE
1002
{
1000
GERAEUSCHARMES_S2_CC
1000
BAHNSCHUETZ_ANSTEUERBAU_S2_CC
1002
}
  0
LINE
  5
1C8A
330
20
100
AcDbEntity
  8
10000_Front
  6
Continuous
 62
     7
370
    13
100
AcDbLine
 39
0.5
 10
53.99792306612188
 20
195.5272619055076
 30
0.0
 11
53.99792306612188
 21
195.3469619055076
 31
0.0
1001
AUSTER_ANSICHT
1002
{
1000
Det03
1002
}
1001
AUSTER_FOLIE
1002
{
1000
GERAEUSCHARMES_S2_CC
1000
BAHNSCHUETZ_ANSTEUERBAU_S2_CC
1002
}
  0
LINE
  5
1C8B
330
20
100
AcDbEntity
  8
10000_Front
  6
Continuous
 62
     7
370
    13
100
AcDbLine
 39
0.5
 10
53.99792306612188
 20
193.9580619055075
 30
0.0
 11
53.99792306612188
 21
194.1383619055076
 31
0.0
1001
AUSTER_ANSICHT
1002
{
1000
Det03
1002
}
1001
AUSTER_FOLIE
1002
{
1000
GERAEUSCHARMES_S2_CC
1000
BAHNSCHUETZ_ANSTEUERBAU_S2_CC
1002
}
  0
LINE
  5
1C8C
330
20
100
AcDbEntity
  8
10000_Front
  6
Continuous
370
    13
100
AcDbLine
 39
0.5
 10
104.2629230661217
 20
189.2426619055077
 30
0.0
 11
52.26292306612186
 21
189.2426619055077
 31
0.0
1001
AUSTER_ANSICHT
1002
{
1000
Det03
1002
}
1001
AUSTER_FOLIE
1002
{
1000
GERAEUSCHARMES_S2_CC
1000
BAHNSCHUETZ_ANSTEUERBAU_S2_CC
1002
}
  0
LINE
  5
1C8D
330
20
100
AcDbEntity
  8
10000_Front
  6
Continuous
 62
     7
370
    13
100
AcDbLine
 39
0.5
 10
52.51428306612186
 20
190.2116619055076
 30
0.0
 11
51.26292306612185
 21
190.2116619055076
 31
0.0
1001
AUSTER_ANSICHT
1002
{
1000
Det03
1002
}
1001
AUSTER_FOLIE
1002
{
1000
GERAEUSCHARMES_S2_CC
1000
BAHNSCHUETZ_ANSTEUERBAU_S2_CC
1002
}
  0
LINE
  5
1C8E
330
20
100
AcDbEntity
  8
10000_Front
  6
Continuous
370
    13
100
AcDbLine
 39
0.5
 10
84.71293206612187
 20
189.2426619055077
 30
0.0
 11
84.71293206612187
 21
190.8426619055077
 31
0.0
1001
AUSTER_ANSICHT
1002
{
1000
Det03
1002
}
1001
AUSTER_FOLIE
1002
{
1000
GERAEUSCHARMES_S2_CC
1000
BAHNSCHUETZ_ANSTEUERBAU_S2_CC
1002
}
  0
LINE
  5
1C8F
330
20
100
AcDbEntity
  8
10000_Front
  6
Continuous
370
    13
100
AcDbLine
 39
0.5
 10
103.6129330661218
 20
191.2426619055077
 30
0.0
 11
89.71293206612187
 21
191.2426619055077
 31
0.0
1001
AUSTER_ANSICHT
1002
{
1000
Det03
1002
}
1001
AUSTER_FOLIE
1002
{
1000
GERAEUSCHARMES_S2_CC
1000
BAHNSCHUETZ_ANSTEUERBAU_S2_CC
1002
}
  0
LINE
  5
1C90
330
20
100
AcDbEntity
  8
10000_Front
  6
Continuous
370
    13
100
AcDbLine
 39
0.5
 10
89.31293206612188
 20
189.2426619055077
 30
0.0
 11
89.31293206612188
 21
190.8426619055077
 31
0.0
1001
AUSTER_ANSICHT
1002
{
1000
Det03
1002
}
1001
AUSTER_FOLIE
1002
{
1000
GERAEUSCHARMES_S2_CC
1000
BAHNSCHUETZ_ANSTEUERBAU_S2_CC
1002
}
  0
LINE
  5
1C91
330
20
100
AcDbEntity
  8
10000_Front
  6
Continuous
370
    13
100
AcDbLine
 39
0.5
 10
104.0129330661218
 20
190.8426619055077
 30
0.0
 11
104.0129330661218
 21
189.2426619055077
 31
0.0
1001
AUSTER_ANSICHT
1002
{
1000
Det03
1002
}
1001
AUSTER_FOLIE
1002
{
1000
GERAEUSCHARMES_S2_CC
1000
BAHNSCHUETZ_ANSTEUERBAU_S2_CC
1002
}
  0
LINE
  5
1C92
330
20
100
AcDbEntity
  8
10000_Front
  6
Continuous
370
    13
100
AcDbLine
 39
0.5
 10
52.51293306612185
 20
189.2426619055077
 30
0.0
 11
52.51293306612185
 21
190.8426619055077
 31
0.0
1001
AUSTER_ANSICHT
1002
{
1000
Det03
1002
}
1001
AUSTER_FOLIE
1002
{
1000
GERAEUSCHARMES_S2_CC
1000
BAHNSCHUETZ_ANSTEUERBAU_S2_CC
1002
}
  0
ARC
  5
1CA3
330
20
100
AcDbEntity
  8
10000_Front
  6
Continuous
370
    13
100
AcDbCircle
 39
0.5
 10
52.26292306612186
 20
187.7426619055077
 30
0.0
 40
1.5
100
AcDbArc
 50
89.99998999999899
 51
180.0
1001
AUSTER_ANSICHT
1002
{
1000
Det03
1002
}
1001
AUSTER_FOLIE
1002
{
1000
GERAEUSCHARMES_S2_CC
1000
BAHNSCHUETZ_ANSTEUERBAU_S2_CC
1002
}
  0
ARC
  5
1CA4
330
20
100
AcDbEntity
  8
10000_Front
  6
Continuous
370
    13
100
AcDbCircle
 39
0.5
 10
66.71293306612188
 20
190.7426619055077
 30
0.0
 40
0.5
100
AcDbArc
 50
0.0
 51
90.0
1001
AUSTER_ANSICHT
1002
{
1000
Det03
1002
}
1001
AUSTER_FOLIE
1002
{
1000
GERAEUSCHARMES_S2_CC
1000
BAHNSCHUETZ_ANSTEUERBAU_S2_CC
1002
}
  0
ARC
  5
1CA5
330
20
100
AcDbEntity
  8
10000_Front
  6
Continuous
370
    13
100
AcDbCircle
 39
0.5
 10
72.31293206612197
 20
190.7426619055077
 30
0.0
 40
0.5
100
AcDbArc
 50
90.0
 51
180.0
1001
AUSTER_ANSICHT
1002
{
1000
Det03
1002
}
1001
AUSTER_FOLIE
1002
{
1000
GERAEUSCHARMES_S2_CC
1000
BAHNSCHUETZ_ANSTEUERBAU_S2_CC
1002
}
  0
ARC
  5
1CA6
330
20
100
AcDbEntity
  8
10000_Front
  6
Continuous
370
    13
100
AcDbCircle
 39
0.5
 10
84.31293206612179
 20
190.8426619055077
 30
0.0
 40
0.4
100
AcDbArc
 50
0.0
 51
90.0
1001
AUSTER_ANSICHT
1002
{
1000
Det03
1002
}
1001
AUSTER_FOLIE
1002
{
1000
GERAEUSCHARMES_S2_CC
1000
BAHNSCHUETZ_ANSTEUERBAU_S2_CC
1002
}
  0
ARC
  5
1CA7
330
20
100
AcDbEntity
  8
10000_Front
  6
Continuous
 62
     7
370
    13
100
AcDbCircle
 39
0.5
 10
51.26292306612185
 20
189.7116619055076
 30
0.0
 40
0.5
100
AcDbArc
 50
90.0
 51
180.0
1001
AUSTER_ANSICHT
1002
{
1000
Det03
1002
}
1001
AUSTER_FOLIE
1002
{
1000
GERAEUSCHARMES_S2_CC
1000
BAHNSCHUETZ_ANSTEUERBAU_S2_CC
1002
}
  0
ARC
  5
1CA8
330
20
100
AcDbEntity
  8
10000_Front
  6
Continuous
370
    13
100
AcDbCircle
 39
0.5
 10
89.71293206612187
 20
190.8426619055077
 30
0.0
 40
0.4
100
AcDbArc
 50
90.0
 51
180.0
1001
AUSTER_ANSICHT
1002
{
1000
Det03
1002
}
1001
AUSTER_FOLIE
1002
{
1000
GERAEUSCHARMES_S2_CC
1000
BAHNSCHUETZ_ANSTEUERBAU_S2_CC
1002
}
  0
CIRCLE
  5
1CA9
330
20
100
AcDbEntity
  8
10000_Front
  6
Continuous
 62
     7
370
    13
100
AcDbCircle
 39
0.5
 10
60.76292306612188
 20
178.6531619055075
 30
0.0
 40
4.9
1001
AUSTER_ANSICHT
1002
{
1000
Det03
1002
}
1001
AUSTER_FOLIE
1002
{
1000
GERAEUSCHARMES_S2_CC
1000
BAHNSCHUETZ_ANSTEUERBAU_S2_CC
1002
}
  0
ARC
  5
1CAA
330
20
100
AcDbEntity
  8
10000_Front
  6
Continuous
 62
     7
370
    13
100
AcDbCircle
 39
0.5
 10
60.76292306612188
 20
178.6531619055075
 30
0.0
 40
4.5
100
AcDbArc
 50
170.9954999999984
 51
189.0045000000014
1001
AUSTER_ANSICHT
1002
{
1000
Det03
1002
}
1001
AUSTER_FOLIE
1002
{
1000
GERAEUSCHARMES_S2_CC
1000
BAHNSCHUETZ_ANSTEUERBAU_S2_CC
1002
}
  0
ARC
  5
1CAB
330
20
100
AcDbEntity
  8
10000_Front
  6
Continuous
 62
     7
370
    13
100
AcDbCircle
 39
0.5
 10
60.76292306612188
 20
178.6531619055075
 30
0.0
 40
4.5
100
AcDbArc
 50
350.9954999999985
 51
9.004500000001462
1001
AUSTER_ANSICHT
1002
{
1000
Det03
1002
}
1001
AUSTER_FOLIE
1002
{
1000
GERAEUSCHARMES_S2_CC
1000
BAHNSCHUETZ_ANSTEUERBAU_S2_CC
1002
}
  0
ARC
  5
1CAC
330
20
100
AcDbEntity
  8
10000_Front
  6
Continuous
 62
     7
370
    13
100
AcDbCircle
 39
0.5
 10
60.76292306612188
 20
178.6531619055075
 30
0.0
 40
2.5
100
AcDbArc
 50
76.11345999999959
 51
103.8865000000013
1001
AUSTER_ANSICHT
1002
{
1000
Det03
1002
}
1001
AUSTER_FOLIE
1002
{
1000
GERAEUSCHARMES_S2_CC
1000
BAHNSCHUETZ_ANSTEUERBAU_S2_CC
1002
}
  0
ARC
  5
1CAD
330
20
100
AcDbEntity
  8
10000_Front
  6
Continuous
 62
     7
370
    13
100
AcDbCircle
 39
0.5
 10
60.76292306612188
 20
178.6531619055075
 30
0.0
 40
2.5
100
AcDbArc
 50
256.1134999999987
 51
283.8865000000013
1001
AUSTER_ANSICHT
1002
{
1000
Det03
1002
}
1001
AUSTER_FOLIE
1002
{
1000
GERAEUSCHARMES_S2_CC
1000
BAHNSCHUETZ_ANSTEUERBAU_S2_CC
1002
}
  0
CIRCLE
  5
1CAE
330
20
100
AcDbEntity
  8
10000_Front
  6
Continuous
 62
     7
370
    13
100
AcDbCircle
 39
0.5
 10
78.24718706612168
 20
178.6554619055076
 30
0.0
 40
4.9
1001
AUSTER_ANSICHT
1002
{
1000
Det03
1002
}
1001
AUSTER_FOLIE
1002
{
1000
GERAEUSCHARMES_S2_CC
1000
BAHNSCHUETZ_ANSTEUERBAU_S2_CC
1002
}
  0
ARC
  5
1CAF
330
20
100
AcDbEntity
  8
10000_Front
  6
Continuous
 62
     7
370
    13
100
AcDbCircle
 39
0.5
 10
78.24718706612168
 20
178.6554619055076
 30
0.0
 40
4.5
100
AcDbArc
 50
170.9954999999984
 51
189.0045000000014
1001
AUSTER_ANSICHT
1002
{
1000
Det03
1002
}
1001
AUSTER_FOLIE
1002
{
1000
GERAEUSCHARMES_S2_CC
1000
BAHNSCHUETZ_ANSTEUERBAU_S2_CC
1002
}
  0
ARC
  5
1CB0
330
20
100
AcDbEntity
  8
10000_Front
  6
Continuous
 62
     7
370
    13
100
AcDbCircle
 39
0.5
 10
78.24718706612168
 20
178.6554619055076
 30
0.0
 40
4.5
100
AcDbArc
 50
350.9954999999985
 51
9.004500000001462
1001
AUSTER_ANSICHT
1002
{
1000
Det03
1002
}
1001
AUSTER_FOLIE
1002
{
1000
GERAEUSCHARMES_S2_CC
1000
BAHNSCHUETZ_ANSTEUERBAU_S2_CC
1002
}
  0
ARC
  5
1CB1
330
20
100
AcDbEntity
  8
10000_Front
  6
Continuous
 62
     7
370
    13
100
AcDbCircle
 39
0.5
 10
78.24718706612168
 20
178.6554619055076
 30
0.0
 40
2.5
100
AcDbArc
 50
76.11345999999959
 51
103.8865000000013
1001
AUSTER_ANSICHT
1002
{
1000
Det03
1002
}
1001
AUSTER_FOLIE
1002
{
1000
GERAEUSCHARMES_S2_CC
1000
BAHNSCHUETZ_ANSTEUERBAU_S2_CC
1002
}
  0
ARC
  5
1CB2
330
20
100
AcDbEntity
  8
10000_Front
  6
Continuous
 62
     7
370
    13
100
AcDbCircle
 39
0.5
 10
78.24718706612168
 20
178.6554619055076
 30
0.0
 40
2.5
100
AcDbArc
 50
256.1134999999987
 51
283.8865000000013
1001
AUSTER_ANSICHT
1002
{
1000
Det03
1002
}
1001
AUSTER_FOLIE
1002
{
1000
GERAEUSCHARMES_S2_CC
1000
BAHNSCHUETZ_ANSTEUERBAU_S2_CC
1002
}
  0
CIRCLE
  5
1CB3
330
20
100
AcDbEntity
  8
10000_Front
  6
Continuous
 62
     7
370
    13
100
AcDbCircle
 39
0.5
 10
95.73145306612179
 20
178.6576619055075
 30
0.0
 40
4.9
1001
AUSTER_ANSICHT
1002
{
1000
Det03
1002
}
1001
AUSTER_FOLIE
1002
{
1000
GERAEUSCHARMES_S2_CC
1000
BAHNSCHUETZ_ANSTEUERBAU_S2_CC
1002
}
  0
ARC
  5
1CB4
330
20
100
AcDbEntity
  8
10000_Front
  6
Continuous
 62
     7
370
    13
100
AcDbCircle
 39
0.5
 10
95.73145306612179
 20
178.6576619055075
 30
0.0
 40
4.5
100
AcDbArc
 50
170.9954999999984
 51
189.0045000000014
1001
AUSTER_ANSICHT
1002
{
1000
Det03
1002
}
1001
AUSTER_FOLIE
1002
{
1000
GERAEUSCHARMES_S2_CC
1000
BAHNSCHUETZ_ANSTEUERBAU_S2_CC
1002
}
  0
ARC
  5
1CB5
330
20
100
AcDbEntity
  8
10000_Front
  6
Continuous
 62
     7
370
    13
100
AcDbCircle
 39
0.5
 10
95.73145306612179
 20
178.6576619055075
 30
0.0
 40
4.5
100
AcDbArc
 50
350.9954999999985
 51
9.004500000001462
1001
AUSTER_ANSICHT
1002
{
1000
Det03
1002
}
1001
AUSTER_FOLIE
1002
{
1000
GERAEUSCHARMES_S2_CC
1000
BAHNSCHUETZ_ANSTEUERBAU_S2_CC
1002
}
  0
ARC
  5
1CB6
330
20
100
AcDbEntity
  8
10000_Front
  6
Continuous
 62
     7
370
    13
100
AcDbCircle
 39
0.5
 10
95.73145306612179
 20
178.6576619055075
 30
0.0
 40
2.5
100
AcDbArc
 50
76.11345999999959
 51
103.8865000000013
1001
AUSTER_ANSICHT
1002
{
1000
Det03
1002
}
1001
AUSTER_FOLIE
1002
{
1000
GERAEUSCHARMES_S2_CC
1000
BAHNSCHUETZ_ANSTEUERBAU_S2_CC
1002
}
  0
ARC
  5
1CB7
330
20
100
AcDbEntity
  8
10000_Front
  6
Continuous
 62
     7
370
    13
100
AcDbCircle
 39
0.5
 10
95.73145306612179
 20
178.6576619055075
 30
0.0
 40
2.5
100
AcDbArc
 50
256.1134999999987
 51
283.8865000000013
1001
AUSTER_ANSICHT
1002
{
1000
Det03
1002
}
1001
AUSTER_FOLIE
1002
{
1000
GERAEUSCHARMES_S2_CC
1000
BAHNSCHUETZ_ANSTEUERBAU_S2_CC
1002
}
  0
CIRCLE
  5
1CB8
330
20
100
AcDbEntity
  8
10000_Front
  6
Continuous
 62
     7
370
    13
100
AcDbCircle
 39
0.5
 10
60.76292306612188
 20
114.8592619055076
 30
0.0
 40
4.9
1001
AUSTER_ANSICHT
1002
{
1000
Det03
1002
}
1001
AUSTER_FOLIE
1002
{
1000
GERAEUSCHARMES_S2_CC
1000
BAHNSCHUETZ_ANSTEUERBAU_S2_CC
1002
}
  0
ARC
  5
1CB9
330
20
100
AcDbEntity
  8
10000_Front
  6
Continuous
 62
     7
370
    13
100
AcDbCircle
 39
0.5
 10
60.76292306612188
 20
114.8592619055076
 30
0.0
 40
4.5
100
AcDbArc
 50
170.9954999999984
 51
189.0045000000014
1001
AUSTER_ANSICHT
1002
{
1000
Det03
1002
}
1001
AUSTER_FOLIE
1002
{
1000
GERAEUSCHARMES_S2_CC
1000
BAHNSCHUETZ_ANSTEUERBAU_S2_CC
1002
}
  0
ARC
  5
1CBA
330
20
100
AcDbEntity
  8
10000_Front
  6
Continuous
 62
     7
370
    13
100
AcDbCircle
 39
0.5
 10
60.76292306612188
 20
114.8592619055076
 30
0.0
 40
4.5
100
AcDbArc
 50
350.9954999999985
 51
9.004500000001462
1001
AUSTER_ANSICHT
1002
{
1000
Det03
1002
}
1001
AUSTER_FOLIE
1002
{
1000
GERAEUSCHARMES_S2_CC
1000
BAHNSCHUETZ_ANSTEUERBAU_S2_CC
1002
}
  0
ARC
  5
1CBB
330
20
100
AcDbEntity
  8
10000_Front
  6
Continuous
 62
     7
370
    13
100
AcDbCircle
 39
0.5
 10
60.76292306612188
 20
114.8592619055076
 30
0.0
 40
2.5
100
AcDbArc
 50
256.1134999999987
 51
283.8865000000013
1001
AUSTER_ANSICHT
1002
{
1000
Det03
1002
}
1001
AUSTER_FOLIE
1002
{
1000
GERAEUSCHARMES_S2_CC
1000
BAHNSCHUETZ_ANSTEUERBAU_S2_CC
1002
}
  0
ARC
  5
1CBC
330
20
100
AcDbEntity
  8
10000_Front
  6
Continuous
 62
     7
370
    13
100
AcDbCircle
 39
0.5
 10
60.76292306612188
 20
114.8592619055076
 30
0.0
 40
2.5
100
AcDbArc
 50
76.11345999999959
 51
103.8865000000013
1001
AUSTER_ANSICHT
1002
{
1000
Det03
1002
}
1001
AUSTER_FOLIE
1002
{
1000
GERAEUSCHARMES_S2_CC
1000
BAHNSCHUETZ_ANSTEUERBAU_S2_CC
1002
}
  0
CIRCLE
  5
1CBD
330
20
100
AcDbEntity
  8
10000_Front
  6
Continuous
 62
     7
370
    13
100
AcDbCircle
 39
0.5
 10
78.24718706612168
 20
114.8569619055078
 30
0.0
 40
4.9
1001
AUSTER_ANSICHT
1002
{
1000
Det03
1002
}
1001
AUSTER_FOLIE
1002
{
1000
GERAEUSCHARMES_S2_CC
1000
BAHNSCHUETZ_ANSTEUERBAU_S2_CC
1002
}
  0
ARC
  5
1CBE
330
20
100
AcDbEntity
  8
10000_Front
  6
Continuous
 62
     7
370
    13
100
AcDbCircle
 39
0.5
 10
78.24718706612168
 20
114.8569619055078
 30
0.0
 40
4.5
100
AcDbArc
 50
170.9954999999984
 51
189.0045000000014
1001
AUSTER_ANSICHT
1002
{
1000
Det03
1002
}
1001
AUSTER_FOLIE
1002
{
1000
GERAEUSCHARMES_S2_CC
1000
BAHNSCHUETZ_ANSTEUERBAU_S2_CC
1002
}
  0
ARC
  5
1CBF
330
20
100
AcDbEntity
  8
10000_Front
  6
Continuous
 62
     7
370
    13
100
AcDbCircle
 39
0.5
 10
78.24718706612168
 20
114.8569619055078
 30
0.0
 40
4.5
100
AcDbArc
 50
350.9954999999985
 51
9.004500000001462
1001
AUSTER_ANSICHT
1002
{
1000
Det03
1002
}
1001
AUSTER_FOLIE
1002
{
1000
GERAEUSCHARMES_S2_CC
1000
BAHNSCHUETZ_ANSTEUERBAU_S2_CC
1002
}
  0
ARC
  5
1CC0
330
20
100
AcDbEntity
  8
10000_Front
  6
Continuous
 62
     7
370
    13
100
AcDbCircle
 39
0.5
 10
78.24718706612168
 20
114.8569619055078
 30
0.0
 40
2.5
100
AcDbArc
 50
256.1134999999987
 51
283.8865000000013
1001
AUSTER_ANSICHT
1002
{
1000
Det03
1002
}
1001
AUSTER_FOLIE
1002
{
1000
GERAEUSCHARMES_S2_CC
1000
BAHNSCHUETZ_ANSTEUERBAU_S2_CC
1002
}
  0
ARC
  5
1CC1
330
20
100
AcDbEntity
  8
10000_Front
  6
Continuous
 62
     7
370
    13
100
AcDbCircle
 39
0.5
 10
78.24718706612168
 20
114.8569619055078
 30
0.0
 40
2.5
100
AcDbArc
 50
76.11345999999959
 51
103.8865000000013
1001
AUSTER_ANSICHT
1002
{
1000
Det03
1002
}
1001
AUSTER_FOLIE
1002
{
1000
GERAEUSCHARMES_S2_CC
1000
BAHNSCHUETZ_ANSTEUERBAU_S2_CC
1002
}
  0
CIRCLE
  5
1CC2
330
20
100
AcDbEntity
  8
10000_Front
  6
Continuous
 62
     7
370
    13
100
AcDbCircle
 39
0.5
 10
95.73145306612179
 20
114.8546619055078
 30
0.0
 40
4.9
1001
AUSTER_ANSICHT
1002
{
1000
Det03
1002
}
1001
AUSTER_FOLIE
1002
{
1000
GERAEUSCHARMES_S2_CC
1000
BAHNSCHUETZ_ANSTEUERBAU_S2_CC
1002
}
  0
ARC
  5
1CC3
330
20
100
AcDbEntity
  8
10000_Front
  6
Continuous
 62
     7
370
    13
100
AcDbCircle
 39
0.5
 10
95.73145306612179
 20
114.8546619055078
 30
0.0
 40
4.5
100
AcDbArc
 50
170.9954999999984
 51
189.0045000000014
1001
AUSTER_ANSICHT
1002
{
1000
Det03
1002
}
1001
AUSTER_FOLIE
1002
{
1000
GERAEUSCHARMES_S2_CC
1000
BAHNSCHUETZ_ANSTEUERBAU_S2_CC
1002
}
  0
ARC
  5
1CC4
330
20
100
AcDbEntity
  8
10000_Front
  6
Continuous
 62
     7
370
    13
100
AcDbCircle
 39
0.5
 10
95.73145306612179
 20
114.8546619055078
 30
0.0
 40
4.5
100
AcDbArc
 50
350.9954999999985
 51
9.004500000001462
1001
AUSTER_ANSICHT
1002
{
1000
Det03
1002
}
1001
AUSTER_FOLIE
1002
{
1000
GERAEUSCHARMES_S2_CC
1000
BAHNSCHUETZ_ANSTEUERBAU_S2_CC
1002
}
  0
ARC
  5
1CC5
330
20
100
AcDbEntity
  8
10000_Front
  6
Continuous
 62
     7
370
    13
100
AcDbCircle
 39
0.5
 10
95.73145306612179
 20
114.8546619055078
 30
0.0
 40
2.5
100
AcDbArc
 50
256.1134999999987
 51
283.8865000000013
1001
AUSTER_ANSICHT
1002
{
1000
Det03
1002
}
1001
AUSTER_FOLIE
1002
{
1000
GERAEUSCHARMES_S2_CC
1000
BAHNSCHUETZ_ANSTEUERBAU_S2_CC
1002
}
  0
ARC
  5
1CC6
330
20
100
AcDbEntity
  8
10000_Front
  6
Continuous
 62
     7
370
    13
100
AcDbCircle
 39
0.5
 10
95.73145306612179
 20
114.8546619055078
 30
0.0
 40
2.5
100
AcDbArc
 50
76.11345999999959
 51
103.8865000000013
1001
AUSTER_ANSICHT
1002
{
1000
Det03
1002
}
1001
AUSTER_FOLIE
1002
{
1000
GERAEUSCHARMES_S2_CC
1000
BAHNSCHUETZ_ANSTEUERBAU_S2_CC
1002
}
  0
ARC
  5
1CC7
330
20
100
AcDbEntity
  8
10000_Front
  6
Continuous
 62
     7
370
    13
100
AcDbCircle
 39
0.5
 10
54.51292306612185
 20
194.7426619055077
 30
0.0
 40
2.850490999999998
100
AcDbArc
 50
167.7603999999987
 51
192.2396000000013
1001
AUSTER_ANSICHT
1002
{
1000
Det03
1002
}
1001
AUSTER_FOLIE
1002
{
1000
GERAEUSCHARMES_S2_CC
1000
BAHNSCHUETZ_ANSTEUERBAU_S2_CC
1002
}
  0
ARC
  5
1CC8
330
20
100
AcDbEntity
  8
10000_Front
  6
Continuous
 62
     7
370
    13
100
AcDbCircle
 39
0.5
 10
54.51292306612185
 20
194.7426619055077
 30
0.0
 40
1.85
100
AcDbArc
 50
253.8365999999994
 51
286.1633999999999
1001
AUSTER_ANSICHT
1002
{
1000
Det03
1002
}
1001
AUSTER_FOLIE
1002
{
1000
GERAEUSCHARMES_S2_CC
1000
BAHNSCHUETZ_ANSTEUERBAU_S2_CC
1002
}
  0
ARC
  5
1CC9
330
20
100
AcDbEntity
  8
10000_Front
  6
Continuous
 62
     7
370
    13
100
AcDbCircle
 39
0.5
 10
54.51292306612185
 20
194.7426619055077
 30
0.0
 40
2.850490999999998
100
AcDbArc
 50
347.7603999999987
 51
12.23960000000126
1001
AUSTER_ANSICHT
1002
{
1000
Det03
1002
}
1001
AUSTER_FOLIE
1002
{
1000
GERAEUSCHARMES_S2_CC
1000
BAHNSCHUETZ_ANSTEUERBAU_S2_CC
1002
}
  0
ARC
  5
1CCA
330
20
100
AcDbEntity
  8
10000_Front
  6
Continuous
 62
     7
370
    13
100
AcDbCircle
 39
0.5
 10
54.51292306612185
 20
194.7426619055077
 30
0.0
 40
4.530994999999998
100
AcDbArc
 50
310.0810000000008
 51
0.0
1001
AUSTER_ANSICHT
1002
{
1000
Det03
1002
}
1001
AUSTER_FOLIE
1002
{
1000
GERAEUSCHARMES_S2_CC
1000
BAHNSCHUETZ_ANSTEUERBAU_S2_CC
1002
}
  0
ARC
  5
1CCB
330
20
100
AcDbEntity
  8
10000_Front
  6
Continuous
370
    13
100
AcDbCircle
 39
0.5
 10
103.6129330661218
 20
190.8426619055077
 30
0.0
 40
0.4
100
AcDbArc
 50
0.0
 51
90.0
1001
AUSTER_ANSICHT
1002
{
1000
Det03
1002
}
1001
AUSTER_FOLIE
1002
{
1000
GERAEUSCHARMES_S2_CC
1000
BAHNSCHUETZ_ANSTEUERBAU_S2_CC
1002
}
  0
ARC
  5
1CCC
330
20
100
AcDbEntity
  8
10000_Front
  6
Continuous
370
    13
100
AcDbCircle
 39
0.5
 10
52.91293306612192
 20
190.8426619055077
 30
0.0
 40
0.4
100
AcDbArc
 50
90.0
 51
180.0
1001
AUSTER_ANSICHT
1002
{
1000
Det03
1002
}
1001
AUSTER_FOLIE
1002
{
1000
GERAEUSCHARMES_S2_CC
1000
BAHNSCHUETZ_ANSTEUERBAU_S2_CC
1002
}
  0
LINE
  5
1CCD
330
20
100
AcDbEntity
  8
10000_Front
  6
Continuous
 62
     7
370
    13
100
AcDbLine
 39
0.5
 10
55.76292306612188
 20
163.7426619055077
 30
0.0
 11
100.7629230661218
 21
163.7426619055077
 31
0.0
1001
AUSTER_ANSICHT
1002
{
1000
Det03
1002
}
1001
AUSTER_FOLIE
1002
{
1000
GERAEUSCHARMES_S2_CC
1000
BAHNSCHUETZ_ANSTEUERBAU_S2_CC
1002
}
  0
LINE
  5
1CCE
330
20
100
AcDbEntity
  8
10000_Front
  6
Continuous
 62
     7
370
    13
100
AcDbLine
 39
0.5
 10
100.7629230661218
 20
131.1426619055078
 30
0.0
 11
55.76292306612188
 21
131.1426619055078
 31
0.0
1001
AUSTER_ANSICHT
1002
{
1000
Det03
1002
}
1001
AUSTER_FOLIE
1002
{
1000
GERAEUSCHARMES_S2_CC
1000
BAHNSCHUETZ_ANSTEUERBAU_S2_CC
1002
}
  0
LINE
  5
1CCF
330
20
100
AcDbEntity
  8
10000_Front
  6
Continuous
 62
     7
370
    13
100
AcDbLine
 39
0.5
 10
58.16292306612186
 20
130.3472619055076
 30
0.0
 11
98.36292306612179
 21
130.3472619055076
 31
0.0
1001
AUSTER_ANSICHT
1002
{
1000
Det03
1002
}
1001
AUSTER_FOLIE
1002
{
1000
GERAEUSCHARMES_S2_CC
1000
BAHNSCHUETZ_ANSTEUERBAU_S2_CC
1002
}
  0
LINE
  5
1CD0
330
20
100
AcDbEntity
  8
10000_Front
  6
Continuous
 62
     7
370
    13
100
AcDbLine
 39
0.5
 10
78.26291106612187
 20
130.3472619055076
 30
0.0
 11
78.26291006612187
 21
122.8934619055076
 31
0.0
1001
AUSTER_ANSICHT
1002
{
1000
Det03
1002
}
1001
AUSTER_FOLIE
1002
{
1000
GERAEUSCHARMES_S2_CC
1000
BAHNSCHUETZ_ANSTEUERBAU_S2_CC
1002
}
  0
LINE
  5
1CD1
330
20
100
AcDbEntity
  8
10000_Front
  6
Continuous
 62
     7
370
    13
100
AcDbLine
 39
0.5
 10
99.94367306612179
 20
129.0221619055078
 30
0.0
 11
99.93604306612169
 21
122.8934619055076
 31
0.0
1001
AUSTER_ANSICHT
1002
{
1000
Det03
1002
}
1001
AUSTER_FOLIE
1002
{
1000
GERAEUSCHARMES_S2_CC
1000
BAHNSCHUETZ_ANSTEUERBAU_S2_CC
1002
}
  0
LINE
  5
1CD2
330
20
100
AcDbEntity
  8
10000_Front
  6
Continuous
 62
     7
370
    13
100
AcDbLine
 39
0.5
 10
99.93604306612169
 20
122.8934619055076
 30
0.0
 11
56.58978306612188
 21
122.8934619055076
 31
0.0
1001
AUSTER_ANSICHT
1002
{
1000
Det03
1002
}
1001
AUSTER_FOLIE
1002
{
1000
GERAEUSCHARMES_S2_CC
1000
BAHNSCHUETZ_ANSTEUERBAU_S2_CC
1002
}
  0
LINE
  5
1CD3
330
20
100
AcDbEntity
  8
10000_Front
  6
Continuous
 62
     7
370
    13
100
AcDbLine
 39
0.5
 10
56.58978306612188
 20
122.8934619055076
 30
0.0
 11
56.58217306612188
 21
129.0221619055078
 31
0.0
1001
AUSTER_ANSICHT
1002
{
1000
Det03
1002
}
1001
AUSTER_FOLIE
1002
{
1000
GERAEUSCHARMES_S2_CC
1000
BAHNSCHUETZ_ANSTEUERBAU_S2_CC
1002
}
  0
LINE
  5
1CD4
330
20
100
AcDbEntity
  8
10000_Front
  6
Continuous
 62
     7
370
    13
100
AcDbLine
 39
0.5
 10
55.76292306612188
 20
131.1426619055078
 30
0.0
 11
55.76292306612188
 21
163.7426619055077
 31
0.0
1001
AUSTER_ANSICHT
1002
{
1000
Det03
1002
}
1001
AUSTER_FOLIE
1002
{
1000
GERAEUSCHARMES_S2_CC
1000
BAHNSCHUETZ_ANSTEUERBAU_S2_CC
1002
}
  0
LINE
  5
1CD5
330
20
100
AcDbEntity
  8
10000_Front
  6
Continuous
 62
     7
370
    13
100
AcDbLine
 39
0.5
 10
100.7629230661218
 20
163.7426619055077
 30
0.0
 11
100.7629230661218
 21
131.1426619055078
 31
0.0
1001
AUSTER_ANSICHT
1002
{
1000
Det03
1002
}
1001
AUSTER_FOLIE
1002
{
1000
GERAEUSCHARMES_S2_CC
1000
BAHNSCHUETZ_ANSTEUERBAU_S2_CC
1002
}
  0
LINE
  5
1CD6
330
20
100
AcDbEntity
  8
10000_Front
  6
Continuous
 62
     7
370
    13
100
AcDbLine
 39
0.5
 10
57.41292306612185
 20
162.3566619055076
 30
0.0
 11
57.41292306612185
 21
158.8066619055076
 31
0.0
1001
AUSTER_ANSICHT
1002
{
1000
Det03
1002
}
1001
AUSTER_FOLIE
1002
{
1000
GERAEUSCHARMES_S2_CC
1000
BAHNSCHUETZ_ANSTEUERBAU_S2_CC
1002
}
  0
LINE
  5
1CD7
330
20
100
AcDbEntity
  8
10000_Front
  6
Continuous
 62
     7
370
    13
100
AcDbLine
 39
0.5
 10
57.41292306612185
 20
158.8066619055076
 30
0.0
 11
59.8129230661216
 21
158.8066619055076
 31
0.0
1001
AUSTER_ANSICHT
1002
{
1000
Det03
1002
}
1001
AUSTER_FOLIE
1002
{
1000
GERAEUSCHARMES_S2_CC
1000
BAHNSCHUETZ_ANSTEUERBAU_S2_CC
1002
}
  0
LINE
  5
1CD8
330
20
100
AcDbEntity
  8
10000_Front
  6
Continuous
 62
     7
370
    13
100
AcDbLine
 39
0.5
 10
64.21292306612179
 20
158.8066619055076
 30
0.0
 11
66.61292306612188
 21
158.8066619055076
 31
0.0
1001
AUSTER_ANSICHT
1002
{
1000
Det03
1002
}
1001
AUSTER_FOLIE
1002
{
1000
GERAEUSCHARMES_S2_CC
1000
BAHNSCHUETZ_ANSTEUERBAU_S2_CC
1002
}
  0
LINE
  5
1CD9
330
20
100
AcDbEntity
  8
10000_Front
  6
Continuous
 62
     7
370
    13
100
AcDbLine
 39
0.5
 10
66.61292306612188
 20
158.8066619055076
 30
0.0
 11
66.61292306612188
 21
162.3566619055076
 31
0.0
1001
AUSTER_ANSICHT
1002
{
1000
Det03
1002
}
1001
AUSTER_FOLIE
1002
{
1000
GERAEUSCHARMES_S2_CC
1000
BAHNSCHUETZ_ANSTEUERBAU_S2_CC
1002
}
  0
LINE
  5
1CDA
330
20
100
AcDbEntity
  8
10000_Front
  6
Continuous
 62
     7
370
    13
100
AcDbLine
 39
0.5
 10
68.41292306612188
 20
162.3566619055076
 30
0.0
 11
68.41292306612188
 21
158.8066619055076
 31
0.0
1001
AUSTER_ANSICHT
1002
{
1000
Det03
1002
}
1001
AUSTER_FOLIE
1002
{
1000
GERAEUSCHARMES_S2_CC
1000
BAHNSCHUETZ_ANSTEUERBAU_S2_CC
1002
}
  0
LINE
  5
1CDB
330
20
100
AcDbEntity
  8
10000_Front
  6
Continuous
 62
     7
370
    13
100
AcDbLine
 39
0.5
 10
68.41292306612188
 20
158.8066619055076
 30
0.0
 11
70.81292306612187
 21
158.8066619055076
 31
0.0
1001
AUSTER_ANSICHT
1002
{
1000
Det03
1002
}
1001
AUSTER_FOLIE
1002
{
1000
GERAEUSCHARMES_S2_CC
1000
BAHNSCHUETZ_ANSTEUERBAU_S2_CC
1002
}
  0
LINE
  5
1CDC
330
20
100
AcDbEntity
  8
10000_Front
  6
Continuous
 62
     7
370
    13
100
AcDbLine
 39
0.5
 10
75.21292706612188
 20
158.8066619055076
 30
0.0
 11
77.61292706612187
 21
158.8066619055076
 31
0.0
1001
AUSTER_ANSICHT
1002
{
1000
Det03
1002
}
1001
AUSTER_FOLIE
1002
{
1000
GERAEUSCHARMES_S2_CC
1000
BAHNSCHUETZ_ANSTEUERBAU_S2_CC
1002
}
  0
LINE
  5
1CDD
330
20
100
AcDbEntity
  8
10000_Front
  6
Continuous
 62
     7
370
    13
100
AcDbLine
 39
0.5
 10
77.61292706612187
 20
158.8066619055076
 30
0.0
 11
77.61292706612187
 21
162.3566619055076
 31
0.0
1001
AUSTER_ANSICHT
1002
{
1000
Det03
1002
}
1001
AUSTER_FOLIE
1002
{
1000
GERAEUSCHARMES_S2_CC
1000
BAHNSCHUETZ_ANSTEUERBAU_S2_CC
1002
}
  0
LINE
  5
1CDE
330
20
100
AcDbEntity
  8
10000_Front
  6
Continuous
 62
     7
370
    13
100
AcDbLine
 39
0.5
 10
79.41292706612187
 20
162.3566619055076
 30
0.0
 11
79.41292706612187
 21
158.8066619055076
 31
0.0
1001
AUSTER_ANSICHT
1002
{
1000
Det03
1002
}
1001
AUSTER_FOLIE
1002
{
1000
GERAEUSCHARMES_S2_CC
1000
BAHNSCHUETZ_ANSTEUERBAU_S2_CC
1002
}
  0
LINE
  5
1CDF
330
20
100
AcDbEntity
  8
10000_Front
  6
Continuous
 62
     7
370
    13
100
AcDbLine
 39
0.5
 10
79.41292706612187
 20
158.8066619055076
 30
0.0
 11
81.81292740612176
 21
158.8066619055076
 31
0.0
1001
AUSTER_ANSICHT
1002
{
1000
Det03
1002
}
1001
AUSTER_FOLIE
1002
{
1000
GERAEUSCHARMES_S2_CC
1000
BAHNSCHUETZ_ANSTEUERBAU_S2_CC
1002
}
  0
LINE
  5
1CE0
330
20
100
AcDbEntity
  8
10000_Front
  6
Continuous
 62
     7
370
    13
100
AcDbLine
 39
0.5
 10
86.21292706612187
 20
158.8066619055076
 30
0.0
 11
88.61292706612188
 21
158.8066619055076
 31
0.0
1001
AUSTER_ANSICHT
1002
{
1000
Det03
1002
}
1001
AUSTER_FOLIE
1002
{
1000
GERAEUSCHARMES_S2_CC
1000
BAHNSCHUETZ_ANSTEUERBAU_S2_CC
1002
}
  0
LINE
  5
1CE1
330
20
100
AcDbEntity
  8
10000_Front
  6
Continuous
 62
     7
370
    13
100
AcDbLine
 39
0.5
 10
88.61292706612188
 20
158.8066619055076
 30
0.0
 11
88.61292706612188
 21
162.3566619055076
 31
0.0
1001
AUSTER_ANSICHT
1002
{
1000
Det03
1002
}
1001
AUSTER_FOLIE
1002
{
1000
GERAEUSCHARMES_S2_CC
1000
BAHNSCHUETZ_ANSTEUERBAU_S2_CC
1002
}
  0
LINE
  5
1CE2
330
20
100
AcDbEntity
  8
10000_Front
  6
Continuous
 62
     7
370
    13
100
AcDbLine
 39
0.5
 10
90.41292706612187
 20
162.3566619055076
 30
0.0
 11
90.41292706612187
 21
158.8066619055076
 31
0.0
1001
AUSTER_ANSICHT
1002
{
1000
Det03
1002
}
1001
AUSTER_FOLIE
1002
{
1000
GERAEUSCHARMES_S2_CC
1000
BAHNSCHUETZ_ANSTEUERBAU_S2_CC
1002
}
  0
LINE
  5
1CE3
330
20
100
AcDbEntity
  8
10000_Front
  6
Continuous
 62
     7
370
    13
100
AcDbLine
 39
0.5
 10
90.41292706612187
 20
158.8066619055076
 30
0.0
 11
92.8129230661217
 21
158.8066619055076
 31
0.0
1001
AUSTER_ANSICHT
1002
{
1000
Det03
1002
}
1001
AUSTER_FOLIE
1002
{
1000
GERAEUSCHARMES_S2_CC
1000
BAHNSCHUETZ_ANSTEUERBAU_S2_CC
1002
}
  0
LINE
  5
1CE4
330
20
100
AcDbEntity
  8
10000_Front
  6
Continuous
 62
     7
370
    13
100
AcDbLine
 39
0.5
 10
97.21292306612179
 20
158.8066619055076
 30
0.0
 11
99.61292306612179
 21
158.8066619055076
 31
0.0
1001
AUSTER_ANSICHT
1002
{
1000
Det03
1002
}
1001
AUSTER_FOLIE
1002
{
1000
GERAEUSCHARMES_S2_CC
1000
BAHNSCHUETZ_ANSTEUERBAU_S2_CC
1002
}
  0
LINE
  5
1CE5
330
20
100
AcDbEntity
  8
10000_Front
  6
Continuous
 62
     7
370
    13
100
AcDbLine
 39
0.5
 10
99.61292306612179
 20
158.8066619055076
 30
0.0
 11
99.61292306612179
 21
162.3566619055076
 31
0.0
1001
AUSTER_ANSICHT
1002
{
1000
Det03
1002
}
1001
AUSTER_FOLIE
1002
{
1000
GERAEUSCHARMES_S2_CC
1000
BAHNSCHUETZ_ANSTEUERBAU_S2_CC
1002
}
  0
LINE
  5
1CE6
330
20
100
AcDbEntity
  8
10000_Front
  6
Continuous
 62
     7
370
    13
100
AcDbLine
 39
0.5
 10
59.76292306612188
 20
148.6066619055076
 30
0.0
 11
60.08246306612186
 21
148.9066619055077
 31
0.0
1001
AUSTER_ANSICHT
1002
{
1000
Det03
1002
}
1001
AUSTER_FOLIE
1002
{
1000
GERAEUSCHARMES_S2_CC
1000
BAHNSCHUETZ_ANSTEUERBAU_S2_CC
1002
}
  0
LINE
  5
1CE7
330
20
100
AcDbEntity
  8
10000_Front
  6
Continuous
 62
     7
370
    13
100
AcDbLine
 39
0.5
 10
60.08246306612186
 20
148.9066619055077
 30
0.0
 11
63.94339306612188
 21
148.9066619055077
 31
0.0
1001
AUSTER_ANSICHT
1002
{
1000
Det03
1002
}
1001
AUSTER_FOLIE
1002
{
1000
GERAEUSCHARMES_S2_CC
1000
BAHNSCHUETZ_ANSTEUERBAU_S2_CC
1002
}
  0
LINE
  5
1CE8
330
20
100
AcDbEntity
  8
10000_Front
  6
Continuous
 62
     7
370
    13
100
AcDbLine
 39
0.5
 10
63.94339306612188
 20
148.9066619055077
 30
0.0
 11
64.26292306612179
 21
148.6066619055076
 31
0.0
1001
AUSTER_ANSICHT
1002
{
1000
Det03
1002
}
1001
AUSTER_FOLIE
1002
{
1000
GERAEUSCHARMES_S2_CC
1000
BAHNSCHUETZ_ANSTEUERBAU_S2_CC
1002
}
  0
LINE
  5
1CE9
330
20
100
AcDbEntity
  8
10000_Front
  6
Continuous
 62
     7
370
    13
100
AcDbLine
 39
0.5
 10
64.26292306612179
 20
148.6066619055076
 30
0.0
 11
64.26292306612179
 21
143.2066619055076
 31
0.0
1001
AUSTER_ANSICHT
1002
{
1000
Det03
1002
}
1001
AUSTER_FOLIE
1002
{
1000
GERAEUSCHARMES_S2_CC
1000
BAHNSCHUETZ_ANSTEUERBAU_S2_CC
1002
}
  0
LINE
  5
1CEA
330
20
100
AcDbEntity
  8
10000_Front
  6
Continuous
 62
     7
370
    13
100
AcDbLine
 39
0.5
 10
64.26292306612179
 20
143.2066619055076
 30
0.0
 11
59.76292306612188
 21
143.2066619055076
 31
0.0
1001
AUSTER_ANSICHT
1002
{
1000
Det03
1002
}
1001
AUSTER_FOLIE
1002
{
1000
GERAEUSCHARMES_S2_CC
1000
BAHNSCHUETZ_ANSTEUERBAU_S2_CC
1002
}
  0
LINE
  5
1CEB
330
20
100
AcDbEntity
  8
10000_Front
  6
Continuous
 62
     7
370
    13
100
AcDbLine
 39
0.5
 10
59.76292306612188
 20
143.2066619055076
 30
0.0
 11
59.76292306612188
 21
148.6066619055076
 31
0.0
1001
AUSTER_ANSICHT
1002
{
1000
Det03
1002
}
1001
AUSTER_FOLIE
1002
{
1000
GERAEUSCHARMES_S2_CC
1000
BAHNSCHUETZ_ANSTEUERBAU_S2_CC
1002
}
  0
LINE
  5
1CEC
330
20
100
AcDbEntity
  8
10000_Front
  6
Continuous
 62
     7
370
    13
100
AcDbLine
 39
0.5
 10
58.11292306612187
 20
154.3066619055077
 30
0.0
 11
59.8129230661216
 21
154.3066619055077
 31
0.0
1001
AUSTER_ANSICHT
1002
{
1000
Det03
1002
}
1001
AUSTER_FOLIE
1002
{
1000
GERAEUSCHARMES_S2_CC
1000
BAHNSCHUETZ_ANSTEUERBAU_S2_CC
1002
}
  0
LINE
  5
1CED
330
20
100
AcDbEntity
  8
10000_Front
  6
Continuous
 62
     7
370
    13
100
AcDbLine
 39
0.5
 10
59.41292306612186
 20
140.1066619055076
 30
0.0
 11
59.41292306612186
 21
135.8566619055076
 31
0.0
1001
AUSTER_ANSICHT
1002
{
1000
Det03
1002
}
1001
AUSTER_FOLIE
1002
{
1000
GERAEUSCHARMES_S2_CC
1000
BAHNSCHUETZ_ANSTEUERBAU_S2_CC
1002
}
  0
LINE
  5
1CEE
330
20
100
AcDbEntity
  8
10000_Front
  6
Continuous
 62
     7
370
    13
100
AcDbLine
 39
0.5
 10
64.61292306612188
 20
135.8566619055076
 30
0.0
 11
64.61292306612188
 21
140.1066619055076
 31
0.0
1001
AUSTER_ANSICHT
1002
{
1000
Det03
1002
}
1001
AUSTER_FOLIE
1002
{
1000
GERAEUSCHARMES_S2_CC
1000
BAHNSCHUETZ_ANSTEUERBAU_S2_CC
1002
}
  0
LINE
  5
1CEF
330
20
100
AcDbEntity
  8
10000_Front
  6
Continuous
 62
     7
370
    13
100
AcDbLine
 39
0.5
 10
70.76292306612177
 20
148.6066619055076
 30
0.0
 11
71.08246306612187
 21
148.9066619055077
 31
0.0
1001
AUSTER_ANSICHT
1002
{
1000
Det03
1002
}
1001
AUSTER_FOLIE
1002
{
1000
GERAEUSCHARMES_S2_CC
1000
BAHNSCHUETZ_ANSTEUERBAU_S2_CC
1002
}
  0
LINE
  5
1CF0
330
20
100
AcDbEntity
  8
10000_Front
  6
Continuous
 62
     7
370
    13
100
AcDbLine
 39
0.5
 10
71.08246306612187
 20
148.9066619055077
 30
0.0
 11
74.94339606612188
 21
148.9066619055077
 31
0.0
1001
AUSTER_ANSICHT
1002
{
1000
Det03
1002
}
1001
AUSTER_FOLIE
1002
{
1000
GERAEUSCHARMES_S2_CC
1000
BAHNSCHUETZ_ANSTEUERBAU_S2_CC
1002
}
  0
LINE
  5
1CF1
330
20
100
AcDbEntity
  8
10000_Front
  6
Continuous
 62
     7
370
    13
100
AcDbLine
 39
0.5
 10
74.94339606612188
 20
148.9066619055077
 30
0.0
 11
75.2629270661218
 21
148.6066619055076
 31
0.0
1001
AUSTER_ANSICHT
1002
{
1000
Det03
1002
}
1001
AUSTER_FOLIE
1002
{
1000
GERAEUSCHARMES_S2_CC
1000
BAHNSCHUETZ_ANSTEUERBAU_S2_CC
1002
}
  0
LINE
  5
1CF2
330
20
100
AcDbEntity
  8
10000_Front
  6
Continuous
 62
     7
370
    13
100
AcDbLine
 39
0.5
 10
75.2629270661218
 20
148.6066619055076
 30
0.0
 11
75.2629270661218
 21
143.2066619055076
 31
0.0
1001
AUSTER_ANSICHT
1002
{
1000
Det03
1002
}
1001
AUSTER_FOLIE
1002
{
1000
GERAEUSCHARMES_S2_CC
1000
BAHNSCHUETZ_ANSTEUERBAU_S2_CC
1002
}
  0
LINE
  5
1CF3
330
20
100
AcDbEntity
  8
10000_Front
  6
Continuous
 62
     7
370
    13
100
AcDbLine
 39
0.5
 10
75.2629270661218
 20
143.2066619055076
 30
0.0
 11
70.76292306612177
 21
143.2066619055076
 31
0.0
1001
AUSTER_ANSICHT
1002
{
1000
Det03
1002
}
1001
AUSTER_FOLIE
1002
{
1000
GERAEUSCHARMES_S2_CC
1000
BAHNSCHUETZ_ANSTEUERBAU_S2_CC
1002
}
  0
LINE
  5
1CF4
330
20
100
AcDbEntity
  8
10000_Front
  6
Continuous
 62
     7
370
    13
100
AcDbLine
 39
0.5
 10
70.76292306612177
 20
143.2066619055076
 30
0.0
 11
70.76292306612177
 21
148.6066619055076
 31
0.0
1001
AUSTER_ANSICHT
1002
{
1000
Det03
1002
}
1001
AUSTER_FOLIE
1002
{
1000
GERAEUSCHARMES_S2_CC
1000
BAHNSCHUETZ_ANSTEUERBAU_S2_CC
1002
}
  0
LINE
  5
1CF5
330
20
100
AcDbEntity
  8
10000_Front
  6
Continuous
 62
     7
370
    13
100
AcDbLine
 39
0.5
 10
69.11292306612188
 20
154.3066619055077
 30
0.0
 11
70.81292306612187
 21
154.3066619055077
 31
0.0
1001
AUSTER_ANSICHT
1002
{
1000
Det03
1002
}
1001
AUSTER_FOLIE
1002
{
1000
GERAEUSCHARMES_S2_CC
1000
BAHNSCHUETZ_ANSTEUERBAU_S2_CC
1002
}
  0
LINE
  5
1CF6
330
20
100
AcDbEntity
  8
10000_Front
  6
Continuous
 62
     7
370
    13
100
AcDbLine
 39
0.5
 10
65.91292306612188
 20
154.3066619055077
 30
0.0
 11
64.21292306612179
 21
154.3066619055077
 31
0.0
1001
AUSTER_ANSICHT
1002
{
1000
Det03
1002
}
1001
AUSTER_FOLIE
1002
{
1000
GERAEUSCHARMES_S2_CC
1000
BAHNSCHUETZ_ANSTEUERBAU_S2_CC
1002
}
  0
LINE
  5
1CF7
330
20
100
AcDbEntity
  8
10000_Front
  6
Continuous
 62
     7
370
    13
100
AcDbLine
 39
0.5
 10
76.91292706612187
 20
154.3066619055077
 30
0.0
 11
75.21292706612188
 21
154.3066619055077
 31
0.0
1001
AUSTER_ANSICHT
1002
{
1000
Det03
1002
}
1001
AUSTER_FOLIE
1002
{
1000
GERAEUSCHARMES_S2_CC
1000
BAHNSCHUETZ_ANSTEUERBAU_S2_CC
1002
}
  0
LINE
  5
1CF8
330
20
100
AcDbEntity
  8
10000_Front
  6
Continuous
 62
     7
370
    13
100
AcDbLine
 39
0.5
 10
70.41292306612188
 20
140.1066619055076
 30
0.0
 11
70.41292306612188
 21
135.8566619055076
 31
0.0
1001
AUSTER_ANSICHT
1002
{
1000
Det03
1002
}
1001
AUSTER_FOLIE
1002
{
1000
GERAEUSCHARMES_S2_CC
1000
BAHNSCHUETZ_ANSTEUERBAU_S2_CC
1002
}
  0
LINE
  5
1CF9
330
20
100
AcDbEntity
  8
10000_Front
  6
Continuous
 62
     7
370
    13
100
AcDbLine
 39
0.5
 10
75.61292706612189
 20
135.8566619055076
 30
0.0
 11
75.61292706612189
 21
140.1066619055076
 31
0.0
1001
AUSTER_ANSICHT
1002
{
1000
Det03
1002
}
1001
AUSTER_FOLIE
1002
{
1000
GERAEUSCHARMES_S2_CC
1000
BAHNSCHUETZ_ANSTEUERBAU_S2_CC
1002
}
  0
LINE
  5
1CFA
330
20
100
AcDbEntity
  8
10000_Front
  6
Continuous
 62
     7
370
    13
100
AcDbLine
 39
0.5
 10
70.41292306612188
 20
140.1066619055076
 30
0.0
 11
69.11292306612188
 21
140.1066619055076
 31
0.0
1001
AUSTER_ANSICHT
1002
{
1000
Det03
1002
}
1001
AUSTER_FOLIE
1002
{
1000
GERAEUSCHARMES_S2_CC
1000
BAHNSCHUETZ_ANSTEUERBAU_S2_CC
1002
}
  0
LINE
  5
1CFB
330
20
100
AcDbEntity
  8
10000_Front
  6
Continuous
 62
     7
370
    13
100
AcDbLine
 39
0.5
 10
69.11292306612188
 20
140.1066619055076
 30
0.0
 11
69.11292306612188
 21
154.3066619055077
 31
0.0
1001
AUSTER_ANSICHT
1002
{
1000
Det03
1002
}
1001
AUSTER_FOLIE
1002
{
1000
GERAEUSCHARMES_S2_CC
1000
BAHNSCHUETZ_ANSTEUERBAU_S2_CC
1002
}
  0
LINE
  5
1CFC
330
20
100
AcDbEntity
  8
10000_Front
  6
Continuous
 62
     7
370
    13
100
AcDbLine
 39
0.5
 10
76.91292706612187
 20
140.1066619055076
 30
0.0
 11
75.61292706612189
 21
140.1066619055076
 31
0.0
1001
AUSTER_ANSICHT
1002
{
1000
Det03
1002
}
1001
AUSTER_FOLIE
1002
{
1000
GERAEUSCHARMES_S2_CC
1000
BAHNSCHUETZ_ANSTEUERBAU_S2_CC
1002
}
  0
LINE
  5
1CFD
330
20
100
AcDbEntity
  8
10000_Front
  6
Continuous
 62
     7
370
    13
100
AcDbLine
 39
0.5
 10
70.81292306612187
 20
158.8066619055076
 30
0.0
 11
70.81292306612187
 21
154.3066619055077
 31
0.0
1001
AUSTER_ANSICHT
1002
{
1000
Det03
1002
}
1001
AUSTER_FOLIE
1002
{
1000
GERAEUSCHARMES_S2_CC
1000
BAHNSCHUETZ_ANSTEUERBAU_S2_CC
1002
}
  0
LINE
  5
1CFE
330
20
100
AcDbEntity
  8
10000_Front
  6
Continuous
 62
     7
370
    13
100
AcDbLine
 39
0.5
 10
75.21292706612188
 20
158.8066619055076
 30
0.0
 11
75.21292706612188
 21
154.3066619055077
 31
0.0
1001
AUSTER_ANSICHT
1002
{
1000
Det03
1002
}
1001
AUSTER_FOLIE
1002
{
1000
GERAEUSCHARMES_S2_CC
1000
BAHNSCHUETZ_ANSTEUERBAU_S2_CC
1002
}
  0
LINE
  5
1CFF
330
20
100
AcDbEntity
  8
10000_Front
  6
Continuous
 62
     7
370
    13
100
AcDbLine
 39
0.5
 10
68.41292306612188
 20
162.3566619055076
 30
0.0
 11
77.61292706612187
 21
162.3566619055076
 31
0.0
1001
AUSTER_ANSICHT
1002
{
1000
Det03
1002
}
1001
AUSTER_FOLIE
1002
{
1000
GERAEUSCHARMES_S2_CC
1000
BAHNSCHUETZ_ANSTEUERBAU_S2_CC
1002
}
  0
LINE
  5
1D00
330
20
100
AcDbEntity
  8
10000_Front
  6
Continuous
 62
     7
370
    13
100
AcDbLine
 39
0.5
 10
81.76292740612188
 20
148.6066619055076
 30
0.0
 11
82.08245826612188
 21
148.9066619055077
 31
0.0
1001
AUSTER_ANSICHT
1002
{
1000
Det03
1002
}
1001
AUSTER_FOLIE
1002
{
1000
GERAEUSCHARMES_S2_CC
1000
BAHNSCHUETZ_ANSTEUERBAU_S2_CC
1002
}
  0
LINE
  5
1D01
330
20
100
AcDbEntity
  8
10000_Front
  6
Continuous
 62
     7
370
    13
100
AcDbLine
 39
0.5
 10
82.08245826612188
 20
148.9066619055077
 30
0.0
 11
85.94339606612187
 21
148.9066619055077
 31
0.0
1001
AUSTER_ANSICHT
1002
{
1000
Det03
1002
}
1001
AUSTER_FOLIE
1002
{
1000
GERAEUSCHARMES_S2_CC
1000
BAHNSCHUETZ_ANSTEUERBAU_S2_CC
1002
}
  0
LINE
  5
1D02
330
20
100
AcDbEntity
  8
10000_Front
  6
Continuous
 62
     7
370
    13
100
AcDbLine
 39
0.5
 10
85.94339606612187
 20
148.9066619055077
 30
0.0
 11
86.26292706612179
 21
148.6066619055076
 31
0.0
1001
AUSTER_ANSICHT
1002
{
1000
Det03
1002
}
1001
AUSTER_FOLIE
1002
{
1000
GERAEUSCHARMES_S2_CC
1000
BAHNSCHUETZ_ANSTEUERBAU_S2_CC
1002
}
  0
LINE
  5
1D03
330
20
100
AcDbEntity
  8
10000_Front
  6
Continuous
 62
     7
370
    13
100
AcDbLine
 39
0.5
 10
86.26292706612179
 20
148.6066619055076
 30
0.0
 11
86.26292706612179
 21
143.2066619055076
 31
0.0
1001
AUSTER_ANSICHT
1002
{
1000
Det03
1002
}
1001
AUSTER_FOLIE
1002
{
1000
GERAEUSCHARMES_S2_CC
1000
BAHNSCHUETZ_ANSTEUERBAU_S2_CC
1002
}
  0
LINE
  5
1D04
330
20
100
AcDbEntity
  8
10000_Front
  6
Continuous
 62
     7
370
    13
100
AcDbLine
 39
0.5
 10
86.26292706612179
 20
143.2066619055076
 30
0.0
 11
81.76292740612188
 21
143.2066619055076
 31
0.0
1001
AUSTER_ANSICHT
1002
{
1000
Det03
1002
}
1001
AUSTER_FOLIE
1002
{
1000
GERAEUSCHARMES_S2_CC
1000
BAHNSCHUETZ_ANSTEUERBAU_S2_CC
1002
}
  0
LINE
  5
1D05
330
20
100
AcDbEntity
  8
10000_Front
  6
Continuous
 62
     7
370
    13
100
AcDbLine
 39
0.5
 10
81.76292740612188
 20
143.2066619055076
 30
0.0
 11
81.76292740612188
 21
148.6066619055076
 31
0.0
1001
AUSTER_ANSICHT
1002
{
1000
Det03
1002
}
1001
AUSTER_FOLIE
1002
{
1000
GERAEUSCHARMES_S2_CC
1000
BAHNSCHUETZ_ANSTEUERBAU_S2_CC
1002
}
  0
LINE
  5
1D06
330
20
100
AcDbEntity
  8
10000_Front
  6
Continuous
 62
     7
370
    13
100
AcDbLine
 39
0.5
 10
80.11292706612186
 20
154.3066619055077
 30
0.0
 11
81.81292740612176
 21
154.3066619055077
 31
0.0
1001
AUSTER_ANSICHT
1002
{
1000
Det03
1002
}
1001
AUSTER_FOLIE
1002
{
1000
GERAEUSCHARMES_S2_CC
1000
BAHNSCHUETZ_ANSTEUERBAU_S2_CC
1002
}
  0
LINE
  5
1D07
330
20
100
AcDbEntity
  8
10000_Front
  6
Continuous
 62
     7
370
    13
100
AcDbLine
 39
0.5
 10
87.91292706612187
 20
154.3066619055077
 30
0.0
 11
86.21292706612187
 21
154.3066619055077
 31
0.0
1001
AUSTER_ANSICHT
1002
{
1000
Det03
1002
}
1001
AUSTER_FOLIE
1002
{
1000
GERAEUSCHARMES_S2_CC
1000
BAHNSCHUETZ_ANSTEUERBAU_S2_CC
1002
}
  0
LINE
  5
1D08
330
20
100
AcDbEntity
  8
10000_Front
  6
Continuous
 62
     7
370
    13
100
AcDbLine
 39
0.5
 10
81.41292736612188
 20
140.1066619055076
 30
0.0
 11
81.41292736612188
 21
135.8566619055076
 31
0.0
1001
AUSTER_ANSICHT
1002
{
1000
Det03
1002
}
1001
AUSTER_FOLIE
1002
{
1000
GERAEUSCHARMES_S2_CC
1000
BAHNSCHUETZ_ANSTEUERBAU_S2_CC
1002
}
  0
LINE
  5
1D09
330
20
100
AcDbEntity
  8
10000_Front
  6
Continuous
 62
     7
370
    13
100
AcDbLine
 39
0.5
 10
86.61292706612186
 20
135.8566619055076
 30
0.0
 11
86.61292706612186
 21
140.1066619055076
 31
0.0
1001
AUSTER_ANSICHT
1002
{
1000
Det03
1002
}
1001
AUSTER_FOLIE
1002
{
1000
GERAEUSCHARMES_S2_CC
1000
BAHNSCHUETZ_ANSTEUERBAU_S2_CC
1002
}
  0
LINE
  5
1D0A
330
20
100
AcDbEntity
  8
10000_Front
  6
Continuous
 62
     7
370
    13
100
AcDbLine
 39
0.5
 10
81.41292736612188
 20
140.1066619055076
 30
0.0
 11
80.11292706612186
 21
140.1066619055076
 31
0.0
1001
AUSTER_ANSICHT
1002
{
1000
Det03
1002
}
1001
AUSTER_FOLIE
1002
{
1000
GERAEUSCHARMES_S2_CC
1000
BAHNSCHUETZ_ANSTEUERBAU_S2_CC
1002
}
  0
LINE
  5
1D0B
330
20
100
AcDbEntity
  8
10000_Front
  6
Continuous
 62
     7
370
    13
100
AcDbLine
 39
0.5
 10
87.91292706612187
 20
154.3066619055077
 30
0.0
 11
87.91292706612187
 21
140.1066619055076
 31
0.0
1001
AUSTER_ANSICHT
1002
{
1000
Det03
1002
}
1001
AUSTER_FOLIE
1002
{
1000
GERAEUSCHARMES_S2_CC
1000
BAHNSCHUETZ_ANSTEUERBAU_S2_CC
1002
}
  0
LINE
  5
1D0C
330
20
100
AcDbEntity
  8
10000_Front
  6
Continuous
 62
     7
370
    13
100
AcDbLine
 39
0.5
 10
87.91292706612187
 20
140.1066619055076
 30
0.0
 11
86.61292706612186
 21
140.1066619055076
 31
0.0
1001
AUSTER_ANSICHT
1002
{
1000
Det03
1002
}
1001
AUSTER_FOLIE
1002
{
1000
GERAEUSCHARMES_S2_CC
1000
BAHNSCHUETZ_ANSTEUERBAU_S2_CC
1002
}
  0
LINE
  5
1D0D
330
20
100
AcDbEntity
  8
10000_Front
  6
Continuous
 62
     7
370
    13
100
AcDbLine
 39
0.5
 10
81.81292740612176
 20
158.8066619055076
 30
0.0
 11
81.81292740612176
 21
154.3066619055077
 31
0.0
1001
AUSTER_ANSICHT
1002
{
1000
Det03
1002
}
1001
AUSTER_FOLIE
1002
{
1000
GERAEUSCHARMES_S2_CC
1000
BAHNSCHUETZ_ANSTEUERBAU_S2_CC
1002
}
  0
LINE
  5
1D0E
330
20
100
AcDbEntity
  8
10000_Front
  6
Continuous
 62
     7
370
    13
100
AcDbLine
 39
0.5
 10
86.21292706612187
 20
158.8066619055076
 30
0.0
 11
86.21292706612187
 21
154.3066619055077
 31
0.0
1001
AUSTER_ANSICHT
1002
{
1000
Det03
1002
}
1001
AUSTER_FOLIE
1002
{
1000
GERAEUSCHARMES_S2_CC
1000
BAHNSCHUETZ_ANSTEUERBAU_S2_CC
1002
}
  0
LINE
  5
1D0F
330
20
100
AcDbEntity
  8
10000_Front
  6
Continuous
 62
     7
370
    13
100
AcDbLine
 39
0.5
 10
79.41292706612187
 20
162.3566619055076
 30
0.0
 11
88.61292706612188
 21
162.3566619055076
 31
0.0
1001
AUSTER_ANSICHT
1002
{
1000
Det03
1002
}
1001
AUSTER_FOLIE
1002
{
1000
GERAEUSCHARMES_S2_CC
1000
BAHNSCHUETZ_ANSTEUERBAU_S2_CC
1002
}
  0
LINE
  5
1D10
330
20
100
AcDbEntity
  8
10000_Front
  6
Continuous
 62
     7
370
    13
100
AcDbLine
 39
0.5
 10
92.76292306612177
 20
148.6066619055076
 30
0.0
 11
93.08246306612169
 21
148.9066619055077
 31
0.0
1001
AUSTER_ANSICHT
1002
{
1000
Det03
1002
}
1001
AUSTER_FOLIE
1002
{
1000
GERAEUSCHARMES_S2_CC
1000
BAHNSCHUETZ_ANSTEUERBAU_S2_CC
1002
}
  0
LINE
  5
1D11
330
20
100
AcDbEntity
  8
10000_Front
  6
Continuous
 62
     7
370
    13
100
AcDbLine
 39
0.5
 10
93.08246306612169
 20
148.9066619055077
 30
0.0
 11
96.94339306612189
 21
148.9066619055077
 31
0.0
1001
AUSTER_ANSICHT
1002
{
1000
Det03
1002
}
1001
AUSTER_FOLIE
1002
{
1000
GERAEUSCHARMES_S2_CC
1000
BAHNSCHUETZ_ANSTEUERBAU_S2_CC
1002
}
  0
LINE
  5
1D12
330
20
100
AcDbEntity
  8
10000_Front
  6
Continuous
 62
     7
370
    13
100
AcDbLine
 39
0.5
 10
96.94339306612189
 20
148.9066619055077
 30
0.0
 11
97.26292306612188
 21
148.6066619055076
 31
0.0
1001
AUSTER_ANSICHT
1002
{
1000
Det03
1002
}
1001
AUSTER_FOLIE
1002
{
1000
GERAEUSCHARMES_S2_CC
1000
BAHNSCHUETZ_ANSTEUERBAU_S2_CC
1002
}
  0
LINE
  5
1D13
330
20
100
AcDbEntity
  8
10000_Front
  6
Continuous
 62
     7
370
    13
100
AcDbLine
 39
0.5
 10
97.26292306612188
 20
148.6066619055076
 30
0.0
 11
97.26292306612188
 21
143.2066619055076
 31
0.0
1001
AUSTER_ANSICHT
1002
{
1000
Det03
1002
}
1001
AUSTER_FOLIE
1002
{
1000
GERAEUSCHARMES_S2_CC
1000
BAHNSCHUETZ_ANSTEUERBAU_S2_CC
1002
}
  0
LINE
  5
1D14
330
20
100
AcDbEntity
  8
10000_Front
  6
Continuous
 62
     7
370
    13
100
AcDbLine
 39
0.5
 10
97.26292306612188
 20
143.2066619055076
 30
0.0
 11
92.76292306612177
 21
143.2066619055076
 31
0.0
1001
AUSTER_ANSICHT
1002
{
1000
Det03
1002
}
1001
AUSTER_FOLIE
1002
{
1000
GERAEUSCHARMES_S2_CC
1000
BAHNSCHUETZ_ANSTEUERBAU_S2_CC
1002
}
  0
LINE
  5
1D15
330
20
100
AcDbEntity
  8
10000_Front
  6
Continuous
 62
     7
370
    13
100
AcDbLine
 39
0.5
 10
92.76292306612177
 20
143.2066619055076
 30
0.0
 11
92.76292306612177
 21
148.6066619055076
 31
0.0
1001
AUSTER_ANSICHT
1002
{
1000
Det03
1002
}
1001
AUSTER_FOLIE
1002
{
1000
GERAEUSCHARMES_S2_CC
1000
BAHNSCHUETZ_ANSTEUERBAU_S2_CC
1002
}
  0
LINE
  5
1D16
330
20
100
AcDbEntity
  8
10000_Front
  6
Continuous
 62
     7
370
    13
100
AcDbLine
 39
0.5
 10
91.11292706612188
 20
154.3066619055077
 30
0.0
 11
92.8129230661217
 21
154.3066619055077
 31
0.0
1001
AUSTER_ANSICHT
1002
{
1000
Det03
1002
}
1001
AUSTER_FOLIE
1002
{
1000
GERAEUSCHARMES_S2_CC
1000
BAHNSCHUETZ_ANSTEUERBAU_S2_CC
1002
}
  0
LINE
  5
1D17
330
20
100
AcDbEntity
  8
10000_Front
  6
Continuous
 62
     7
370
    13
100
AcDbLine
 39
0.5
 10
98.91292306612186
 20
154.3066619055077
 30
0.0
 11
97.21292306612179
 21
154.3066619055077
 31
0.0
1001
AUSTER_ANSICHT
1002
{
1000
Det03
1002
}
1001
AUSTER_FOLIE
1002
{
1000
GERAEUSCHARMES_S2_CC
1000
BAHNSCHUETZ_ANSTEUERBAU_S2_CC
1002
}
  0
LINE
  5
1D18
330
20
100
AcDbEntity
  8
10000_Front
  6
Continuous
 62
     7
370
    13
100
AcDbLine
 39
0.5
 10
92.41292306612187
 20
140.1066619055076
 30
0.0
 11
92.41292306612187
 21
135.8566619055076
 31
0.0
1001
AUSTER_ANSICHT
1002
{
1000
Det03
1002
}
1001
AUSTER_FOLIE
1002
{
1000
GERAEUSCHARMES_S2_CC
1000
BAHNSCHUETZ_ANSTEUERBAU_S2_CC
1002
}
  0
LINE
  5
1D19
330
20
100
AcDbEntity
  8
10000_Front
  6
Continuous
 62
     7
370
    13
100
AcDbLine
 39
0.5
 10
97.6129230661218
 20
135.8566619055076
 30
0.0
 11
97.6129230661218
 21
140.1066619055076
 31
0.0
1001
AUSTER_ANSICHT
1002
{
1000
Det03
1002
}
1001
AUSTER_FOLIE
1002
{
1000
GERAEUSCHARMES_S2_CC
1000
BAHNSCHUETZ_ANSTEUERBAU_S2_CC
1002
}
  0
LINE
  5
1D1A
330
20
100
AcDbEntity
  8
10000_Front
  6
Continuous
 62
     7
370
    13
100
AcDbLine
 39
0.5
 10
92.41292306612187
 20
140.1066619055076
 30
0.0
 11
91.11292706612188
 21
140.1066619055076
 31
0.0
1001
AUSTER_ANSICHT
1002
{
1000
Det03
1002
}
1001
AUSTER_FOLIE
1002
{
1000
GERAEUSCHARMES_S2_CC
1000
BAHNSCHUETZ_ANSTEUERBAU_S2_CC
1002
}
  0
LINE
  5
1D1B
330
20
100
AcDbEntity
  8
10000_Front
  6
Continuous
 62
     7
370
    13
100
AcDbLine
 39
0.5
 10
91.11292706612188
 20
140.1066619055076
 30
0.0
 11
91.11292706612188
 21
154.3066619055077
 31
0.0
1001
AUSTER_ANSICHT
1002
{
1000
Det03
1002
}
1001
AUSTER_FOLIE
1002
{
1000
GERAEUSCHARMES_S2_CC
1000
BAHNSCHUETZ_ANSTEUERBAU_S2_CC
1002
}
  0
LINE
  5
1D1C
330
20
100
AcDbEntity
  8
10000_Front
  6
Continuous
 62
     7
370
    13
100
AcDbLine
 39
0.5
 10
98.91292306612186
 20
154.3066619055077
 30
0.0
 11
98.91292306612186
 21
140.1066619055076
 31
0.0
1001
AUSTER_ANSICHT
1002
{
1000
Det03
1002
}
1001
AUSTER_FOLIE
1002
{
1000
GERAEUSCHARMES_S2_CC
1000
BAHNSCHUETZ_ANSTEUERBAU_S2_CC
1002
}
  0
LINE
  5
1D1D
330
20
100
AcDbEntity
  8
10000_Front
  6
Continuous
 62
     7
370
    13
100
AcDbLine
 39
0.5
 10
98.91292306612186
 20
140.1066619055076
 30
0.0
 11
97.6129230661218
 21
140.1066619055076
 31
0.0
1001
AUSTER_ANSICHT
1002
{
1000
Det03
1002
}
1001
AUSTER_FOLIE
1002
{
1000
GERAEUSCHARMES_S2_CC
1000
BAHNSCHUETZ_ANSTEUERBAU_S2_CC
1002
}
  0
LINE
  5
1D1E
330
20
100
AcDbEntity
  8
10000_Front
  6
Continuous
 62
     7
370
    13
100
AcDbLine
 39
0.5
 10
92.8129230661217
 20
158.8066619055076
 30
0.0
 11
92.8129230661217
 21
154.3066619055077
 31
0.0
1001
AUSTER_ANSICHT
1002
{
1000
Det03
1002
}
1001
AUSTER_FOLIE
1002
{
1000
GERAEUSCHARMES_S2_CC
1000
BAHNSCHUETZ_ANSTEUERBAU_S2_CC
1002
}
  0
LINE
  5
1D1F
330
20
100
AcDbEntity
  8
10000_Front
  6
Continuous
 62
     7
370
    13
100
AcDbLine
 39
0.5
 10
97.21292306612179
 20
158.8066619055076
 30
0.0
 11
97.21292306612179
 21
154.3066619055077
 31
0.0
1001
AUSTER_ANSICHT
1002
{
1000
Det03
1002
}
1001
AUSTER_FOLIE
1002
{
1000
GERAEUSCHARMES_S2_CC
1000
BAHNSCHUETZ_ANSTEUERBAU_S2_CC
1002
}
  0
LINE
  5
1D20
330
20
100
AcDbEntity
  8
10000_Front
  6
Continuous
 62
     7
370
    13
100
AcDbLine
 39
0.5
 10
90.41292706612187
 20
162.3566619055076
 30
0.0
 11
99.61292306612179
 21
162.3566619055076
 31
0.0
1001
AUSTER_ANSICHT
1002
{
1000
Det03
1002
}
1001
AUSTER_FOLIE
1002
{
1000
GERAEUSCHARMES_S2_CC
1000
BAHNSCHUETZ_ANSTEUERBAU_S2_CC
1002
}
  0
LINE
  5
1D21
330
20
100
AcDbEntity
  8
10000_Front
  6
Continuous
 62
     7
370
    13
100
AcDbLine
 39
0.5
 10
59.41292306612186
 20
140.1066619055076
 30
0.0
 11
58.11292306612187
 21
140.1066619055076
 31
0.0
1001
AUSTER_ANSICHT
1002
{
1000
Det03
1002
}
1001
AUSTER_FOLIE
1002
{
1000
GERAEUSCHARMES_S2_CC
1000
BAHNSCHUETZ_ANSTEUERBAU_S2_CC
1002
}
  0
LINE
  5
1D22
330
20
100
AcDbEntity
  8
10000_Front
  6
Continuous
 62
     7
370
    13
100
AcDbLine
 39
0.5
 10
58.11292306612187
 20
140.1066619055076
 30
0.0
 11
58.11292306612187
 21
154.3066619055077
 31
0.0
1001
AUSTER_ANSICHT
1002
{
1000
Det03
1002
}
1001
AUSTER_FOLIE
1002
{
1000
GERAEUSCHARMES_S2_CC
1000
BAHNSCHUETZ_ANSTEUERBAU_S2_CC
1002
}
  0
LINE
  5
1D23
330
20
100
AcDbEntity
  8
10000_Front
  6
Continuous
 62
     7
370
    13
100
AcDbLine
 39
0.5
 10
65.91292306612188
 20
154.3066619055077
 30
0.0
 11
65.91292306612188
 21
140.1066619055076
 31
0.0
1001
AUSTER_ANSICHT
1002
{
1000
Det03
1002
}
1001
AUSTER_FOLIE
1002
{
1000
GERAEUSCHARMES_S2_CC
1000
BAHNSCHUETZ_ANSTEUERBAU_S2_CC
1002
}
  0
LINE
  5
1D24
330
20
100
AcDbEntity
  8
10000_Front
  6
Continuous
 62
     7
370
    13
100
AcDbLine
 39
0.5
 10
65.91292306612188
 20
140.1066619055076
 30
0.0
 11
64.61292306612188
 21
140.1066619055076
 31
0.0
1001
AUSTER_ANSICHT
1002
{
1000
Det03
1002
}
1001
AUSTER_FOLIE
1002
{
1000
GERAEUSCHARMES_S2_CC
1000
BAHNSCHUETZ_ANSTEUERBAU_S2_CC
1002
}
  0
LINE
  5
1D25
330
20
100
AcDbEntity
  8
10000_Front
  6
Continuous
 62
     7
370
    13
100
AcDbLine
 39
0.5
 10
59.8129230661216
 20
158.8066619055076
 30
0.0
 11
59.8129230661216
 21
154.3066619055077
 31
0.0
1001
AUSTER_ANSICHT
1002
{
1000
Det03
1002
}
1001
AUSTER_FOLIE
1002
{
1000
GERAEUSCHARMES_S2_CC
1000
BAHNSCHUETZ_ANSTEUERBAU_S2_CC
1002
}
  0
LINE
  5
1D26
330
20
100
AcDbEntity
  8
10000_Front
  6
Continuous
 62
     7
370
    13
100
AcDbLine
 39
0.5
 10
64.21292306612179
 20
158.8066619055076
 30
0.0
 11
64.21292306612179
 21
154.3066619055077
 31
0.0
1001
AUSTER_ANSICHT
1002
{
1000
Det03
1002
}
1001
AUSTER_FOLIE
1002
{
1000
GERAEUSCHARMES_S2_CC
1000
BAHNSCHUETZ_ANSTEUERBAU_S2_CC
1002
}
  0
LINE
  5
1D27
330
20
100
AcDbEntity
  8
10000_Front
  6
Continuous
 62
     7
370
    13
100
AcDbLine
 39
0.5
 10
57.41292306612185
 20
162.3566619055076
 30
0.0
 11
66.61292306612188
 21
162.3566619055076
 31
0.0
1001
AUSTER_ANSICHT
1002
{
1000
Det03
1002
}
1001
AUSTER_FOLIE
1002
{
1000
GERAEUSCHARMES_S2_CC
1000
BAHNSCHUETZ_ANSTEUERBAU_S2_CC
1002
}
  0
LINE
  5
1D28
330
20
100
AcDbEntity
  8
10000_Front
  6
Continuous
 62
     7
370
    13
100
AcDbLine
 39
0.5
 10
76.91292706612187
 20
154.3066619055077
 30
0.0
 11
76.91292706612187
 21
150.2566619055077
 31
0.0
1001
AUSTER_ANSICHT
1002
{
1000
Det03
1002
}
1001
AUSTER_FOLIE
1002
{
1000
GERAEUSCHARMES_S2_CC
1000
BAHNSCHUETZ_ANSTEUERBAU_S2_CC
1002
}
  0
LINE
  5
1D29
330
20
100
AcDbEntity
  8
10000_Front
  6
Continuous
 62
     7
370
    13
100
AcDbLine
 39
0.5
 10
80.11292706612186
 20
154.3066619055077
 30
0.0
 11
80.11292706612186
 21
150.2566619055077
 31
0.0
1001
AUSTER_ANSICHT
1002
{
1000
Det03
1002
}
1001
AUSTER_FOLIE
1002
{
1000
GERAEUSCHARMES_S2_CC
1000
BAHNSCHUETZ_ANSTEUERBAU_S2_CC
1002
}
  0
LINE
  5
1D2A
330
20
100
AcDbEntity
  8
10000_Front
  6
Continuous
 62
     7
370
    13
100
AcDbLine
 39
0.5
 10
80.11292706612186
 20
142.8566619055076
 30
0.0
 11
80.11292706612186
 21
140.1066619055076
 31
0.0
1001
AUSTER_ANSICHT
1002
{
1000
Det03
1002
}
1001
AUSTER_FOLIE
1002
{
1000
GERAEUSCHARMES_S2_CC
1000
BAHNSCHUETZ_ANSTEUERBAU_S2_CC
1002
}
  0
LINE
  5
1D2B
330
20
100
AcDbEntity
  8
10000_Front
  6
Continuous
 62
     7
370
    13
100
AcDbLine
 39
0.5
 10
76.91292706612187
 20
142.8566619055076
 30
0.0
 11
76.91292706612187
 21
140.1066619055076
 31
0.0
1001
AUSTER_ANSICHT
1002
{
1000
Det03
1002
}
1001
AUSTER_FOLIE
1002
{
1000
GERAEUSCHARMES_S2_CC
1000
BAHNSCHUETZ_ANSTEUERBAU_S2_CC
1002
}
  0
LINE
  5
1D2C
330
20
100
AcDbEntity
  8
10000_Front
  6
Continuous
 62
     7
370
    13
100
AcDbLine
 39
0.5
 10
59.41292306612186
 20
135.8566619055076
 30
0.0
 11
64.61292306612188
 21
135.8566619055076
 31
0.0
1001
AUSTER_ANSICHT
1002
{
1000
Det03
1002
}
1001
AUSTER_FOLIE
1002
{
1000
GERAEUSCHARMES_S2_CC
1000
BAHNSCHUETZ_ANSTEUERBAU_S2_CC
1002
}
  0
LINE
  5
1D2D
330
20
100
AcDbEntity
  8
10000_Front
  6
Continuous
 62
     7
370
    13
100
AcDbLine
 39
0.5
 10
81.41292736612188
 20
135.8566619055076
 30
0.0
 11
86.61292706612186
 21
135.8566619055076
 31
0.0
1001
AUSTER_ANSICHT
1002
{
1000
Det03
1002
}
1001
AUSTER_FOLIE
1002
{
1000
GERAEUSCHARMES_S2_CC
1000
BAHNSCHUETZ_ANSTEUERBAU_S2_CC
1002
}
  0
LINE
  5
1D2E
330
20
100
AcDbEntity
  8
10000_Front
  6
Continuous
 62
     7
370
    13
100
AcDbLine
 39
0.5
 10
92.41292306612187
 20
135.8566619055076
 30
0.0
 11
97.6129230661218
 21
135.8566619055076
 31
0.0
1001
AUSTER_ANSICHT
1002
{
1000
Det03
1002
}
1001
AUSTER_FOLIE
1002
{
1000
GERAEUSCHARMES_S2_CC
1000
BAHNSCHUETZ_ANSTEUERBAU_S2_CC
1002
}
  0
LINE
  5
1D2F
330
20
100
AcDbEntity
  8
10000_Front
  6
Continuous
 62
     7
370
    13
100
AcDbLine
 39
0.5
 10
76.91292706612187
 20
150.2566619055077
 30
0.0
 11
76.91292706612187
 21
142.8566619055076
 31
0.0
1001
AUSTER_ANSICHT
1002
{
1000
Det03
1002
}
1001
AUSTER_FOLIE
1002
{
1000
GERAEUSCHARMES_S2_CC
1000
BAHNSCHUETZ_ANSTEUERBAU_S2_CC
1002
}
  0
LINE
  5
1D30
330
20
100
AcDbEntity
  8
10000_Front
  6
Continuous
 62
     7
370
    13
100
AcDbLine
 39
0.5
 10
80.11292706612186
 20
142.8566619055076
 30
0.0
 11
80.11292706612186
 21
150.2566619055077
 31
0.0
1001
AUSTER_ANSICHT
1002
{
1000
Det03
1002
}
1001
AUSTER_FOLIE
1002
{
1000
GERAEUSCHARMES_S2_CC
1000
BAHNSCHUETZ_ANSTEUERBAU_S2_CC
1002
}
  0
LINE
  5
1D31
330
20
100
AcDbEntity
  8
10000_Front
  6
Continuous
 62
     7
370
    13
100
AcDbLine
 39
0.5
 10
70.41292306612188
 20
135.8566619055076
 30
0.0
 11
75.61292706612189
 21
135.8566619055076
 31
0.0
1001
AUSTER_ANSICHT
1002
{
1000
Det03
1002
}
1001
AUSTER_FOLIE
1002
{
1000
GERAEUSCHARMES_S2_CC
1000
BAHNSCHUETZ_ANSTEUERBAU_S2_CC
1002
}
  0
LINE
  5
1D32
330
20
100
AcDbEntity
  8
10000_Front
  6
Continuous
 62
     7
370
    13
100
AcDbLine
 39
0.5
 10
56.58217306612188
 20
129.0221619055078
 30
0.0
 11
58.16292306612186
 21
129.0221619055078
 31
0.0
1001
AUSTER_ANSICHT
1002
{
1000
Det03
1002
}
1001
AUSTER_FOLIE
1002
{
1000
GERAEUSCHARMES_S2_CC
1000
BAHNSCHUETZ_ANSTEUERBAU_S2_CC
1002
}
  0
LINE
  5
1D33
330
20
100
AcDbEntity
  8
10000_Front
  6
Continuous
 62
     7
370
    13
100
AcDbLine
 39
0.5
 10
58.16292306612186
 20
129.0221619055078
 30
0.0
 11
58.16292306612186
 21
130.3472619055076
 31
0.0
1001
AUSTER_ANSICHT
1002
{
1000
Det03
1002
}
1001
AUSTER_FOLIE
1002
{
1000
GERAEUSCHARMES_S2_CC
1000
BAHNSCHUETZ_ANSTEUERBAU_S2_CC
1002
}
  0
LINE
  5
1D34
330
20
100
AcDbEntity
  8
10000_Front
  6
Continuous
 62
     7
370
    13
100
AcDbLine
 39
0.5
 10
98.36292306612179
 20
130.3472619055076
 30
0.0
 11
98.36292306612179
 21
129.0221619055078
 31
0.0
1001
AUSTER_ANSICHT
1002
{
1000
Det03
1002
}
1001
AUSTER_FOLIE
1002
{
1000
GERAEUSCHARMES_S2_CC
1000
BAHNSCHUETZ_ANSTEUERBAU_S2_CC
1002
}
  0
LINE
  5
1D35
330
20
100
AcDbEntity
  8
10000_Front
  6
Continuous
 62
     7
370
    13
100
AcDbLine
 39
0.5
 10
98.36292306612179
 20
129.0221619055078
 30
0.0
 11
99.94367306612179
 21
129.0221619055078
 31
0.0
1001
AUSTER_ANSICHT
1002
{
1000
Det03
1002
}
1001
AUSTER_FOLIE
1002
{
1000
GERAEUSCHARMES_S2_CC
1000
BAHNSCHUETZ_ANSTEUERBAU_S2_CC
1002
}
  0
LINE
  5
1D36
330
20
100
AcDbEntity
  8
10000_Front
  6
Continuous
370
    50
100
AcDbLine
 39
0.5
 10
52.26292306612186
 20
199.2426619055077
 30
0.0
 11
63.55898306612188
 21
199.2426619055077
 31
0.0
1001
AUSTER_ANSICHT
1002
{
1000
Det03
1002
}
1001
AUSTER_FOLIE
1002
{
1000
GERAEUSCHARMES_S2_CC
1000
BAHNSCHUETZ_ANSTEUERBAU_S2_CC
1002
}
  0
LINE
  5
1D37
330
20
100
AcDbEntity
  8
10000_Front
  6
Continuous
 62
     7
370
    50
100
AcDbLine
 39
0.5
 10
92.96292306612178
 20
199.2426619055077
 30
0.0
 11
104.2629230661217
 21
199.2426619055077
 31
0.0
1001
AUSTER_ANSICHT
1002
{
1000
Det03
1002
}
1001
AUSTER_FOLIE
1002
{
1000
GERAEUSCHARMES_S2_CC
1000
BAHNSCHUETZ_ANSTEUERBAU_S2_CC
1002
}
  0
ARC
  5
1D41
330
20
100
AcDbEntity
  8
10000_Front
  6
Continuous
 62
     7
370
    13
100
AcDbCircle
 39
0.5
 10
54.51292306612185
 20
194.7426619055077
 30
0.0
 40
1.85
100
AcDbArc
 50
73.8365499999998
 51
106.1633999999998
1001
AUSTER_ANSICHT
1002
{
1000
Det03
1002
}
1001
AUSTER_FOLIE
1002
{
1000
GERAEUSCHARMES_S2_CC
1000
BAHNSCHUETZ_ANSTEUERBAU_S2_CC
1002
}
  0
ARC
  5
1D42
330
20
100
AcDbEntity
  8
10000_Front
  6
Continuous
370
    50
100
AcDbCircle
 39
0.5
 10
104.2629230661217
 20
197.7426619055077
 30
0.0
 40
1.5
100
AcDbArc
 50
0.0
 51
90.0
1001
AUSTER_ANSICHT
1002
{
1000
Det03
1002
}
1001
AUSTER_FOLIE
1002
{
1000
GERAEUSCHARMES_S2_CC
1000
BAHNSCHUETZ_ANSTEUERBAU_S2_CC
1002
}
  0
ARC
  5
1D43
330
20
100
AcDbEntity
  8
10000_Front
  6
Continuous
 62
     7
370
    13
100
AcDbCircle
 39
0.5
 10
59.44392306612188
 20
198.8426619055077
 30
0.0
 40
0.4
100
AcDbArc
 50
90.0
 51
180.0
1001
AUSTER_ANSICHT
1002
{
1000
Det03
1002
}
1001
AUSTER_FOLIE
1002
{
1000
GERAEUSCHARMES_S2_CC
1000
BAHNSCHUETZ_ANSTEUERBAU_S2_CC
1002
}
  0
ARC
  5
1D44
330
20
100
AcDbEntity
  8
10000_Front
  6
Continuous
370
    50
100
AcDbCircle
 39
0.5
 10
52.26292306612186
 20
197.7426619055077
 30
0.0
 40
1.5
100
AcDbArc
 50
90.0
 51
180.0
1001
AUSTER_ANSICHT
1002
{
1000
Det03
1002
}
1001
AUSTER_FOLIE
1002
{
1000
GERAEUSCHARMES_S2_CC
1000
BAHNSCHUETZ_ANSTEUERBAU_S2_CC
1002
}
  0
ARC
  5
1D45
330
20
100
AcDbEntity
  8
10000_Front
  6
Continuous
 62
     7
370
    13
100
AcDbCircle
 39
0.5
 10
95.86292306612179
 20
198.8426619055077
 30
0.0
 40
0.4
100
AcDbArc
 50
0.0
 51
90.0
1001
AUSTER_ANSICHT
1002
{
1000
Det03
1002
}
1001
AUSTER_FOLIE
1002
{
1000
GERAEUSCHARMES_S2_CC
1000
BAHNSCHUETZ_ANSTEUERBAU_S2_CC
1002
}
  0
LINE
  5
1D47
330
20
100
AcDbEntity
  8
10000_Front
  6
Continuous
370
    50
100
AcDbLine
 39
0.5
 10
50.76292306612185
 20
95.74266190550758
 30
0.0
 11
50.76292306612185
 21
105.2137619055075
 31
0.0
1001
AUSTER_ANSICHT
1002
{
1000
Det03
1002
}
1001
AUSTER_FOLIE
1002
{
1000
GERAEUSCHARMES_S2_CC
1000
BAHNSCHUETZ_ANSTEUERBAU_S2_CC
1002
}
  0
LINE
  5
1D48
330
20
100
AcDbEntity
  8
10000_Front
  6
Continuous
370
    50
100
AcDbLine
 39
0.5
 10
105.7629230661218
 20
103.6736619055077
 30
0.0
 11
105.7629230661218
 21
95.74266190550758
 31
0.0
1001
AUSTER_ANSICHT
1002
{
1000
Det03
1002
}
1001
AUSTER_FOLIE
1002
{
1000
GERAEUSCHARMES_S2_CC
1000
BAHNSCHUETZ_ANSTEUERBAU_S2_CC
1002
}
  0
LINE
  5
1D49
330
20
100
AcDbEntity
  8
10000_Front
  6
Continuous
 62
     7
370
    13
100
AcDbLine
 39
0.5
 10
60.26292306612178
 20
102.2411619055077
 30
0.0
 11
60.26292306612178
 21
94.64267190550776
 31
0.0
1001
AUSTER_ANSICHT
1002
{
1000
Det03
1002
}
1001
AUSTER_FOLIE
1002
{
1000
GERAEUSCHARMES_S2_CC
1000
BAHNSCHUETZ_ANSTEUERBAU_S2_CC
1002
}
  0
LINE
  5
1D4A
330
20
100
AcDbEntity
  8
10000_Front
  6
Continuous
370
    50
100
AcDbLine
 39
0.5
 10
92.96286879945663
 20
91.24272390550755
 30
5.0
 11
92.96690306612189
 21
94.24267190550743
 31
0.5
1001
AUSTER_ANSICHT
1002
{
1000
Det03
1002
}
1001
AUSTER_FOLIE
1002
{
1000
GERAEUSCHARMES_S2_CC
1000
BAHNSCHUETZ_ANSTEUERBAU_S2_CC
1002
}
  0
LINE
  5
1D4B
330
20
100
AcDbEntity
  8
10000_Front
  6
Continuous
370
    13
100
AcDbLine
 39
0.5
 10
63.56292306612188
 20
102.2420619055077
 30
0.0
 11
63.55948001778085
 21
94.24266719345947
 31
3.63630734506393
1001
AUSTER_ANSICHT
1002
{
1000
Det03
1002
}
1001
AUSTER_FOLIE
1002
{
1000
GERAEUSCHARMES_S2_CC
1000
BAHNSCHUETZ_ANSTEUERBAU_S2_CC
1002
}
  0
CIRCLE
  5
1D4C
330
20
100
AcDbEntity
  8
10000_Front
  6
Continuous
 62
     7
370
    13
100
AcDbCircle
 39
0.5
 10
102.0129230661217
 20
98.74266190550761
 30
0.0
 40
3.1
1001
AUSTER_ANSICHT
1002
{
1000
Det03
1002
}
1001
AUSTER_FOLIE
1002
{
1000
GERAEUSCHARMES_S2_CC
1000
BAHNSCHUETZ_ANSTEUERBAU_S2_CC
1002
}
  0
CIRCLE
  5
1D4D
330
20
100
AcDbEntity
  8
10000_Front
  6
Continuous
 62
     7
370
    13
100
AcDbCircle
 39
0.5
 10
102.0129230661217
 20
98.74266190550761
 30
0.0
 40
3.1
1001
AUSTER_ANSICHT
1002
{
1000
Det03
1002
}
1001
AUSTER_FOLIE
1002
{
1000
GERAEUSCHARMES_S2_CC
1000
BAHNSCHUETZ_ANSTEUERBAU_S2_CC
1002
}
  0
ARC
  5
1D4E
330
20
100
AcDbEntity
  8
10000_Front
  6
Continuous
 62
     7
370
    13
100
AcDbCircle
 39
0.5
 10
55.76292306612188
 20
99.74266190550771
 30
0.0
 40
2.5
100
AcDbArc
 50
100.2477000000004
 51
180.0
1001
AUSTER_ANSICHT
1002
{
1000
Det03
1002
}
1001
AUSTER_FOLIE
1002
{
1000
GERAEUSCHARMES_S2_CC
1000
BAHNSCHUETZ_ANSTEUERBAU_S2_CC
1002
}
  0
ARC
  5
1D4F
330
20
100
AcDbEntity
  8
10000_Front
  6
Continuous
 62
     7
370
    13
100
AcDbCircle
 39
0.5
 10
55.76292306612188
 20
99.74266190550771
 30
0.0
 40
2.5
100
AcDbArc
 50
0.0
 51
81.83151999999983
1001
AUSTER_ANSICHT
1002
{
1000
Det03
1002
}
1001
AUSTER_FOLIE
1002
{
1000
GERAEUSCHARMES_S2_CC
1000
BAHNSCHUETZ_ANSTEUERBAU_S2_CC
1002
}
  0
ARC
  5
1D50
330
20
100
AcDbEntity
  8
10000_Front
  6
Continuous
 62
     7
370
    13
100
AcDbCircle
 39
0.5
 10
102.0129230661217
 20
98.74266190550761
 30
0.0
 40
4.530994999999998
100
AcDbArc
 50
130.001599999998
 51
180.0
1001
AUSTER_ANSICHT
1002
{
1000
Det03
1002
}
1001
AUSTER_FOLIE
1002
{
1000
GERAEUSCHARMES_S2_CC
1000
BAHNSCHUETZ_ANSTEUERBAU_S2_CC
1002
}
  0
LINE
  5
1D51
330
20
100
AcDbEntity
  8
10000_Front
  6
Continuous
 62
     7
370
    13
100
AcDbLine
 39
0.5
 10
99.22722306612186
 20
98.13836190550773
 30
0.0
 11
101.4979230661218
 21
98.13836190550773
 31
0.0
1001
AUSTER_ANSICHT
1002
{
1000
Det03
1002
}
1001
AUSTER_FOLIE
1002
{
1000
GERAEUSCHARMES_S2_CC
1000
BAHNSCHUETZ_ANSTEUERBAU_S2_CC
1002
}
  0
LINE
  5
1D52
330
20
100
AcDbEntity
  8
10000_Front
  6
Continuous
 62
     7
370
    13
100
AcDbLine
 39
0.5
 10
102.5279230661218
 20
98.13836190550773
 30
0.0
 11
104.7986230661218
 21
98.13836190550773
 31
0.0
1001
AUSTER_ANSICHT
1002
{
1000
Det03
1002
}
1001
AUSTER_FOLIE
1002
{
1000
GERAEUSCHARMES_S2_CC
1000
BAHNSCHUETZ_ANSTEUERBAU_S2_CC
1002
}
  0
LINE
  5
1D53
330
20
100
AcDbEntity
  8
10000_Front
  6
Continuous
 62
     7
370
    13
100
AcDbLine
 39
0.5
 10
104.7986230661218
 20
99.34696190550759
 30
0.0
 11
102.5279230661218
 21
99.34696190550759
 31
0.0
1001
AUSTER_ANSICHT
1002
{
1000
Det03
1002
}
1001
AUSTER_FOLIE
1002
{
1000
GERAEUSCHARMES_S2_CC
1000
BAHNSCHUETZ_ANSTEUERBAU_S2_CC
1002
}
  0
LINE
  5
1D54
330
20
100
AcDbEntity
  8
10000_Front
  6
Continuous
 62
     7
370
    13
100
AcDbLine
 39
0.5
 10
101.4979230661218
 20
99.34696190550759
 30
0.0
 11
99.22722306612186
 21
99.34696190550759
 31
0.0
1001
AUSTER_ANSICHT
1002
{
1000
Det03
1002
}
1001
AUSTER_FOLIE
1002
{
1000
GERAEUSCHARMES_S2_CC
1000
BAHNSCHUETZ_ANSTEUERBAU_S2_CC
1002
}
  0
LINE
  5
1D55
330
20
100
AcDbEntity
  8
10000_Front
  6
Continuous
 62
     7
370
    13
100
AcDbLine
 39
0.5
 10
101.4979230661218
 20
100.5195619055077
 30
0.0
 11
101.4979230661218
 21
99.52726190550777
 31
0.0
1001
AUSTER_ANSICHT
1002
{
1000
Det03
1002
}
1001
AUSTER_FOLIE
1002
{
1000
GERAEUSCHARMES_S2_CC
1000
BAHNSCHUETZ_ANSTEUERBAU_S2_CC
1002
}
  0
LINE
  5
1D56
330
20
100
AcDbEntity
  8
10000_Front
  6
Continuous
 62
     7
370
    13
100
AcDbLine
 39
0.5
 10
102.5279230661218
 20
99.52726190550777
 30
0.0
 11
102.5279230661218
 21
100.5195619055077
 31
0.0
1001
AUSTER_ANSICHT
1002
{
1000
Det03
1002
}
1001
AUSTER_FOLIE
1002
{
1000
GERAEUSCHARMES_S2_CC
1000
BAHNSCHUETZ_ANSTEUERBAU_S2_CC
1002
}
  0
LINE
  5
1D57
330
20
100
AcDbEntity
  8
10000_Front
  6
Continuous
 62
     7
370
    13
100
AcDbLine
 39
0.5
 10
102.5279230661218
 20
96.96576190550764
 30
0.0
 11
102.5279230661218
 21
97.95806190550777
 31
0.0
1001
AUSTER_ANSICHT
1002
{
1000
Det03
1002
}
1001
AUSTER_FOLIE
1002
{
1000
GERAEUSCHARMES_S2_CC
1000
BAHNSCHUETZ_ANSTEUERBAU_S2_CC
1002
}
  0
LINE
  5
1D58
330
20
100
AcDbEntity
  8
10000_Front
  6
Continuous
 62
     7
370
    13
100
AcDbLine
 39
0.5
 10
101.4979230661218
 20
97.95806190550777
 30
0.0
 11
101.4979230661218
 21
96.96576190550764
 31
0.0
1001
AUSTER_ANSICHT
1002
{
1000
Det03
1002
}
1001
AUSTER_FOLIE
1002
{
1000
GERAEUSCHARMES_S2_CC
1000
BAHNSCHUETZ_ANSTEUERBAU_S2_CC
1002
}
  0
LINE
  5
1D59
330
20
100
AcDbEntity
  8
10000_Front
  6
Continuous
 62
     7
370
    13
100
AcDbLine
 39
0.5
 10
102.5279230661218
 20
99.52726190550777
 30
0.0
 11
102.5279230661218
 21
99.34696190550759
 31
0.0
1001
AUSTER_ANSICHT
1002
{
1000
Det03
1002
}
1001
AUSTER_FOLIE
1002
{
1000
GERAEUSCHARMES_S2_CC
1000
BAHNSCHUETZ_ANSTEUERBAU_S2_CC
1002
}
  0
LINE
  5
1D5A
330
20
100
AcDbEntity
  8
10000_Front
  6
Continuous
 62
     7
370
    13
100
AcDbLine
 39
0.5
 10
102.5279230661218
 20
97.95806190550777
 30
0.0
 11
102.5279230661218
 21
98.13836190550773
 31
0.0
1001
AUSTER_ANSICHT
1002
{
1000
Det03
1002
}
1001
AUSTER_FOLIE
1002
{
1000
GERAEUSCHARMES_S2_CC
1000
BAHNSCHUETZ_ANSTEUERBAU_S2_CC
1002
}
  0
LINE
  5
1D5B
330
20
100
AcDbEntity
  8
10000_Front
  6
Continuous
 62
     7
370
    13
100
AcDbLine
 39
0.5
 10
101.4979230661218
 20
99.52726190550777
 30
0.0
 11
101.4979230661218
 21
99.34696190550759
 31
0.0
1001
AUSTER_ANSICHT
1002
{
1000
Det03
1002
}
1001
AUSTER_FOLIE
1002
{
1000
GERAEUSCHARMES_S2_CC
1000
BAHNSCHUETZ_ANSTEUERBAU_S2_CC
1002
}
  0
LINE
  5
1D5C
330
20
100
AcDbEntity
  8
10000_Front
  6
Continuous
 62
     7
370
    13
100
AcDbLine
 39
0.5
 10
101.4979230661218
 20
97.95806190550777
 30
0.0
 11
101.4979230661218
 21
98.13836190550773
 31
0.0
1001
AUSTER_ANSICHT
1002
{
1000
Det03
1002
}
1001
AUSTER_FOLIE
1002
{
1000
GERAEUSCHARMES_S2_CC
1000
BAHNSCHUETZ_ANSTEUERBAU_S2_CC
1002
}
  0
LINE
  5
1D5D
330
20
100
AcDbEntity
  8
10000_Front
  6
Continuous
 62
     7
370
    13
100
AcDbLine
 39
0.5
 10
53.26292306612185
 20
98.74266190550761
 30
0.0
 11
53.26292306612185
 21
99.74266190550771
 31
0.0
1001
AUSTER_ANSICHT
1002
{
1000
Det03
1002
}
1001
AUSTER_FOLIE
1002
{
1000
GERAEUSCHARMES_S2_CC
1000
BAHNSCHUETZ_ANSTEUERBAU_S2_CC
1002
}
  0
LINE
  5
1D5E
330
20
100
AcDbEntity
  8
10000_Front
  6
Continuous
 62
     7
370
    13
100
AcDbLine
 39
0.5
 10
58.26292306612177
 20
99.74266190550771
 30
0.0
 11
58.26292306612177
 21
98.74266190550761
 31
0.0
1001
AUSTER_ANSICHT
1002
{
1000
Det03
1002
}
1001
AUSTER_FOLIE
1002
{
1000
GERAEUSCHARMES_S2_CC
1000
BAHNSCHUETZ_ANSTEUERBAU_S2_CC
1002
}
  0
LINE
  5
1D5F
330
20
100
AcDbEntity
  8
10000_Front
  6
Continuous
370
    13
100
AcDbLine
 39
0.5
 10
93.16292306612188
 20
94.24267190550743
 30
0.0
 11
92.96690306612189
 21
94.24267190550743
 31
0.0
1001
AUSTER_ANSICHT
1002
{
1000
Det03
1002
}
1001
AUSTER_FOLIE
1002
{
1000
GERAEUSCHARMES_S2_CC
1000
BAHNSCHUETZ_ANSTEUERBAU_S2_CC
1002
}
  0
LINE
  5
1D60
330
20
100
AcDbEntity
  8
10000_Front
  6
Continuous
 62
     7
370
    13
100
AcDbLine
 39
0.5
 10
97.48193306612179
 20
94.64267190550776
 30
0.0
 11
97.48193306612179
 21
98.74266190550761
 31
0.0
1001
AUSTER_ANSICHT
1002
{
1000
Det03
1002
}
1001
AUSTER_FOLIE
1002
{
1000
GERAEUSCHARMES_S2_CC
1000
BAHNSCHUETZ_ANSTEUERBAU_S2_CC
1002
}
  0
LINE
  5
1D61
330
20
100
AcDbEntity
  8
10000_Front
  6
Continuous
370
    13
100
AcDbLine
 39
0.5
 10
92.96292306612178
 20
94.64267190550776
 30
0.0
 11
92.96690306612189
 21
94.24267190550743
 31
0.0
1001
AUSTER_ANSICHT
1002
{
1000
Det03
1002
}
1001
AUSTER_FOLIE
1002
{
1000
GERAEUSCHARMES_S2_CC
1000
BAHNSCHUETZ_ANSTEUERBAU_S2_CC
1002
}
  0
LINE
  5
1D62
330
20
100
AcDbEntity
  8
10000_Front
  6
Continuous
370
    13
100
AcDbLine
 39
0.5
 10
63.56292306612188
 20
94.24267190550743
 30
0.0
 11
63.56292306612188
 21
94.64267190550776
 31
0.0
1001
AUSTER_ANSICHT
1002
{
1000
Det03
1002
}
1001
AUSTER_FOLIE
1002
{
1000
GERAEUSCHARMES_S2_CC
1000
BAHNSCHUETZ_ANSTEUERBAU_S2_CC
1002
}
  0
LINE
  5
1D63
330
20
100
AcDbEntity
  8
10000_Front
  6
Continuous
370
    13
100
AcDbLine
 39
0.5
 10
63.36292306612188
 20
94.24267190550743
 30
0.0
 11
63.55898306612188
 21
94.24267190550743
 31
0.0
1001
AUSTER_ANSICHT
1002
{
1000
Det03
1002
}
1001
AUSTER_FOLIE
1002
{
1000
GERAEUSCHARMES_S2_CC
1000
BAHNSCHUETZ_ANSTEUERBAU_S2_CC
1002
}
  0
LINE
  5
1D64
330
20
100
AcDbEntity
  8
10000_Front
  6
Continuous
370
    13
100
AcDbLine
 39
0.5
 10
92.96292306612178
 20
94.24267190550743
 30
0.0
 11
92.96292306612178
 21
94.64267190550776
 31
0.0
1001
AUSTER_ANSICHT
1002
{
1000
Det03
1002
}
1001
AUSTER_FOLIE
1002
{
1000
GERAEUSCHARMES_S2_CC
1000
BAHNSCHUETZ_ANSTEUERBAU_S2_CC
1002
}
  0
LINE
  5
1D65
330
20
100
AcDbEntity
  8
10000_Front
  6
Continuous
370
    13
100
AcDbLine
 39
0.5
 10
63.56292306612188
 20
94.64267190550776
 30
0.0
 11
63.55898306612188
 21
94.24267190550743
 31
0.0
1001
AUSTER_ANSICHT
1002
{
1000
Det03
1002
}
1001
AUSTER_FOLIE
1002
{
1000
GERAEUSCHARMES_S2_CC
1000
BAHNSCHUETZ_ANSTEUERBAU_S2_CC
1002
}
  0
LINE
  5
1D66
330
20
100
AcDbEntity
  8
10000_Front
  6
Continuous
370
    50
100
AcDbLine
 39
0.5
 10
52.26292306612186
 20
94.24267190550743
 30
0.0
 11
63.55898306612188
 21
94.24267190550743
 31
0.0
1001
AUSTER_ANSICHT
1002
{
1000
Det03
1002
}
1001
AUSTER_FOLIE
1002
{
1000
GERAEUSCHARMES_S2_CC
1000
BAHNSCHUETZ_ANSTEUERBAU_S2_CC
1002
}
  0
LINE
  5
1D67
330
20
100
AcDbEntity
  8
10000_Front
  6
Continuous
370
    50
100
AcDbLine
 39
0.5
 10
92.96292306612178
 20
94.24267190550743
 30
0.0
 11
104.2629230661217
 21
94.24267190550743
 31
0.0
1001
AUSTER_ANSICHT
1002
{
1000
Det03
1002
}
1001
AUSTER_FOLIE
1002
{
1000
GERAEUSCHARMES_S2_CC
1000
BAHNSCHUETZ_ANSTEUERBAU_S2_CC
1002
}
  0
ARC
  5
1D68
330
20
100
AcDbEntity
  8
10000_Front
  6
Continuous
 62
     7
370
    13
100
AcDbCircle
 39
0.5
 10
102.0129230661217
 20
98.74266190550761
 30
0.0
 40
2.850490999999998
100
AcDbArc
 50
167.7603999999987
 51
192.2396000000013
1001
AUSTER_ANSICHT
1002
{
1000
Det03
1002
}
1001
AUSTER_FOLIE
1002
{
1000
GERAEUSCHARMES_S2_CC
1000
BAHNSCHUETZ_ANSTEUERBAU_S2_CC
1002
}
  0
ARC
  5
1D69
330
20
100
AcDbEntity
  8
10000_Front
  6
Continuous
 62
     7
370
    13
100
AcDbCircle
 39
0.5
 10
102.0129230661217
 20
98.74266190550761
 30
0.0
 40
1.85
100
AcDbArc
 50
73.8365499999998
 51
106.1633999999998
1001
AUSTER_ANSICHT
1002
{
1000
Det03
1002
}
1001
AUSTER_FOLIE
1002
{
1000
GERAEUSCHARMES_S2_CC
1000
BAHNSCHUETZ_ANSTEUERBAU_S2_CC
1002
}
  0
ARC
  5
1D6A
330
20
100
AcDbEntity
  8
10000_Front
  6
Continuous
 62
     7
370
    13
100
AcDbCircle
 39
0.5
 10
102.0129230661217
 20
98.74266190550761
 30
0.0
 40
1.85
100
AcDbArc
 50
253.8365999999994
 51
286.1633999999999
1001
AUSTER_ANSICHT
1002
{
1000
Det03
1002
}
1001
AUSTER_FOLIE
1002
{
1000
GERAEUSCHARMES_S2_CC
1000
BAHNSCHUETZ_ANSTEUERBAU_S2_CC
1002
}
  0
ARC
  5
1D6B
330
20
100
AcDbEntity
  8
10000_Front
  6
Continuous
 62
     7
370
    13
100
AcDbCircle
 39
0.5
 10
102.0129230661217
 20
98.74266190550761
 30
0.0
 40
2.850490999999998
100
AcDbArc
 50
347.7603999999987
 51
12.23960000000126
1001
AUSTER_ANSICHT
1002
{
1000
Det03
1002
}
1001
AUSTER_FOLIE
1002
{
1000
GERAEUSCHARMES_S2_CC
1000
BAHNSCHUETZ_ANSTEUERBAU_S2_CC
1002
}
  0
ARC
  5
1D6C
330
20
100
AcDbEntity
  8
10000_Front
  6
Continuous
 62
     7
370
    13
100
AcDbCircle
 39
0.5
 10
55.76292306612188
 20
98.74266190550761
 30
0.0
 40
2.5
100
AcDbArc
 50
180.0
 51
0.0
1001
AUSTER_ANSICHT
1002
{
1000
Det03
1002
}
1001
AUSTER_FOLIE
1002
{
1000
GERAEUSCHARMES_S2_CC
1000
BAHNSCHUETZ_ANSTEUERBAU_S2_CC
1002
}
  0
ARC
  5
1D6D
330
20
100
AcDbEntity
  8
10000_Front
  6
Continuous
370
    50
100
AcDbCircle
 39
0.5
 10
52.26292306612186
 20
95.74266190550758
 30
0.0
 40
1.5
100
AcDbArc
 50
180.0
 51
270.0
1001
AUSTER_ANSICHT
1002
{
1000
Det03
1002
}
1001
AUSTER_FOLIE
1002
{
1000
GERAEUSCHARMES_S2_CC
1000
BAHNSCHUETZ_ANSTEUERBAU_S2_CC
1002
}
  0
ARC
  5
1D6E
330
20
100
AcDbEntity
  8
10000_Front
  6
Continuous
 62
     7
370
    13
100
AcDbCircle
 39
0.5
 10
97.08193306612169
 20
94.64267190550776
 30
0.0
 40
0.4
100
AcDbArc
 50
270.0
 51
0.0
1001
AUSTER_ANSICHT
1002
{
1000
Det03
1002
}
1001
AUSTER_FOLIE
1002
{
1000
GERAEUSCHARMES_S2_CC
1000
BAHNSCHUETZ_ANSTEUERBAU_S2_CC
1002
}
  0
ARC
  5
1D6F
330
20
100
AcDbEntity
  8
10000_Front
  6
Continuous
370
    50
100
AcDbCircle
 39
0.5
 10
104.2629230661217
 20
95.74266190550758
 30
0.0
 40
1.5
100
AcDbArc
 50
270.0
 51
0.0
1001
AUSTER_ANSICHT
1002
{
1000
Det03
1002
}
1001
AUSTER_FOLIE
1002
{
1000
GERAEUSCHARMES_S2_CC
1000
BAHNSCHUETZ_ANSTEUERBAU_S2_CC
1002
}
  0
ARC
  5
1D70
330
20
100
AcDbEntity
  8
10000_Front
  6
Continuous
 62
     7
370
    13
100
AcDbCircle
 39
0.5
 10
60.66292306612186
 20
94.64267190550776
 30
0.0
 40
0.4
100
AcDbArc
 50
180.0
 51
270.0
1001
AUSTER_ANSICHT
1002
{
1000
Det03
1002
}
1001
AUSTER_FOLIE
1002
{
1000
GERAEUSCHARMES_S2_CC
1000
BAHNSCHUETZ_ANSTEUERBAU_S2_CC
1002
}
  0
LINE
  5
1D71
330
20
100
AcDbEntity
  8
10000_Front
  6
Continuous
370
    13
100
AcDbLine
 39
0.5
 10
52.91292306612188
 20
102.2426619055076
 30
0.0
 11
66.81292306612188
 21
102.2426619055076
 31
0.0
1001
AUSTER_ANSICHT
1002
{
1000
Det03
1002
}
1001
AUSTER_FOLIE
1002
{
1000
GERAEUSCHARMES_S2_CC
1000
BAHNSCHUETZ_ANSTEUERBAU_S2_CC
1002
}
  0
LINE
  5
1D72
330
20
100
AcDbEntity
  8
10000_Front
  6
Continuous
370
    13
100
AcDbLine
 39
0.5
 10
67.21292306612189
 20
104.2426619055076
 30
0.0
 11
67.21292306612189
 21
102.6426619055078
 31
0.0
1001
AUSTER_ANSICHT
1002
{
1000
Det03
1002
}
1001
AUSTER_FOLIE
1002
{
1000
GERAEUSCHARMES_S2_CC
1000
BAHNSCHUETZ_ANSTEUERBAU_S2_CC
1002
}
  0
LINE
  5
1D73
330
20
100
AcDbEntity
  8
10000_Front
  6
Continuous
370
    13
100
AcDbLine
 39
0.5
 10
71.81292306612168
 20
104.2426619055076
 30
0.0
 11
71.81292306612168
 21
102.6426619055078
 31
0.0
1001
AUSTER_ANSICHT
1002
{
1000
Det03
1002
}
1001
AUSTER_FOLIE
1002
{
1000
GERAEUSCHARMES_S2_CC
1000
BAHNSCHUETZ_ANSTEUERBAU_S2_CC
1002
}
  0
LINE
  5
1D74
330
20
100
AcDbEntity
  8
10000_Front
  6
Continuous
370
    13
100
AcDbLine
 39
0.5
 10
72.2129180661216
 20
102.2426619055076
 30
0.0
 11
84.31291806612184
 21
102.2426619055076
 31
0.0
1001
AUSTER_ANSICHT
1002
{
1000
Det03
1002
}
1001
AUSTER_FOLIE
1002
{
1000
GERAEUSCHARMES_S2_CC
1000
BAHNSCHUETZ_ANSTEUERBAU_S2_CC
1002
}
  0
LINE
  5
1D75
330
20
100
AcDbEntity
  8
10000_Front
  6
Continuous
370
    13
100
AcDbLine
 39
0.5
 10
84.7129180661216
 20
104.2426619055076
 30
0.0
 11
84.7129180661216
 21
102.6426619055078
 31
0.0
1001
AUSTER_ANSICHT
1002
{
1000
Det03
1002
}
1001
AUSTER_FOLIE
1002
{
1000
GERAEUSCHARMES_S2_CC
1000
BAHNSCHUETZ_ANSTEUERBAU_S2_CC
1002
}
  0
LINE
  5
1D76
330
20
100
AcDbEntity
  8
10000_Front
  6
Continuous
370
    13
100
AcDbLine
 39
0.5
 10
89.31291806612188
 20
104.2426619055076
 30
0.0
 11
89.31291806612188
 21
102.6426619055078
 31
0.0
1001
AUSTER_ANSICHT
1002
{
1000
Det03
1002
}
1001
AUSTER_FOLIE
1002
{
1000
GERAEUSCHARMES_S2_CC
1000
BAHNSCHUETZ_ANSTEUERBAU_S2_CC
1002
}
  0
LINE
  5
1D77
330
20
100
AcDbEntity
  8
10000_Front
  6
Continuous
370
    13
100
AcDbLine
 39
0.5
 10
103.6129230661218
 20
102.2426619055076
 30
0.0
 11
89.7129180661216
 21
102.2426619055076
 31
0.0
1001
AUSTER_ANSICHT
1002
{
1000
Det03
1002
}
1001
AUSTER_FOLIE
1002
{
1000
GERAEUSCHARMES_S2_CC
1000
BAHNSCHUETZ_ANSTEUERBAU_S2_CC
1002
}
  0
LINE
  5
1D78
330
20
100
AcDbEntity
  8
10000_Front
  6
Continuous
370
    50
100
AcDbLine
 39
0.5
 10
105.7629230661218
 20
105.2141619055076
 30
0.0
 11
105.7629230661218
 21
103.6736619055077
 31
0.0
1001
AUSTER_ANSICHT
1002
{
1000
Det03
1002
}
1001
AUSTER_FOLIE
1002
{
1000
GERAEUSCHARMES_S2_CC
1000
BAHNSCHUETZ_ANSTEUERBAU_S2_CC
1002
}
  0
LINE
  5
1D79
330
20
100
AcDbEntity
  8
10000_Front
  6
Continuous
 62
     7
370
    13
100
AcDbLine
 39
0.5
 10
104.0115630661218
 20
103.2736619055076
 30
0.0
 11
105.3629230661218
 21
103.2736619055076
 31
0.0
1001
AUSTER_ANSICHT
1002
{
1000
Det03
1002
}
1001
AUSTER_FOLIE
1002
{
1000
GERAEUSCHARMES_S2_CC
1000
BAHNSCHUETZ_ANSTEUERBAU_S2_CC
1002
}
  0
LINE
  5
1D7A
330
20
100
AcDbEntity
  8
10000_Front
  6
Continuous
370
    13
100
AcDbLine
 39
0.5
 10
104.2629230661217
 20
104.2426619055076
 30
0.0
 11
52.26292306612186
 21
104.2426619055076
 31
0.0
1001
AUSTER_ANSICHT
1002
{
1000
Det03
1002
}
1001
AUSTER_FOLIE
1002
{
1000
GERAEUSCHARMES_S2_CC
1000
BAHNSCHUETZ_ANSTEUERBAU_S2_CC
1002
}
  0
LINE
  5
1D7B
330
20
100
AcDbEntity
  8
10000_Front
  6
Continuous
370
    13
100
AcDbLine
 39
0.5
 10
52.51292306612185
 20
102.6426619055078
 30
0.0
 11
52.51292306612185
 21
104.2426619055076
 31
0.0
1001
AUSTER_ANSICHT
1002
{
1000
Det03
1002
}
1001
AUSTER_FOLIE
1002
{
1000
GERAEUSCHARMES_S2_CC
1000
BAHNSCHUETZ_ANSTEUERBAU_S2_CC
1002
}
  0
LINE
  5
1D7C
330
20
100
AcDbEntity
  8
10000_Front
  6
Continuous
370
    13
100
AcDbLine
 39
0.5
 10
104.0129230661217
 20
104.2426619055076
 30
0.0
 11
104.0129230661217
 21
102.6426619055078
 31
0.0
1001
AUSTER_ANSICHT
1002
{
1000
Det03
1002
}
1001
AUSTER_FOLIE
1002
{
1000
GERAEUSCHARMES_S2_CC
1000
BAHNSCHUETZ_ANSTEUERBAU_S2_CC
1002
}
  0
ARC
  5
1D7D
330
20
100
AcDbEntity
  8
10000_Front
  6
Continuous
370
    13
100
AcDbCircle
 39
0.5
 10
66.81292306612188
 20
102.6426619055078
 30
0.0
 40
0.4
100
AcDbArc
 50
270.0
 51
0.0
1001
AUSTER_ANSICHT
1002
{
1000
Det03
1002
}
1001
AUSTER_FOLIE
1002
{
1000
GERAEUSCHARMES_S2_CC
1000
BAHNSCHUETZ_ANSTEUERBAU_S2_CC
1002
}
  0
ARC
  5
1D7E
330
20
100
AcDbEntity
  8
10000_Front
  6
Continuous
370
    13
100
AcDbCircle
 39
0.5
 10
72.2129180661216
 20
102.6426619055078
 30
0.0
 40
0.4
100
AcDbArc
 50
180.0
 51
270.0
1001
AUSTER_ANSICHT
1002
{
1000
Det03
1002
}
1001
AUSTER_FOLIE
1002
{
1000
GERAEUSCHARMES_S2_CC
1000
BAHNSCHUETZ_ANSTEUERBAU_S2_CC
1002
}
  0
ARC
  5
1D7F
330
20
100
AcDbEntity
  8
10000_Front
  6
Continuous
370
    13
100
AcDbCircle
 39
0.5
 10
84.31291806612184
 20
102.6426619055078
 30
0.0
 40
0.4
100
AcDbArc
 50
270.0
 51
0.0
1001
AUSTER_ANSICHT
1002
{
1000
Det03
1002
}
1001
AUSTER_FOLIE
1002
{
1000
GERAEUSCHARMES_S2_CC
1000
BAHNSCHUETZ_ANSTEUERBAU_S2_CC
1002
}
  0
ARC
  5
1D80
330
20
100
AcDbEntity
  8
10000_Front
  6
Continuous
370
    13
100
AcDbCircle
 39
0.5
 10
89.7129180661216
 20
102.6426619055078
 30
0.0
 40
0.4
100
AcDbArc
 50
180.0
 51
270.0
1001
AUSTER_ANSICHT
1002
{
1000
Det03
1002
}
1001
AUSTER_FOLIE
1002
{
1000
GERAEUSCHARMES_S2_CC
1000
BAHNSCHUETZ_ANSTEUERBAU_S2_CC
1002
}
  0
ARC
  5
1D81
330
20
100
AcDbEntity
  8
10000_Front
  6
Continuous
370
    13
100
AcDbCircle
 39
0.5
 10
52.91292306612188
 20
102.6426619055078
 30
0.0
 40
0.4
100
AcDbArc
 50
180.0
 51
270.0
1001
AUSTER_ANSICHT
1002
{
1000
Det03
1002
}
1001
AUSTER_FOLIE
1002
{
1000
GERAEUSCHARMES_S2_CC
1000
BAHNSCHUETZ_ANSTEUERBAU_S2_CC
1002
}
  0
ARC
  5
1D82
330
20
100
AcDbEntity
  8
10000_Front
  6
Continuous
370
    13
100
AcDbCircle
 39
0.5
 10
103.6129230661218
 20
102.6426619055078
 30
0.0
 40
0.4
100
AcDbArc
 50
270.0
 51
0.0
1001
AUSTER_ANSICHT
1002
{
1000
Det03
1002
}
1001
AUSTER_FOLIE
1002
{
1000
GERAEUSCHARMES_S2_CC
1000
BAHNSCHUETZ_ANSTEUERBAU_S2_CC
1002
}
  0
LWPOLYLINE
  5
1D83
330
20
100
AcDbEntity
  8
10000_Front
  6
Continuous
370
    13
100
AcDbPolyline
 90
      200
 70
     0
 43
0.0
 39
0.5
 10
104.2630130661218
 20
104.2429619055077
 10
104.2740130661218
 20
104.2429619055077
 10
104.2850130661217
 20
104.2429619055077
 10
104.2970130661218
 20
104.2429619055077
 10
104.3080130661218
 20
104.2429619055077
 10
104.3190130661218
 20
104.2439619055076
 10
104.3290130661218
 20
104.2439619055076
 10
104.3400130661218
 20
104.2449619055076
 10
104.3510130661218
 20
104.2449619055076
 10
104.3610130661217
 20
104.2459619055078
 10
104.3720130661218
 20
104.2459619055078
 10
104.3820130661218
 20
104.2469619055077
 10
104.3930130661218
 20
104.2479619055077
 10
104.4030130661218
 20
104.2489619055076
 10
104.4130130661218
 20
104.2499619055075
 10
104.4230130661218
 20
104.2509619055075
 10
104.4330130661218
 20
104.2519619055077
 10
104.4440130661218
 20
104.2529619055077
 10
104.4540130661218
 20
104.2549619055078
 10
104.4640130661218
 20
104.2559619055077
 10
104.4740130661218
 20
104.2569619055077
 10
104.4840130661218
 20
104.2589619055076
 10
104.4930130661218
 20
104.2599619055075
 10
104.5030130661217
 20
104.2619619055077
 10
104.5130130661217
 20
104.2639619055076
 10
104.5130130661217
 20
104.2639619055076
 10
104.5230130661218
 20
104.2659619055077
 10
104.5330130661218
 20
104.2669619055077
 10
104.5430130661217
 20
104.2689619055076
 10
104.5530130661218
 20
104.2709619055077
 10
104.5630130661218
 20
104.2729619055076
 10
104.5730130661217
 20
104.2749619055078
 10
104.5830130661216
 20
104.2769619055076
 10
104.5920130661218
 20
104.2799619055074
 10
104.6020130661217
 20
104.2819619055076
 10
104.6120130661216
 20
104.2839619055078
 10
104.6220130661218
 20
104.2869619055076
 10
104.6320130661217
 20
104.2889619055075
 10
104.6420130661218
 20
104.2919619055076
 10
104.6520130661217
 20
104.2939619055078
 10
104.6610130661218
 20
104.2969619055076
 10
104.6710130661218
 20
104.2999619055077
 10
104.6810130661218
 20
104.3029619055078
 10
104.6910130661218
 20
104.3059619055076
 10
104.7010130661218
 20
104.3079619055074
 10
104.7100130661217
 20
104.3109619055076
 10
104.7200130661218
 20
104.3149619055076
 10
104.7300130661218
 20
104.3179619055075
 10
104.7400130661217
 20
104.3209619055077
 10
104.7490130661218
 20
104.3239619055076
 10
104.7490130661218
 20
104.3239619055076
 10
104.7590130661218
 20
104.3279619055077
 10
104.7690130661218
 20
104.3309619055076
 10
104.7780130661218
 20
104.3339619055077
 10
104.7880130661218
 20
104.3379619055075
 10
104.7980130661217
 20
104.3419619055078
 10
104.8070130661218
 20
104.3449619055076
 10
104.8170130661218
 20
104.3489619055077
 10
104.8270130661218
 20
104.3529619055077
 10
104.8360130661218
 20
104.3569619055078
 10
104.8460130661218
 20
104.3609619055078
 10
104.8560130661218
 20
104.3649619055076
 10
104.8650130661218
 20
104.3689619055076
 10
104.8750130661218
 20
104.3729619055076
 10
104.8850130661219
 20
104.3779619055076
 10
104.8940130661218
 20
104.3819619055077
 10
104.9040130661218
 20
104.3869619055077
 10
104.9140130661218
 20
104.3909619055077
 10
104.9240130661218
 20
104.3959619055077
 10
104.9330130661219
 20
104.4009619055077
 10
104.9430130661218
 20
104.4059619055076
 10
104.9530130661218
 20
104.4109619055076
 10
104.9630130661218
 20
104.4159619055076
 10
104.9720130661218
 20
104.4209619055076
 10
104.9820130661218
 20
104.4259619055077
 10
104.9820130661218
 20
104.4259619055077
 10
104.9920130661218
 20
104.4319619055076
 10
105.0020130661218
 20
104.4369619055076
 10
105.0120130661218
 20
104.4429619055075
 10
105.0220130661217
 20
104.4489619055077
 10
105.0320130661218
 20
104.4549619055077
 10
105.0420130661217
 20
104.4609619055076
 10
105.0520130661218
 20
104.4669619055078
 10
105.0610130661218
 20
104.4729619055077
 10
105.0710130661218
 20
104.4789619055076
 10
105.0810130661218
 20
104.4859619055078
 10
105.0910130661218
 20
104.4919619055077
 10
105.1010130661218
 20
104.4989619055076
 10
105.1110130661217
 20
104.5049619055078
 10
105.1210130661218
 20
104.5119619055076
 10
105.1310130661217
 20
104.5189619055076
 10
105.1410130661217
 20
104.5259619055076
 10
105.1510130661218
 20
104.5339619055078
 10
105.1610130661218
 20
104.5409619055077
 10
105.1710130661218
 20
104.5479619055075
 10
105.1810130661217
 20
104.5559619055076
 10
105.1900130661218
 20
104.5639619055077
 10
105.2000130661219
 20
104.5719619055078
 10
105.2100130661218
 20
104.5789619055077
 10
105.2200130661218
 20
104.5879619055077
 10
105.2200130661218
 20
104.5879619055077
 10
105.2300130661218
 20
104.5959619055075
 10
105.2390130661218
 20
104.6039619055076
 10
105.2490130661218
 20
104.6119619055077
 10
105.2590130661217
 20
104.6209619055078
 10
105.2680130661218
 20
104.6299619055078
 10
105.2780130661218
 20
104.6379619055077
 10
105.2880130661218
 20
104.6469619055077
 10
105.2970130661218
 20
104.6559619055077
 10
105.3070130661218
 20
104.6649619055077
 10
105.3160130661218
 20
104.6739619055077
 10
105.3250130661218
 20
104.6839619055077
 10
105.3350130661218
 20
104.6929619055074
 10
105.3440130661218
 20
104.7019619055076
 10
105.3530130661218
 20
104.7119619055075
 10
105.3620130661216
 20
104.7219619055075
 10
105.3710130661217
 20
104.7309619055075
 10
105.3800130661218
 20
104.7409619055075
 10
105.3890130661218
 20
104.7509619055075
 10
105.3980130661218
 20
104.7609619055077
 10
105.4070130661218
 20
104.7709619055077
 10
105.4150130661218
 20
104.7819619055076
 10
105.4240130661218
 20
104.7919619055076
 10
105.4320130661217
 20
104.8019619055077
 10
105.4400130661218
 20
104.8129619055078
 10
105.4400130661218
 20
104.8129619055078
 10
105.4490130661217
 20
104.8229619055078
 10
105.4570130661217
 20
104.8339619055077
 10
105.4650130661218
 20
104.8439619055077
 10
105.4730130661218
 20
104.8549619055076
 10
105.4810130661218
 20
104.8659619055075
 10
105.4880130661218
 20
104.8769619055077
 10
105.4960130661217
 20
104.8879619055076
 10
105.5040130661218
 20
104.8989619055078
 10
105.5110130661218
 20
104.9099619055077
 10
105.5180130661218
 20
104.9209619055077
 10
105.5260130661218
 20
104.9319619055076
 10
105.5330130661218
 20
104.9429619055075
 10
105.5400130661218
 20
104.9549619055076
 10
105.5470130661218
 20
104.9659619055078
 10
105.5540130661217
 20
104.9779619055077
 10
105.5600130661218
 20
104.9899619055077
 10
105.5670130661217
 20
105.0009619055075
 10
105.5740130661218
 20
105.0129619055077
 10
105.5800130661218
 20
105.0249619055078
 10
105.5860130661218
 20
105.0369619055076
 10
105.5930130661217
 20
105.0489619055078
 10
105.5990130661218
 20
105.0609619055076
 10
105.6050130661218
 20
105.0729619055078
 10
105.6110130661218
 20
105.0859619055077
 10
105.6110130661218
 20
105.0859619055077
 10
105.6170130661219
 20
105.0979619055076
 10
105.6230130661218
 20
105.1099619055076
 10
105.6280130661217
 20
105.1229619055077
 10
105.6340130661218
 20
105.1349619055075
 10
105.6390130661218
 20
105.1479619055076
 10
105.6450130661218
 20
105.1609619055077
 10
105.6500130661217
 20
105.1739619055078
 10
105.6550130661218
 20
105.1859619055076
 10
105.6600130661216
 20
105.1989619055076
 10
105.6650130661218
 20
105.2119619055075
 10
105.6700130661218
 20
105.2249619055076
 10
105.6750130661218
 20
105.2379619055077
 10
105.6790130661217
 20
105.2509619055075
 10
105.684013066122
 20
105.2649619055078
 10
105.6880130661217
 20
105.2779619055076
 10
105.6930130661217
 20
105.2909619055076
 10
105.6970130661218
 20
105.3039619055077
 10
105.7010130661218
 20
105.3179619055075
 10
105.7050130661218
 20
105.3309619055076
 10
105.7090130661218
 20
105.3439619055077
 10
105.7120130661219
 20
105.3579619055077
 10
105.7160130661217
 20
105.3709619055078
 10
105.7190130661219
 20
105.3849619055074
 10
105.7230130661218
 20
105.3979619055077
 10
105.7230130661218
 20
105.3979619055077
 10
105.7260130661218
 20
105.4119619055077
 10
105.7290130661218
 20
105.4259619055077
 10
105.7320130661218
 20
105.4389619055077
 10
105.7350130661218
 20
105.4529619055077
 10
105.7380130661218
 20
105.4659619055076
 10
105.7400130661217
 20
105.4799619055077
 10
105.7430130661218
 20
105.4939619055077
 10
105.7450130661218
 20
105.5079619055077
 10
105.7470130661218
 20
105.5219619055077
 10
105.7490130661218
 20
105.5359619055077
 10
105.7510130661218
 20
105.5499619055077
 10
105.7530130661218
 20
105.5639619055077
 10
105.7540130661217
 20
105.5779619055078
 10
105.7560130661217
 20
105.5929619055076
 10
105.7570130661217
 20
105.6069619055078
 10
105.7580130661218
 20
105.6219619055077
 10
105.7590130661218
 20
105.6359619055077
 10
105.7600130661219
 20
105.6509619055077
 10
105.7610130661218
 20
105.6659619055076
 10
105.7620130661218
 20
105.6809619055076
 10
105.7620130661218
 20
105.6959619055077
 10
105.7630130661217
 20
105.7119619055075
 10
105.7630130661217
 20
105.7269619055078
 10
105.7630130661217
 20
105.7429619055077
1001
AUSTER_ANSICHT
1002
{
1000
Det03
1002
}
1001
AUSTER_FOLIE
1002
{
1000
GERAEUSCHARMES_S2_CC
1000
BAHNSCHUETZ_ANSTEUERBAU_S2_CC
1002
}
  0
LWPOLYLINE
  5
1D84
330
20
100
AcDbEntity
  8
10000_Front
  6
Continuous
370
    13
100
AcDbPolyline
 90
      200
 70
     0
 43
0.0
 39
0.5
 10
50.76301306612186
 20
105.7429619055077
 10
50.76301306612186
 20
105.7269619055078
 10
50.76301306612186
 20
105.7119619055075
 10
50.76401306612186
 20
105.6959619055077
 10
50.76401306612186
 20
105.6809619055076
 10
50.76501306612168
 20
105.6659619055076
 10
50.76501306612168
 20
105.6509619055077
 10
50.76601306612173
 20
105.6359619055077
 10
50.76701306612186
 20
105.6219619055077
 10
50.7690130661219
 20
105.6069619055078
 10
50.77001306612192
 20
105.5929619055076
 10
50.77201306612188
 20
105.5779619055078
 10
50.77301306612184
 20
105.5639619055077
 10
50.77501306612184
 20
105.5499619055077
 10
50.77701306612187
 20
105.5359619055077
 10
50.77901306612192
 20
105.5219619055077
 10
50.7810130661219
 20
105.5079619055077
 10
50.78301306612186
 20
105.4939619055077
 10
50.78601306612188
 20
105.4799619055077
 10
50.78801306612172
 20
105.4659619055076
 10
50.79101306612185
 20
105.4529619055077
 10
50.79401306612169
 20
105.4389619055077
 10
50.79701306612186
 20
105.4259619055077
 10
50.80001306612189
 20
105.4119619055077
 10
50.80301306612188
 20
105.3979619055077
 10
50.80301306612188
 20
105.3979619055077
 10
50.80601306612186
 20
105.3849619055074
 10
50.81001306612193
 20
105.3709619055078
 10
50.81301306612161
 20
105.3579619055077
 10
50.81701306612195
 20
105.3439619055077
 10
50.82101306612184
 20
105.3309619055076
 10
50.82501306612188
 20
105.3179619055075
 10
50.82901306612185
 20
105.3039619055077
 10
50.83301306612172
 20
105.2909619055076
 10
50.83701306612188
 20
105.2779619055076
 10
50.8420130661219
 20
105.2649619055078
 10
50.8460130661219
 20
105.2509619055075
 10
50.85101306612187
 20
105.2379619055077
 10
50.85601306612193
 20
105.2249619055076
 10
50.86101306612185
 20
105.2119619055075
 10
50.86601306612192
 20
105.1989619055076
 10
50.87101306612163
 20
105.1859619055076
 10
50.87601306612185
 20
105.1739619055078
 10
50.88101306612175
 20
105.1609619055077
 10
50.88601306612196
 20
105.1479619055076
 10
50.89201306612189
 20
105.1349619055075
 10
50.89801306612184
 20
105.1229619055077
 10
50.90301306612184
 20
105.1099619055076
 10
50.90901306612168
 20
105.0979619055076
 10
50.91501306612184
 20
105.0859619055077
 10
50.91501306612184
 20
105.0859619055077
 10
50.92101306612185
 20
105.0729619055078
 10
50.92701306612184
 20
105.0609619055076
 10
50.9330130661219
 20
105.0489619055078
 10
50.93901306612173
 20
105.0369619055076
 10
50.94601306612183
 20
105.0249619055078
 10
50.95201306612192
 20
105.0129619055077
 10
50.95901306612188
 20
105.0009619055075
 10
50.96501306612186
 20
104.9899619055077
 10
50.97201306612184
 20
104.9779619055077
 10
50.9790130661219
 20
104.9659619055078
 10
50.98601306612188
 20
104.9549619055076
 10
50.99301306612185
 20
104.9429619055075
 10
51.00001306612192
 20
104.9319619055076
 10
51.00701306612196
 20
104.9209619055077
 10
51.01501306612163
 20
104.9099619055077
 10
51.02201306612188
 20
104.8989619055078
 10
51.03001306612187
 20
104.8879619055076
 10
51.03701306612186
 20
104.8769619055077
 10
51.04501306612185
 20
104.8659619055075
 10
51.05301306612187
 20
104.8549619055076
 10
51.06101306612185
 20
104.8439619055077
 10
51.06901306612185
 20
104.8339619055077
 10
51.07701306612192
 20
104.8229619055078
 10
51.08501306612185
 20
104.8129619055078
 10
51.08501306612185
 20
104.8129619055078
 10
51.09401306612188
 20
104.8019619055077
 10
51.10201306612161
 20
104.7919619055076
 10
51.11101306612161
 20
104.7819619055076
 10
51.11901306612185
 20
104.7709619055077
 10
51.12801306612187
 20
104.7609619055077
 10
51.13701306612188
 20
104.7509619055075
 10
51.14601306612184
 20
104.7409619055075
 10
51.15501306612184
 20
104.7309619055075
 10
51.16401306612193
 20
104.7219619055075
 10
51.17301306612192
 20
104.7119619055075
 10
51.18201306612172
 20
104.7019619055076
 10
51.19101306612185
 20
104.6929619055074
 10
51.20001306612188
 20
104.6839619055077
 10
51.21001306612185
 20
104.6739619055077
 10
51.21901306612187
 20
104.6649619055077
 10
51.22901306612185
 20
104.6559619055077
 10
51.23801306612188
 20
104.6469619055077
 10
51.24801306612188
 20
104.6379619055077
 10
51.2570130661219
 20
104.6299619055078
 10
51.26701306612186
 20
104.6209619055078
 10
51.27701306612188
 20
104.6119619055077
 10
51.28601306612188
 20
104.6039619055076
 10
51.29601306612189
 20
104.5959619055075
 10
51.30601306612185
 20
104.5879619055077
 10
51.30601306612185
 20
104.5879619055077
 10
51.31601306612186
 20
104.5789619055077
 10
51.32601306612184
 20
104.5719619055078
 10
51.33501306612185
 20
104.5639619055077
 10
51.34501306612182
 20
104.5559619055076
 10
51.35501306612184
 20
104.5479619055075
 10
51.36501306612196
 20
104.5409619055077
 10
51.37501306612195
 20
104.5339619055078
 10
51.38501306612188
 20
104.5259619055076
 10
51.39501306612192
 20
104.5189619055076
 10
51.40501306612188
 20
104.5119619055076
 10
51.41501306612184
 20
104.5049619055078
 10
51.4250130661219
 20
104.4989619055076
 10
51.43501306612188
 20
104.4919619055077
 10
51.44401306612184
 20
104.4859619055078
 10
51.45401306612196
 20
104.4789619055076
 10
51.46401306612188
 20
104.4729619055077
 10
51.47401306612188
 20
104.4669619055078
 10
51.48401306612186
 20
104.4609619055076
 10
51.49401306612181
 20
104.4549619055077
 10
51.50401306612184
 20
104.4489619055077
 10
51.51401306612186
 20
104.4429619055075
 10
51.52401306612188
 20
104.4369619055076
 10
51.53401306612168
 20
104.4319619055076
 10
51.54401306612168
 20
104.4259619055077
 10
51.54401306612168
 20
104.4259619055077
 10
51.55301306612172
 20
104.4209619055076
 10
51.56301306612185
 20
104.4159619055076
 10
51.57301306612168
 20
104.4109619055076
 10
51.58301306612175
 20
104.4059619055076
 10
51.59201306612164
 20
104.4009619055077
 10
51.60201306612186
 20
104.3959619055077
 10
51.61201306612174
 20
104.3909619055077
 10
51.62201306612189
 20
104.3869619055077
 10
51.63101306612176
 20
104.3819619055077
 10
51.64101306612173
 20
104.3779619055076
 10
51.65101306612196
 20
104.3729619055076
 10
51.66001306612175
 20
104.3689619055076
 10
51.67001306612196
 20
104.3649619055076
 10
51.6800130661219
 20
104.3609619055078
 10
51.68901306612173
 20
104.3569619055078
 10
51.69901306612195
 20
104.3529619055077
 10
51.70901306612188
 20
104.3489619055077
 10
51.71801306612173
 20
104.3449619055076
 10
51.72801306612186
 20
104.3419619055078
 10
51.73801306612188
 20
104.3379619055075
 10
51.74701306612195
 20
104.3339619055077
 10
51.75701306612189
 20
104.3309619055076
 10
51.76701306612185
 20
104.3279619055077
 10
51.77701306612187
 20
104.3239619055076
 10
51.77701306612187
 20
104.3239619055076
 10
51.78601306612195
 20
104.3209619055077
 10
51.79601306612188
 20
104.3179619055075
 10
51.80601306612185
 20
104.3149619055076
 10
51.81601306612185
 20
104.3109619055076
 10
51.82501306612188
 20
104.3079619055074
 10
51.83501306612185
 20
104.3059619055076
 10
51.84501306612183
 20
104.3029619055078
 10
51.85501306612184
 20
104.2999619055077
 10
51.86401306612184
 20
104.2969619055076
 10
51.87401306612184
 20
104.2939619055078
 10
51.88401306612185
 20
104.2919619055076
 10
51.89401306612196
 20
104.2889619055075
 10
51.90401306612196
 20
104.2869619055076
 10
51.91401306612192
 20
104.2839619055078
 10
51.92301306612195
 20
104.2819619055076
 10
51.9330130661219
 20
104.2799619055074
 10
51.94301306612192
 20
104.2769619055076
 10
51.95301306612186
 20
104.2749619055078
 10
51.96301306612184
 20
104.2729619055076
 10
51.97301306612189
 20
104.2709619055077
 10
51.98301306612195
 20
104.2689619055076
 10
51.99301306612188
 20
104.2669619055077
 10
52.00301306612188
 20
104.2659619055077
 10
52.01201306612188
 20
104.2639619055076
 10
52.01201306612188
 20
104.2639619055076
 10
52.02201306612188
 20
104.2619619055077
 10
52.03201306612188
 20
104.2599619055075
 10
52.04201306612183
 20
104.2589619055076
 10
52.05201306612185
 20
104.2569619055077
 10
52.06201306612189
 20
104.2559619055077
 10
52.07201306612188
 20
104.2549619055078
 10
52.08201306612168
 20
104.2529619055077
 10
52.09201306612165
 20
104.2519619055077
 10
52.10301306612187
 20
104.2509619055075
 10
52.11301306612188
 20
104.2499619055075
 10
52.12301306612189
 20
104.2489619055076
 10
52.13301306612185
 20
104.2479619055077
 10
52.14401306612195
 20
104.2469619055077
 10
52.15401306612196
 20
104.2459619055078
 10
52.16401306612187
 20
104.2459619055078
 10
52.17501306612188
 20
104.2449619055076
 10
52.18601306612185
 20
104.2449619055076
 10
52.19601306612183
 20
104.2439619055076
 10
52.20701306612188
 20
104.2439619055076
 10
52.21801306612173
 20
104.2429619055077
 10
52.2290130661219
 20
104.2429619055077
 10
52.24001306612196
 20
104.2429619055077
 10
52.25201306612188
 20
104.2429619055077
 10
52.26301306612185
 20
104.2429619055077
1001
AUSTER_ANSICHT
1002
{
1000
Det03
1002
}
1001
AUSTER_FOLIE
1002
{
1000
GERAEUSCHARMES_S2_CC
1000
BAHNSCHUETZ_ANSTEUERBAU_S2_CC
1002
}
  0
LWPOLYLINE
  5
1D85
330
20
100
AcDbEntity
  8
10000_Front
  6
Continuous
 62
     7
370
    13
100
AcDbPolyline
 90
       25
 70
     0
 43
0.0
 39
0.5
 10
105.3630130661218
 20
103.2739619055078
 10
105.3840130661217
 20
103.2739619055078
 10
105.4060130661218
 20
103.2759619055077
 10
105.4290130661217
 20
103.2799619055075
 10
105.4510130661218
 20
103.2849619055077
 10
105.4740130661218
 20
103.2909619055077
 10
105.4970130661218
 20
103.2989619055078
 10
105.5190130661217
 20
103.3079619055075
 10
105.5420130661218
 20
103.3179619055074
 10
105.5640130661217
 20
103.3299619055076
 10
105.5850130661218
 20
103.3429619055077
 10
105.6060130661218
 20
103.3569619055078
 10
105.626013066122
 20
103.3729619055077
 10
105.6460130661218
 20
103.3909619055077
 10
105.6640130661218
 20
103.4089619055078
 10
105.6810130661218
 20
103.4289619055078
 10
105.6970130661218
 20
103.4509619055076
 10
105.7110130661218
 20
103.4739619055077
 10
105.7240130661218
 20
103.4979619055076
 10
105.7350130661218
 20
103.5239619055078
 10
105.7450130661218
 20
103.5509619055077
 10
105.7530130661218
 20
103.5799619055077
 10
105.7580130661218
 20
103.6099619055076
 10
105.7620130661218
 20
103.6409619055078
 10
105.7630130661217
 20
103.6739619055077
1001
AUSTER_ANSICHT
1002
{
1000
Det03
1002
}
1001
AUSTER_FOLIE
1002
{
1000
GERAEUSCHARMES_S2_CC
1000
BAHNSCHUETZ_ANSTEUERBAU_S2_CC
1002
}
  0
LINE
  5
1D86
330
20
100
AcDbEntity
  8
10000_Front
  6
Continuous
370
    50
100
AcDbLine
 39
0.5
 10
50.76292306612185
 20
105.7426619055076
 30
0.0
 11
50.76292306612185
 21
187.7426619055077
 31
0.0
1001
AUSTER_ANSICHT
1002
{
1000
Det03
1002
}
1001
AUSTER_FOLIE
1002
{
1000
GERAEUSCHARMES_S2_CC
1000
BAHNSCHUETZ_ANSTEUERBAU_S2_CC
1002
}
  0
LINE
  5
1D87
330
20
100
AcDbEntity
  8
10000_Front
  6
Continuous
370
    50
100
AcDbLine
 39
0.5
 10
105.7629230661218
 20
187.7426619055077
 30
0.0
 11
105.7629230661218
 21
105.7423619055078
 31
0.0
1001
AUSTER_ANSICHT
1002
{
1000
Det03
1002
}
1001
AUSTER_FOLIE
1002
{
1000
GERAEUSCHARMES_S2_CC
1000
BAHNSCHUETZ_ANSTEUERBAU_S2_CC
1002
}
  0
TEXT
  5
1EE0
330
20
100
AcDbEntity
  8
91000_TIP
  6
Continuous
 62
     7
100
AcDbText
 10
21.2756234532
 20
15.1898618139
 30
0.0
 40
3.5
  1
Alle Bemassungswerte sind in Millimeter (mm) angegeben.
 41
0.7901174168295486
 72
     5
 11
155.8589567865
 21
15.1898618139
 31
0.0
100
AcDbText
  0
TEXT
  5
1EE1
330
20
100
AcDbEntity
  8
91000_TIP
  6
Continuous
 62
     7
100
AcDbText
 10
21.2756234532
 20
9.9398618139
 30
0.0
 40
3.5
  1
All dimensions are in millimeters (mm).
 41
0.8318452380955365
 72
     5
 11
114.4422901199
 21
9.9398618139
 31
0.0
100
AcDbText
  0
CIRCLE
  5
1F08
330
20
100
AcDbEntity
  8
30000_Drilling
  6
Continuous
370
    50
100
AcDbCircle
 39
0.25
 10
335.4733775139305
 20
99.74250190550772
 30
0.0
 40
2.5
  0
CIRCLE
  5
1F09
330
20
100
AcDbEntity
  8
30000_Drilling
  6
Continuous
370
    50
100
AcDbCircle
 39
0.25
 10
380.4738775139305
 20
194.2426619055077
 30
0.0
 40
2.5
1001
AUSTER_ANSICHT
1002
{
1000
Det03
1002
}
1001
AUSTER_FOLIE
1002
{
1000
EGH_KUNDENKATALOG
1002
}
  0
DIMENSION
  5
2057
330
20
100
AcDbEntity
  8
11100_Left_Dim
  6
Continuous
370
    13
100
AcDbDimension
  2
*D1
 10
282.0539580672438
 20
221.3402446906641
 30
0.0
 11
227.1911651562843
 21
221.3402446906641
 31
0.0
 70
    32
 71
     5
 42
109.725585821919
  3
DSTYLE1
100
AcDbAlignedDimension
 13
172.3283722453248
 23
164.2426619055076
 33
0.0
 14
282.0539580672438
 24
146.480923800622
 34
0.0
100
AcDbRotatedDimension
1001
AUSTER_FOLIE
1002
{
1000
NSB01219_S2_WAGO
1002
}
1001
AUSTER_ANSICHT
1002
{
1000
Det03
1002
}
1001
ACAD
1000
DSTYLE
1002
{
1070
   140
1040
3.0
1070
    41
1040
2.0
1070
    42
1040
1.0
1070
    43
1040
1.0
1070
    47
1040
0.005
1070
    48
1040
-0.005
1070
    77
1070
     0
1070
    78
1070
     0
1070
   143
1040
25.4
1070
   171
1070
     0
1070
   172
1070
     1
1070
   271
1070
     0
1070
   272
1070
     1
1070
   277
1070
     6
1070
   279
1070
     0
1002
}
  0
DIMENSION
  5
2058
330
20
100
AcDbEntity
  8
11100_Left_Dim
  6
Continuous
370
    13
100
AcDbDimension
  2
*D2
 10
172.3280722453246
 20
212.8835997878324
 30
0.0
 11
169.8282222453247
 21
212.8835997878324
 31
0.0
 70
   160
 71
     5
 42
4.999699999999876
  3
DSTYLE1
100
AcDbAlignedDimension
 13
167.3283722453248
 23
193.7850026112313
 33
0.0
 14
172.3280722453246
 24
164.2429559055076
 34
-0.65
100
AcDbRotatedDimension
1001
AUSTER_FOLIE
1002
{
1000
NSB01219_S2_WAGO
1002
}
1001
AUSTER_ANSICHT
1002
{
1000
Det03
1002
}
1001
ACAD
1000
DSTYLE
1002
{
1070
   140
1040
3.0
1070
    41
1040
2.0
1070
    42
1040
1.0
1070
    43
1040
1.0
1070
    47
1040
0.005
1070
    48
1040
-0.005
1070
    77
1070
     0
1070
    78
1070
     0
1070
   143
1040
25.4
1070
   171
1070
     0
1070
   172
1070
     1
1070
   271
1070
     0
1070
   272
1070
     1
1070
   277
1070
     6
1070
   279
1070
     0
1002
}
  0
DIMENSION
  5
2059
330
20
100
AcDbEntity
  8
10100_Front_Dim
  6
Continuous
370
    13
100
AcDbDimension
  2
*D3
 10
120.7744168056636
 20
91.24272390550755
 30
0.0
 11
120.7744168056636
 21
146.7427239055076
 31
0.0
 70
    32
 71
     5
 42
111.0
  3
DSTYLE1
100
AcDbAlignedDimension
 13
92.96288706612171
 23
202.2427239055076
 33
5.0
 14
92.96286879945663
 24
91.24272390550755
 34
5.0
 50
90.0
100
AcDbRotatedDimension
1001
AUSTER_FOLIE
1002
{
1000
NSB01219_S2_WAGO
1002
}
1001
AUSTER_ANSICHT
1002
{
1000
Det03
1002
}
1001
ACAD
1000
DSTYLE
1002
{
1070
   140
1040
3.0
1070
    41
1040
2.0
1070
    42
1040
1.0
1070
    43
1040
1.0
1070
    47
1040
0.005
1070
    48
1040
-0.005
1070
    77
1070
     0
1070
    78
1070
     0
1070
   143
1040
25.4
1070
   171
1070
     0
1070
   172
1070
     1
1070
   271
1070
     0
1070
   272
1070
     1
1070
   277
1070
     6
1070
   279
1070
     0
1002
}
  0
DIMENSION
  5
205A
330
20
100
AcDbEntity
  8
10100_Front_Dim
  6
Continuous
370
    13
100
AcDbDimension
  2
*D4
 10
113.3673393569979
 20
114.8546619055078
 30
0.0
 11
113.3673393569979
 21
146.7561619055076
 31
0.0
 70
    32
 71
     5
 42
63.80299999999968
  3
DSTYLE1
100
AcDbAlignedDimension
 13
100.6314530661218
 23
178.6576619055075
 33
0.0
 14
100.6314530661218
 24
114.8546619055078
 34
0.0
 50
90.0
100
AcDbRotatedDimension
1001
AUSTER_FOLIE
1002
{
1000
NSB01219_S2_WAGO
1002
}
1001
AUSTER_ANSICHT
1002
{
1000
Det03
1002
}
1001
ACAD
1000
DSTYLE
1002
{
1070
   140
1040
3.0
1070
    41
1040
2.0
1070
    42
1040
1.0
1070
    43
1040
1.0
1070
    47
1040
0.005
1070
    48
1040
-0.005
1070
    77
1070
     0
1070
    78
1070
     0
1070
   143
1040
25.4
1070
   171
1070
     0
1070
   172
1070
     1
1070
   271
1070
     0
1070
   272
1070
     1
1070
   277
1070
     6
1070
   279
1070
     0
1002
}
  0
DIMENSION
  5
205B
330
20
100
AcDbEntity
  8
10100_Front_Dim
  6
Continuous
370
    13
100
AcDbDimension
  2
*D5
 10
95.73138706612169
 20
221.3402446906641
 30
0.0
 11
78.24713706612165
 21
221.3402446906641
 31
0.0
 70
    32
 71
     5
 42
34.9685000000001
  3
DSTYLE1
100
AcDbAlignedDimension
 13
60.7628870661216
 23
183.5531789055075
 33
0.0
 14
95.73138706612169
 24
183.5577449055076
 34
0.0
100
AcDbRotatedDimension
1001
AUSTER_FOLIE
1002
{
1000
NSB01219_S2_WAGO
1002
}
1001
AUSTER_ANSICHT
1002
{
1000
Det03
1002
}
1001
ACAD
1000
DSTYLE
1002
{
1070
   140
1040
3.0
1070
    41
1040
2.0
1070
    42
1040
1.0
1070
    43
1040
1.0
1070
    47
1040
0.005
1070
    48
1040
-0.005
1070
    77
1070
     0
1070
    78
1070
     0
1070
   143
1040
25.4
1070
   171
1070
     0
1070
   172
1070
     1
1070
   271
1070
     0
1070
   272
1070
     1
1070
   277
1070
     6
1070
   279
1070
     0
1002
}
  0
DIMENSION
  5
205C
330
20
100
AcDbEntity
  8
10100_Front_Dim
  6
Continuous
370
    13
100
AcDbDimension
  2
*D6
 10
86.98488436427117
 20
214.482034166682
 30
0.0
 11
78.2471515661216
 21
214.482034166682
 31
0.0
 70
   160
 71
     5
 42
17.47538129654906
  3
DSTYLE1
100
AcDbAlignedDimension
 13
69.5095030677221
 23
198.5313525750678
 33
0.0
 14
86.98488436427117
 24
198.531239605831
 34
0.0
100
AcDbRotatedDimension
1001
AUSTER_FOLIE
1002
{
1000
NSB01219_S2_WAGO
1002
}
1001
AUSTER_ANSICHT
1002
{
1000
Det03
1002
}
1001
ACAD
1000
DSTYLE
1002
{
1070
   140
1040
3.0
1070
    41
1040
2.0
1070
    42
1040
1.0
1070
    43
1040
1.0
1070
    47
1040
0.005
1070
    48
1040
-0.005
1070
    77
1070
     0
1070
    78
1070
     0
1070
   143
1040
25.4
1070
   171
1070
     0
1070
   172
1070
     1
1070
   271
1070
     0
1070
   272
1070
     1
1070
   277
1070
     6
1070
   279
1070
     0
1002
}
  0
DIMENSION
  5
205D
330
20
100
AcDbEntity
  8
10100_Front_Dim
  6
Continuous
370
    13
100
AcDbDimension
  2
*D7
 10
105.7628870661216
 20
229.2023858132258
 30
0.0
 11
78.26288706612159
 21
229.2023858132258
 31
0.0
 70
    32
 71
     5
 42
55.0
  3
DSTYLE1
100
AcDbAlignedDimension
 13
50.7628870661216
 23
197.7427239055075
 33
0.0
 14
105.7628870661216
 24
197.7427239055075
 34
0.0
100
AcDbRotatedDimension
1001
AUSTER_FOLIE
1002
{
1000
NSB01219_S2_WAGO
1002
}
1001
AUSTER_ANSICHT
1002
{
1000
Det03
1002
}
1001
ACAD
1000
DSTYLE
1002
{
1070
   140
1040
3.0
1070
    41
1040
2.0
1070
    42
1040
1.0
1070
    43
1040
1.0
1070
    47
1040
0.005
1070
    48
1040
-0.005
1070
    77
1070
     0
1070
    78
1070
     0
1070
   143
1040
25.4
1070
   171
1070
     0
1070
   172
1070
     1
1070
   271
1070
     0
1070
   272
1070
     1
1070
   277
1070
     6
1070
   279
1070
     0
1002
}
  0
DIMENSION
  5
3742
330
20
100
AcDbEntity
  8
30100_Drilling_DIM
  6
Continuous
370
    13
100
AcDbDimension
  2
*D9
 10
380.4738775139305
 20
204.6478322882796
 30
0.0
 11
357.9736275139305
 21
204.6478322882796
 31
0.0
 70
    32
 71
     5
 42
45.00049999999998
  3
DSTYLE1
100
AcDbAlignedDimension
 13
335.4733775139305
 23
102.2425019055077
 33
0.0
 14
380.4738775139305
 24
196.6426619055078
 34
0.0
100
AcDbRotatedDimension
1001
ACAD
1000
DSTYLE
1002
{
1070
   140
1040
3.0
1070
    41
1040
2.0
1070
    42
1040
1.0
1070
    43
1040
1.0
1070
    47
1040
0.005
1070
    48
1040
-0.005
1070
    77
1070
     0
1070
    78
1070
     0
1070
   143
1040
25.4
1070
   171
1070
     0
1070
   172
1070
     1
1070
   271
1070
     0
1070
   272
1070
     1
1070
   277
1070
     6
1002
}
  0
DIMENSION
  5
3743
330
20
100
AcDbEntity
  8
30100_Drilling_DIM
  6
Continuous
370
    13
100
AcDbDimension
  2
*D10
 10
326.1497977927727
 20
194.2426619055077
 30
0.0
 11
326.1497977927727
 21
146.9925819055078
 31
0.0
 70
   160
 71
     5
 42
94.50015999999999
  3
DSTYLE1
100
AcDbAlignedDimension
 13
332.9733775139305
 23
99.74250190550772
 33
0.0
 14
378.0738775139306
 24
194.2426619055077
 34
0.0
 50
90.0
100
AcDbRotatedDimension
1001
ACAD
1000
DSTYLE
1002
{
1070
   140
1040
3.0
1070
    41
1040
2.0
1070
    42
1040
1.0
1070
    43
1040
1.0
1070
    47
1040
0.005
1070
    48
1040
-0.005
1070
    77
1070
     0
1070
    78
1070
     0
1070
   143
1040
25.4
1070
   171
1070
     0
1070
   172
1070
     1
1070
   271
1070
     0
1070
   272
1070
     1
1070
   277
1070
     6
1002
}
  0
DIMENSION
  5
3744
330
20
100
AcDbEntity
  8
30100_Drilling_DIM
  6
Continuous
370
    13
100
AcDbDimension
  2
*D8
 10
382.9738775139305
 20
182.1384211601131
 30
0.0
 11
380.4738775139305
 21
182.1384211601131
 31
0.0
 70
    32
 71
     5
 42
5.0
  3
DSTYLE1
100
AcDbAlignedDimension
 13
377.9738775139305
 23
194.2426619055077
 33
0.0
 14
382.9738775139305
 24
194.2426619055077
 34
0.0
100
AcDbRotatedDimension
1001
ACAD
1000
DSTYLE
1002
{
1070
   140
1040
3.0
1070
    41
1040
2.0
1070
    42
1040
1.0
1070
    43
1040
1.0
1070
    47
1040
0.005
1070
    48
1040
-0.005
1070
    77
1070
     0
1070
    78
1070
     0
1070
   143
1040
25.4
1070
   171
1070
     0
1070
   172
1070
     1
1070
   271
1070
     0
1070
   272
1070
     1
1070
   277
1070
     6
1002
}
  0
DIMENSION
  5
3901
330
20
100
AcDbEntity
  8
11100_Left_Dim
  6
Continuous
370
    13
100
AcDbDimension
  2
*D11
 10
236.3283722453249
 20
212.8835997878324
 30
0.0
 11
204.3283722453248
 21
212.8835997878324
 31
0.0
 70
    32
 71
     5
 42
64.00000000000004
  3
DSTYLE1
100
AcDbAlignedDimension
 13
172.3283722453248
 23
164.2426619055076
 33
0.0
 14
236.3283722453249
 24
189.2426619055077
 34
0.0
100
AcDbRotatedDimension
1001
ACAD
1000
DSTYLE
1002
{
1070
    41
1040
2.0
1070
    42
1040
1.0
1070
    43
1040
1.0
1070
    47
1040
0.005
1070
    48
1040
-0.005
1070
    77
1070
     0
1070
    78
1070
     0
1070
   140
1040
3.0
1070
   143
1040
25.4
1070
   171
1070
     0
1070
   172
1070
     1
1070
   271
1070
     0
1070
   272
1070
     1
1070
   277
1070
     6
1070
   279
1070
     0
1002
}
  0
LINE
  5
39E7
330
20
100
AcDbEntity
  8
10000_Front
  6
Continuous
 62
     7
370
    13
100
AcDbLine
 39
0.5
 10
66.73158706612167
 20
192.7884139055075
 30
0.0
 11
69.00228706612168
 21
192.7884139055075
 31
0.0
1001
AUSTER_ANSICHT
1002
{
1000
Det03
1002
}
1001
AUSTER_FOLIE
1002
{
1000
NSB00754_S2
1002
}
  0
LINE
  5
39E8
330
20
100
AcDbEntity
  8
10000_Front
  6
Continuous
 62
     7
370
    13
100
AcDbLine
 39
0.5
 10
70.03228706612168
 20
192.7884139055075
 30
0.0
 11
72.30298706612169
 21
192.7884139055075
 31
0.0
1001
AUSTER_ANSICHT
1002
{
1000
Det03
1002
}
1001
AUSTER_FOLIE
1002
{
1000
NSB00754_S2
1002
}
  0
LINE
  5
39E9
330
20
100
AcDbEntity
  8
10000_Front
  6
Continuous
 62
     7
370
    13
100
AcDbLine
 39
0.5
 10
72.30298706612169
 20
193.9970239055075
 30
0.0
 11
70.03228706612168
 21
193.9970239055075
 31
0.0
1001
AUSTER_ANSICHT
1002
{
1000
Det03
1002
}
1001
AUSTER_FOLIE
1002
{
1000
NSB00754_S2
1002
}
  0
LINE
  5
39EA
330
20
100
AcDbEntity
  8
10000_Front
  6
Continuous
 62
     7
370
    13
100
AcDbLine
 39
0.5
 10
69.00228706612168
 20
193.9970239055075
 30
0.0
 11
66.73158706612167
 21
193.9970239055075
 31
0.0
1001
AUSTER_ANSICHT
1002
{
1000
Det03
1002
}
1001
AUSTER_FOLIE
1002
{
1000
NSB00754_S2
1002
}
  0
LINE
  5
39EB
330
20
100
AcDbEntity
  8
10000_Front
  6
Continuous
 62
     7
370
    13
100
AcDbLine
 39
0.5
 10
69.00228706612168
 20
195.1695939055076
 30
0.0
 11
69.00228706612168
 21
194.1772939055076
 31
0.0
1001
AUSTER_ANSICHT
1002
{
1000
Det03
1002
}
1001
AUSTER_FOLIE
1002
{
1000
NSB00754_S2
1002
}
  0
LINE
  5
39EC
330
20
100
AcDbEntity
  8
10000_Front
  6
Continuous
 62
     7
370
    13
100
AcDbLine
 39
0.5
 10
70.03228706612168
 20
194.1772939055076
 30
0.0
 11
70.03228706612168
 21
195.1695939055076
 31
0.0
1001
AUSTER_ANSICHT
1002
{
1000
Det03
1002
}
1001
AUSTER_FOLIE
1002
{
1000
NSB00754_S2
1002
}
  0
LINE
  5
39ED
330
20
100
AcDbEntity
  8
10000_Front
  6
Continuous
 62
     7
370
    13
100
AcDbLine
 39
0.5
 10
70.03228706612168
 20
191.6158439055076
 30
0.0
 11
70.03228706612168
 21
192.6081439055075
 31
0.0
1001
AUSTER_ANSICHT
1002
{
1000
Det03
1002
}
1001
AUSTER_FOLIE
1002
{
1000
NSB00754_S2
1002
}
  0
LINE
  5
39EE
330
20
100
AcDbEntity
  8
10000_Front
  6
Continuous
 62
     7
370
    13
100
AcDbLine
 39
0.5
 10
69.00228706612168
 20
192.6081439055075
 30
0.0
 11
69.00228706612168
 21
191.6158439055076
 31
0.0
1001
AUSTER_ANSICHT
1002
{
1000
Det03
1002
}
1001
AUSTER_FOLIE
1002
{
1000
NSB00754_S2
1002
}
  0
LINE
  5
39EF
330
20
100
AcDbEntity
  8
10000_Front
  6
Continuous
 62
     7
370
    13
100
AcDbLine
 39
0.5
 10
70.03228706612168
 20
194.1772939055076
 30
0.0
 11
70.03228706612168
 21
193.9970239055075
 31
0.0
1001
AUSTER_ANSICHT
1002
{
1000
Det03
1002
}
1001
AUSTER_FOLIE
1002
{
1000
NSB00754_S2
1002
}
  0
LINE
  5
39F0
330
20
100
AcDbEntity
  8
10000_Front
  6
Continuous
 62
     7
370
    13
100
AcDbLine
 39
0.5
 10
70.03228706612168
 20
192.6081439055075
 30
0.0
 11
70.03228706612168
 21
192.7884139055075
 31
0.0
1001
AUSTER_ANSICHT
1002
{
1000
Det03
1002
}
1001
AUSTER_FOLIE
1002
{
1000
NSB00754_S2
1002
}
  0
LINE
  5
39F1
330
20
100
AcDbEntity
  8
10000_Front
  6
Continuous
 62
     7
370
    13
100
AcDbLine
 39
0.5
 10
69.00228706612168
 20
194.1772939055076
 30
0.0
 11
69.00228706612168
 21
193.9970239055075
 31
0.0
1001
AUSTER_ANSICHT
1002
{
1000
Det03
1002
}
1001
AUSTER_FOLIE
1002
{
1000
NSB00754_S2
1002
}
  0
LINE
  5
39F2
330
20
100
AcDbEntity
  8
10000_Front
  6
Continuous
 62
     7
370
    13
100
AcDbLine
 39
0.5
 10
69.00228706612168
 20
192.6081439055075
 30
0.0
 11
69.00228706612168
 21
192.7884139055075
 31
0.0
1001
AUSTER_ANSICHT
1002
{
1000
Det03
1002
}
1001
AUSTER_FOLIE
1002
{
1000
NSB00754_S2
1002
}
  0
CIRCLE
  5
39F3
330
20
100
AcDbEntity
  8
10000_Front
  6
Continuous
 62
     7
370
    13
100
AcDbCircle
 39
0.5
 10
69.51728706612167
 20
193.3927239055076
 30
0.0
 40
3.1
1001
AUSTER_ANSICHT
1002
{
1000
Det03
1002
}
1001
AUSTER_FOLIE
1002
{
1000
NSB00754_S2
1002
}
  0
ARC
  5
39F4
330
20
100
AcDbEntity
  8
10000_Front
  6
Continuous
 62
     7
370
    13
100
AcDbCircle
 39
0.5
 10
69.51728706612167
 20
193.3927239055076
 30
0.0
 40
2.850490999999998
100
AcDbArc
 50
167.7604000000003
 51
192.2395999999995
1001
AUSTER_ANSICHT
1002
{
1000
Det03
1002
}
1001
AUSTER_FOLIE
1002
{
1000
NSB00754_S2
1002
}
  0
ARC
  5
39F5
330
20
100
AcDbEntity
  8
10000_Front
  6
Continuous
 62
     7
370
    13
100
AcDbCircle
 39
0.5
 10
69.51728706612167
 20
193.3927239055076
 30
0.0
 40
1.85
100
AcDbArc
 50
73.83655000000056
 51
106.1633999999998
1001
AUSTER_ANSICHT
1002
{
1000
Det03
1002
}
1001
AUSTER_FOLIE
1002
{
1000
NSB00754_S2
1002
}
  0
ARC
  5
39F6
330
20
100
AcDbEntity
  8
10000_Front
  6
Continuous
 62
     7
370
    13
100
AcDbCircle
 39
0.5
 10
69.51728706612167
 20
193.3927239055076
 30
0.0
 40
1.85
100
AcDbArc
 50
253.8366000000001
 51
286.1633999999999
1001
AUSTER_ANSICHT
1002
{
1000
Det03
1002
}
1001
AUSTER_FOLIE
1002
{
1000
NSB00754_S2
1002
}
  0
ARC
  5
39F7
330
20
100
AcDbEntity
  8
10000_Front
  6
Continuous
 62
     7
370
    13
100
AcDbCircle
 39
0.5
 10
69.51728706612167
 20
193.3927239055076
 30
0.0
 40
2.850490999999998
100
AcDbArc
 50
347.7604000000003
 51
12.23959999999967
1001
AUSTER_ANSICHT
1002
{
1000
Det03
1002
}
1001
AUSTER_FOLIE
1002
{
1000
NSB00754_S2
1002
}
  0
CIRCLE
  5
39F8
330
20
100
AcDbEntity
  8
10000_Front
  6
Continuous
 62
     7
370
    13
100
AcDbCircle
 39
0.5
 10
69.51728706612167
 20
193.3927239055076
 30
0.0
 40
3.1
1001
AUSTER_ANSICHT
1002
{
1000
Det03
1002
}
1001
AUSTER_FOLIE
1002
{
1000
NSB00754_S2
1002
}
  0
LINE
  5
39F9
330
20
100
AcDbEntity
  8
10000_Front
  6
Continuous
 62
     7
370
    13
100
AcDbLine
 39
0.5
 10
84.23158706612168
 20
192.7884139055075
 30
0.0
 11
86.50228706612169
 21
192.7884139055075
 31
0.0
1001
AUSTER_ANSICHT
1002
{
1000
Det03
1002
}
1001
AUSTER_FOLIE
1002
{
1000
NSB00754_S2
1002
}
  0
LINE
  5
39FA
330
20
100
AcDbEntity
  8
10000_Front
  6
Continuous
 62
     7
370
    13
100
AcDbLine
 39
0.5
 10
87.53228706612167
 20
192.7884139055075
 30
0.0
 11
89.80298706612165
 21
192.7884139055075
 31
0.0
1001
AUSTER_ANSICHT
1002
{
1000
Det03
1002
}
1001
AUSTER_FOLIE
1002
{
1000
NSB00754_S2
1002
}
  0
LINE
  5
39FB
330
20
100
AcDbEntity
  8
10000_Front
  6
Continuous
 62
     7
370
    13
100
AcDbLine
 39
0.5
 10
89.80298706612165
 20
193.9970239055075
 30
0.0
 11
87.53228706612167
 21
193.9970239055075
 31
0.0
1001
AUSTER_ANSICHT
1002
{
1000
Det03
1002
}
1001
AUSTER_FOLIE
1002
{
1000
NSB00754_S2
1002
}
  0
LINE
  5
39FC
330
20
100
AcDbEntity
  8
10000_Front
  6
Continuous
 62
     7
370
    13
100
AcDbLine
 39
0.5
 10
86.50228706612169
 20
193.9970239055075
 30
0.0
 11
84.23158706612168
 21
193.9970239055075
 31
0.0
1001
AUSTER_ANSICHT
1002
{
1000
Det03
1002
}
1001
AUSTER_FOLIE
1002
{
1000
NSB00754_S2
1002
}
  0
LINE
  5
39FD
330
20
100
AcDbEntity
  8
10000_Front
  6
Continuous
 62
     7
370
    13
100
AcDbLine
 39
0.5
 10
86.50228706612169
 20
195.1695939055076
 30
0.0
 11
86.50228706612169
 21
194.1772939055076
 31
0.0
1001
AUSTER_ANSICHT
1002
{
1000
Det03
1002
}
1001
AUSTER_FOLIE
1002
{
1000
NSB00754_S2
1002
}
  0
LINE
  5
39FE
330
20
100
AcDbEntity
  8
10000_Front
  6
Continuous
 62
     7
370
    13
100
AcDbLine
 39
0.5
 10
87.53228706612167
 20
194.1772939055076
 30
0.0
 11
87.53228706612167
 21
195.1695939055076
 31
0.0
1001
AUSTER_ANSICHT
1002
{
1000
Det03
1002
}
1001
AUSTER_FOLIE
1002
{
1000
NSB00754_S2
1002
}
  0
LINE
  5
39FF
330
20
100
AcDbEntity
  8
10000_Front
  6
Continuous
 62
     7
370
    13
100
AcDbLine
 39
0.5
 10
87.53228706612167
 20
191.6158439055076
 30
0.0
 11
87.53228706612167
 21
192.6081439055075
 31
0.0
1001
AUSTER_ANSICHT
1002
{
1000
Det03
1002
}
1001
AUSTER_FOLIE
1002
{
1000
NSB00754_S2
1002
}
  0
LINE
  5
3A00
330
20
100
AcDbEntity
  8
10000_Front
  6
Continuous
 62
     7
370
    13
100
AcDbLine
 39
0.5
 10
86.50228706612169
 20
192.6081439055075
 30
0.0
 11
86.50228706612169
 21
191.6158439055076
 31
0.0
1001
AUSTER_ANSICHT
1002
{
1000
Det03
1002
}
1001
AUSTER_FOLIE
1002
{
1000
NSB00754_S2
1002
}
  0
LINE
  5
3A01
330
20
100
AcDbEntity
  8
10000_Front
  6
Continuous
 62
     7
370
    13
100
AcDbLine
 39
0.5
 10
87.53228706612167
 20
194.1772939055076
 30
0.0
 11
87.53228706612167
 21
193.9970239055075
 31
0.0
1001
AUSTER_ANSICHT
1002
{
1000
Det03
1002
}
1001
AUSTER_FOLIE
1002
{
1000
NSB00754_S2
1002
}
  0
LINE
  5
3A02
330
20
100
AcDbEntity
  8
10000_Front
  6
Continuous
 62
     7
370
    13
100
AcDbLine
 39
0.5
 10
87.53228706612167
 20
192.6081439055075
 30
0.0
 11
87.53228706612167
 21
192.7884139055075
 31
0.0
1001
AUSTER_ANSICHT
1002
{
1000
Det03
1002
}
1001
AUSTER_FOLIE
1002
{
1000
NSB00754_S2
1002
}
  0
LINE
  5
3A03
330
20
100
AcDbEntity
  8
10000_Front
  6
Continuous
 62
     7
370
    13
100
AcDbLine
 39
0.5
 10
86.50228706612169
 20
194.1772939055076
 30
0.0
 11
86.50228706612169
 21
193.9970239055075
 31
0.0
1001
AUSTER_ANSICHT
1002
{
1000
Det03
1002
}
1001
AUSTER_FOLIE
1002
{
1000
NSB00754_S2
1002
}
  0
LINE
  5
3A04
330
20
100
AcDbEntity
  8
10000_Front
  6
Continuous
 62
     7
370
    13
100
AcDbLine
 39
0.5
 10
86.50228706612169
 20
192.6081439055075
 30
0.0
 11
86.50228706612169
 21
192.7884139055075
 31
0.0
1001
AUSTER_ANSICHT
1002
{
1000
Det03
1002
}
1001
AUSTER_FOLIE
1002
{
1000
NSB00754_S2
1002
}
  0
CIRCLE
  5
3A05
330
20
100
AcDbEntity
  8
10000_Front
  6
Continuous
 62
     7
370
    13
100
AcDbCircle
 39
0.5
 10
87.01728706612167
 20
193.3927239055076
 30
0.0
 40
3.1
1001
AUSTER_ANSICHT
1002
{
1000
Det03
1002
}
1001
AUSTER_FOLIE
1002
{
1000
NSB00754_S2
1002
}
  0
ARC
  5
3A06
330
20
100
AcDbEntity
  8
10000_Front
  6
Continuous
 62
     7
370
    13
100
AcDbCircle
 39
0.5
 10
87.01728706612167
 20
193.3927239055076
 30
0.0
 40
2.850490999999998
100
AcDbArc
 50
167.7604000000003
 51
192.2395999999995
1001
AUSTER_ANSICHT
1002
{
1000
Det03
1002
}
1001
AUSTER_FOLIE
1002
{
1000
NSB00754_S2
1002
}
  0
ARC
  5
3A07
330
20
100
AcDbEntity
  8
10000_Front
  6
Continuous
 62
     7
370
    13
100
AcDbCircle
 39
0.5
 10
87.01728706612167
 20
193.3927239055076
 30
0.0
 40
1.85
100
AcDbArc
 50
73.83655000000056
 51
106.1633999999998
1001
AUSTER_ANSICHT
1002
{
1000
Det03
1002
}
1001
AUSTER_FOLIE
1002
{
1000
NSB00754_S2
1002
}
  0
ARC
  5
3A08
330
20
100
AcDbEntity
  8
10000_Front
  6
Continuous
 62
     7
370
    13
100
AcDbCircle
 39
0.5
 10
87.01728706612167
 20
193.3927239055076
 30
0.0
 40
1.85
100
AcDbArc
 50
253.8366000000001
 51
286.1633999999999
1001
AUSTER_ANSICHT
1002
{
1000
Det03
1002
}
1001
AUSTER_FOLIE
1002
{
1000
NSB00754_S2
1002
}
  0
ARC
  5
3A09
330
20
100
AcDbEntity
  8
10000_Front
  6
Continuous
 62
     7
370
    13
100
AcDbCircle
 39
0.5
 10
87.01728706612167
 20
193.3927239055076
 30
0.0
 40
2.850490999999998
100
AcDbArc
 50
347.7604000000003
 51
12.23959999999967
1001
AUSTER_ANSICHT
1002
{
1000
Det03
1002
}
1001
AUSTER_FOLIE
1002
{
1000
NSB00754_S2
1002
}
  0
CIRCLE
  5
3A0A
330
20
100
AcDbEntity
  8
10000_Front
  6
Continuous
 62
     7
370
    13
100
AcDbCircle
 39
0.5
 10
87.01728706612167
 20
193.3927239055076
 30
0.0
 40
3.1
1001
AUSTER_ANSICHT
1002
{
1000
Det03
1002
}
1001
AUSTER_FOLIE
1002
{
1000
NSB00754_S2
1002
}
  0
LINE
  5
3A0B
330
20
100
AcDbEntity
  8
10000_Front
  6
Continuous
370
    50
100
AcDbLine
 39
0.7
 10
92.96288706612171
 20
202.2427239055076
 30
5.0
 11
81.07169225847703
 21
202.2427239055076
 31
5.0
1001
AUSTER_FOLIE
1002
{
1000
NSB00754_S2
1002
}
1001
AUSTER_ANSICHT
1002
{
1000
Det03
1002
}
  0
LINE
  5
3A0C
330
20
100
AcDbEntity
  8
10000_Front
  6
Continuous
370
    50
100
AcDbLine
 39
0.7
 10
75.47637479731827
 20
202.2427239055076
 30
5.0
 11
63.55820706612171
 21
202.2427239055076
 31
5.0
1001
AUSTER_FOLIE
1002
{
1000
NSB00754_S2
1002
}
1001
AUSTER_ANSICHT
1002
{
1000
Det03
1002
}
  0
LINE
  5
3A0D
330
20
100
AcDbEntity
  8
10000_Front
  6
Continuous
370
    50
100
AcDbLine
 39
0.7
 10
81.07169181313809
 20
202.2427239055076
 30
5.000000000000006
 11
81.071690425881
 21
199.2427264997643
 31
0.0
1001
AUSTER_ANSICHT
1002
{
1000
Det03
1002
}
1001
AUSTER_FOLIE
1002
{
1000
NSB00754_S2
1002
}
  0
LINE
  5
3A0E
330
20
100
AcDbEntity
  8
10000_Front
  6
Continuous
370
    50
100
AcDbLine
 39
0.7
 10
75.47168539978669
 20
199.2427239055075
 30
0.0
 11
81.07169042391589
 21
199.2427239055075
 31
0.0
1001
AUSTER_ANSICHT
1002
{
1000
Det03
1002
}
1001
AUSTER_FOLIE
1002
{
1000
NSB00754_S2
1002
}
  0
LINE
  5
3A0F
330
20
100
AcDbEntity
  8
10000_Front
  6
Continuous
370
    50
100
AcDbLine
 39
0.7
 10
75.47169217120745
 20
199.2427187093111
 30
0.0
 11
75.47637479731827
 21
202.2427239055076
 31
6.000010400563351
1001
AUSTER_ANSICHT
1002
{
1000
Det03
1002
}
1001
AUSTER_FOLIE
1002
{
1000
NSB00754_S2
1002
}
  0
LINE
  5
3A10
330
20
100
AcDbEntity
  8
10000_Front
  6
Continuous
370
    50
100
AcDbLine
 39
0.7
 10
75.47635652253922
 20
91.24272390550761
 30
5.0
 11
63.55818880136604
 21
91.24272390550761
 31
5.0
1001
AUSTER_FOLIE
1002
{
1000
NSB00754_S2
1002
}
1001
AUSTER_ANSICHT
1002
{
1000
Det03
1002
}
  0
LINE
  5
3A11
330
20
100
AcDbEntity
  8
10000_Front
  6
Continuous
370
    50
100
AcDbLine
 39
0.7
 10
92.96286879945663
 20
91.24272390550755
 30
5.0
 11
81.07167399180699
 21
91.24272390550761
 31
5.99998691196312
1001
AUSTER_FOLIE
1002
{
1000
NSB00754_S2
1002
}
1001
AUSTER_ANSICHT
1002
{
1000
Det03
1002
}
  0
LINE
  5
3A12
330
20
100
AcDbEntity
  8
10000_Front
  6
Continuous
370
    50
100
AcDbLine
 39
0.7
 10
81.07167315921207
 20
94.24272390550759
 30
0.0
 11
75.47167942043566
 21
94.24272390550759
 31
0.0
1001
AUSTER_ANSICHT
1002
{
1000
Det03
1002
}
1001
AUSTER_FOLIE
1002
{
1000
NSB00754_S2
1002
}
  0
LINE
  5
3A13
330
20
100
AcDbEntity
  8
10000_Front
  6
Continuous
370
    50
100
AcDbLine
 39
0.7
 10
75.4716749045414
 20
94.24272390550759
 30
0.0
 11
75.47635652253922
 21
91.24272390550755
 31
6.00000000504905
1001
AUSTER_ANSICHT
1002
{
1000
Det03
1002
}
1001
AUSTER_FOLIE
1002
{
1000
NSB00754_S2
1002
}
  0
LINE
  5
3A14
330
20
100
AcDbEntity
  8
10000_Front
  6
Continuous
370
    50
100
AcDbLine
 39
0.7
 10
81.07167399180699
 20
91.24272390550761
 30
5.99998691196312
 11
81.07167315921207
 21
94.24271424838837
 31
0.0
1001
AUSTER_ANSICHT
1002
{
1000
Det03
1002
}
1001
AUSTER_FOLIE
1002
{
1000
NSB00754_S2
1002
}
  0
LINE
  5
3A15
330
20
100
AcDbEntity
  8
10000_Front
  6
Continuous
 62
     7
370
    13
100
AcDbLine
 39
0.5
 10
84.23158706612168
 20
99.48841390550757
 30
0.0
 11
86.50228706612169
 21
99.48841390550757
 31
0.0
1001
AUSTER_ANSICHT
1002
{
1000
Det03
1002
}
1001
AUSTER_FOLIE
1002
{
1000
NSB00754_S2
1002
}
  0
LINE
  5
3A16
330
20
100
AcDbEntity
  8
10000_Front
  6
Continuous
 62
     7
370
    13
100
AcDbLine
 39
0.5
 10
87.53228706612167
 20
99.48841390550757
 30
0.0
 11
89.80298706612165
 21
99.48841390550757
 31
0.0
1001
AUSTER_ANSICHT
1002
{
1000
Det03
1002
}
1001
AUSTER_FOLIE
1002
{
1000
NSB00754_S2
1002
}
  0
LINE
  5
3A17
330
20
100
AcDbEntity
  8
10000_Front
  6
Continuous
 62
     7
370
    13
100
AcDbLine
 39
0.5
 10
89.80298706612165
 20
100.6970239055076
 30
0.0
 11
87.53228706612167
 21
100.6970239055076
 31
0.0
1001
AUSTER_ANSICHT
1002
{
1000
Det03
1002
}
1001
AUSTER_FOLIE
1002
{
1000
NSB00754_S2
1002
}
  0
LINE
  5
3A18
330
20
100
AcDbEntity
  8
10000_Front
  6
Continuous
 62
     7
370
    13
100
AcDbLine
 39
0.5
 10
86.50228706612169
 20
100.6970239055076
 30
0.0
 11
84.23158706612168
 21
100.6970239055076
 31
0.0
1001
AUSTER_ANSICHT
1002
{
1000
Det03
1002
}
1001
AUSTER_FOLIE
1002
{
1000
NSB00754_S2
1002
}
  0
LINE
  5
3A19
330
20
100
AcDbEntity
  8
10000_Front
  6
Continuous
 62
     7
370
    13
100
AcDbLine
 39
0.5
 10
86.50228706612169
 20
101.8695939055076
 30
0.0
 11
86.50228706612169
 21
100.8772939055076
 31
0.0
1001
AUSTER_ANSICHT
1002
{
1000
Det03
1002
}
1001
AUSTER_FOLIE
1002
{
1000
NSB00754_S2
1002
}
  0
LINE
  5
3A1A
330
20
100
AcDbEntity
  8
10000_Front
  6
Continuous
 62
     7
370
    13
100
AcDbLine
 39
0.5
 10
87.53228706612167
 20
100.8772939055076
 30
0.0
 11
87.53228706612167
 21
101.8695939055076
 31
0.0
1001
AUSTER_ANSICHT
1002
{
1000
Det03
1002
}
1001
AUSTER_FOLIE
1002
{
1000
NSB00754_S2
1002
}
  0
LINE
  5
3A1B
330
20
100
AcDbEntity
  8
10000_Front
  6
Continuous
 62
     7
370
    13
100
AcDbLine
 39
0.5
 10
87.53228706612167
 20
98.3158439055076
 30
0.0
 11
87.53228706612167
 21
99.30814390550761
 31
0.0
1001
AUSTER_ANSICHT
1002
{
1000
Det03
1002
}
1001
AUSTER_FOLIE
1002
{
1000
NSB00754_S2
1002
}
  0
LINE
  5
3A1C
330
20
100
AcDbEntity
  8
10000_Front
  6
Continuous
 62
     7
370
    13
100
AcDbLine
 39
0.5
 10
86.50228706612169
 20
99.30814390550761
 30
0.0
 11
86.50228706612169
 21
98.3158439055076
 31
0.0
1001
AUSTER_ANSICHT
1002
{
1000
Det03
1002
}
1001
AUSTER_FOLIE
1002
{
1000
NSB00754_S2
1002
}
  0
LINE
  5
3A1D
330
20
100
AcDbEntity
  8
10000_Front
  6
Continuous
 62
     7
370
    13
100
AcDbLine
 39
0.5
 10
87.53228706612167
 20
100.8772939055076
 30
0.0
 11
87.53228706612167
 21
100.6970239055076
 31
0.0
1001
AUSTER_ANSICHT
1002
{
1000
Det03
1002
}
1001
AUSTER_FOLIE
1002
{
1000
NSB00754_S2
1002
}
  0
LINE
  5
3A1E
330
20
100
AcDbEntity
  8
10000_Front
  6
Continuous
 62
     7
370
    13
100
AcDbLine
 39
0.5
 10
87.53228706612167
 20
99.30814390550761
 30
0.0
 11
87.53228706612167
 21
99.48841390550757
 31
0.0
1001
AUSTER_ANSICHT
1002
{
1000
Det03
1002
}
1001
AUSTER_FOLIE
1002
{
1000
NSB00754_S2
1002
}
  0
LINE
  5
3A1F
330
20
100
AcDbEntity
  8
10000_Front
  6
Continuous
 62
     7
370
    13
100
AcDbLine
 39
0.5
 10
86.50228706612169
 20
100.8772939055076
 30
0.0
 11
86.50228706612169
 21
100.6970239055076
 31
0.0
1001
AUSTER_ANSICHT
1002
{
1000
Det03
1002
}
1001
AUSTER_FOLIE
1002
{
1000
NSB00754_S2
1002
}
  0
LINE
  5
3A20
330
20
100
AcDbEntity
  8
10000_Front
  6
Continuous
 62
     7
370
    13
100
AcDbLine
 39
0.5
 10
86.50228706612169
 20
99.30814390550761
 30
0.0
 11
86.50228706612169
 21
99.48841390550757
 31
0.0
1001
AUSTER_ANSICHT
1002
{
1000
Det03
1002
}
1001
AUSTER_FOLIE
1002
{
1000
NSB00754_S2
1002
}
  0
CIRCLE
  5
3A21
330
20
100
AcDbEntity
  8
10000_Front
  6
Continuous
 62
     7
370
    13
100
AcDbCircle
 39
0.5
 10
87.01728706612167
 20
100.0927239055075
 30
0.0
 40
3.1
1001
AUSTER_ANSICHT
1002
{
1000
Det03
1002
}
1001
AUSTER_FOLIE
1002
{
1000
NSB00754_S2
1002
}
  0
ARC
  5
3A22
330
20
100
AcDbEntity
  8
10000_Front
  6
Continuous
 62
     7
370
    13
100
AcDbCircle
 39
0.5
 10
87.01728706612167
 20
100.0927239055075
 30
0.0
 40
2.850490999999998
100
AcDbArc
 50
167.7604000000003
 51
192.2395999999995
1001
AUSTER_ANSICHT
1002
{
1000
Det03
1002
}
1001
AUSTER_FOLIE
1002
{
1000
NSB00754_S2
1002
}
  0
ARC
  5
3A23
330
20
100
AcDbEntity
  8
10000_Front
  6
Continuous
 62
     7
370
    13
100
AcDbCircle
 39
0.5
 10
87.01728706612167
 20
100.0927239055075
 30
0.0
 40
1.85
100
AcDbArc
 50
73.83655000000056
 51
106.1633999999998
1001
AUSTER_ANSICHT
1002
{
1000
Det03
1002
}
1001
AUSTER_FOLIE
1002
{
1000
NSB00754_S2
1002
}
  0
ARC
  5
3A24
330
20
100
AcDbEntity
  8
10000_Front
  6
Continuous
 62
     7
370
    13
100
AcDbCircle
 39
0.5
 10
87.01728706612167
 20
100.0927239055075
 30
0.0
 40
1.85
100
AcDbArc
 50
253.8366000000001
 51
286.1633999999999
1001
AUSTER_ANSICHT
1002
{
1000
Det03
1002
}
1001
AUSTER_FOLIE
1002
{
1000
NSB00754_S2
1002
}
  0
ARC
  5
3A25
330
20
100
AcDbEntity
  8
10000_Front
  6
Continuous
 62
     7
370
    13
100
AcDbCircle
 39
0.5
 10
87.01728706612167
 20
100.0927239055075
 30
0.0
 40
2.850490999999998
100
AcDbArc
 50
347.7604000000003
 51
12.23959999999967
1001
AUSTER_ANSICHT
1002
{
1000
Det03
1002
}
1001
AUSTER_FOLIE
1002
{
1000
NSB00754_S2
1002
}
  0
CIRCLE
  5
3A26
330
20
100
AcDbEntity
  8
10000_Front
  6
Continuous
 62
     7
370
    13
100
AcDbCircle
 39
0.5
 10
87.01728706612167
 20
100.0927239055075
 30
0.0
 40
3.1
1001
AUSTER_ANSICHT
1002
{
1000
Det03
1002
}
1001
AUSTER_FOLIE
1002
{
1000
NSB00754_S2
1002
}
  0
LINE
  5
3A27
330
20
100
AcDbEntity
  8
10000_Front
  6
Continuous
 62
     7
370
    13
100
AcDbLine
 39
0.5
 10
66.72718706612167
 20
99.48841390550757
 30
0.0
 11
68.99788706612167
 21
99.48841390550757
 31
0.0
1001
AUSTER_ANSICHT
1002
{
1000
Det03
1002
}
1001
AUSTER_FOLIE
1002
{
1000
NSB00754_S2
1002
}
  0
LINE
  5
3A28
330
20
100
AcDbEntity
  8
10000_Front
  6
Continuous
 62
     7
370
    13
100
AcDbLine
 39
0.5
 10
70.02788706612168
 20
99.48841390550757
 30
0.0
 11
72.29858706612168
 21
99.48841390550757
 31
0.0
1001
AUSTER_ANSICHT
1002
{
1000
Det03
1002
}
1001
AUSTER_FOLIE
1002
{
1000
NSB00754_S2
1002
}
  0
LINE
  5
3A29
330
20
100
AcDbEntity
  8
10000_Front
  6
Continuous
 62
     7
370
    13
100
AcDbLine
 39
0.5
 10
72.29858706612168
 20
100.6970239055076
 30
0.0
 11
70.02788706612168
 21
100.6970239055076
 31
0.0
1001
AUSTER_ANSICHT
1002
{
1000
Det03
1002
}
1001
AUSTER_FOLIE
1002
{
1000
NSB00754_S2
1002
}
  0
LINE
  5
3A2A
330
20
100
AcDbEntity
  8
10000_Front
  6
Continuous
 62
     7
370
    13
100
AcDbLine
 39
0.5
 10
68.99788706612167
 20
100.6970239055076
 30
0.0
 11
66.72718706612167
 21
100.6970239055076
 31
0.0
1001
AUSTER_ANSICHT
1002
{
1000
Det03
1002
}
1001
AUSTER_FOLIE
1002
{
1000
NSB00754_S2
1002
}
  0
LINE
  5
3A2B
330
20
100
AcDbEntity
  8
10000_Front
  6
Continuous
 62
     7
370
    13
100
AcDbLine
 39
0.5
 10
68.99788706612167
 20
101.8695939055076
 30
0.0
 11
68.99788706612167
 21
100.8772939055076
 31
0.0
1001
AUSTER_ANSICHT
1002
{
1000
Det03
1002
}
1001
AUSTER_FOLIE
1002
{
1000
NSB00754_S2
1002
}
  0
LINE
  5
3A2C
330
20
100
AcDbEntity
  8
10000_Front
  6
Continuous
 62
     7
370
    13
100
AcDbLine
 39
0.5
 10
70.02788706612168
 20
100.8772939055076
 30
0.0
 11
70.02788706612168
 21
101.8695939055076
 31
0.0
1001
AUSTER_ANSICHT
1002
{
1000
Det03
1002
}
1001
AUSTER_FOLIE
1002
{
1000
NSB00754_S2
1002
}
  0
LINE
  5
3A2D
330
20
100
AcDbEntity
  8
10000_Front
  6
Continuous
 62
     7
370
    13
100
AcDbLine
 39
0.5
 10
70.02788706612168
 20
98.3158439055076
 30
0.0
 11
70.02788706612168
 21
99.30814390550761
 31
0.0
1001
AUSTER_ANSICHT
1002
{
1000
Det03
1002
}
1001
AUSTER_FOLIE
1002
{
1000
NSB00754_S2
1002
}
  0
LINE
  5
3A2E
330
20
100
AcDbEntity
  8
10000_Front
  6
Continuous
 62
     7
370
    13
100
AcDbLine
 39
0.5
 10
68.99788706612167
 20
99.30814390550761
 30
0.0
 11
68.99788706612167
 21
98.3158439055076
 31
0.0
1001
AUSTER_ANSICHT
1002
{
1000
Det03
1002
}
1001
AUSTER_FOLIE
1002
{
1000
NSB00754_S2
1002
}
  0
LINE
  5
3A2F
330
20
100
AcDbEntity
  8
10000_Front
  6
Continuous
 62
     7
370
    13
100
AcDbLine
 39
0.5
 10
70.02788706612168
 20
100.8772939055076
 30
0.0
 11
70.02788706612168
 21
100.6970239055076
 31
0.0
1001
AUSTER_ANSICHT
1002
{
1000
Det03
1002
}
1001
AUSTER_FOLIE
1002
{
1000
NSB00754_S2
1002
}
  0
LINE
  5
3A30
330
20
100
AcDbEntity
  8
10000_Front
  6
Continuous
 62
     7
370
    13
100
AcDbLine
 39
0.5
 10
70.02788706612168
 20
99.30814390550761
 30
0.0
 11
70.02788706612168
 21
99.48841390550757
 31
0.0
1001
AUSTER_ANSICHT
1002
{
1000
Det03
1002
}
1001
AUSTER_FOLIE
1002
{
1000
NSB00754_S2
1002
}
  0
LINE
  5
3A31
330
20
100
AcDbEntity
  8
10000_Front
  6
Continuous
 62
     7
370
    13
100
AcDbLine
 39
0.5
 10
68.99788706612167
 20
100.8772939055076
 30
0.0
 11
68.99788706612167
 21
100.6970239055076
 31
0.0
1001
AUSTER_ANSICHT
1002
{
1000
Det03
1002
}
1001
AUSTER_FOLIE
1002
{
1000
NSB00754_S2
1002
}
  0
LINE
  5
3A32
330
20
100
AcDbEntity
  8
10000_Front
  6
Continuous
 62
     7
370
    13
100
AcDbLine
 39
0.5
 10
68.99788706612167
 20
99.30814390550761
 30
0.0
 11
68.99788706612167
 21
99.48841390550757
 31
0.0
1001
AUSTER_ANSICHT
1002
{
1000
Det03
1002
}
1001
AUSTER_FOLIE
1002
{
1000
NSB00754_S2
1002
}
  0
CIRCLE
  5
3A33
330
20
100
AcDbEntity
  8
10000_Front
  6
Continuous
 62
     7
370
    13
100
AcDbCircle
 39
0.5
 10
69.51288706612165
 20
100.0927139055076
 30
0.0
 40
3.1
1001
AUSTER_ANSICHT
1002
{
1000
Det03
1002
}
1001
AUSTER_FOLIE
1002
{
1000
NSB00754_S2
1002
}
  0
ARC
  5
3A34
330
20
100
AcDbEntity
  8
10000_Front
  6
Continuous
 62
     7
370
    13
100
AcDbCircle
 39
0.5
 10
69.51288706612165
 20
100.0927139055076
 30
0.0
 40
2.850490999999998
100
AcDbArc
 50
167.7604000000003
 51
192.2395999999995
1001
AUSTER_ANSICHT
1002
{
1000
Det03
1002
}
1001
AUSTER_FOLIE
1002
{
1000
NSB00754_S2
1002
}
  0
ARC
  5
3A35
330
20
100
AcDbEntity
  8
10000_Front
  6
Continuous
 62
     7
370
    13
100
AcDbCircle
 39
0.5
 10
69.51288706612165
 20
100.0927139055076
 30
0.0
 40
1.85
100
AcDbArc
 50
73.83655000000056
 51
106.1633999999998
1001
AUSTER_ANSICHT
1002
{
1000
Det03
1002
}
1001
AUSTER_FOLIE
1002
{
1000
NSB00754_S2
1002
}
  0
ARC
  5
3A36
330
20
100
AcDbEntity
  8
10000_Front
  6
Continuous
 62
     7
370
    13
100
AcDbCircle
 39
0.5
 10
69.51288706612165
 20
100.0927139055076
 30
0.0
 40
1.85
100
AcDbArc
 50
253.8366000000001
 51
286.1633999999999
1001
AUSTER_ANSICHT
1002
{
1000
Det03
1002
}
1001
AUSTER_FOLIE
1002
{
1000
NSB00754_S2
1002
}
  0
ARC
  5
3A37
330
20
100
AcDbEntity
  8
10000_Front
  6
Continuous
 62
     7
370
    13
100
AcDbCircle
 39
0.5
 10
69.51288706612165
 20
100.0927139055076
 30
0.0
 40
2.850490999999998
100
AcDbArc
 50
347.7604000000003
 51
12.23959999999967
1001
AUSTER_ANSICHT
1002
{
1000
Det03
1002
}
1001
AUSTER_FOLIE
1002
{
1000
NSB00754_S2
1002
}
  0
CIRCLE
  5
3A38
330
20
100
AcDbEntity
  8
10000_Front
  6
Continuous
 62
     7
370
    13
100
AcDbCircle
 39
0.5
 10
69.51288706612165
 20
100.0927139055076
 30
0.0
 40
3.1
1001
AUSTER_ANSICHT
1002
{
1000
Det03
1002
}
1001
AUSTER_FOLIE
1002
{
1000
NSB00754_S2
1002
}
  0
LINE
  5
3A3A
330
20
100
AcDbEntity
  8
11000_Left
  6
Continuous
370
    50
100
AcDbLine
 39
0.7
 10
207.3283722453248
 20
202.2426659055077
 30
5.0
 11
221.3283722453248
 21
202.2426659055076
 31
-0.0000000000000568
1001
AUSTER_FOLIE
1002
{
1000
NSB00754_S2
1002
}
1001
AUSTER_ANSICHT
1002
{
1000
Det03
1002
}
  0
LINE
  5
3A3B
330
20
100
AcDbEntity
  8
11000_Left
  6
CENTER
 62
     7
 48
10.0
370
    13
100
AcDbLine
 39
0.35
 10
211.619360480619
 20
188.5015179731448
 30
4.117647058823478
 11
211.619360480619
 21
202.2426659055077
 31
4.117647058823478
1001
AUSTER_ANSICHT
1002
{
1000
Det03
1002
}
1001
AUSTER_FOLIE
1002
{
1000
NSB00754_S2
1002
}
  0
LINE
  5
3A3C
330
20
100
AcDbEntity
  8
11000_Left
  6
CENTER
 62
     7
 48
10.0
370
    13
100
AcDbLine
 39
0.35
 10
209.8149553540141
 20
188.4989438574605
 30
4.117647058823478
 11
209.7983566143744
 21
202.2426659055077
 31
4.117647058823478
1001
AUSTER_ANSICHT
1002
{
1000
Det03
1002
}
1001
AUSTER_FOLIE
1002
{
1000
NSB00754_S2
1002
}
  0
LINE
  5
3A3D
330
20
100
AcDbEntity
  8
11000_Left
  6
Continuous
370
    50
100
AcDbLine
 39
0.7
 10
207.3283722453248
 20
199.2426659055077
 30
0.0
 11
207.3283722453248
 21
202.2426659055077
 31
6.0
1001
AUSTER_FOLIE
1002
{
1000
NSB00754_S2
1002
}
1001
AUSTER_ANSICHT
1002
{
1000
Det03
1002
}
  0
LINE
  5
3A3E
330
20
100
AcDbEntity
  8
11000_Left
  6
Continuous
370
    50
100
AcDbLine
 39
0.7
 10
221.3283722453248
 20
202.2426659055076
 30
-0.0000000000000427
 11
221.3283722453248
 21
198.8426659055077
 31
0.0
1001
AUSTER_ANSICHT
1002
{
1000
Det03
1002
}
1001
AUSTER_FOLIE
1002
{
1000
NSB00754_S2
1002
}
  0
LINE
  5
3A3F
330
20
100
AcDbEntity
  8
11000_Left
  6
CENTER
 62
     7
 48
10.0
370
    13
100
AcDbLine
 39
0.35
 10
211.619360480619
 20
188.5015179731448
 30
4.117647058823478
 11
209.8149553540141
 21
188.4989438574605
 31
4.117647058823478
1001
AUSTER_ANSICHT
1002
{
1000
Det03
1002
}
1001
AUSTER_FOLIE
1002
{
1000
NSB00754_S2
1002
}
  0
LINE
  5
3A40
330
20
100
AcDbEntity
  8
11000_Left
  6
CENTER
 62
     7
 48
10.0
370
    13
100
AcDbLine
 39
0.35
 10
211.619360480619
 20
104.3838138378706
 30
4.117647058823478
 11
209.8149553540141
 21
104.3863879535549
 31
4.117647058823478
1001
AUSTER_ANSICHT
1002
{
1000
Det03
1002
}
1001
AUSTER_FOLIE
1002
{
1000
NSB00754_S2
1002
}
  0
LINE
  5
3A41
330
20
100
AcDbEntity
  8
11000_Left
  6
CENTER
 62
     7
 48
10.0
370
    13
100
AcDbLine
 39
0.35
 10
211.619360480619
 20
104.3838138378706
 30
4.117647058823478
 11
211.619360480619
 21
91.24266590550773
 31
4.117647058823478
1001
AUSTER_ANSICHT
1002
{
1000
Det03
1002
}
1001
AUSTER_FOLIE
1002
{
1000
NSB00754_S2
1002
}
  0
LINE
  5
3A42
330
20
100
AcDbEntity
  8
11000_Left
  6
CENTER
 62
     7
 48
10.0
370
    13
100
AcDbLine
 39
0.35
 10
209.8149553540141
 20
104.3863879535549
 30
4.117647058823478
 11
209.8098821134847
 21
91.24266590550766
 31
4.151385192033706
1001
AUSTER_ANSICHT
1002
{
1000
Det03
1002
}
1001
AUSTER_FOLIE
1002
{
1000
NSB00754_S2
1002
}
  0
LINE
  5
3A43
330
20
100
AcDbEntity
  8
11000_Left
  6
Continuous
370
    50
100
AcDbLine
 39
0.7
 10
207.3283722453248
 20
91.24266590550767
 30
5.0
 11
221.7283722453247
 21
91.2426659055078
 31
-0.0000000000000439
1001
AUSTER_FOLIE
1002
{
1000
NSB00754_S2
1002
}
1001
AUSTER_ANSICHT
1002
{
1000
Det03
1002
}
  0
LINE
  5
3A44
330
20
100
AcDbEntity
  8
11000_Left
  6
Continuous
370
    50
100
AcDbLine
 39
0.7
 10
221.7283722453247
 20
91.2426659055078
 30
-0.0000000000000439
 11
221.7283722453247
 21
94.74267190550738
 31
0.0
1001
AUSTER_ANSICHT
1002
{
1000
Det03
1002
}
1001
AUSTER_FOLIE
1002
{
1000
NSB00754_S2
1002
}
  0
LINE
  5
3A45
330
20
100
AcDbEntity
  8
11000_Left
  6
Continuous
370
    50
100
AcDbLine
 39
0.7
 10
207.3283722453248
 20
94.2426659055077
 30
0.0
 11
207.3283722453248
 21
91.24266590550766
 31
6.000000000000027
1001
AUSTER_FOLIE
1002
{
1000
NSB00754_S2
1002
}
1001
AUSTER_ANSICHT
1002
{
1000
Det03
1002
}
  0
LINE
  5
3AD7
330
20
100
AcDbEntity
  8
90000_Frame
  6
Continuous
 62
     7
100
AcDbLine
 10
10.0
 20
0.0
 30
0.0
 11
10.0
 21
270.0
 31
0.0
  0
LINE
  5
3AD8
330
20
100
AcDbEntity
  8
90000_Frame
  6
Continuous
 62
     7
100
AcDbLine
 10
10.0
 20
270.0
 30
0.0
 11
420.0
 21
270.0
 31
0.0
  0
LINE
  5
3B8E
330
20
100
AcDbEntity
  8
11000_Left
  6
Continuous
 62
     7
370
    50
100
AcDbLine
 39
0.5
 10
221.3283722453248
 20
189.2426619055077
 30
0.0
 11
221.3283722453248
 21
198.8426619055077
 31
0.0
1001
AUSTER_ANSICHT
1002
{
1000
Det03
1002
}
1001
AUSTER_FOLIE
1002
{
1000
GERAEUSCHARMES_S2_CC
1000
BAHNSCHUETZ_ANSTEUERBAU_S2_CC
1002
}
  0
LINE
  5
3B8F
330
20
100
AcDbEntity
  8
11000_Left
  6
Continuous
 62
     7
370
    50
100
AcDbLine
 39
0.5
 10
221.7283722453247
 20
104.2426619055076
 30
0.0
 11
221.7283722453247
 21
94.74267190550756
 31
0.0
1001
AUSTER_ANSICHT
1002
{
1000
Det03
1002
}
1001
AUSTER_FOLIE
1002
{
1000
GERAEUSCHARMES_S2_CC
1000
BAHNSCHUETZ_ANSTEUERBAU_S2_CC
1002
}
  0
LINE
  5
3BB3
330
20
100
AcDbEntity
  8
10000_Front
  6
Continuous
370
    13
100
AcDbLine
 39
0.5
 10
92.96288360009077
 20
94.24267197757153
 30
3.636305170336644
 11
92.96292306612178
 21
102.2420619055077
 31
0.0
1001
AUSTER_ANSICHT
1002
{
1000
Det03
1002
}
1001
AUSTER_FOLIE
1002
{
1000
GERAEUSCHARMES_S2_CC
1000
BAHNSCHUETZ_ANSTEUERBAU_S2_CC
1002
}
  0
LINE
  5
3BB6
330
20
100
AcDbEntity
  8
10000_Front
  6
Continuous
370
    50
100
AcDbLine
 39
0.5
 10
63.55898306612188
 20
94.24267190550743
 30
0.5
 11
63.55818880136604
 21
91.24272390550761
 31
5.0
1001
AUSTER_ANSICHT
1002
{
1000
Det03
1002
}
1001
AUSTER_FOLIE
1002
{
1000
GERAEUSCHARMES_S2_CC
1000
BAHNSCHUETZ_ANSTEUERBAU_S2_CC
1002
}
  0
LINE
  5
3BB7
330
20
100
AcDbEntity
  8
10000_Front
  6
Continuous
370
    13
100
AcDbLine
 39
0.5
 10
63.55898306612188
 20
199.2426619055077
 30
0.5
 11
63.56292306612188
 21
191.2432619055076
 31
0.0
1001
AUSTER_ANSICHT
1002
{
1000
Det03
1002
}
1001
AUSTER_FOLIE
1002
{
1000
GERAEUSCHARMES_S2_CC
1000
BAHNSCHUETZ_ANSTEUERBAU_S2_CC
1002
}
  0
LINE
  5
3BB8
330
20
100
AcDbEntity
  8
10000_Front
  6
Continuous
370
    50
100
AcDbLine
 39
0.5
 10
92.96289688498669
 20
199.242661905422
 30
3.636268755651169
 11
92.96288706612171
 21
202.2427239055076
 31
5.0
1001
AUSTER_ANSICHT
1002
{
1000
Det03
1002
}
1001
AUSTER_FOLIE
1002
{
1000
GERAEUSCHARMES_S2_CC
1000
BAHNSCHUETZ_ANSTEUERBAU_S2_CC
1002
}
  0
LINE
  5
3BBF
330
20
100
AcDbEntity
  8
11000_Left
  6
Continuous
370
    13
100
AcDbLine
 39
0.5
 10
236.1283722453247
 20
189.2426619055077
 30
0.0
 11
248.6283722453247
 21
189.2426619055077
 31
0.0
1001
AUSTER_ANSICHT
1002
{
1000
Det03
1002
}
1001
AUSTER_FOLIE
1002
{
1000
GERAEUSCHARMES_S2_CC
1000
BAHNSCHUETZ_ANSTEUERBAU_S2_CC
1002
}
  0
LINE
  5
3BC0
330
20
100
AcDbEntity
  8
11000_Left
  6
Continuous
370
    50
100
AcDbLine
 39
0.5
 10
248.6283722453247
 20
189.2426619055077
 30
0.0
 11
278.3339722453249
 21
189.2426619055077
 31
0.0
1001
AUSTER_ANSICHT
1002
{
1000
Det03
1002
}
1001
AUSTER_FOLIE
1002
{
1000
GERAEUSCHARMES_S2_CC
1000
BAHNSCHUETZ_ANSTEUERBAU_S2_CC
1002
}
  0
LINE
  5
3BC1
330
20
100
AcDbEntity
  8
11000_Left
  6
Continuous
370
    50
100
AcDbLine
 39
0.5
 10
236.1283722453246
 20
104.2426619055076
 30
0.0
 11
223.0283722453248
 21
104.2426619055076
 31
0.0
1001
AUSTER_ANSICHT
1002
{
1000
Det03
1002
}
1001
AUSTER_FOLIE
1002
{
1000
GERAEUSCHARMES_S2_CC
1000
BAHNSCHUETZ_ANSTEUERBAU_S2_CC
1002
}
  0
LINE
  5
3BC2
330
20
100
AcDbEntity
  8
11000_Left
  6
Continuous
370
    13
100
AcDbLine
 39
0.5
 10
248.6283722453247
 20
104.2426619055076
 30
0.0
 11
236.1283722453247
 21
104.2426619055076
 31
0.0
1001
AUSTER_ANSICHT
1002
{
1000
Det03
1002
}
1001
AUSTER_FOLIE
1002
{
1000
GERAEUSCHARMES_S2_CC
1000
BAHNSCHUETZ_ANSTEUERBAU_S2_CC
1002
}
  0
LINE
  5
3BC3
330
20
100
AcDbEntity
  8
11000_Left
  6
Continuous
370
    50
100
AcDbLine
 39
0.5
 10
167.3283722453247
 20
126.9219619055076
 30
0.0
 11
167.3283722453247
 21
94.64267190550776
 31
0.0
1001
AUSTER_ANSICHT
1002
{
1000
Det03
1002
}
1001
AUSTER_FOLIE
1002
{
1000
GERAEUSCHARMES_S2_CC
1000
BAHNSCHUETZ_ANSTEUERBAU_S2_CC
1002
}
  0
ENDSEC
  0
SECTION
  2
OBJECTS
  0
DICTIONARY
  5
C
330
0
100
AcDbDictionary
281
     1
  3
ACAD_COLOR
350
1B
  3
ACAD_GROUP
350
D
  3
ACAD_LAYOUT
350
19
  3
ACAD_MATERIAL
350
1A
  3
ACAD_MLINESTYLE
350
16
  3
ACAD_PLOTSETTINGS
350
18
  3
ACAD_PLOTSTYLENAME
350
E
  3
ACAD_TABLESTYLE
350
3BB0
  3
ACAD_VISUALSTYLE
350
3B9F
  3
AcDbVariableDictionary
350
3B71
  3
DWGPROPS
350
3BC7
  0
DICTIONARY
  5
3BB4
330
20
100
AcDbDictionary
280
     1
281
     1
  3
ACAD_SORTENTS
360
3BB5
  0
DICTIONARY
  5
1B
102
{ACAD_REACTORS
330
C
102
}
330
C
100
AcDbDictionary
281
     1
  0
DICTIONARY
  5
D
102
{ACAD_REACTORS
330
C
102
}
330
C
100
AcDbDictionary
281
     1
  0
DICTIONARY
  5
19
102
{ACAD_REACTORS
330
C
102
}
330
C
100
AcDbDictionary
281
     1
  3
Layout1
350
1F
  3
Model
350
23
  0
DICTIONARY
  5
1A
102
{ACAD_REACTORS
330
C
102
}
330
C
100
AcDbDictionary
281
     1
  3
ByBlock
350
3B9D
  3
ByLayer
350
3B9C
  3
Global
350
3B9E
  0
DICTIONARY
  5
16
102
{ACAD_REACTORS
330
C
102
}
330
C
100
AcDbDictionary
281
     1
  3
Standard
350
17
  0
DICTIONARY
  5
18
102
{ACAD_REACTORS
330
C
102
}
330
C
100
AcDbDictionary
281
     1
  0
ACDBDICTIONARYWDFLT
  5
E
102
{ACAD_REACTORS
330
C
102
}
330
C
100
AcDbDictionary
281
     1
  3
Normal
350
F
100
AcDbDictionaryWithDefault
340
F
  0
DICTIONARY
  5
3BB0
102
{ACAD_REACTORS
330
C
102
}
330
C
100
AcDbDictionary
281
     1
  3
Standard
350
3BB1
  0
DICTIONARY
  5
3B9F
102
{ACAD_REACTORS
330
C
102
}
330
C
100
AcDbDictionary
281
     1
  3
2dWireframe
350
3BA5
  3
3D Hidden
350
3BA7
  3
3dWireframe
350
3BA6
  3
Basic
350
3BA4
  3
Brighten
350
3BAB
  3
ColorChange
350
3BAF
  3
Conceptual
350
3BA8
  3
Dim
350
3BAA
  3
Facepattern
350
3BAE
  3
Flat
350
3BA0
  3
FlatWithEdges
350
3BA1
  3
Gouraud
350
3BA2
  3
GouraudWithEdges
350
3BA3
  3
Linepattern
350
3BAD
  3
Realistic
350
3BA9
  3
Thicken
350
3BAC
  0
DICTIONARY
  5
3B71
102
{ACAD_REACTORS
330
C
102
}
330
C
100
AcDbDictionary
281
     1
  3
CTABLESTYLE
350
3BC4
  3
DIMASSOC
350
3B72
  3
INDEXCTL
350
3BC6
  3
PROJECTNAME
350
3B73
  3
SORTENTS
350
3BC5
  0
XRECORD
  5
3BC7
102
{ACAD_REACTORS
330
C
102
}
330
C
100
AcDbXrecord
280
     1
  1
DWGPROPS COOKIE
  2

  3

  4

  6

  7

  8
adgiro3
  9

300
=
301
=
302
=
303
=
304
=
305
=
306
=
307
=
308
=
309
=
 40
0.3088382638888889
 41
2452829.459279745
 42
2453948.398917709
  1

 90
        0
  0
SORTENTSTABLE
  5
3BB5
102
{ACAD_REACTORS
330
3BB4
102
}
330
3BB4
100
AcDbSortentsTable
330
20
331
1D59
  5
1D62
331
19E8
  5
19E9
331
1CC1
  5
1CC8
331
1D7B
  5
1D84
331
1A0A
  5
1A10
331
3A23
  5
3A2C
331
1CDB
  5
1CE2
331
1CFD
  5
1D04
331
1A24
  5
1A29
331
3A07
  5
3A10
331
1D1F
  5
1D26
331
3A41
  5
3BB3
331
1AB0
  5
1AB5
331
1D49
  5
1D50
331
1C64
  5
1C6B
331
1C4A
  5
1C52
331
1A46
  5
1A4B
331
1C86
  5
1C8D
331
1CB0
  5
1CB7
331
19D7
  5
19D8
331
1D6A
  5
1D73
331
1CD2
  5
1CD9
331
3A34
  5
3A3E
331
1CEC
  5
1CF3
331
1A1B
  5
1A1E
331
1A35
  5
1A3A
331
19F9
  5
19FA
331
57D
  5
57D
331
39F6
  5
39FF
331
1D0E
  5
1D15
331
1D30
  5
1D37
331
1A9F
  5
1AA4
331
1C75
  5
1C7C
331
19C6
  5
19C6
331
AD
  5
AD
331
1D79
  5
1D82
331
1A08
  5
1A0F
331
3A21
  5
3A2A
331
1CD9
  5
1CE0
331
1CFB
  5
1D02
331
1A22
  5
1A27
331
3A05
  5
3A0E
331
1A44
  5
1A49
331
1D1D
  5
1D24
331
3A3F
  5
3B8E
331
1AAE
  5
1AB3
331
1D47
  5
1D4E
331
1C62
  5
1C69
331
1C48
  5
1C50
331
1C84
  5
1C8B
331
1CAE
  5
1CB5
331
19D5
  5
19D6
331
1D68
  5
1D71
331
1CD0
  5
1CD7
331
3A32
  5
3A3C
331
1CEA
  5
1CF1
331
1A19
  5
1A1C
331
1A33
  5
1A38
331
19F7
  5
19F8
331
57B
  5
57B
331
39F4
  5
39FD
331
1D0C
  5
1D13
331
3A16
  5
3A1F
331
1A9D
  5
1AA2
331
3AD8
  5
3BC1
331
1D2E
  5
1D35
331
1C73
  5
1C7A
331
1CBF
  5
1CC6
331
19E6
  5
19E7
331
19C4
  5
19C4
331
AB
  5
AB
331
1CF9
  5
1D00
331
1A20
  5
1A23
331
3A03
  5
3A0C
331
1A42
  5
1A48
331
1D1B
  5
1D22
331
3A3D
  5
3AD7
331
1AAC
  5
1AB1
331
1D45
  5
1D4D
331
3B8F
  5
3BC3
331
1C46
  5
1C4E
331
1C60
  5
1C67
331
1C82
  5
1C89
331
1CAC
  5
1CB3
331
19D3
  5
19D4
331
1D66
  5
1D6F
331
1CCE
  5
1CD5
331
1EE0
  5
205C
331
1A17
  5
1A1A
331
3A30
  5
3A3A
331
1CE8
  5
1CEF
331
39F2
  5
39FB
331
1A31
  5
1A36
331
3A14
  5
3A1D
331
1D56
  5
1D5F
331
1D2C
  5
1D33
331
1C71
  5
1C78
331
1C57
  5
1C5E
331
205D
  5
39EB
331
1CBD
  5
1CC4
331
19E4
  5
19E5
331
1D0A
  5
1D11
331
3A1F
  5
3A28
331
1D77
  5
1D80
331
1A06
  5
1A07
331
19F5
  5
19F6
331
579
  5
579
331
3A01
  5
3A0A
331
1A40
  5
1A47
331
1D19
  5
1D20
331
3A3B
  5
3A44
331
1AAA
  5
1AAF
331
1D43
  5
1D4B
331
1C5E
  5
1C65
331
1C44
  5
1C4A
331
3BB7
  5
1C4F
331
1C80
  5
1C87
331
1CAA
  5
1CB1
331
19D1
  5
19D2
331
1D64
  5
1D6D
331
3744
  5
39EE
331
1CCC
  5
1CD3
331
1D86
  5
205A
331
1A15
  5
1A18
331
3A2E
  5
3A37
331
1CE6
  5
1CED
331
39F0
  5
39F9
331
1A2F
  5
1A34
331
3A12
  5
3A1B
331
1D54
  5
1D5D
331
1D2A
  5
1D31
331
1C91
  5
1CA8
331
1C6F
  5
1C76
331
1C55
  5
1C5C
331
205B
  5
39E9
331
1CBB
  5
1CC2
331
19E2
  5
19E3
331
1D08
  5
1D0F
331
3A1D
  5
3A26
331
1D75
  5
1D7E
331
1CF7
  5
1CFE
331
1A04
  5
1A05
331
19F3
  5
19F4
331
B7
  5
B7
331
1D41
  5
1D49
331
1AA8
  5
1AAD
331
1C7E
  5
1C85
331
1C5C
  5
1C63
331
1C42
  5
1C48
331
1CA8
  5
1CAF
331
19CF
  5
19D0
331
1D62
  5
1D6B
331
3742
  5
39EC
331
1CCA
  5
1CD1
331
1D84
  5
2058
331
1A13
  5
1A16
331
3A2C
  5
3A35
331
1CE4
  5
1CEB
331
39EE
  5
39F7
331
1A2D
  5
1A32
331
3A10
  5
3A19
331
1D52
  5
1D5B
331
1D28
  5
1D2F
331
1C8F
  5
1CA6
331
1C6D
  5
1C74
331
1C53
  5
1C5A
331
2059
  5
39E7
331
1CB9
  5
1CC0
331
19E0
  5
19E1
331
1D06
  5
1D0D
331
3A1B
  5
3A24
331
1D73
  5
1D7C
331
39FF
  5
3A08
331
1A3E
  5
1A45
331
1D17
  5
1D1E
331
1CF5
  5
1CFC
331
1A02
  5
1A03
331
19F1
  5
19F2
331
3BB3
  5
1D52
331
1C5A
  5
1C61
331
1C40
  5
1C45
331
1C7C
  5
1C83
331
1CA6
  5
1CAD
331
19CD
  5
19CE
331
1D60
  5
1D69
331
1CC8
  5
1CCF
331
1D82
  5
1F09
331
1A11
  5
1A14
331
3A2A
  5
3A33
331
1CE2
  5
1CE9
331
39EC
  5
39F5
331
1A2B
  5
1A30
331
3A0E
  5
3A17
331
1D26
  5
1D2D
331
1D50
  5
1D59
331
1AB7
  5
1C42
331
1C8D
  5
1CA4
331
1C6B
  5
1C72
331
1C51
  5
1C58
331
1CB7
  5
1CBE
331
19DE
  5
19DF
331
1D04
  5
1D0B
331
3A19
  5
3A22
331
1D71
  5
1D7A
331
1CF3
  5
1CFA
331
39FD
  5
3A06
331
1A3C
  5
1A42
331
1D15
  5
1D1C
331
1D37
  5
1D48
331
1AA6
  5
1AAB
331
1A00
  5
1A01
331
19EF
  5
19F0
331
B3
  5
B3
331
1C58
  5
1C5F
331
1C7A
  5
1C81
331
1CA4
  5
1CAB
331
19CB
  5
19CC
331
1D5E
  5
1D67
331
1CC6
  5
1CCD
331
1D80
  5
1EE1
331
1A0F
  5
1A12
331
3A28
  5
3A31
331
1CE0
  5
1CE7
331
39EA
  5
39F3
331
1A29
  5
1A2E
331
3A0C
  5
3A15
331
1A4B
  5
1AA1
331
1D24
  5
1D2B
331
1D4E
  5
1D57
331
1AB5
  5
1C40
331
1C69
  5
1C70
331
1C8B
  5
1C92
331
3BC2
  5
1A08
331
1CB5
  5
1CBC
331
19DC
  5
19DD
331
1C4F
  5
1C56
331
1D02
  5
1D09
331
1D6F
  5
1D78
331
1F09
  5
3743
331
1CD7
  5
1CDE
331
1CF1
  5
1CF8
331
39FB
  5
3A04
331
1A3A
  5
1A3F
331
1D13
  5
1D1A
331
1D35
  5
1D45
331
1AA4
  5
1AA9
331
19FE
  5
19FF
331
19ED
  5
19EE
331
B1
  5
B1
331
1C78
  5
1C7F
331
1D5C
  5
1D65
331
19EB
  5
19EC
331
19C9
  5
19CA
331
1D7E
  5
1D87
331
3A26
  5
3A2F
331
1CDE
  5
1CE5
331
39E8
  5
39F1
331
1A27
  5
1A2C
331
1D00
  5
1D07
331
3A0A
  5
3A13
331
1A49
  5
1A9F
331
1D22
  5
1D29
331
3A44
  5
3BB8
331
1AB3
  5
1BB2
331
1C67
  5
1C6E
331
1C4D
  5
1C54
331
3BC0
  5
1A25
331
1D4C
  5
1D55
331
1CC4
  5
1CCB
331
1C89
  5
1C90
331
1CB3
  5
1CBA
331
19DA
  5
19DB
331
1D6D
  5
1D76
331
1CD5
  5
1CDC
331
3A37
  5
3A41
331
1CEF
  5
1CF6
331
1A1E
  5
1A21
331
39F9
  5
3A02
331
1A38
  5
1A3D
331
1D11
  5
1D18
331
1D33
  5
1D43
331
1AA2
  5
1AA7
331
19FC
  5
19FD
331
580
  5
580
331
1D5A
  5
1D63
331
19E9
  5
19EA
331
1D7C
  5
1D85
331
1CC2
  5
1CC9
331
3A24
  5
3A2D
331
1CDC
  5
1CE3
331
1CFE
  5
1D05
331
1A25
  5
1A2A
331
3A08
  5
3A11
331
1A47
  5
1A9D
331
1D20
  5
1D27
331
3A42
  5
3BB6
331
1AB1
  5
1AB6
331
1D4A
  5
1D51
331
1C65
  5
1C6C
331
1C87
  5
1C8E
331
1CB1
  5
1CB8
331
19D8
  5
19D9
331
57E
  5
57E
331
1D6B
  5
1D74
331
19FA
  5
19FB
331
1CD3
  5
1CDA
331
3A35
  5
3A3F
331
1CED
  5
1CF4
331
1A1C
  5
1A1F
331
1A36
  5
1A3B
331
B9
  5
B9
331
39F7
  5
3A00
331
1D0F
  5
1D16
331
1D31
  5
1D41
331
1AA0
  5
1AA5
331
1C76
  5
1C7D
331
19C7
  5
19C7
331
AE
  5
AE
331
1D58
  5
1D61
331
1D7A
  5
1D83
331
1CC0
  5
1CC7
331
3A22
  5
3A2B
331
1CDA
  5
1CE1
331
1CFC
  5
1D03
331
1A23
  5
1A28
331
3A06
  5
3A0F
331
1A45
  5
1A4A
331
1D1E
  5
1D25
331
3A40
  5
3B8F
331
1AAF
  5
1AB4
331
1D48
  5
1D4F
331
1C63
  5
1C6A
331
1C49
  5
1C51
331
1C85
  5
1C8C
331
1CAF
  5
1CB6
331
19D6
  5
19D7
331
1D69
  5
1D72
331
3901
  5
39EF
331
1CD1
  5
1CD8
331
3A33
  5
3A3D
331
1CEB
  5
1CF2
331
1A1A
  5
1A1D
331
1A34
  5
1A39
331
19F8
  5
19F9
331
57C
  5
57C
331
39F5
  5
39FE
331
1D0D
  5
1D14
331
3A17
  5
3A20
331
1A9E
  5
1AA3
331
1D2F
  5
1D36
331
1C74
  5
1C7B
331
19E7
  5
19E8
331
19C5
  5
19C5
331
AC
  5
AC
331
1D78
  5
1D81
331
3A20
  5
3A29
331
1CD8
  5
1CDF
331
3A04
  5
3A0D
331
1CFA
  5
1D01
331
1A21
  5
1A26
331
1D1C
  5
1D23
331
3A3E
  5
3AD8
331
1AAD
  5
1AB2
331
1C61
  5
1C68
331
1C83
  5
1C8A
331
1CAD
  5
1CB4
331
19D4
  5
19D5
331
1D67
  5
1D70
331
1CCF
  5
1CD6
331
1EE1
  5
205D
331
1A18
  5
1A1B
331
3A31
  5
3A3B
331
1CE9
  5
1CF0
331
1A32
  5
1A37
331
19F6
  5
19F7
331
57A
  5
57A
331
39F3
  5
39FC
331
3A15
  5
3A1E
331
1D0B
  5
1D12
331
3AD7
  5
3BC0
331
1D2D
  5
1D34
331
1D57
  5
1D60
331
1C72
  5
1C79
331
1CBE
  5
1CC5
331
19E5
  5
19E6
331
1A07
  5
1A0E
331
AA
  5
AA
331
3A02
  5
3A0B
331
1CF8
  5
1CFF
331
1D1A
  5
1D21
331
3A3C
  5
3A45
331
1AAB
  5
1AB0
331
1D44
  5
1D4C
331
3B8E
  5
3BC2
331
1C45
  5
1C4C
331
1C5F
  5
1C66
331
1C81
  5
1C88
331
3BB8
  5
1C4D
331
1CAB
  5
1CB2
331
19D2
  5
19D3
331
1D65
  5
1D6E
331
1CCD
  5
1CD4
331
1D87
  5
205B
331
1A16
  5
1A19
331
3A2F
  5
3A38
331
1CE7
  5
1CEE
331
39F1
  5
39FA
331
1A30
  5
1A35
331
3A13
  5
3A1C
331
1D55
  5
1D5E
331
1D2B
  5
1D32
331
1C92
  5
1CA9
331
1C70
  5
1C77
331
1C56
  5
1C5D
331
205C
  5
39EA
331
1CBC
  5
1CC3
331
19E3
  5
19E4
331
1D09
  5
1D10
331
3A1E
  5
3A27
331
1D76
  5
1D7F
331
1A05
  5
1A06
331
19F4
  5
19F5
331
3A00
  5
3A09
331
1D18
  5
1D1F
331
3A3A
  5
3A43
331
1AA9
  5
1AAE
331
1D42
  5
1D4A
331
3BB6
  5
1D54
331
1C5D
  5
1C64
331
1C43
  5
1C49
331
1C7F
  5
1C86
331
1CA9
  5
1CB0
331
19D0
  5
19D1
331
1D63
  5
1D6C
331
3743
  5
39ED
331
1CCB
  5
1CD2
331
1D85
  5
2059
331
1A14
  5
1A17
331
3A2D
  5
3A36
331
1CE5
  5
1CEC
331
39EF
  5
39F8
331
1A2E
  5
1A33
331
3A11
  5
3A1A
331
1D29
  5
1D30
331
1D53
  5
1D5C
331
1BB2
  5
1C43
331
1C90
  5
1CA7
331
1C6E
  5
1C75
331
1C54
  5
1C5B
331
205A
  5
39E8
331
1CBA
  5
1CC1
331
19E1
  5
19E2
331
1D07
  5
1D0E
331
3A1C
  5
3A25
331
1D74
  5
1D7D
331
1A3F
  5
1A46
331
1CF6
  5
1CFD
331
1A03
  5
1A04
331
19F2
  5
19F3
331
3A38
  5
3A42
331
1C5B
  5
1C62
331
1C41
  5
1C46
331
1C7D
  5
1C84
331
1CA7
  5
1CAE
331
19CE
  5
19CF
331
1D61
  5
1D6A
331
1CC9
  5
1CD0
331
1D83
  5
2057
331
1A12
  5
1A15
331
3A2B
  5
3A34
331
1CE3
  5
1CEA
331
39ED
  5
39F6
331
1A2C
  5
1A31
331
3A0F
  5
3A18
331
1D51
  5
1D5A
331
1D27
  5
1D2E
331
1C8E
  5
1CA5
331
1C6C
  5
1C73
331
1C52
  5
1C59
331
2058
  5
3901
331
1CB8
  5
1CBF
331
19DF
  5
19E0
331
1D05
  5
1D0C
331
3A1A
  5
3A23
331
1D72
  5
1D7B
331
39FE
  5
3A07
331
1A3D
  5
1A44
331
1D16
  5
1D1D
331
1AA7
  5
1AAC
331
1CF4
  5
1CFB
331
1A01
  5
1A02
331
19F0
  5
19F1
331
B4
  5
B4
331
1C59
  5
1C60
331
1C7B
  5
1C82
331
1CA5
  5
1CAC
331
19CC
  5
19CD
331
1D5F
  5
1D68
331
2057
  5
3744
331
1CC7
  5
1CCE
331
1D81
  5
1F08
331
1A10
  5
1A13
331
3A29
  5
3A32
331
1CE1
  5
1CE8
331
39EB
  5
39F4
331
1A2A
  5
1A2F
331
3A0D
  5
3A16
331
1D25
  5
1D2C
331
1D4F
  5
1D58
331
1AB6
  5
1C41
331
1C6A
  5
1C71
331
1C50
  5
1C57
331
1C8C
  5
1CA3
331
1CB6
  5
1CBD
331
19DD
  5
19DE
331
3BC3
  5
19C9
331
1D03
  5
1D0A
331
3A18
  5
3A21
331
1D70
  5
1D79
331
1CF2
  5
1CF9
331
39FC
  5
3A05
331
1A3B
  5
1A40
331
1D14
  5
1D1B
331
1D36
  5
1D47
331
1AA5
  5
1AAA
331
1C3F
  5
1C44
331
19FF
  5
1A00
331
19EE
  5
19EF
331
B2
  5
B2
331
1C79
  5
1C80
331
1CA3
  5
1CAA
331
19CA
  5
19CB
331
1D5D
  5
1D66
331
1CC5
  5
1CCC
331
1D7F
  5
1EE0
331
1A0E
  5
1A11
331
3A27
  5
3A30
331
1CDF
  5
1CE6
331
39E9
  5
39F2
331
1A28
  5
1A2D
331
3A0B
  5
3A14
331
1A4A
  5
1AA0
331
1D23
  5
1D2A
331
3A45
  5
3BBF
331
1AB4
  5
1C3F
331
1C68
  5
1C6F
331
1C4E
  5
1C55
331
1C8A
  5
1C91
331
1CB4
  5
1CBB
331
19DB
  5
19DC
331
3BC1
  5
1A0A
331
1D4D
  5
1D56
331
1D01
  5
1D08
331
1D6E
  5
1D77
331
1CD6
  5
1CDD
331
1F08
  5
3742
331
1A1F
  5
1A22
331
1CF0
  5
1CF7
331
39FA
  5
3A03
331
1A39
  5
1A3E
331
1D34
  5
1D44
331
1AA3
  5
1AA8
331
1D12
  5
1D19
331
19FD
  5
19FE
331
19EC
  5
19ED
331
B0
  5
B0
331
1D5B
  5
1D64
331
19EA
  5
19EB
331
1D7D
  5
1D86
331
1CC3
  5
1CCA
331
3A25
  5
3A2E
331
1CDD
  5
1CE4
331
39E7
  5
39F0
331
1A26
  5
1A2B
331
1CFF
  5
1D06
331
3A09
  5
3A12
331
1A48
  5
1A9E
331
1D21
  5
1D28
331
3A43
  5
3BB7
331
1AB2
  5
1AB7
331
1C66
  5
1C6D
331
1C4C
  5
1C53
331
3BBF
  5
1A24
331
1D4B
  5
1D53
331
19C8
  5
19C8
331
1C88
  5
1C8F
331
1CB2
  5
1CB9
331
19D9
  5
19DA
331
1D6C
  5
1D75
331
1CD4
  5
1CDB
331
3A36
  5
3A40
331
1CEE
  5
1CF5
331
1A1D
  5
1A20
331
1A37
  5
1A3C
331
19FB
  5
19FC
331
57F
  5
57F
331
39F8
  5
3A01
331
1D10
  5
1D17
331
1D32
  5
1D42
331
1AA1
  5
1AA6
331
1C77
  5
1C7E
331
AF
  5
AF
  0
LAYOUT
  5
1F
102
{ACAD_XDICTIONARY
360
3BC8
102
}
102
{ACAD_REACTORS
330
19
102
}
330
19
100
AcDbPlotSettings
  1

  2
HP LaserJet 5000 Series PS
  4

  6

 40
0.0
 41
0.0
 42
0.0
 43
0.0
 44
0.0
 45
0.0
 46
0.0
 47
0.0
 48
0.0
 49
0.0
140
0.0
141
0.0
142
1.0
143
1.0
 70
   688
 72
     0
 73
     0
 74
     5
  7
monochrome.ctb
 75
    16
147
1.0
148
0.0
149
0.0
100
AcDbLayout
  1
Layout1
 70
     1
 71
     1
 10
0.0
 20
0.0
 11
12.0
 21
9.0
 12
0.0
 22
0.0
 32
0.0
 14
1.000000000000000E+20
 24
1.000000000000000E+20
 34
1.000000000000000E+20
 15
-1.000000000000000E+20
 25
-1.000000000000000E+20
 35
-1.000000000000000E+20
146
0.0
 13
0.0
 23
0.0
 33
0.0
 16
1.0
 26
0.0
 36
0.0
 17
0.0
 27
1.0
 37
0.0
 76
     0
330
1C
  0
LAYOUT
  5
23
102
{ACAD_XDICTIONARY
360
3BCA
102
}
102
{ACAD_REACTORS
330
19
102
}
330
19
100
AcDbPlotSettings
  1

  2
\\AMBW779A\A_P00873 (Canon iR2200-3300 PCL6)
  4
A3
  6

 40
4.815416812896728
 41
4.815412044525146
 42
4.815399169921875
 43
4.8154296875
 44
296.9259948730469
 45
419.9466552734373
 46
0.0
 47
0.0
 48
0.0
 49
0.0
140
0.0
141
0.0
142
1.0
143
1.0
 70
 11952
 72
     1
 73
     1
 74
     1
  7
monochrome.ctb
 75
    16
147
1.0
148
-9.98474220045
149
0.0090630292066862
100
AcDbLayout
  1
Model
 70
     1
 71
     0
 10
0.0
 20
0.0
 11
12.0
 21
9.0
 12
0.0
 22
0.0
 32
0.0
 14
0.0
 24
0.0
 34
0.0
 15
0.0
 25
0.0
 35
0.0
146
0.0
 13
0.0
 23
0.0
 33
0.0
 16
1.0
 26
0.0
 36
0.0
 17
0.0
 27
1.0
 37
0.0
 76
     0
330
20
331
3B90
  0
MATERIAL
  5
3B9D
102
{ACAD_XDICTIONARY
360
3BCE
102
}
102
{ACAD_REACTORS
330
1A
102
}
330
1A
100
AcDbMaterial
  1
ByBlock
  0
MATERIAL
  5
3B9C
102
{ACAD_XDICTIONARY
360
3BCC
102
}
102
{ACAD_REACTORS
330
1A
102
}
330
1A
100
AcDbMaterial
  1
ByLayer
  0
MATERIAL
  5
3B9E
102
{ACAD_XDICTIONARY
360
3BD0
102
}
102
{ACAD_REACTORS
330
1A
102
}
330
1A
100
AcDbMaterial
  1
Global
  0
MLINESTYLE
  5
17
102
{ACAD_REACTORS
330
16
102
}
330
16
100
AcDbMlineStyle
  2
STANDARD
 70
     0
  3

 62
   256
 51
90.0
 52
90.0
 71
     2
 49
0.5
 62
   256
  6
BYLAYER
 49
-0.5
 62
   256
  6
BYLAYER
  0
ACDBPLACEHOLDER
  5
F
102
{ACAD_REACTORS
330
E
102
}
330
E
  0
TABLESTYLE
  5
3BB1
102
{ACAD_XDICTIONARY
360
3BD2
102
}
102
{ACAD_REACTORS
330
3BB0
102
}
330
3BB0
100
AcDbTableStyle
  3
Standard
 70
     0
 71
     0
 40
0.06
 41
0.06
280
     0
281
     0
  7
Standard
140
0.18
170
     2
 62
     0
 63
     7
283
     0
274
    -2
284
     1
 64
     0
275
    -2
285
     1
 65
     0
276
    -2
286
     1
 66
     0
277
    -2
287
     1
 67
     0
278
    -2
288
     1
 68
     0
279
    -2
289
     1
 69
     0
  7
Standard
140
0.25
170
     5
 62
     0
 63
     7
283
     0
274
    -2
284
     1
 64
     0
275
    -2
285
     1
 65
     0
276
    -2
286
     1
 66
     0
277
    -2
287
     1
 67
     0
278
    -2
288
     1
 68
     0
279
    -2
289
     1
 69
     0
  7
Standard
140
0.18
170
     5
 62
     0
 63
     7
283
     0
274
    -2
284
     1
 64
     0
275
    -2
285
     1
 65
     0
276
    -2
286
     1
 66
     0
277
    -2
287
     1
 67
     0
278
    -2
288
     1
 68
     0
279
    -2
289
     1
 69
     0
  0
VISUALSTYLE
  5
3BA5
102
{ACAD_REACTORS
330
3B9F
102
}
330
3B9F
100
AcDbVisualStyle
  2
2dWireframe
 70
     4
 71
     0
 72
     2
 73
     0
 90
        0
 40
-0.6
 41
-30.0
 62
     5
 63
     7
 74
     1
 91
        4
 64
     7
 65
   257
 75
     1
175
     1
 42
1.0
 92
        0
 66
   257
 43
1.0
 76
     1
 77
     6
 78
     2
 67
     7
 79
     5
170
     0
171
     0
290
     0
174
     0
 93
        1
 44
0.0
173
     0
291
     0
 45
0.0
1001
ACAD
1000
AcDbSavedByObjectVersion
1070
     0
  0
VISUALSTYLE
  5
3BA7
102
{ACAD_REACTORS
330
3B9F
102
}
330
3B9F
100
AcDbVisualStyle
  2
3D Hidden
 70
     6
 71
     1
 72
     2
 73
     2
 90
        0
 40
-0.6
 41
-30.0
 62
     5
 63
     7
 74
     2
 91
        2
 64
     7
 65
   257
 75
     2
175
     1
 42
40.0
 92
        0
 66
   257
 43
1.0
 76
     1
 77
     6
 78
     2
 67
     7
 79
     3
170
     0
171
     0
290
     0
174
     0
 93
        1
 44
0.0
173
     0
291
     0
 45
0.0
1001
ACAD
1000
AcDbSavedByObjectVersion
1070
     0
  0
VISUALSTYLE
  5
3BA6
102
{ACAD_REACTORS
330
3B9F
102
}
330
3B9F
100
AcDbVisualStyle
  2
3dWireframe
 70
     5
 71
     0
 72
     2
 73
     0
 90
        0
 40
-0.6
 41
-30.0
 62
     5
 63
     7
 74
     1
 91
        4
 64
     7
 65
   257
 75
     1
175
     1
 42
1.0
 92
        0
 66
   257
 43
1.0
 76
     1
 77
     6
 78
     2
 67
     7
 79
     5
170
     0
171
     0
290
     0
174
     0
 93
        1
 44
0.0
173
     0
291
     0
 45
0.0
1001
ACAD
1000
AcDbSavedByObjectVersion
1070
     0
  0
VISUALSTYLE
  5
3BA4
102
{ACAD_REACTORS
330
3B9F
102
}
330
3B9F
100
AcDbVisualStyle
  2
Basic
 70
     7
 71
     1
 72
     0
 73
     1
 90
        0
 40
-0.6
 41
-30.0
 62
     5
 63
     7
 74
     0
 91
        4
 64
     7
 65
   257
 75
     1
175
     1
 42
1.0
 92
        8
 66
     7
 43
1.0
 76
     1
 77
     6
 78
     2
 67
     7
 79
     5
170
     0
171
     0
290
     0
174
     0
 93
        1
 44
0.0
173
     0
291
     1
 45
0.0
1001
ACAD
1000
AcDbSavedByObjectVersion
1070
     0
  0
VISUALSTYLE
  5
3BAB
102
{ACAD_REACTORS
330
3B9F
102
}
330
3B9F
100
AcDbVisualStyle
  2
Brighten
 70
    12
 71
     2
 72
     2
 73
     0
 90
        0
 40
-0.6
 41
-30.0
 62
     5
 63
     7
 74
     1
 91
        4
 64
     7
 65
   257
 75
     1
175
     1
 42
1.0
 92
        8
 66
     7
 43
1.0
 76
     1
 77
     6
 78
     2
 67
     7
 79
     5
170
     0
171
     0
290
     0
174
     0
 93
        1
 44
50.0
173
     0
291
     1
 45
0.0
1001
ACAD
1000
AcDbSavedByObjectVersion
1070
     0
  0
VISUALSTYLE
  5
3BAF
102
{ACAD_REACTORS
330
3B9F
102
}
330
3B9F
100
AcDbVisualStyle
  2
ColorChange
 70
    16
 71
     2
 72
     2
 73
     3
 90
        0
 40
-0.6
 41
-30.0
 62
     5
 63
     8
 74
     1
 91
        4
 64
     7
 65
   257
 75
     1
175
     1
 42
1.0
 92
        8
 66
     8
 43
1.0
 76
     1
 77
     6
 78
     2
 67
     7
 79
     5
170
     0
171
     0
290
     0
174
     0
 93
        1
 44
0.0
173
     0
291
     1
 45
0.0
1001
ACAD
1000
AcDbSavedByObjectVersion
1070
     0
  0
VISUALSTYLE
  5
3BA8
102
{ACAD_REACTORS
330
3B9F
102
}
330
3B9F
100
AcDbVisualStyle
  2
Conceptual
 70
     9
 71
     3
 72
     2
 73
     0
 90
        0
 40
-0.6
 41
-30.0
 62
     5
 63
     7
 74
     2
 91
        2
 64
     7
 65
   257
 75
     1
175
     1
 42
40.0
 92
        8
 66
     7
 43
1.0
 76
     1
 77
     6
 78
     2
 67
     7
 79
     3
170
     0
171
     0
290
     0
174
     0
 93
        1
 44
0.0
173
     0
291
     0
 45
0.0
1001
ACAD
1000
AcDbSavedByObjectVersion
1070
     0
  0
VISUALSTYLE
  5
3BAA
102
{ACAD_REACTORS
330
3B9F
102
}
330
3B9F
100
AcDbVisualStyle
  2
Dim
 70
    11
 71
     2
 72
     2
 73
     0
 90
        0
 40
-0.6
 41
-30.0
 62
     5
 63
     7
 74
     1
 91
        4
 64
     7
 65
   257
 75
     1
175
     1
 42
1.0
 92
        8
 66
     7
 43
1.0
 76
     1
 77
     6
 78
     2
 67
     7
 79
     5
170
     0
171
     0
290
     0
174
     0
 93
        1
 44
-50.0
173
     0
291
     1
 45
0.0
1001
ACAD
1000
AcDbSavedByObjectVersion
1070
     0
  0
VISUALSTYLE
  5
3BAE
102
{ACAD_REACTORS
330
3B9F
102
}
330
3B9F
100
AcDbVisualStyle
  2
Facepattern
 70
    15
 71
     2
 72
     2
 73
     0
 90
        0
 40
-0.6
 41
-30.0
 62
     5
 63
     7
 74
     1
 91
        4
 64
     7
 65
   257
 75
     1
175
     1
 42
1.0
 92
        8
 66
     7
 43
1.0
 76
     1
 77
     6
 78
     2
 67
     7
 79
     5
170
     0
171
     0
290
     0
174
     0
 93
        1
 44
0.0
173
     0
291
     1
 45
0.0
1001
ACAD
1000
AcDbSavedByObjectVersion
1070
     0
  0
VISUALSTYLE
  5
3BA0
102
{ACAD_REACTORS
330
3B9F
102
}
330
3B9F
100
AcDbVisualStyle
  2
Flat
 70
     0
 71
     2
 72
     1
 73
     1
 90
        2
 40
-0.6
 41
30.0
 62
     5
 63
     7
 74
     0
 91
        4
 64
     7
 65
   257
 75
     1
175
     1
 42
1.0
 92
        8
 66
     7
 43
1.0
 76
     1
 77
     6
 78
     2
 67
     7
 79
     5
170
     0
171
     0
290
     0
174
     0
 93
       13
 44
0.0
173
     0
291
     1
 45
0.0
1001
ACAD
1000
AcDbSavedByObjectVersion
1070
     0
  0
VISUALSTYLE
  5
3BA1
102
{ACAD_REACTORS
330
3B9F
102
}
330
3B9F
100
AcDbVisualStyle
  2
FlatWithEdges
 70
     1
 71
     2
 72
     1
 73
     1
 90
        2
 40
-0.6
 41
30.0
 62
     5
 63
     7
 74
     1
 91
        4
 64
     7
 65
   257
 75
     1
175
     1
 42
1.0
 92
        0
 66
   257
 43
1.0
 76
     1
 77
     6
 78
     2
 67
     7
 79
     5
170
     0
171
     0
290
     0
174
     0
 93
       13
 44
0.0
173
     0
291
     1
 45
0.0
1001
ACAD
1000
AcDbSavedByObjectVersion
1070
     0
  0
VISUALSTYLE
  5
3BA2
102
{ACAD_REACTORS
330
3B9F
102
}
330
3B9F
100
AcDbVisualStyle
  2
Gouraud
 70
     2
 71
     2
 72
     2
 73
     1
 90
        2
 40
-0.6
 41
30.0
 62
     5
 63
     7
 74
     0
 91
        4
 64
     7
 65
   257
 75
     1
175
     1
 42
1.0
 92
        0
 66
     7
 43
1.0
 76
     1
 77
     6
 78
     2
 67
     7
 79
     5
170
     0
171
     0
290
     0
174
     0
 93
       13
 44
0.0
173
     0
291
     1
 45
0.0
1001
ACAD
1000
AcDbSavedByObjectVersion
1070
     0
  0
VISUALSTYLE
  5
3BA3
102
{ACAD_REACTORS
330
3B9F
102
}
330
3B9F
100
AcDbVisualStyle
  2
GouraudWithEdges
 70
     3
 71
     2
 72
     2
 73
     1
 90
        2
 40
-0.6
 41
30.0
 62
     5
 63
     7
 74
     1
 91
        4
 64
     7
 65
   257
 75
     1
175
     1
 42
1.0
 92
        0
 66
   257
 43
1.0
 76
     1
 77
     6
 78
     2
 67
     7
 79
     5
170
     0
171
     0
290
     0
174
     0
 93
       13
 44
0.0
173
     0
291
     1
 45
0.0
1001
ACAD
1000
AcDbSavedByObjectVersion
1070
     0
  0
VISUALSTYLE
  5
3BAD
102
{ACAD_REACTORS
330
3B9F
102
}
330
3B9F
100
AcDbVisualStyle
  2
Linepattern
 70
    14
 71
     2
 72
     2
 73
     0
 90
        0
 40
-0.6
 41
-30.0
 62
     5
 63
     7
 74
     1
 91
        4
 64
     7
 65
   257
 75
     7
175
     7
 42
1.0
 92
        8
 66
     7
 43
1.0
 76
     1
 77
     6
 78
     2
 67
     7
 79
     5
170
     0
171
     0
290
     0
174
     0
 93
        1
 44
0.0
173
     0
291
     1
 45
0.0
1001
ACAD
1000
AcDbSavedByObjectVersion
1070
     0
  0
VISUALSTYLE
  5
3BA9
102
{ACAD_REACTORS
330
3B9F
102
}
330
3B9F
100
AcDbVisualStyle
  2
Realistic
 70
     8
 71
     2
 72
     2
 73
     0
 90
        0
 40
-0.6
 41
-30.0
 62
     5
 63
     7
 74
     1
 91
        0
 64
     7
 65
   257
 75
     1
175
     1
 42
1.0
 92
        8
 66
     8
 43
1.0
 76
     1
 77
     6
 78
     2
 67
     7
 79
     5
170
     0
171
     0
290
     0
174
     0
 93
       13
 44
0.0
173
     0
291
     0
 45
0.0
1001
ACAD
1000
AcDbSavedByObjectVersion
1070
     0
  0
VISUALSTYLE
  5
3BAC
102
{ACAD_REACTORS
330
3B9F
102
}
330
3B9F
100
AcDbVisualStyle
  2
Thicken
 70
    13
 71
     2
 72
     2
 73
     0
 90
        0
 40
-0.6
 41
-30.0
 62
     5
 63
     7
 74
     1
 91
        4
 64
     7
 65
   257
 75
     1
175
     1
 42
1.0
 92
       12
 66
     7
 43
1.0
 76
     1
 77
     6
 78
     2
 67
     7
 79
     5
170
     0
171
     0
290
     0
174
     0
 93
        1
 44
0.0
173
     0
291
     1
 45
0.0
1001
ACAD
1000
AcDbSavedByObjectVersion
1070
     0
  0
DICTIONARYVAR
  5
3BC4
102
{ACAD_REACTORS
330
3B71
102
}
330
3B71
100
DictionaryVariables
280
     0
  1
STANDARD
  0
DICTIONARYVAR
  5
3B72
102
{ACAD_REACTORS
330
3B71
102
}
330
3B71
100
DictionaryVariables
280
     0
  1
1
  0
DICTIONARYVAR
  5
3BC6
102
{ACAD_REACTORS
330
3B71
102
}
330
3B71
100
DictionaryVariables
280
     0
  1
0
  0
DICTIONARYVAR
  5
3B73
102
{ACAD_REACTORS
330
3B71
102
}
330
3B71
100
DictionaryVariables
280
     0
  1

  0
DICTIONARYVAR
  5
3BC5
102
{ACAD_REACTORS
330
3B71
102
}
330
3B71
100
DictionaryVariables
280
     0
  1
127
  0
DICTIONARY
  5
3BC8
330
1F
100
AcDbDictionary
280
     1
281
     1
  3
ACAD_XREC_ROUNDTRIP
360
3BC9
  0
DICTIONARY
  5
3BCA
330
23
100
AcDbDictionary
280
     1
281
     1
  3
ACAD_XREC_ROUNDTRIP
360
3BCB
  0
DICTIONARY
  5
3BCE
330
3B9D
100
AcDbDictionary
280
     1
281
     1
  3
ACAD_XREC_ROUNDTRIP
360
3BCF
  0
DICTIONARY
  5
3BCC
330
3B9C
100
AcDbDictionary
280
     1
281
     1
  3
ACAD_XREC_ROUNDTRIP
360
3BCD
  0
DICTIONARY
  5
3BD0
330
3B9E
100
AcDbDictionary
280
     1
281
     1
  3
ACAD_XREC_ROUNDTRIP
360
3BD1
  0
DICTIONARY
  5
3BD2
330
3BB1
100
AcDbDictionary
280
     1
281
     1
  3
ACAD_XREC_ROUNDTRIP
360
3BD3
  0
XRECORD
  5
3BC9
102
{ACAD_REACTORS
330
3BC8
102
}
330
3BC8
100
AcDbXrecord
280
     1
102
SHADEPLOT
 70
     0
102
SHADEPLOTRESLEVEL
 70
     2
102
SHADEPLOTCUSTOMDPI
 70
   300
  0
XRECORD
  5
3BCB
102
{ACAD_REACTORS
330
3BCA
102
}
330
3BCA
100
AcDbXrecord
280
     1
102
SHADEPLOT
 70
     0
102
SHADEPLOTRESLEVEL
 70
     2
102
SHADEPLOTCUSTOMDPI
 70
   300
  0
XRECORD
  5
3BCF
102
{ACAD_REACTORS
330
3BCE
102
}
330
3BCE
100
AcDbXrecord
280
     1
102
MATERIAL
148
0.0
149
0.0
149
0.0
 93
        0
 94
       63
282
     0
 72
     1
 77
     1
171
     1
175
     1
179
     1
273
     0
  0
XRECORD
  5
3BCD
102
{ACAD_REACTORS
330
3BCC
102
}
330
3BCC
100
AcDbXrecord
280
     1
102
MATERIAL
148
0.0
149
0.0
149
0.0
 93
        0
 94
       63
282
     0
 72
     1
 77
     1
171
     1
175
     1
179
     1
273
     0
  0
XRECORD
  5
3BD1
102
{ACAD_REACTORS
330
3BD0
102
}
330
3BD0
100
AcDbXrecord
280
     1
102
MATERIAL
148
0.0
149
0.0
149
0.0
 93
        0
 94
       63
282
     0
 72
     1
 77
     1
171
     1
175
     1
179
     1
273
     0
  0
XRECORD
  5
3BD3
102
{ACAD_REACTORS
330
3BD2
102
}
330
3BD2
100
AcDbXrecord
280
     1
102
ACAD_ROUNDTRIP_PRE2007_TABLESTYLE
 90
      512
 91
        0
  1

 92
      512
 93
        0
  2

 94
      512
 95
        0
  3

  0
ENDSEC
  0
EOF
