  0
SECTION
  2
HEADER
  9
$ACADVER
  1
AC1015
  9
$ACADMAINTVER
 70
    20
  9
$DWGCODEPAGE
  3
ANSI_1252
  9
$INSBASE
 10
0.0
 20
0.0
 30
0.0
  9
$EXTMIN
 10
-0.075
 20
-0.075
 30
0.0
  9
$EXTMAX
 10
34.07500000000001
 20
22.075
 30
0.0
  9
$LIMMIN
 10
0.0
 20
0.0
  9
$LIMMAX
 10
12.0
 20
9.0
  9
$ORTHOMODE
 70
     0
  9
$REGENMODE
 70
     1
  9
$FILLMODE
 70
     1
  9
$QTEXTMODE
 70
     0
  9
$MIRRTEXT
 70
     1
  9
$LTSCALE
 40
1.0
  9
$ATTMODE
 70
     1
  9
$TEXTSIZE
 40
0.125
  9
$TRACEWID
 40
0.05
  9
$TEXTSTYLE
  7
STANDARD
  9
$CLAYER
  8
0
  9
$CELTYPE
  6
BYLAYER
  9
$CECOLOR
 62
   256
  9
$CELTSCALE
 40
1.0
  9
$DISPSILH
 70
     0
  9
$DIMSCALE
 40
1.0
  9
$DIMASZ
 40
0.125
  9
$DIMEXO
 40
0.0625
  9
$DIMDLI
 40
0.38
  9
$DIMRND
 40
0.0
  9
$DIMDLE
 40
0.0
  9
$DIMEXE
 40
0.125
  9
$DIMTP
 40
0.0
  9
$DIMTM
 40
0.0
  9
$DIMTXT
 40
0.09
  9
$DIMCEN
 40
0.09
  9
$DIMTSZ
 40
0.0
  9
$DIMTOL
 70
     0
  9
$DIMLIM
 70
     0
  9
$DIMTIH
 70
     1
  9
$DIMTOH
 70
     1
  9
$DIMSE1
 70
     0
  9
$DIMSE2
 70
     0
  9
$DIMTAD
 70
     0
  9
$DIMZIN
 70
     0
  9
$DIMBLK
  1

  9
$DIMASO
 70
     1
  9
$DIMSHO
 70
     1
  9
$DIMPOST
  1

  9
$DIMAPOST
  1
mm
  9
$DIMALT
 70
     1
  9
$DIMALTD
 70
     1
  9
$DIMALTF
 40
25.4
  9
$DIMLFAC
 40
1.0
  9
$DIMTOFL
 70
     0
  9
$DIMTVP
 40
0.0
  9
$DIMTIX
 70
     0
  9
$DIMSOXD
 70
     0
  9
$DIMSAH
 70
     0
  9
$DIMBLK1
  1

  9
$DIMBLK2
  1

  9
$DIMSTYLE
  2
STANDARD
  9
$DIMCLRD
 70
     0
  9
$DIMCLRE
 70
     0
  9
$DIMCLRT
 70
     0
  9
$DIMTFAC
 40
1.0
  9
$DIMGAP
 40
0.09
  9
$DIMJUST
 70
     0
  9
$DIMSD1
 70
     0
  9
$DIMSD2
 70
     0
  9
$DIMTOLJ
 70
     1
  9
$DIMTZIN
 70
     0
  9
$DIMALTZ
 70
     0
  9
$DIMALTTZ
 70
     0
  9
$DIMUPT
 70
     0
  9
$DIMDEC
 70
     2
  9
$DIMTDEC
 70
     2
  9
$DIMALTU
 70
     2
  9
$DIMALTTD
 70
     1
  9
$DIMTXSTY
  7
STANDARD
  9
$DIMAUNIT
 70
     0
  9
$DIMADEC
 70
     0
  9
$DIMALTRND
 40
0.0
  9
$DIMAZIN
 70
     0
  9
$DIMDSEP
 70
    46
  9
$DIMATFIT
 70
     3
  9
$DIMFRAC
 70
     0
  9
$DIMLDRBLK
  1

  9
$DIMLUNIT
 70
     2
  9
$DIMLWD
 70
    -2
  9
$DIMLWE
 70
    -2
  9
$DIMTMOVE
 70
     0
  9
$LUNITS
 70
     2
  9
$LUPREC
 70
     2
  9
$SKETCHINC
 40
0.1
  9
$FILLETRAD
 40
0.5
  9
$AUNITS
 70
     0
  9
$AUPREC
 70
     0
  9
$MENU
  1
.
  9
$ELEVATION
 40
0.0
  9
$PELEVATION
 40
0.0
  9
$THICKNESS
 40
0.0
  9
$LIMCHECK
 70
     0
  9
$CHAMFERA
 40
0.5
  9
$CHAMFERB
 40
0.5
  9
$CHAMFERC
 40
1.0
  9
$CHAMFERD
 40
0.0
  9
$SKPOLY
 70
     0
  9
$TDCREATE
 40
2451681.555436007
  9
$TDUCREATE
 40
2451681.763769340
  9
$TDUPDATE
 40
2454294.610419224
  9
$TDUUPDATE
 40
2454294.818752558
  9
$TDINDWG
 40
0.2078406019
  9
$TDUSRTIMER
 40
0.2078406019
  9
$USRTIMER
 70
     1
  9
$ANGBASE
 50
0.0
  9
$ANGDIR
 70
     0
  9
$PDMODE
 70
     2
  9
$PDSIZE
 40
0.075
  9
$PLINEWID
 40
0.0
  9
$SPLFRAME
 70
     0
  9
$SPLINETYPE
 70
     6
  9
$SPLINESEGS
 70
     8
  9
$HANDSEED
  5
8D3
  9
$SURFTAB1
 70
     6
  9
$SURFTAB2
 70
     6
  9
$SURFTYPE
 70
     6
  9
$SURFU
 70
     6
  9
$SURFV
 70
     6
  9
$UCSBASE
  2

  9
$UCSNAME
  2

  9
$UCSORG
 10
0.0
 20
0.0
 30
0.0
  9
$UCSXDIR
 10
1.0
 20
0.0
 30
0.0
  9
$UCSYDIR
 10
0.0
 20
1.0
 30
0.0
  9
$UCSORTHOREF
  2

  9
$UCSORTHOVIEW
 70
     0
  9
$UCSORGTOP
 10
0.0
 20
0.0
 30
0.0
  9
$UCSORGBOTTOM
 10
0.0
 20
0.0
 30
0.0
  9
$UCSORGLEFT
 10
0.0
 20
0.0
 30
0.0
  9
$UCSORGRIGHT
 10
0.0
 20
0.0
 30
0.0
  9
$UCSORGFRONT
 10
0.0
 20
0.0
 30
0.0
  9
$UCSORGBACK
 10
0.0
 20
0.0
 30
0.0
  9
$PUCSBASE
  2

  9
$PUCSNAME
  2

  9
$PUCSORG
 10
0.0
 20
0.0
 30
0.0
  9
$PUCSXDIR
 10
1.0
 20
0.0
 30
0.0
  9
$PUCSYDIR
 10
0.0
 20
1.0
 30
0.0
  9
$PUCSORTHOREF
  2

  9
$PUCSORTHOVIEW
 70
     0
  9
$PUCSORGTOP
 10
0.0
 20
0.0
 30
0.0
  9
$PUCSORGBOTTOM
 10
0.0
 20
0.0
 30
0.0
  9
$PUCSORGLEFT
 10
0.0
 20
0.0
 30
0.0
  9
$PUCSORGRIGHT
 10
0.0
 20
0.0
 30
0.0
  9
$PUCSORGFRONT
 10
0.0
 20
0.0
 30
0.0
  9
$PUCSORGBACK
 10
0.0
 20
0.0
 30
0.0
  9
$USERI1
 70
     0
  9
$USERI2
 70
     0
  9
$USERI3
 70
     0
  9
$USERI4
 70
     0
  9
$USERI5
 70
     0
  9
$USERR1
 40
0.0
  9
$USERR2
 40
0.0
  9
$USERR3
 40
0.0
  9
$USERR4
 40
0.0
  9
$USERR5
 40
0.0
  9
$WORLDVIEW
 70
     1
  9
$SHADEDGE
 70
     3
  9
$SHADEDIF
 70
    70
  9
$TILEMODE
 70
     1
  9
$MAXACTVP
 70
    48
  9
$PINSBASE
 10
0.0
 20
0.0
 30
0.0
  9
$PLIMCHECK
 70
     0
  9
$PEXTMIN
 10
1.000000000000000E+20
 20
1.000000000000000E+20
 30
1.000000000000000E+20
  9
$PEXTMAX
 10
-1.000000000000000E+20
 20
-1.000000000000000E+20
 30
-1.000000000000000E+20
  9
$PLIMMIN
 10
0.0
 20
0.0
  9
$PLIMMAX
 10
12.0
 20
9.0
  9
$UNITMODE
 70
     0
  9
$VISRETAIN
 70
     1
  9
$PLINEGEN
 70
     0
  9
$PSLTSCALE
 70
     1
  9
$TREEDEPTH
 70
  3020
  9
$CMLSTYLE
  2
STANDARD
  9
$CMLJUST
 70
     0
  9
$CMLSCALE
 40
1.0
  9
$PROXYGRAPHICS
 70
     1
  9
$MEASUREMENT
 70
     0
  9
$CELWEIGHT
370
    -1
  9
$ENDCAPS
280
     0
  9
$JOINSTYLE
280
     0
  9
$LWDISPLAY
290
     0
  9
$INSUNITS
 70
     0
  9
$HYPERLINKBASE
  1

  9
$STYLESHEET
  1

  9
$XEDIT
290
     1
  9
$CEPSNTYPE
380
     0
  9
$PSTYLEMODE
290
     1
  9
$FINGERPRINTGUID
  2
{86812B9D-AB26-409B-B573-6F1750BA61C7}
  9
$VERSIONGUID
  2
{D59C7F28-3279-4B46-A690-446F5061060D}
  9
$EXTNAMES
290
     1
  9
$PSVPSCALE
 40
0.0
  9
$OLESTARTUP
290
     0
  0
ENDSEC
  0
SECTION
  2
CLASSES
  0
CLASS
  1
ACDBDICTIONARYWDFLT
  2
AcDbDictionaryWithDefault
  3
ObjectDBX Classes
 90
        0
280
     0
281
     0
  0
CLASS
  1
TABLESTYLE
  2
AcDbTableStyle
  3
ObjectDBX Classes
 90
     2047
280
     0
281
     0
  0
CLASS
  1
DICTIONARYVAR
  2
AcDbDictionaryVar
  3
ObjectDBX Classes
 90
        0
280
     0
281
     0
  0
CLASS
  1
ACDBPLACEHOLDER
  2
AcDbPlaceHolder
  3
ObjectDBX Classes
 90
        0
280
     0
281
     0
  0
CLASS
  1
LAYOUT
  2
AcDbLayout
  3
ObjectDBX Classes
 90
        0
280
     0
281
     0
  0
ENDSEC
  0
SECTION
  2
TABLES
  0
TABLE
  2
VPORT
  5
8
330
0
100
AcDbSymbolTable
 70
     2
  0
VPORT
  5
8CD
330
8
100
AcDbSymbolTableRecord
100
AcDbViewportTableRecord
  2
*Active
 70
     0
 10
0.0
 20
0.0
 11
1.0
 21
1.0
 12
17.00000031806364
 22
11.77997798094345
 13
0.0
 23
0.0
 14
0.5
 24
0.5
 15
0.5
 25
0.5
 16
0.0
 26
0.0
 36
1.0
 17
0.0
 27
0.0
 37
0.0
 40
23.85398349657553
 41
1.499364675984752
 42
50.0
 43
0.0
 44
0.0
 50
0.0
 51
0.0
 71
     0
 72
   100
 73
     1
 74
     1
 75
     0
 76
     0
 77
     0
 78
     0
281
     0
 65
     1
110
0.0
120
0.0
130
0.0
111
1.0
121
0.0
131
0.0
112
0.0
122
1.0
132
0.0
 79
     0
146
0.0
  0
ENDTAB
  0
TABLE
  2
LTYPE
  5
5
330
0
100
AcDbSymbolTable
 70
     1
  0
LTYPE
  5
12
330
5
100
AcDbSymbolTableRecord
100
AcDbLinetypeTableRecord
  2
BYBLOCK
 70
     0
  3

 72
    65
 73
     0
 40
0.0
  0
LTYPE
  5
13
330
5
100
AcDbSymbolTableRecord
100
AcDbLinetypeTableRecord
  2
BYLAYER
 70
     0
  3

 72
    65
 73
     0
 40
0.0
  0
LTYPE
  5
14
330
5
100
AcDbSymbolTableRecord
100
AcDbLinetypeTableRecord
  2
CONTINUOUS
 70
     0
  3
Solid line
 72
    65
 73
     0
 40
0.0
  0
ENDTAB
  0
TABLE
  2
LAYER
  5
2
102
{ACAD_XDICTIONARY
360
16C
102
}
330
0
100
AcDbSymbolTable
 70
     6
  0
LAYER
  5
E
330
2
100
AcDbSymbolTableRecord
100
AcDbLayerTableRecord
  2
0
 70
     0
 62
     7
  6
CONTINUOUS
370
    -3
390
124
  0
LAYER
  5
20
330
2
100
AcDbSymbolTableRecord
100
AcDbLayerTableRecord
  2
Title Block
 70
     0
 62
     3
  6
CONTINUOUS
370
    -3
390
124
  0
LAYER
  5
21
330
2
100
AcDbSymbolTableRecord
100
AcDbLayerTableRecord
  2
Dimension
 70
     0
 62
     6
  6
CONTINUOUS
370
    -3
390
124
  0
LAYER
  5
22
330
2
100
AcDbSymbolTableRecord
100
AcDbLayerTableRecord
  2
Text
 70
     0
 62
     1
  6
CONTINUOUS
370
    -3
390
124
  0
LAYER
  5
23
330
2
100
AcDbSymbolTableRecord
100
AcDbLayerTableRecord
  2
Object
 70
     0
 62
     5
  6
CONTINUOUS
370
    -3
390
124
  0
LAYER
  5
197
330
2
100
AcDbSymbolTableRecord
100
AcDbLayerTableRecord
  2
Defpoints
 70
     0
 62
     7
  6
CONTINUOUS
290
     0
370
    -3
390
124
  0
ENDTAB
  0
TABLE
  2
STYLE
  5
3
330
0
100
AcDbSymbolTable
 70
     1
  0
STYLE
  5
F
330
3
100
AcDbSymbolTableRecord
100
AcDbTextStyleTableRecord
  2
STANDARD
 70
     0
 40
0.0
 41
1.0
 50
0.0
 71
     0
 42
0.125
  3
technic_.ttf
  4

1001
ACAD
1000
Technic
1071
      514
  0
ENDTAB
  0
TABLE
  2
VIEW
  5
6
330
0
100
AcDbSymbolTable
 70
     0
  0
ENDTAB
  0
TABLE
  2
UCS
  5
7
330
0
100
AcDbSymbolTable
 70
     0
  0
ENDTAB
  0
TABLE
  2
APPID
  5
9
330
0
100
AcDbSymbolTable
 70
     4
  0
APPID
  5
10
330
9
100
AcDbSymbolTableRecord
100
AcDbRegAppTableRecord
  2
ACAD
 70
     0
  0
APPID
  5
161
330
9
100
AcDbSymbolTableRecord
100
AcDbRegAppTableRecord
  2
DCO15
 70
     0
  0
APPID
  5
16B
330
9
100
AcDbSymbolTableRecord
100
AcDbRegAppTableRecord
  2
AcAecLayerStandard
 70
     0
  0
APPID
  5
1C7
330
9
100
AcDbSymbolTableRecord
100
AcDbRegAppTableRecord
  2
ACAD_DSTYLE_DIMTEXT_FILL
 70
     0
  0
ENDTAB
  0
TABLE
  2
DIMSTYLE
  5
A
330
0
100
AcDbSymbolTable
 70
     1
100
AcDbDimStyleTable
 71
     1
340
1D
  0
DIMSTYLE
105
1D
102
{ACAD_REACTORS
330
893
330
8A1
330
8AF
102
}
330
A
100
AcDbSymbolTableRecord
100
AcDbDimStyleTableRecord
  2
STANDARD
 70
     0
  4
mm
 41
0.125
 44
0.125
140
0.09
170
     1
171
     1
271
     2
272
     2
274
     1
340
F
  0
ENDTAB
  0
TABLE
  2
BLOCK_RECORD
  5
1
330
0
100
AcDbSymbolTable
 70
     3
  0
BLOCK_RECORD
  5
18
330
1
100
AcDbSymbolTableRecord
100
AcDbBlockTableRecord
  2
*MODEL_SPACE
340
12B
  0
BLOCK_RECORD
  5
15
330
1
100
AcDbSymbolTableRecord
100
AcDbBlockTableRecord
  2
*PAPER_SPACE
340
12C
  0
BLOCK_RECORD
  5
894
330
1
100
AcDbSymbolTableRecord
100
AcDbBlockTableRecord
  2
*D0
340
0
  0
BLOCK_RECORD
  5
8A2
330
1
100
AcDbSymbolTableRecord
100
AcDbBlockTableRecord
  2
*D1
340
0
  0
BLOCK_RECORD
  5
8B0
330
1
100
AcDbSymbolTableRecord
100
AcDbBlockTableRecord
  2
*D2
340
0
  0
ENDTAB
  0
ENDSEC
  0
SECTION
  2
BLOCKS
  0
BLOCK
  5
19
330
18
100
AcDbEntity
  8
0
100
AcDbBlockBegin
  2
*MODEL_SPACE
 70
     0
 10
0.0
 20
0.0
 30
0.0
  3
*MODEL_SPACE
  1

  0
ENDBLK
  5
1A
330
18
100
AcDbEntity
  8
0
100
AcDbBlockEnd
  0
BLOCK
  5
16
330
15
100
AcDbEntity
 67
     1
  8
0
100
AcDbBlockBegin
  2
*PAPER_SPACE
 70
     0
 10
0.0
 20
0.0
 30
0.0
  3
*PAPER_SPACE
  1

  0
ENDBLK
  5
17
330
15
100
AcDbEntity
 67
     1
  8
0
100
AcDbBlockEnd
  0
BLOCK
  5
89F
330
894
100
AcDbEntity
  8
0
100
AcDbBlockBegin
  2
*D0
 70
     1
 10
0.0
 20
0.0
 30
0.0
  3
*D0
  1

  0
LINE
  5
895
330
894
100
AcDbEntity
  8
Dimension
 62
     0
370
    -2
100
AcDbLine
 10
4.358888888888889
 20
9.213611111111111
 30
0.0
 11
4.358888888888889
 21
11.62854169707319
 31
0.0
  0
LINE
  5
896
330
894
100
AcDbEntity
  8
Dimension
 62
     0
370
    -2
100
AcDbLine
 10
18.15222222222222
 20
9.213611111111111
 30
0.0
 11
18.15222222222222
 21
11.62854169707319
 31
0.0
  0
LINE
  5
897
330
894
100
AcDbEntity
  8
Dimension
 62
     0
370
    -2
100
AcDbLine
 10
4.483888888888889
 20
11.50354169707319
 30
0.0
 11
10.69871345029239
 21
11.50354169707319
 31
0.0
  0
LINE
  5
898
330
894
100
AcDbEntity
  8
Dimension
 62
     0
370
    -2
100
AcDbLine
 10
18.02722222222222
 20
11.50354169707319
 30
0.0
 11
11.81239766081871
 21
11.50354169707319
 31
0.0
  0
SOLID
  5
899
330
894
100
AcDbEntity
  8
Dimension
 62
     0
100
AcDbTrace
 10
4.483888888888889
 20
11.52437503040652
 30
0.0
 11
4.483888888888889
 21
11.48270836373985
 31
0.0
 12
4.358888888888889
 22
11.50354169707319
 32
0.0
 13
4.358888888888889
 23
11.50354169707319
 33
0.0
  0
SOLID
  5
89A
330
894
100
AcDbEntity
  8
Dimension
 62
     0
100
AcDbTrace
 10
18.02722222222222
 20
11.52437503040652
 30
0.0
 11
18.02722222222222
 21
11.48270836373985
 31
0.0
 12
18.15222222222222
 22
11.50354169707319
 32
0.0
 13
18.15222222222222
 23
11.50354169707319
 33
0.0
  0
MTEXT
  5
89B
330
894
100
AcDbEntity
  8
Dimension
 62
     0
100
AcDbMText
 10
11.25555555555555
 20
11.50354169707319
 30
0.0
 40
0.09
 41
0.0
 71
     5
 72
     1
  1
\A1;13.79 [350.4mm]
 73
     1
 44
1.0
1001
ACAD
1000
MTEXTBEGIN
1070
    73
1070
     1
1070
    44
1040
1.0
1070
    74
1070
     0
1000
MTEXTEND
  0
POINT
  5
89C
330
894
100
AcDbEntity
  8
Defpoints
 62
     0
100
AcDbPoint
 10
4.358888888888889
 20
9.151111111111111
 30
0.0
  0
POINT
  5
89D
330
894
100
AcDbEntity
  8
Defpoints
 62
     0
100
AcDbPoint
 10
18.15222222222222
 20
9.151111111111111
 30
0.0
  0
POINT
  5
89E
330
894
100
AcDbEntity
  8
Defpoints
 62
     0
100
AcDbPoint
 10
18.15222222222222
 20
11.50354169707319
 30
0.0
  0
ENDBLK
  5
8A0
330
894
100
AcDbEntity
  8
0
100
AcDbBlockEnd
  0
BLOCK
  5
8AD
330
8A2
100
AcDbEntity
  8
0
100
AcDbBlockBegin
  2
*D1
 70
     1
 10
0.0
 20
0.0
 30
0.0
  3
*D1
  1

  0
LINE
  5
8A3
330
8A2
100
AcDbEntity
  8
Dimension
 62
     0
370
    -2
100
AcDbLine
 10
27.51972222222222
 20
10.24444444444444
 30
0.0
 11
26.36969749517582
 21
10.24444444444444
 31
0.0
  0
LINE
  5
8A4
330
8A2
100
AcDbEntity
  8
Dimension
 62
     0
370
    -2
100
AcDbLine
 10
27.53527777777778
 20
4.959999999999999
 30
0.0
 11
26.36969749517581
 21
4.959999999999999
 31
0.0
  0
LINE
  5
8A5
330
8A2
100
AcDbEntity
  8
Dimension
 62
     0
370
    -2
100
AcDbLine
 10
26.49469749517582
 20
10.11944444444444
 30
0.0
 11
26.49469749517582
 21
7.755248538011694
 31
0.0
  0
LINE
  5
8A6
330
8A2
100
AcDbEntity
  8
Dimension
 62
     0
370
    -2
100
AcDbLine
 10
26.49469749517582
 20
5.084999999999999
 30
0.0
 11
26.49469749517582
 21
7.449195906432747
 31
0.0
  0
SOLID
  5
8A7
330
8A2
100
AcDbEntity
  8
Dimension
 62
     0
100
AcDbTrace
 10
26.47386416184249
 20
10.11944444444444
 30
0.0
 11
26.51553082850915
 21
10.11944444444444
 31
0.0
 12
26.49469749517582
 22
10.24444444444444
 32
0.0
 13
26.49469749517582
 23
10.24444444444444
 33
0.0
  0
SOLID
  5
8A8
330
8A2
100
AcDbEntity
  8
Dimension
 62
     0
100
AcDbTrace
 10
26.47386416184248
 20
5.084999999999999
 30
0.0
 11
26.51553082850915
 21
5.084999999999999
 31
0.0
 12
26.49469749517582
 22
4.959999999999999
 32
0.0
 13
26.49469749517582
 23
4.959999999999999
 33
0.0
  0
MTEXT
  5
8A9
330
8A2
100
AcDbEntity
  8
Dimension
 62
     0
100
AcDbMText
 10
26.49469749517582
 20
7.602222222222225
 30
0.0
 40
0.09
 41
0.0
 71
     5
 72
     1
  1
\A1;5.28 [134.2mm]
 73
     1
 44
1.0
1001
ACAD
1000
MTEXTBEGIN
1070
    73
1070
     1
1070
    44
1040
1.0
1070
    74
1070
     0
1000
MTEXTEND
  0
POINT
  5
8AA
330
8A2
100
AcDbEntity
  8
Defpoints
 62
     0
100
AcDbPoint
 10
27.58222222222222
 20
10.24444444444444
 30
0.0
  0
POINT
  5
8AB
330
8A2
100
AcDbEntity
  8
Defpoints
 62
     0
100
AcDbPoint
 10
27.59777777777778
 20
4.959999999999999
 30
0.0
  0
POINT
  5
8AC
330
8A2
100
AcDbEntity
  8
Defpoints
 62
     0
100
AcDbPoint
 10
26.49469749517582
 20
4.959999999999999
 30
0.0
  0
ENDBLK
  5
8AE
330
8A2
100
AcDbEntity
  8
0
100
AcDbBlockEnd
  0
BLOCK
  5
8BB
330
8B0
100
AcDbEntity
  8
0
100
AcDbBlockBegin
  2
*D2
 70
     1
 10
0.0
 20
0.0
 30
0.0
  3
*D2
  1

  0
LINE
  5
8B1
330
8B0
100
AcDbEntity
  8
Dimension
 62
     0
370
    -2
100
AcDbLine
 10
18.1625
 20
16.63333333333333
 30
0.0
 11
19.67971035681982
 21
16.63333333333333
 31
0.0
  0
LINE
  5
8B2
330
8B0
100
AcDbEntity
  8
Dimension
 62
     0
370
    -2
100
AcDbLine
 10
18.14027777777778
 20
17.57
 30
0.0
 11
19.67971035681982
 21
17.57
 31
0.0
  0
LINE
  5
8B3
330
8B0
100
AcDbEntity
  8
Dimension
 62
     0
370
    -2
100
AcDbLine
 10
19.55471035681982
 20
16.75833333333333
 30
0.0
 11
19.55471035681982
 21
16.94864035087719
 31
0.0
  0
LINE
  5
8B4
330
8B0
100
AcDbEntity
  8
Dimension
 62
     0
370
    -2
100
AcDbLine
 10
19.55471035681982
 20
17.445
 30
0.0
 11
19.55471035681982
 21
17.25469298245614
 31
0.0
  0
SOLID
  5
8B5
330
8B0
100
AcDbEntity
  8
Dimension
 62
     0
100
AcDbTrace
 10
19.53387702348649
 20
16.75833333333333
 30
0.0
 11
19.57554369015316
 21
16.75833333333333
 31
0.0
 12
19.55471035681982
 22
16.63333333333333
 32
0.0
 13
19.55471035681982
 23
16.63333333333333
 33
0.0
  0
SOLID
  5
8B6
330
8B0
100
AcDbEntity
  8
Dimension
 62
     0
100
AcDbTrace
 10
19.53387702348649
 20
17.445
 30
0.0
 11
19.57554369015316
 21
17.445
 31
0.0
 12
19.55471035681982
 22
17.57
 32
0.0
 13
19.55471035681982
 23
17.57
 33
0.0
  0
MTEXT
  5
8B7
330
8B0
100
AcDbEntity
  8
Dimension
 62
     0
100
AcDbMText
 10
19.55471035681982
 20
17.10166666666667
 30
0.0
 40
0.09
 41
0.0
 71
     5
 72
     1
  1
\A1;0.94 [23.8mm]
 73
     1
 44
1.0
1001
ACAD
1000
MTEXTBEGIN
1070
    73
1070
     1
1070
    44
1040
1.0
1070
    74
1070
     0
1000
MTEXTEND
  0
POINT
  5
8B8
330
8B0
100
AcDbEntity
  8
Defpoints
 62
     0
100
AcDbPoint
 10
18.1
 20
16.63333333333333
 30
0.0
  0
POINT
  5
8B9
330
8B0
100
AcDbEntity
  8
Defpoints
 62
     0
100
AcDbPoint
 10
18.07777777777778
 20
17.57
 30
0.0
  0
POINT
  5
8BA
330
8B0
100
AcDbEntity
  8
Defpoints
 62
     0
100
AcDbPoint
 10
19.55471035681982
 20
17.57
 30
0.0
  0
ENDBLK
  5
8BC
330
8B0
100
AcDbEntity
  8
0
100
AcDbBlockEnd
  0
ENDSEC
  0
SECTION
  2
ENTITIES
  0
TEXT
  5
51
330
18
100
AcDbEntity
  8
Title Block
100
AcDbText
 10
29.77669501265554
 20
2.672489851525508
 30
0.0
 40
0.05
  1
FILENAME:
100
AcDbText
  0
TEXT
  5
52
330
18
100
AcDbEntity
  8
Title Block
100
AcDbText
 10
29.76928502872825
 20
2.076224967549325
 30
0.0
 40
0.35
  1
PANDUIT
100
AcDbText
  0
TEXT
  5
53
330
18
100
AcDbEntity
  8
Title Block
100
AcDbText
 10
31.72182039882138
 20
2.061410940562986
 30
0.0
 40
0.125
  1
CORP. TINLEY PARK, IL
100
AcDbText
  0
TEXT
  5
54
330
18
100
AcDbEntity
  8
Title Block
100
AcDbText
 10
29.78039997670861
 20
1.91697409709392
 30
0.0
 40
0.05
  1
TITLE:
100
AcDbText
  0
MTEXT
  5
57
330
18
100
AcDbEntity
  8
Title Block
100
AcDbMText
 10
31.0
 20
1.372215793536348
 30
0.0
 40
0.075
 41
2.5
 71
     5
 72
     5
  1
UNLESS OTHERWISE SPECIFIED,\PDIMENSIONAL TOLERANCES ARE:       
 73
     1
 44
1.0
1001
ACAD
1000
MTEXTBEGIN
1070
    73
1070
     1
1070
    44
1040
1.0
1070
    74
1070
     0
1000
MTEXTEND
  0
MTEXT
  5
58
330
18
100
AcDbEntity
  8
Title Block
100
AcDbMText
 10
30.39237986661002
 20
1.131487708483632
 30
0.0
 40
0.075
 41
2.5
 71
     5
 72
     5
  1
(.X)\P(.XX)
 73
     1
 44
1.0
1001
ACAD
1000
MTEXTBEGIN
1070
    73
1070
     1
1070
    44
1040
1.0
1070
    74
1070
     0
1000
MTEXTEND
  0
MTEXT
  5
59
330
18
100
AcDbEntity
  8
Title Block
100
AcDbMText
 10
31.40014005312412
 20
1.131487708483632
 30
0.0
 40
0.075
 41
2.5
 71
     5
 72
     5
  1
(.XXX)\PANGLES:
 73
     1
 44
1.0
1001
ACAD
1000
MTEXTBEGIN
1070
    73
1070
     1
1070
    44
1040
1.0
1070
    74
1070
     0
1000
MTEXTEND
  0
MTEXT
  5
5A
330
18
100
AcDbEntity
  8
Title Block
100
AcDbMText
 10
33.0
 20
1.25
 30
0.0
 40
0.06
 41
1.5
 71
     5
 72
     5
  1
UNLESS OTHERWISE SPECIFIED,\PALL DIMENSIONS ARE GIVEN IN INCHES, THIRD ANGLE PROJECTION
 73
     1
 44
1.0
1001
ACAD
1000
MTEXTBEGIN
1070
    73
1070
     1
1070
    44
1040
1.0
1070
    74
1070
     0
1000
MTEXTEND
  0
TEXT
  5
5E
330
18
100
AcDbEntity
  8
Title Block
100
AcDbText
 10
29.76076445430619
 20
0.9281373372752312
 30
0.0
 40
0.05
  1
DRAWN BY:
100
AcDbText
  0
TEXT
  5
5F
330
18
100
AcDbEntity
  8
Title Block
100
AcDbText
 10
29.76446947418043
 20
0.6811431865635028
 30
0.0
 40
0.05
  1
DATE:
100
AcDbText
  0
TEXT
  5
60
330
18
100
AcDbEntity
  8
Title Block
100
AcDbText
 10
29.7681744382335
 20
0.4304455338317968
 30
0.0
 40
0.05
  1
CHECKED BY:
100
AcDbText
  0
TEXT
  5
62
330
18
100
AcDbEntity
  8
Title Block
100
AcDbText
 10
30.52028959313306
 20
0.9281373372752312
 30
0.0
 40
0.05
  1
MATERIAL:
100
AcDbText
  0
TEXT
  5
63
330
18
100
AcDbEntity
  8
Title Block
100
AcDbText
 10
32.26534493878154
 20
0.9281373372752312
 30
0.0
 40
0.05
  1
SCALE:
100
AcDbText
  0
TEXT
  5
64
330
18
100
AcDbEntity
  8
Title Block
100
AcDbText
 10
32.26534493878154
 20
0.6725952630490007
 30
0.0
 40
0.05
  1
DRAWING NUMBER:
100
AcDbText
  0
TEXT
  5
65
330
18
100
AcDbEntity
  8
Title Block
100
AcDbText
 10
33.34942622928998
 20
0.6762987650689816
 30
0.0
 40
0.05
  1
DRAWING
100
AcDbText
  0
TEXT
  5
66
330
18
100
AcDbEntity
  8
Title Block
100
AcDbText
 10
33.42723125590085
 20
0.2811642688682026
 30
0.0
 40
0.05
  1
SIZE
100
AcDbText
  0
TEXT
  5
67
330
18
100
AcDbEntity
  8
Title Block
100
AcDbText
 10
33.4049339528984
 20
0.3826699445861052
 30
0.0
 40
0.25
  1
D
100
AcDbText
  0
MTEXT
  5
68
330
18
100
AcDbEntity
  8
Title Block
100
AcDbMText
 10
23.375
 20
0.375
 30
0.0
 40
0.05
 41
0.25
 71
     5
 72
     5
  1
REV
 73
     1
 44
1.0
1001
ACAD
1000
MTEXTBEGIN
1070
    73
1070
     1
1070
    44
1040
1.0
1070
    74
1070
     0
1000
MTEXTEND
  0
MTEXT
  5
69
330
18
100
AcDbEntity
  8
Title Block
100
AcDbMText
 10
23.75
 20
0.375
 30
0.0
 40
0.05
 41
0.5
 71
     5
 72
     5
  1
DATE
 73
     1
 44
1.0
1001
ACAD
1000
MTEXTBEGIN
1070
    73
1070
     1
1070
    44
1040
1.0
1070
    74
1070
     0
1000
MTEXTEND
  0
MTEXT
  5
6A
330
18
100
AcDbEntity
  8
Title Block
100
AcDbMText
 10
24.19
 20
0.375
 30
0.0
 40
0.05
 41
0.38
 71
     5
 72
     5
  1
BY
 73
     1
 44
1.0
1001
ACAD
1000
MTEXTBEGIN
1070
    73
1070
     1
1070
    44
1040
1.0
1070
    74
1070
     0
1000
MTEXTEND
  0
MTEXT
  5
6B
330
18
100
AcDbEntity
  8
Title Block
100
AcDbMText
 10
24.565
 20
0.375
 30
0.0
 40
0.05
 41
0.38
 71
     5
 72
     5
  1
CHK
 73
     1
 44
1.0
1001
ACAD
1000
MTEXTBEGIN
1070
    73
1070
     1
1070
    44
1040
1.0
1070
    74
1070
     0
1000
MTEXTEND
  0
MTEXT
  5
6C
330
18
100
AcDbEntity
  8
Title Block
100
AcDbMText
 10
26.125
 20
0.375
 30
0.0
 40
0.05
 41
2.75
 71
     5
 72
     5
  1
DESCRIPTION
 73
     1
 44
1.0
1001
ACAD
1000
MTEXTBEGIN
1070
    73
1070
     1
1070
    44
1040
1.0
1070
    74
1070
     0
1000
MTEXTEND
  0
MTEXT
  5
6D
330
18
100
AcDbEntity
  8
Title Block
100
AcDbMText
 10
28.065
 20
0.375
 30
0.0
 40
0.05
 41
1.129999999999999
 71
     5
 72
     5
  1
ECN   -   R
 73
     1
 44
1.0
1001
ACAD
1000
MTEXTBEGIN
1070
    73
1070
     1
1070
    44
1040
1.0
1070
    74
1070
     0
1000
MTEXTEND
  0
MTEXT
  5
6E
330
18
100
AcDbEntity
  8
Title Block
100
AcDbMText
 10
28.815
 20
0.375
 30
0.0
 40
0.05
 41
0.38
 71
     5
 72
     5
  1
CUST
 73
     1
 44
1.0
1001
ACAD
1000
MTEXTBEGIN
1070
    73
1070
     1
1070
    44
1040
1.0
1070
    74
1070
     0
1000
MTEXTEND
  0
MTEXT
  5
6F
330
18
100
AcDbEntity
  8
Title Block
100
AcDbMText
 10
29.19
 20
0.375
 30
0.0
 40
0.05
 41
0.38
 71
     5
 72
     5
  1
SUP
 73
     1
 44
1.0
1001
ACAD
1000
MTEXTBEGIN
1070
    73
1070
     1
1070
    44
1040
1.0
1070
    74
1070
     0
1000
MTEXTEND
  0
LINE
  5
A5
330
18
100
AcDbEntity
  8
Title Block
100
AcDbLine
 10
33.75
 20
2.749999999999999
 30
0.0
 11
23.25
 21
2.75
 31
0.0
  0
LINE
  5
A6
330
18
100
AcDbEntity
  8
Title Block
100
AcDbLine
 10
29.75
 20
2.75
 30
0.0
 11
29.75
 21
0.25
 31
0.0
  0
LINE
  5
A7
330
18
100
AcDbEntity
  8
Title Block
100
AcDbLine
 10
33.75
 20
2.499999999999999
 30
0.0
 11
23.25
 21
2.5
 31
0.0
  0
LINE
  5
A8
330
18
100
AcDbEntity
  8
Title Block
100
AcDbLine
 10
29.75
 20
2.25
 30
0.0
 11
23.25
 21
2.25
 31
0.0
  0
LINE
  5
A9
330
18
100
AcDbEntity
  8
Title Block
100
AcDbLine
 10
33.75
 20
1.999999999999999
 30
0.0
 11
23.25
 21
2.0
 31
0.0
  0
LINE
  5
AA
330
18
100
AcDbEntity
  8
Title Block
100
AcDbLine
 10
29.75
 20
1.75
 30
0.0
 11
23.25
 21
1.75
 31
0.0
  0
LINE
  5
AB
330
18
100
AcDbEntity
  8
Title Block
100
AcDbLine
 10
33.75
 20
1.499999999999999
 30
0.0
 11
23.25
 21
1.5
 31
0.0
  0
LINE
  5
AC
330
18
100
AcDbEntity
  8
Title Block
100
AcDbLine
 10
29.75
 20
1.25
 30
0.0
 11
23.25
 21
1.25
 31
0.0
  0
LINE
  5
AD
330
18
100
AcDbEntity
  8
Title Block
100
AcDbLine
 10
33.75
 20
0.9999999999999996
 30
0.0
 11
23.25
 21
1.0
 31
0.0
  0
LINE
  5
AE
330
18
100
AcDbEntity
  8
Title Block
100
AcDbLine
 10
30.5
 20
0.75
 30
0.0
 11
23.25
 21
0.7500000000000009
 31
0.0
  0
LINE
  5
AF
330
18
100
AcDbEntity
  8
Title Block
100
AcDbLine
 10
30.5
 20
0.5
 30
0.0
 11
23.25
 21
0.5000000000000009
 31
0.0
  0
LINE
  5
B6
330
18
100
AcDbEntity
  8
Title Block
100
AcDbLine
 10
23.25
 20
0.25
 30
0.0
 11
23.25
 21
2.75
 31
0.0
  0
LINE
  5
BC
330
18
100
AcDbEntity
  8
Title Block
100
AcDbLine
 10
23.5
 20
0.25
 30
0.0
 11
23.5
 21
2.750000000000001
 31
0.0
  0
LINE
  5
BD
330
18
100
AcDbEntity
  8
Title Block
100
AcDbLine
 10
24.0
 20
0.25
 30
0.0
 11
24.0
 21
2.750000000000001
 31
0.0
  0
LINE
  5
C0
330
18
100
AcDbEntity
  8
Title Block
100
AcDbLine
 10
24.375
 20
0.25
 30
0.0
 11
24.375
 21
2.750000000000001
 31
0.0
  0
LINE
  5
C1
330
18
100
AcDbEntity
  8
Title Block
100
AcDbLine
 10
24.75
 20
0.25
 30
0.0
 11
24.75
 21
2.750000000000001
 31
0.0
  0
LINE
  5
C2
330
18
100
AcDbEntity
  8
Title Block
100
AcDbLine
 10
29.375
 20
2.75
 30
0.0
 11
29.375
 21
0.25
 31
0.0
  0
LINE
  5
C3
330
18
100
AcDbEntity
  8
Title Block
100
AcDbLine
 10
29.0
 20
2.75
 30
0.0
 11
29.0
 21
0.25
 31
0.0
  0
LINE
  5
C4
330
18
100
AcDbEntity
  8
Title Block
100
AcDbLine
 10
28.625
 20
2.75
 30
0.0
 11
28.625
 21
0.25
 31
0.0
  0
LINE
  5
C5
330
18
100
AcDbEntity
  8
Title Block
100
AcDbLine
 10
28.25
 20
2.75
 30
0.0
 11
28.25
 21
0.5000000000000002
 31
0.0
  0
LINE
  5
C6
330
18
100
AcDbEntity
  8
Title Block
100
AcDbLine
 10
27.5
 20
2.75
 30
0.0
 11
27.5
 21
0.25
 31
0.0
  0
LINE
  5
C7
330
18
100
AcDbEntity
  8
Title Block
100
AcDbLine
 10
32.25
 20
0.75
 30
0.0
 11
32.25
 21
1.499999999999999
 31
0.0
  0
LINE
  5
C8
330
18
100
AcDbEntity
  8
Title Block
100
AcDbLine
 10
32.25
 20
0.75
 30
0.0
 11
32.25
 21
0.25
 31
0.0
  0
LINE
  5
C9
330
18
100
AcDbEntity
  8
Title Block
100
AcDbLine
 10
32.25
 20
0.75
 30
0.0
 11
33.75
 21
0.75
 31
0.0
  0
LINE
  5
CA
330
18
100
AcDbEntity
  8
Title Block
100
AcDbLine
 10
30.5
 20
0.5
 30
0.0
 11
30.5
 21
0.25
 31
0.0
  0
LINE
  5
CB
330
18
100
AcDbEntity
  8
Title Block
100
AcDbLine
 10
30.5
 20
0.5
 30
0.0
 11
30.5
 21
1.0
 31
0.0
  0
LINE
  5
CD
330
18
100
AcDbEntity
  8
Title Block
100
AcDbLine
 10
33.25
 20
0.75
 30
0.0
 11
33.25
 21
0.25
 31
0.0
  0
LWPOLYLINE
  5
112
330
18
100
AcDbEntity
  8
Title Block
100
AcDbPolyline
 90
        4
 70
     1
 43
0.01
 10
33.75
 20
0.25
 10
0.25
 20
0.25
 10
0.25
 20
21.75
 10
33.75
 20
21.75
  0
POINT
  5
115
330
18
100
AcDbEntity
  8
Title Block
100
AcDbPoint
 10
33.99999999999999
 20
0.0
 30
0.0
  0
POINT
  5
118
330
18
100
AcDbEntity
  8
Title Block
100
AcDbPoint
 10
34.0
 20
22.0
 30
0.0
  0
POINT
  5
11B
330
18
100
AcDbEntity
  8
Title Block
100
AcDbPoint
 10
0.0
 20
22.0
 30
0.0
  0
POINT
  5
11E
330
18
100
AcDbEntity
  8
Title Block
100
AcDbPoint
 10
0.0
 20
0.0
 30
0.0
  0
MTEXT
  5
144
330
18
100
AcDbEntity
  8
Text
100
AcDbMText
 10
23.37290028142271
 20
0.626249074032665
 30
0.0
 40
0.09
 41
0.25
 71
     5
 72
     5
  1
R
 73
     1
 44
1.0
1001
ACAD
1000
MTEXTBEGIN
1070
    73
1070
     1
1070
    44
1040
1.0
1070
    74
1070
     0
1000
MTEXTEND
  0
MTEXT
  5
145
330
18
100
AcDbEntity
  8
Text
100
AcDbMText
 10
23.74790028142271
 20
0.626249074032665
 30
0.0
 40
0.07
 41
0.5
 71
     5
 72
     5
  1
6-8-07
 73
     1
 44
1.0
1001
ACAD
1000
MTEXTBEGIN
1070
    73
1070
     1
1070
    44
1040
1.0
1070
    74
1070
     0
1000
MTEXTEND
  0
MTEXT
  5
146
330
18
100
AcDbEntity
  8
Text
100
AcDbMText
 10
24.18540028142271
 20
0.626249074032665
 30
0.0
 40
0.09
 41
0.375
 71
     5
 72
     5
  1
DTP
 73
     1
 44
1.0
1001
ACAD
1000
MTEXTBEGIN
1070
    73
1070
     1
1070
    44
1040
1.0
1070
    74
1070
     0
1000
MTEXTEND
  0
MTEXT
  5
147
330
18
100
AcDbEntity
  8
Text
100
AcDbMText
 10
24.56040028142271
 20
0.626249074032665
 30
0.0
 40
0.07
 41
0.375
 71
     5
 72
     5
  1
DJWA
 73
     1
 44
1.0
1001
ACAD
1000
MTEXTBEGIN
1070
    73
1070
     1
1070
    44
1040
1.0
1070
    74
1070
     0
1000
MTEXTEND
  0
MTEXT
  5
148
330
18
100
AcDbEntity
  8
Text
100
AcDbMText
 10
26.12290028142271
 20
0.6262490740326645
 30
0.0
 40
0.09
 41
2.75
 71
     5
 72
     5
  1
DRAWING RELEASED
 73
     1
 44
1.0
1001
ACAD
1000
MTEXTBEGIN
1070
    73
1070
     1
1070
    44
1040
1.0
1070
    74
1070
     0
1000
MTEXTEND
  0
MTEXT
  5
14B
330
18
100
AcDbEntity
  8
Text
100
AcDbMText
 10
30.47290028142271
 20
0.851249074032664
 30
0.0
 40
0.09
 41
0.75
 71
     6
 72
     5
  1
DTP
 73
     1
 44
1.0
1001
ACAD
1000
MTEXTBEGIN
1070
    73
1070
     1
1070
    44
1040
1.0
1070
    74
1070
     0
1000
MTEXTEND
  0
MTEXT
  5
14C
330
18
100
AcDbEntity
  8
Text
100
AcDbMText
 10
30.47290028142271
 20
0.6012490740326639
 30
0.0
 40
0.09
 41
0.75
 71
     6
 72
     5
  1
6-8-07
 73
     1
 44
1.0
1001
ACAD
1000
MTEXTBEGIN
1070
    73
1070
     1
1070
    44
1040
1.0
1070
    74
1070
     0
1000
MTEXTEND
  0
MTEXT
  5
14D
330
18
100
AcDbEntity
  8
Text
100
AcDbMText
 10
30.47290028142271
 20
0.3512490740326641
 30
0.0
 40
0.09
 41
0.75
 71
     6
 72
     5
  1
DJWA
 73
     1
 44
1.0
1001
ACAD
1000
MTEXTBEGIN
1070
    73
1070
     1
1070
    44
1040
1.0
1070
    74
1070
     0
1000
MTEXTEND
  0
MTEXT
  5
14E
330
18
100
AcDbEntity
  8
Text
100
AcDbMText
 10
31.74790028142271
 20
2.626249074032664
 30
0.0
 40
0.09
 41
4.0
 71
     5
 72
     5
  1
FREC12X4.dwg
 73
     1
 44
1.0
1001
ACAD
1000
MTEXTBEGIN
1070
    73
1070
     1
1070
    44
1040
1.0
1070
    74
1070
     0
1000
MTEXTEND
  0
MTEXT
  5
14F
330
18
100
AcDbEntity
  8
Text
100
AcDbMText
 10
31.74790028142271
 20
1.751249074032664
 30
0.0
 40
0.09
 41
4.0
 71
     5
 72
     5
  1
FIBERRUNNER 12x4 END CAP\P(FREC12X4)\PMARKETING DRAWING
 73
     1
 44
1.0
1001
ACAD
1000
MTEXTBEGIN
1070
    73
1070
     1
1070
    44
1040
1.0
1070
    74
1070
     0
1000
MTEXTEND
  0
MTEXT
  5
150
330
18
100
AcDbEntity
  8
Text
100
AcDbMText
 10
32.99790028142271
 20
0.8762490740326638
 30
0.0
 40
0.12
 41
1.5
 71
     5
 72
     5
  1
FULL
 73
     1
 44
1.0
1001
ACAD
1000
MTEXTBEGIN
1070
    73
1070
     1
1070
    44
1040
1.0
1070
    74
1070
     0
1000
MTEXTEND
  0
MTEXT
  5
151
330
18
100
AcDbEntity
  8
Text
100
AcDbMText
 10
32.74790028142271
 20
0.5012490740326641
 30
0.0
 40
0.12
 41
1.0
 71
     5
 72
     5
  1
36897-1132
 73
     1
 44
1.0
1001
ACAD
1000
MTEXTBEGIN
1070
    73
1070
     1
1070
    44
1040
1.0
1070
    74
1070
     0
1000
MTEXTEND
  0
TEXT
  5
2A9
330
18
100
AcDbEntity
  8
Text
100
AcDbText
 10
10.86670438901944
 20
16.14917059911666
 30
0.0
 40
0.125
  1
TOP VIEW
100
AcDbText
  0
TEXT
  5
2AA
330
18
100
AcDbEntity
  8
Text
100
AcDbText
 10
10.54024817882734
 20
4.267219885772973
 30
0.0
 40
0.125
  1
FRONT VIEW
100
AcDbText
  0
TEXT
  5
2AB
330
18
100
AcDbEntity
  8
Text
100
AcDbText
 10
27.44919956336742
 20
4.138787694622173
 30
0.0
 40
0.125
  1
RIGHT SIDE VIEW
100
AcDbText
  0
LINE
  5
2C6
330
18
100
AcDbEntity
  8
Object
100
AcDbLine
 10
27.66111111111111
 20
9.151111111111111
 30
0.0
 11
27.66111111111111
 21
8.641111111111111
 31
0.0
  0
LINE
  5
2C7
330
18
100
AcDbEntity
  8
Object
100
AcDbLine
 10
27.66111111111111
 20
8.641111111111111
 30
0.0
 11
27.66111111111111
 21
8.608888888888888
 31
0.0
  0
LINE
  5
2C8
330
18
100
AcDbEntity
  8
Object
100
AcDbLine
 10
27.66111111111111
 20
9.683333333333333
 30
0.0
 11
27.66111111111111
 21
10.24333333333333
 31
0.0
  0
LINE
  5
2C9
330
18
100
AcDbEntity
  8
Object
100
AcDbLine
 10
27.66111111111111
 20
9.151111111111111
 30
0.0
 11
27.66111111111111
 21
9.162222222222222
 31
0.0
  0
LINE
  5
2CA
330
18
100
AcDbEntity
  8
Object
100
AcDbLine
 10
27.66111111111111
 20
9.162222222222222
 30
0.0
 11
27.66111111111111
 21
9.173333333333333
 31
0.0
  0
LINE
  5
2CB
330
18
100
AcDbEntity
  8
Object
100
AcDbLine
 10
27.66111111111111
 20
9.173333333333333
 30
0.0
 11
27.66111111111111
 21
9.185555555555556
 31
0.0
  0
LINE
  5
2CC
330
18
100
AcDbEntity
  8
Object
100
AcDbLine
 10
27.66111111111111
 20
9.185555555555556
 30
0.0
 11
27.66111111111111
 21
9.246666666666666
 31
0.0
  0
LINE
  5
2CD
330
18
100
AcDbEntity
  8
Object
100
AcDbLine
 10
27.66111111111111
 20
9.246666666666666
 30
0.0
 11
27.66111111111111
 21
9.307777777777777
 31
0.0
  0
LINE
  5
2CE
330
18
100
AcDbEntity
  8
Object
100
AcDbLine
 10
27.66111111111111
 20
9.307777777777777
 30
0.0
 11
27.66111111111111
 21
9.366666666666667
 31
0.0
  0
LINE
  5
2CF
330
18
100
AcDbEntity
  8
Object
100
AcDbLine
 10
27.66111111111111
 20
9.366666666666667
 30
0.0
 11
27.66111111111111
 21
9.423333333333333
 31
0.0
  0
LINE
  5
2D0
330
18
100
AcDbEntity
  8
Object
100
AcDbLine
 10
27.66111111111111
 20
9.423333333333333
 30
0.0
 11
27.66111111111111
 21
9.475555555555555
 31
0.0
  0
LINE
  5
2D1
330
18
100
AcDbEntity
  8
Object
100
AcDbLine
 10
27.66111111111111
 20
9.475555555555555
 30
0.0
 11
27.66111111111111
 21
9.523333333333333
 31
0.0
  0
LINE
  5
2D2
330
18
100
AcDbEntity
  8
Object
100
AcDbLine
 10
27.66111111111111
 20
9.523333333333333
 30
0.0
 11
27.66111111111111
 21
9.566666666666666
 31
0.0
  0
LINE
  5
2D3
330
18
100
AcDbEntity
  8
Object
100
AcDbLine
 10
27.66111111111111
 20
9.566666666666666
 30
0.0
 11
27.66111111111111
 21
9.603333333333333
 31
0.0
  0
LINE
  5
2D4
330
18
100
AcDbEntity
  8
Object
100
AcDbLine
 10
27.66111111111111
 20
9.603333333333333
 30
0.0
 11
27.66111111111111
 21
9.634444444444444
 31
0.0
  0
LINE
  5
2D5
330
18
100
AcDbEntity
  8
Object
100
AcDbLine
 10
27.66111111111111
 20
9.634444444444444
 30
0.0
 11
27.66111111111111
 21
9.657777777777777
 31
0.0
  0
LINE
  5
2D6
330
18
100
AcDbEntity
  8
Object
100
AcDbLine
 10
27.66111111111111
 20
9.657777777777777
 30
0.0
 11
27.66111111111111
 21
9.674444444444445
 31
0.0
  0
LINE
  5
2D7
330
18
100
AcDbEntity
  8
Object
100
AcDbLine
 10
27.66111111111111
 20
9.674444444444445
 30
0.0
 11
27.66111111111111
 21
9.683333333333333
 31
0.0
  0
LINE
  5
2D8
330
18
100
AcDbEntity
  8
Object
100
AcDbLine
 10
27.66111111111111
 20
10.24333333333333
 30
0.0
 11
27.66111111111111
 21
10.24555555555555
 31
0.0
  0
LINE
  5
2D9
330
18
100
AcDbEntity
  8
Object
100
AcDbLine
 10
27.66111111111111
 20
9.657777777777777
 30
0.0
 11
27.66111111111111
 21
9.674444444444445
 31
0.0
  0
LINE
  5
2DA
330
18
100
AcDbEntity
  8
Object
100
AcDbLine
 10
27.66111111111111
 20
9.603333333333333
 30
0.0
 11
27.66111111111111
 21
9.634444444444444
 31
0.0
  0
LINE
  5
2DB
330
18
100
AcDbEntity
  8
Object
100
AcDbLine
 10
27.66111111111111
 20
9.566666666666666
 30
0.0
 11
27.66111111111111
 21
9.523333333333333
 31
0.0
  0
LINE
  5
2DC
330
18
100
AcDbEntity
  8
Object
100
AcDbLine
 10
27.66111111111111
 20
9.523333333333333
 30
0.0
 11
27.66111111111111
 21
9.475555555555555
 31
0.0
  0
LINE
  5
2DD
330
18
100
AcDbEntity
  8
Object
100
AcDbLine
 10
27.66111111111111
 20
9.566666666666666
 30
0.0
 11
27.66111111111111
 21
9.603333333333333
 31
0.0
  0
LINE
  5
2DE
330
18
100
AcDbEntity
  8
Object
100
AcDbLine
 10
27.66111111111111
 20
9.634444444444444
 30
0.0
 11
27.66111111111111
 21
9.657777777777777
 31
0.0
  0
LINE
  5
2DF
330
18
100
AcDbEntity
  8
Object
100
AcDbLine
 10
27.66111111111111
 20
9.674444444444445
 30
0.0
 11
27.66111111111111
 21
9.683333333333333
 31
0.0
  0
LINE
  5
2E0
330
18
100
AcDbEntity
  8
Object
100
AcDbLine
 10
27.66111111111111
 20
9.683333333333333
 30
0.0
 11
27.59777777777778
 21
9.682222222222222
 31
0.0
  0
LINE
  5
2E1
330
18
100
AcDbEntity
  8
Object
100
AcDbLine
 10
27.66111111111111
 20
9.423333333333333
 30
0.0
 11
27.66111111111111
 21
9.475555555555555
 31
0.0
  0
LINE
  5
2E2
330
18
100
AcDbEntity
  8
Object
100
AcDbLine
 10
27.66111111111111
 20
9.307777777777777
 30
0.0
 11
27.66111111111111
 21
9.366666666666667
 31
0.0
  0
LINE
  5
2E3
330
18
100
AcDbEntity
  8
Object
100
AcDbLine
 10
27.66111111111111
 20
9.246666666666666
 30
0.0
 11
27.66111111111111
 21
9.185555555555556
 31
0.0
  0
LINE
  5
2E4
330
18
100
AcDbEntity
  8
Object
100
AcDbLine
 10
27.66111111111111
 20
9.185555555555556
 30
0.0
 11
27.59777777777778
 21
9.185555555555556
 31
0.0
  0
LINE
  5
2E5
330
18
100
AcDbEntity
  8
Object
100
AcDbLine
 10
27.66111111111111
 20
9.246666666666666
 30
0.0
 11
27.66111111111111
 21
9.307777777777777
 31
0.0
  0
LINE
  5
2E6
330
18
100
AcDbEntity
  8
Object
100
AcDbLine
 10
27.66111111111111
 20
9.366666666666667
 30
0.0
 11
27.66111111111111
 21
9.423333333333333
 31
0.0
  0
LINE
  5
2E7
330
18
100
AcDbEntity
  8
Object
100
AcDbLine
 10
27.66111111111111
 20
9.173333333333333
 30
0.0
 11
27.66111111111111
 21
9.162222222222222
 31
0.0
  0
LINE
  5
2E8
330
18
100
AcDbEntity
  8
Object
100
AcDbLine
 10
27.66111111111111
 20
9.162222222222222
 30
0.0
 11
27.66111111111111
 21
9.151111111111111
 31
0.0
  0
LINE
  5
2E9
330
18
100
AcDbEntity
  8
Object
100
AcDbLine
 10
27.66111111111111
 20
9.173333333333333
 30
0.0
 11
27.66111111111111
 21
9.185555555555556
 31
0.0
  0
LINE
  5
2EA
330
18
100
AcDbEntity
  8
Object
100
AcDbLine
 10
27.59777777777778
 20
4.959999999999999
 30
0.0
 11
27.66111111111111
 21
4.958888888888888
 31
0.0
  0
LINE
  5
2EB
330
18
100
AcDbEntity
  8
Object
100
AcDbLine
 10
27.59777777777778
 20
10.24222222222222
 30
0.0
 11
27.66111111111111
 21
10.24333333333333
 31
0.0
  0
LINE
  5
2EC
330
18
100
AcDbEntity
  8
Object
100
AcDbLine
 10
27.66111111111111
 20
10.24333333333333
 30
0.0
 11
27.66111111111111
 21
9.683333333333333
 31
0.0
  0
LINE
  5
2ED
330
18
100
AcDbEntity
  8
Object
100
AcDbLine
 10
28.26777777777778
 20
8.534444444444444
 30
0.0
 11
27.66111111111111
 21
8.608888888888888
 31
0.0
  0
LINE
  5
2EE
330
18
100
AcDbEntity
  8
Object
100
AcDbLine
 10
27.59777777777778
 20
8.641111111111111
 30
0.0
 11
27.66111111111111
 21
8.641111111111111
 31
0.0
  0
LINE
  5
2EF
330
18
100
AcDbEntity
  8
Object
100
AcDbLine
 10
27.66111111111111
 20
8.641111111111111
 30
0.0
 11
27.66111111111111
 21
8.608888888888888
 31
0.0
  0
LINE
  5
2F0
330
18
100
AcDbEntity
  8
Object
100
AcDbLine
 10
27.66111111111111
 20
8.608888888888888
 30
0.0
 11
27.66111111111111
 21
5.531111111111111
 31
0.0
  0
LINE
  5
2F1
330
18
100
AcDbEntity
  8
Object
100
AcDbLine
 10
27.66111111111111
 20
5.531111111111111
 30
0.0
 11
27.59777777777778
 21
5.531111111111111
 31
0.0
  0
LINE
  5
2F2
330
18
100
AcDbEntity
  8
Object
100
AcDbLine
 10
27.66111111111111
 20
10.24333333333333
 30
0.0
 11
27.66111111111111
 21
10.24555555555555
 31
0.0
  0
LINE
  5
2F3
330
18
100
AcDbEntity
  8
Object
100
AcDbLine
 10
27.66111111111111
 20
10.24555555555555
 30
0.0
 11
27.58222222222222
 21
10.24444444444444
 31
0.0
  0
LINE
  5
2F4
330
18
100
AcDbEntity
  8
Object
100
AcDbLine
 10
27.66111111111111
 20
4.958888888888888
 30
0.0
 11
28.35555555555556
 21
4.971111111111111
 31
0.0
  0
LINE
  5
2F5
330
18
100
AcDbEntity
  8
Object
100
AcDbLine
 10
27.66111111111111
 20
8.641111111111111
 30
0.0
 11
27.66111111111111
 21
9.151111111111111
 31
0.0
  0
LINE
  5
2F6
330
18
100
AcDbEntity
  8
Object
100
AcDbLine
 10
27.66111111111111
 20
9.151111111111111
 30
0.0
 11
27.59777777777778
 21
9.151111111111111
 31
0.0
  0
LINE
  5
2F7
330
18
100
AcDbEntity
  8
Object
100
AcDbLine
 10
27.59777777777778
 20
9.173333333333333
 30
0.0
 11
27.59777777777778
 21
9.162222222222222
 31
0.0
  0
LINE
  5
2F8
330
18
100
AcDbEntity
  8
Object
100
AcDbLine
 10
27.59777777777778
 20
9.162222222222222
 30
0.0
 11
27.59777777777778
 21
9.151111111111111
 31
0.0
  0
LINE
  5
2F9
330
18
100
AcDbEntity
  8
Object
100
AcDbLine
 10
27.59777777777778
 20
9.633333333333332
 30
0.0
 11
27.59777777777778
 21
9.656666666666666
 31
0.0
  0
LINE
  5
2FA
330
18
100
AcDbEntity
  8
Object
100
AcDbLine
 10
27.59777777777778
 20
9.565555555555555
 30
0.0
 11
27.59777777777778
 21
9.602222222222222
 31
0.0
  0
LINE
  5
2FB
330
18
100
AcDbEntity
  8
Object
100
AcDbLine
 10
27.59777777777778
 20
9.474444444444444
 30
0.0
 11
27.59777777777778
 21
9.522222222222222
 31
0.0
  0
LINE
  5
2FC
330
18
100
AcDbEntity
  8
Object
100
AcDbLine
 10
27.57888888888889
 20
9.678888888888888
 30
0.0
 11
27.59777777777778
 21
9.682222222222222
 31
0.0
  0
LINE
  5
2FD
330
18
100
AcDbEntity
  8
Object
100
AcDbLine
 10
27.59777777777778
 20
9.682222222222222
 30
0.0
 11
27.59777777777778
 21
9.673333333333333
 31
0.0
  0
LINE
  5
2FE
330
18
100
AcDbEntity
  8
Object
100
AcDbLine
 10
27.59777777777778
 20
9.673333333333333
 30
0.0
 11
27.59777777777778
 21
9.656666666666666
 31
0.0
  0
LINE
  5
2FF
330
18
100
AcDbEntity
  8
Object
100
AcDbLine
 10
27.59777777777778
 20
9.602222222222222
 30
0.0
 11
27.59777777777778
 21
9.633333333333332
 31
0.0
  0
LINE
  5
300
330
18
100
AcDbEntity
  8
Object
100
AcDbLine
 10
27.59777777777778
 20
9.522222222222222
 30
0.0
 11
27.59777777777778
 21
9.565555555555555
 31
0.0
  0
LINE
  5
301
330
18
100
AcDbEntity
  8
Object
100
AcDbLine
 10
27.59777777777778
 20
9.366666666666667
 30
0.0
 11
27.59777777777778
 21
9.422222222222222
 31
0.0
  0
LINE
  5
302
330
18
100
AcDbEntity
  8
Object
100
AcDbLine
 10
27.59777777777778
 20
9.246666666666666
 30
0.0
 11
27.59777777777778
 21
9.307777777777777
 31
0.0
  0
LINE
  5
303
330
18
100
AcDbEntity
  8
Object
100
AcDbLine
 10
27.59777777777778
 20
9.173333333333333
 30
0.0
 11
27.59777777777778
 21
9.185555555555556
 31
0.0
  0
LINE
  5
304
330
18
100
AcDbEntity
  8
Object
100
AcDbLine
 10
27.59777777777778
 20
9.422222222222222
 30
0.0
 11
27.59777777777778
 21
9.474444444444444
 31
0.0
  0
LINE
  5
305
330
18
100
AcDbEntity
  8
Object
100
AcDbLine
 10
27.59777777777778
 20
9.307777777777777
 30
0.0
 11
27.59777777777778
 21
9.366666666666667
 31
0.0
  0
LINE
  5
306
330
18
100
AcDbEntity
  8
Object
100
AcDbLine
 10
27.59777777777778
 20
9.185555555555556
 30
0.0
 11
27.59777777777778
 21
9.246666666666666
 31
0.0
  0
LINE
  5
307
330
18
100
AcDbEntity
  8
Object
100
AcDbLine
 10
27.57888888888889
 20
9.678888888888888
 30
0.0
 11
27.56222222222222
 21
9.669999999999999
 31
0.0
  0
LINE
  5
308
330
18
100
AcDbEntity
  8
Object
100
AcDbLine
 10
27.56222222222222
 20
9.669999999999999
 30
0.0
 11
27.54777777777778
 21
9.656666666666666
 31
0.0
  0
LINE
  5
309
330
18
100
AcDbEntity
  8
Object
100
AcDbLine
 10
27.54777777777778
 20
9.656666666666666
 30
0.0
 11
27.53888888888889
 21
9.638888888888889
 31
0.0
  0
LINE
  5
30A
330
18
100
AcDbEntity
  8
Object
100
AcDbLine
 10
27.53666666666667
 20
9.612222222222222
 30
0.0
 11
27.53666666666667
 21
9.595555555555556
 31
0.0
  0
LINE
  5
30B
330
18
100
AcDbEntity
  8
Object
100
AcDbLine
 10
27.53666666666667
 20
9.573333333333334
 30
0.0
 11
27.53666666666667
 21
9.544444444444444
 31
0.0
  0
LINE
  5
30C
330
18
100
AcDbEntity
  8
Object
100
AcDbLine
 10
27.53666666666667
 20
9.468888888888889
 30
0.0
 11
27.53666666666667
 21
9.508888888888888
 31
0.0
  0
LINE
  5
30D
330
18
100
AcDbEntity
  8
Object
100
AcDbLine
 10
27.53666666666667
 20
9.508888888888888
 30
0.0
 11
27.53666666666667
 21
9.544444444444444
 31
0.0
  0
LINE
  5
30E
330
18
100
AcDbEntity
  8
Object
100
AcDbLine
 10
27.53666666666667
 20
9.595555555555556
 30
0.0
 11
27.53666666666667
 21
9.573333333333334
 31
0.0
  0
LINE
  5
30F
330
18
100
AcDbEntity
  8
Object
100
AcDbLine
 10
27.53666666666667
 20
9.612222222222222
 30
0.0
 11
27.53666666666667
 21
9.619999999999999
 31
0.0
  0
LINE
  5
310
330
18
100
AcDbEntity
  8
Object
100
AcDbLine
 10
27.53666666666667
 20
9.619999999999999
 30
0.0
 11
27.53888888888889
 21
9.638888888888889
 31
0.0
  0
LINE
  5
311
330
18
100
AcDbEntity
  8
Object
100
AcDbLine
 10
27.53666666666667
 20
9.423333333333333
 30
0.0
 11
27.53666666666667
 21
9.374444444444444
 31
0.0
  0
LINE
  5
312
330
18
100
AcDbEntity
  8
Object
100
AcDbLine
 10
27.53666666666667
 20
9.267777777777777
 30
0.0
 11
27.53666666666667
 21
9.322222222222222
 31
0.0
  0
LINE
  5
313
330
18
100
AcDbEntity
  8
Object
100
AcDbLine
 10
27.53666666666667
 20
9.322222222222222
 30
0.0
 11
27.53666666666667
 21
9.374444444444444
 31
0.0
  0
LINE
  5
314
330
18
100
AcDbEntity
  8
Object
100
AcDbLine
 10
27.53666666666667
 20
9.468888888888889
 30
0.0
 11
27.53666666666667
 21
9.423333333333333
 31
0.0
  0
LINE
  5
315
330
18
100
AcDbEntity
  8
Object
100
AcDbLine
 10
27.53666666666667
 20
9.267777777777777
 30
0.0
 11
27.53666666666667
 21
9.21111111111111
 31
0.0
  0
LINE
  5
316
330
18
100
AcDbEntity
  8
Object
100
AcDbLine
 10
27.53666666666667
 20
9.21111111111111
 30
0.0
 11
27.53666666666667
 21
9.155555555555555
 31
0.0
  0
LINE
  5
317
330
18
100
AcDbEntity
  8
Object
100
AcDbLine
 10
28.45444444444444
 20
4.973333333333333
 30
0.0
 11
28.44
 21
4.972222222222222
 31
0.0
  0
LINE
  5
318
330
18
100
AcDbEntity
  8
Object
100
AcDbLine
 10
28.44
 20
4.972222222222222
 30
0.0
 11
28.43777777777778
 21
4.972222222222222
 31
0.0
  0
LINE
  5
319
330
18
100
AcDbEntity
  8
Object
100
AcDbLine
 10
28.42111111111111
 20
4.972222222222222
 30
0.0
 11
28.4
 21
4.972222222222222
 31
0.0
  0
LINE
  5
31A
330
18
100
AcDbEntity
  8
Object
100
AcDbLine
 10
28.4
 20
4.972222222222222
 30
0.0
 11
28.39555555555556
 21
4.972222222222222
 31
0.0
  0
LINE
  5
31B
330
18
100
AcDbEntity
  8
Object
100
AcDbLine
 10
27.66111111111111
 20
4.958888888888888
 30
0.0
 11
28.35555555555556
 21
4.971111111111111
 31
0.0
  0
LINE
  5
31C
330
18
100
AcDbEntity
  8
Object
100
AcDbLine
 10
27.58222222222222
 20
10.24444444444444
 30
0.0
 11
27.56444444444444
 21
10.23555555555555
 31
0.0
  0
LINE
  5
31D
330
18
100
AcDbEntity
  8
Object
100
AcDbLine
 10
27.56444444444444
 20
10.23555555555555
 30
0.0
 11
27.54888888888889
 21
10.22111111111111
 31
0.0
  0
LINE
  5
31E
330
18
100
AcDbEntity
  8
Object
100
AcDbLine
 10
27.54888888888889
 20
10.22111111111111
 30
0.0
 11
27.54
 21
10.20333333333333
 31
0.0
  0
LINE
  5
31F
330
18
100
AcDbEntity
  8
Object
100
AcDbLine
 10
27.54
 20
10.20333333333333
 30
0.0
 11
27.53666666666667
 21
10.18333333333333
 31
0.0
  0
LINE
  5
320
330
18
100
AcDbEntity
  8
Object
100
AcDbLine
 10
27.59777777777778
 20
4.959999999999999
 30
0.0
 11
27.57888888888889
 21
4.963333333333332
 31
0.0
  0
LINE
  5
321
330
18
100
AcDbEntity
  8
Object
100
AcDbLine
 10
27.57888888888889
 20
4.963333333333332
 30
0.0
 11
27.56222222222222
 21
4.972222222222222
 31
0.0
  0
LINE
  5
322
330
18
100
AcDbEntity
  8
Object
100
AcDbLine
 10
27.56222222222222
 20
4.972222222222222
 30
0.0
 11
27.54777777777778
 21
4.986666666666666
 31
0.0
  0
LINE
  5
323
330
18
100
AcDbEntity
  8
Object
100
AcDbLine
 10
27.54777777777778
 20
4.986666666666666
 30
0.0
 11
27.53888888888889
 21
5.003333333333332
 31
0.0
  0
LINE
  5
324
330
18
100
AcDbEntity
  8
Object
100
AcDbLine
 10
27.53888888888889
 20
5.003333333333332
 30
0.0
 11
27.53666666666667
 21
5.023333333333333
 31
0.0
  0
LINE
  5
325
330
18
100
AcDbEntity
  8
Object
100
AcDbLine
 10
28.47111111111111
 20
4.973333333333333
 30
0.0
 11
28.46555555555556
 21
4.973333333333333
 31
0.0
  0
LINE
  5
326
330
18
100
AcDbEntity
  8
Object
100
AcDbLine
 10
28.46555555555556
 20
4.973333333333333
 30
0.0
 11
28.45333333333334
 21
4.973333333333333
 31
0.0
  0
LINE
  5
327
330
18
100
AcDbEntity
  8
Object
100
AcDbLine
 10
28.45333333333334
 20
4.973333333333333
 30
0.0
 11
28.43777777777778
 21
4.972222222222222
 31
0.0
  0
LINE
  5
328
330
18
100
AcDbEntity
  8
Object
100
AcDbLine
 10
28.43777777777778
 20
4.972222222222222
 30
0.0
 11
28.41777777777778
 21
4.972222222222222
 31
0.0
  0
LINE
  5
329
330
18
100
AcDbEntity
  8
Object
100
AcDbLine
 10
28.41777777777778
 20
4.972222222222222
 30
0.0
 11
28.39555555555556
 21
4.972222222222222
 31
0.0
  0
LINE
  5
32A
330
18
100
AcDbEntity
  8
Object
100
AcDbLine
 10
28.39555555555556
 20
4.972222222222222
 30
0.0
 11
28.37222222222223
 21
4.971111111111111
 31
0.0
  0
LINE
  5
32B
330
18
100
AcDbEntity
  8
Object
100
AcDbLine
 10
28.37222222222223
 20
4.971111111111111
 30
0.0
 11
28.34888888888889
 21
4.971111111111111
 31
0.0
  0
LINE
  5
32C
330
18
100
AcDbEntity
  8
Object
100
AcDbLine
 10
27.66111111111111
 20
4.958888888888888
 30
0.0
 11
28.47444444444445
 21
4.973333333333333
 31
0.0
  0
LINE
  5
32D
330
18
100
AcDbEntity
  8
Object
100
AcDbLine
 10
27.66111111111111
 20
5.402222222222222
 30
0.0
 11
27.66111111111111
 21
5.465555555555555
 31
0.0
  0
LINE
  5
32E
330
18
100
AcDbEntity
  8
Object
100
AcDbLine
 10
27.66111111111111
 20
5.465555555555555
 30
0.0
 11
27.66111111111111
 21
5.531111111111111
 31
0.0
  0
LINE
  5
32F
330
18
100
AcDbEntity
  8
Object
100
AcDbLine
 10
27.66111111111111
 20
5.339999999999999
 30
0.0
 11
27.66111111111111
 21
5.402222222222222
 31
0.0
  0
LINE
  5
330
330
18
100
AcDbEntity
  8
Object
100
AcDbLine
 10
27.66111111111111
 20
5.224444444444444
 30
0.0
 11
27.66111111111111
 21
5.28
 31
0.0
  0
LINE
  5
331
330
18
100
AcDbEntity
  8
Object
100
AcDbLine
 10
27.66111111111111
 20
5.124444444444444
 30
0.0
 11
27.66111111111111
 21
5.172222222222222
 31
0.0
  0
LINE
  5
332
330
18
100
AcDbEntity
  8
Object
100
AcDbLine
 10
27.66111111111111
 20
5.045555555555555
 30
0.0
 11
27.66111111111111
 21
5.082222222222222
 31
0.0
  0
LINE
  5
333
330
18
100
AcDbEntity
  8
Object
100
AcDbLine
 10
27.66111111111111
 20
4.991111111111111
 30
0.0
 11
27.66111111111111
 21
5.014444444444444
 31
0.0
  0
LINE
  5
334
330
18
100
AcDbEntity
  8
Object
100
AcDbLine
 10
27.66111111111111
 20
4.973333333333333
 30
0.0
 11
27.66111111111111
 21
4.962222222222222
 31
0.0
  0
LINE
  5
335
330
18
100
AcDbEntity
  8
Object
100
AcDbLine
 10
27.66111111111111
 20
4.962222222222222
 30
0.0
 11
27.66111111111111
 21
4.958888888888888
 31
0.0
  0
LINE
  5
336
330
18
100
AcDbEntity
  8
Object
100
AcDbLine
 10
27.66111111111111
 20
4.958888888888888
 30
0.0
 11
27.59777777777778
 21
4.959999999999999
 31
0.0
  0
LINE
  5
337
330
18
100
AcDbEntity
  8
Object
100
AcDbLine
 10
27.66111111111111
 20
4.973333333333333
 30
0.0
 11
27.66111111111111
 21
4.991111111111111
 31
0.0
  0
LINE
  5
338
330
18
100
AcDbEntity
  8
Object
100
AcDbLine
 10
27.66111111111111
 20
5.014444444444444
 30
0.0
 11
27.66111111111111
 21
5.045555555555555
 31
0.0
  0
LINE
  5
339
330
18
100
AcDbEntity
  8
Object
100
AcDbLine
 10
27.66111111111111
 20
5.082222222222222
 30
0.0
 11
27.66111111111111
 21
5.124444444444444
 31
0.0
  0
LINE
  5
33A
330
18
100
AcDbEntity
  8
Object
100
AcDbLine
 10
27.66111111111111
 20
5.172222222222222
 30
0.0
 11
27.66111111111111
 21
5.224444444444444
 31
0.0
  0
LINE
  5
33B
330
18
100
AcDbEntity
  8
Object
100
AcDbLine
 10
27.66111111111111
 20
5.28
 30
0.0
 11
27.66111111111111
 21
5.339999999999999
 31
0.0
  0
LINE
  5
33C
330
18
100
AcDbEntity
  8
Object
100
AcDbLine
 10
28.45444444444444
 20
4.973333333333333
 30
0.0
 11
28.44
 21
4.972222222222222
 31
0.0
  0
LINE
  5
33D
330
18
100
AcDbEntity
  8
Object
100
AcDbLine
 10
28.44
 20
4.972222222222222
 30
0.0
 11
28.43777777777778
 21
4.972222222222222
 31
0.0
  0
LINE
  5
33E
330
18
100
AcDbEntity
  8
Object
100
AcDbLine
 10
28.42111111111111
 20
4.972222222222222
 30
0.0
 11
28.4
 21
4.972222222222222
 31
0.0
  0
LINE
  5
33F
330
18
100
AcDbEntity
  8
Object
100
AcDbLine
 10
28.4
 20
4.972222222222222
 30
0.0
 11
28.39555555555556
 21
4.972222222222222
 31
0.0
  0
LINE
  5
340
330
18
100
AcDbEntity
  8
Object
100
AcDbLine
 10
27.58222222222222
 20
10.24444444444444
 30
0.0
 11
27.59777777777778
 21
10.24222222222222
 31
0.0
  0
LINE
  5
341
330
18
100
AcDbEntity
  8
Object
100
AcDbLine
 10
27.59777777777778
 20
10.24222222222222
 30
0.0
 11
27.59777777777778
 21
9.682222222222222
 31
0.0
  0
LINE
  5
342
330
18
100
AcDbEntity
  8
Object
100
AcDbLine
 10
27.53666666666667
 20
10.18333333333333
 30
0.0
 11
27.53666666666667
 21
9.619999999999999
 31
0.0
  0
LINE
  5
343
330
18
100
AcDbEntity
  8
Object
100
AcDbLine
 10
28.47111111111111
 20
4.973333333333333
 30
0.0
 11
28.46555555555556
 21
4.973333333333333
 31
0.0
  0
LINE
  5
344
330
18
100
AcDbEntity
  8
Object
100
AcDbLine
 10
28.46555555555556
 20
4.973333333333333
 30
0.0
 11
28.45333333333334
 21
4.973333333333333
 31
0.0
  0
LINE
  5
345
330
18
100
AcDbEntity
  8
Object
100
AcDbLine
 10
28.45333333333334
 20
4.973333333333333
 30
0.0
 11
28.43777777777778
 21
4.972222222222222
 31
0.0
  0
LINE
  5
346
330
18
100
AcDbEntity
  8
Object
100
AcDbLine
 10
28.43777777777778
 20
4.972222222222222
 30
0.0
 11
28.41777777777778
 21
4.972222222222222
 31
0.0
  0
LINE
  5
347
330
18
100
AcDbEntity
  8
Object
100
AcDbLine
 10
28.41777777777778
 20
4.972222222222222
 30
0.0
 11
28.39555555555556
 21
4.972222222222222
 31
0.0
  0
LINE
  5
348
330
18
100
AcDbEntity
  8
Object
100
AcDbLine
 10
28.39555555555556
 20
4.972222222222222
 30
0.0
 11
28.37222222222223
 21
4.971111111111111
 31
0.0
  0
LINE
  5
349
330
18
100
AcDbEntity
  8
Object
100
AcDbLine
 10
28.37222222222223
 20
4.971111111111111
 30
0.0
 11
28.34888888888889
 21
4.971111111111111
 31
0.0
  0
LINE
  5
34A
330
18
100
AcDbEntity
  8
Object
100
AcDbLine
 10
28.47444444444445
 20
4.976666666666666
 30
0.0
 11
28.47444444444445
 21
4.986666666666666
 31
0.0
  0
LINE
  5
34B
330
18
100
AcDbEntity
  8
Object
100
AcDbLine
 10
28.47444444444445
 20
5.004444444444444
 30
0.0
 11
28.47444444444445
 21
5.027777777777777
 31
0.0
  0
LINE
  5
34C
330
18
100
AcDbEntity
  8
Object
100
AcDbLine
 10
28.47444444444445
 20
5.057777777777777
 30
0.0
 11
28.47444444444445
 21
5.093333333333333
 31
0.0
  0
LINE
  5
34D
330
18
100
AcDbEntity
  8
Object
100
AcDbLine
 10
28.47444444444445
 20
5.093333333333333
 30
0.0
 11
28.47444444444445
 21
5.134444444444444
 31
0.0
  0
LINE
  5
34E
330
18
100
AcDbEntity
  8
Object
100
AcDbLine
 10
28.47444444444445
 20
5.181111111111111
 30
0.0
 11
28.47444444444445
 21
5.232222222222222
 31
0.0
  0
LINE
  5
34F
330
18
100
AcDbEntity
  8
Object
100
AcDbLine
 10
28.47444444444445
 20
5.286666666666667
 30
0.0
 11
28.47444444444445
 21
5.345555555555555
 31
0.0
  0
LINE
  5
350
330
18
100
AcDbEntity
  8
Object
100
AcDbLine
 10
28.47444444444445
 20
5.405555555555555
 30
0.0
 11
28.47444444444445
 21
5.468888888888888
 31
0.0
  0
LINE
  5
351
330
18
100
AcDbEntity
  8
Object
100
AcDbLine
 10
28.47444444444445
 20
8.287777777777778
 30
0.0
 11
28.47444444444445
 21
5.532222222222221
 31
0.0
  0
LINE
  5
352
330
18
100
AcDbEntity
  8
Object
100
AcDbLine
 10
28.47444444444445
 20
5.532222222222221
 30
0.0
 11
28.47444444444445
 21
5.468888888888888
 31
0.0
  0
LINE
  5
353
330
18
100
AcDbEntity
  8
Object
100
AcDbLine
 10
28.47444444444445
 20
5.345555555555555
 30
0.0
 11
28.47444444444445
 21
5.405555555555555
 31
0.0
  0
LINE
  5
354
330
18
100
AcDbEntity
  8
Object
100
AcDbLine
 10
28.47444444444445
 20
5.232222222222222
 30
0.0
 11
28.47444444444445
 21
5.286666666666667
 31
0.0
  0
LINE
  5
355
330
18
100
AcDbEntity
  8
Object
100
AcDbLine
 10
28.47444444444445
 20
5.134444444444444
 30
0.0
 11
28.47444444444445
 21
5.181111111111111
 31
0.0
  0
LINE
  5
356
330
18
100
AcDbEntity
  8
Object
100
AcDbLine
 10
28.47444444444445
 20
5.027777777777777
 30
0.0
 11
28.47444444444445
 21
5.057777777777777
 31
0.0
  0
LINE
  5
357
330
18
100
AcDbEntity
  8
Object
100
AcDbLine
 10
28.47444444444445
 20
4.986666666666666
 30
0.0
 11
28.47444444444445
 21
5.004444444444444
 31
0.0
  0
LINE
  5
358
330
18
100
AcDbEntity
  8
Object
100
AcDbLine
 10
28.47444444444445
 20
4.973333333333333
 30
0.0
 11
28.47444444444445
 21
4.976666666666666
 31
0.0
  0
LINE
  5
359
330
18
100
AcDbEntity
  8
Object
100
AcDbLine
 10
28.46
 20
8.37111111111111
 30
0.0
 11
28.47111111111111
 21
8.328888888888888
 31
0.0
  0
LINE
  5
35A
330
18
100
AcDbEntity
  8
Object
100
AcDbLine
 10
28.47111111111111
 20
8.328888888888888
 30
0.0
 11
28.47444444444445
 21
8.287777777777778
 31
0.0
  0
LINE
  5
35B
330
18
100
AcDbEntity
  8
Object
100
AcDbLine
 10
28.46
 20
8.37111111111111
 30
0.0
 11
28.45111111111111
 21
8.392222222222221
 31
0.0
  0
LINE
  5
35C
330
18
100
AcDbEntity
  8
Object
100
AcDbLine
 10
28.45111111111111
 20
8.392222222222221
 30
0.0
 11
28.44111111111111
 21
8.412222222222222
 31
0.0
  0
LINE
  5
35D
330
18
100
AcDbEntity
  8
Object
100
AcDbLine
 10
28.44111111111111
 20
8.412222222222222
 30
0.0
 11
28.42888888888889
 21
8.431111111111111
 31
0.0
  0
LINE
  5
35E
330
18
100
AcDbEntity
  8
Object
100
AcDbLine
 10
28.42888888888889
 20
8.431111111111111
 30
0.0
 11
28.41555555555556
 21
8.448888888888888
 31
0.0
  0
LINE
  5
35F
330
18
100
AcDbEntity
  8
Object
100
AcDbLine
 10
28.41555555555556
 20
8.448888888888888
 30
0.0
 11
28.4
 21
8.465555555555555
 31
0.0
  0
LINE
  5
360
330
18
100
AcDbEntity
  8
Object
100
AcDbLine
 10
28.4
 20
8.465555555555555
 30
0.0
 11
28.38333333333333
 21
8.481111111111111
 31
0.0
  0
LINE
  5
361
330
18
100
AcDbEntity
  8
Object
100
AcDbLine
 10
28.38333333333333
 20
8.481111111111111
 30
0.0
 11
28.36555555555556
 21
8.494444444444443
 31
0.0
  0
LINE
  5
362
330
18
100
AcDbEntity
  8
Object
100
AcDbLine
 10
28.36555555555556
 20
8.494444444444443
 30
0.0
 11
28.34666666666667
 21
8.506666666666665
 31
0.0
  0
LINE
  5
363
330
18
100
AcDbEntity
  8
Object
100
AcDbLine
 10
28.34666666666667
 20
8.506666666666665
 30
0.0
 11
28.30777777777777
 21
8.524444444444444
 31
0.0
  0
LINE
  5
364
330
18
100
AcDbEntity
  8
Object
100
AcDbLine
 10
28.30777777777777
 20
8.524444444444444
 30
0.0
 11
28.26777777777778
 21
8.534444444444444
 31
0.0
  0
LINE
  5
365
330
18
100
AcDbEntity
  8
Object
100
AcDbLine
 10
28.26777777777778
 20
8.534444444444444
 30
0.0
 11
27.66111111111111
 21
8.608888888888888
 31
0.0
  0
LINE
  5
366
330
18
100
AcDbEntity
  8
Object
100
AcDbLine
 10
28.47444444444445
 20
8.287777777777778
 30
0.0
 11
28.47444444444445
 21
5.532222222222221
 31
0.0
  0
LINE
  5
367
330
18
100
AcDbEntity
  8
Object
100
AcDbLine
 10
28.47444444444445
 20
5.532222222222221
 30
0.0
 11
27.66111111111111
 21
5.531111111111111
 31
0.0
  0
LINE
  5
368
330
18
100
AcDbEntity
  8
Object
100
AcDbLine
 10
28.47444444444445
 20
8.287777777777778
 30
0.0
 11
28.47111111111111
 21
8.328888888888888
 31
0.0
  0
LINE
  5
369
330
18
100
AcDbEntity
  8
Object
100
AcDbLine
 10
28.47111111111111
 20
8.328888888888888
 30
0.0
 11
28.46
 21
8.37111111111111
 31
0.0
  0
LINE
  5
36A
330
18
100
AcDbEntity
  8
Object
100
AcDbLine
 10
28.46
 20
8.37111111111111
 30
0.0
 11
28.45111111111111
 21
8.392222222222221
 31
0.0
  0
LINE
  5
36B
330
18
100
AcDbEntity
  8
Object
100
AcDbLine
 10
28.45111111111111
 20
8.392222222222221
 30
0.0
 11
28.44111111111111
 21
8.412222222222222
 31
0.0
  0
LINE
  5
36C
330
18
100
AcDbEntity
  8
Object
100
AcDbLine
 10
28.44111111111111
 20
8.412222222222222
 30
0.0
 11
28.42888888888889
 21
8.431111111111111
 31
0.0
  0
LINE
  5
36D
330
18
100
AcDbEntity
  8
Object
100
AcDbLine
 10
28.42888888888889
 20
8.431111111111111
 30
0.0
 11
28.41555555555556
 21
8.448888888888888
 31
0.0
  0
LINE
  5
36E
330
18
100
AcDbEntity
  8
Object
100
AcDbLine
 10
28.41555555555556
 20
8.448888888888888
 30
0.0
 11
28.4
 21
8.465555555555555
 31
0.0
  0
LINE
  5
36F
330
18
100
AcDbEntity
  8
Object
100
AcDbLine
 10
28.4
 20
8.465555555555555
 30
0.0
 11
28.38333333333333
 21
8.481111111111111
 31
0.0
  0
LINE
  5
370
330
18
100
AcDbEntity
  8
Object
100
AcDbLine
 10
28.38333333333333
 20
8.481111111111111
 30
0.0
 11
28.36555555555556
 21
8.494444444444443
 31
0.0
  0
LINE
  5
371
330
18
100
AcDbEntity
  8
Object
100
AcDbLine
 10
28.36555555555556
 20
8.494444444444443
 30
0.0
 11
28.34666666666667
 21
8.506666666666665
 31
0.0
  0
LINE
  5
372
330
18
100
AcDbEntity
  8
Object
100
AcDbLine
 10
28.34666666666667
 20
8.506666666666665
 30
0.0
 11
28.30777777777777
 21
8.524444444444444
 31
0.0
  0
LINE
  5
373
330
18
100
AcDbEntity
  8
Object
100
AcDbLine
 10
28.30777777777777
 20
8.524444444444444
 30
0.0
 11
28.26777777777778
 21
8.534444444444444
 31
0.0
  0
LINE
  5
374
330
18
100
AcDbEntity
  8
Object
100
AcDbLine
 10
27.57888888888889
 20
9.151111111111111
 30
0.0
 11
27.59777777777778
 21
9.151111111111111
 31
0.0
  0
LINE
  5
375
330
18
100
AcDbEntity
  8
Object
100
AcDbLine
 10
27.59777777777778
 20
9.151111111111111
 30
0.0
 11
27.59777777777778
 21
8.641111111111111
 31
0.0
  0
LINE
  5
376
330
18
100
AcDbEntity
  8
Object
100
AcDbLine
 10
27.59777777777778
 20
8.641111111111111
 30
0.0
 11
27.59777777777778
 21
5.531111111111111
 31
0.0
  0
LINE
  5
377
330
18
100
AcDbEntity
  8
Object
100
AcDbLine
 10
27.57888888888889
 20
9.151111111111111
 30
0.0
 11
27.56222222222222
 21
9.151111111111111
 31
0.0
  0
LINE
  5
378
330
18
100
AcDbEntity
  8
Object
100
AcDbLine
 10
27.57888888888889
 20
5.531111111111111
 30
0.0
 11
27.56222222222222
 21
5.532222222222221
 31
0.0
  0
LINE
  5
379
330
18
100
AcDbEntity
  8
Object
100
AcDbLine
 10
27.56222222222222
 20
5.532222222222221
 30
0.0
 11
27.54777777777778
 21
5.533333333333333
 31
0.0
  0
LINE
  5
37A
330
18
100
AcDbEntity
  8
Object
100
AcDbLine
 10
27.56222222222222
 20
9.151111111111111
 30
0.0
 11
27.54777777777778
 21
9.152222222222222
 31
0.0
  0
LINE
  5
37B
330
18
100
AcDbEntity
  8
Object
100
AcDbLine
 10
27.54777777777778
 20
9.152222222222222
 30
0.0
 11
27.53888888888889
 21
9.153333333333334
 31
0.0
  0
LINE
  5
37C
330
18
100
AcDbEntity
  8
Object
100
AcDbLine
 10
27.54777777777778
 20
5.533333333333333
 30
0.0
 11
27.53888888888889
 21
5.534444444444444
 31
0.0
  0
LINE
  5
37D
330
18
100
AcDbEntity
  8
Object
100
AcDbLine
 10
27.53888888888889
 20
5.534444444444444
 30
0.0
 11
27.53666666666667
 21
5.535555555555555
 31
0.0
  0
LINE
  5
37E
330
18
100
AcDbEntity
  8
Object
100
AcDbLine
 10
27.53666666666667
 20
5.535555555555555
 30
0.0
 11
27.53666666666667
 21
9.155555555555555
 31
0.0
  0
LINE
  5
37F
330
18
100
AcDbEntity
  8
Object
100
AcDbLine
 10
27.53666666666667
 20
9.155555555555555
 30
0.0
 11
27.53888888888889
 21
9.153333333333334
 31
0.0
  0
LINE
  5
380
330
18
100
AcDbEntity
  8
Object
100
AcDbLine
 10
27.53666666666667
 20
5.112222222222222
 30
0.0
 11
27.53666666666667
 21
5.081111111111111
 31
0.0
  0
LINE
  5
381
330
18
100
AcDbEntity
  8
Object
100
AcDbLine
 10
27.53666666666667
 20
5.026666666666666
 30
0.0
 11
27.53666666666667
 21
5.023333333333333
 31
0.0
  0
LINE
  5
382
330
18
100
AcDbEntity
  8
Object
100
AcDbLine
 10
27.53666666666667
 20
5.294444444444444
 30
0.0
 11
27.53666666666667
 21
5.242222222222221
 31
0.0
  0
LINE
  5
383
330
18
100
AcDbEntity
  8
Object
100
AcDbLine
 10
27.53666666666667
 20
5.472222222222222
 30
0.0
 11
27.53666666666667
 21
5.411111111111111
 31
0.0
  0
LINE
  5
384
330
18
100
AcDbEntity
  8
Object
100
AcDbLine
 10
27.53666666666667
 20
10.18333333333333
 30
0.0
 11
27.53666666666667
 21
9.619999999999999
 31
0.0
  0
LINE
  5
385
330
18
100
AcDbEntity
  8
Object
100
AcDbLine
 10
27.53666666666667
 20
5.535555555555555
 30
0.0
 11
27.53666666666667
 21
5.472222222222222
 31
0.0
  0
LINE
  5
386
330
18
100
AcDbEntity
  8
Object
100
AcDbLine
 10
27.53666666666667
 20
5.411111111111111
 30
0.0
 11
27.53666666666667
 21
5.35111111111111
 31
0.0
  0
LINE
  5
387
330
18
100
AcDbEntity
  8
Object
100
AcDbLine
 10
27.53666666666667
 20
5.35111111111111
 30
0.0
 11
27.53666666666667
 21
5.294444444444444
 31
0.0
  0
LINE
  5
388
330
18
100
AcDbEntity
  8
Object
100
AcDbLine
 10
27.53666666666667
 20
5.242222222222221
 30
0.0
 11
27.53666666666667
 21
5.193333333333333
 31
0.0
  0
LINE
  5
389
330
18
100
AcDbEntity
  8
Object
100
AcDbLine
 10
27.53666666666667
 20
5.193333333333333
 30
0.0
 11
27.53666666666667
 21
5.15
 31
0.0
  0
LINE
  5
38A
330
18
100
AcDbEntity
  8
Object
100
AcDbLine
 10
27.53666666666667
 20
5.15
 30
0.0
 11
27.53666666666667
 21
5.112222222222222
 31
0.0
  0
LINE
  5
38B
330
18
100
AcDbEntity
  8
Object
100
AcDbLine
 10
27.53666666666667
 20
5.081111111111111
 30
0.0
 11
27.53666666666667
 21
5.055555555555555
 31
0.0
  0
LINE
  5
38C
330
18
100
AcDbEntity
  8
Object
100
AcDbLine
 10
27.53666666666667
 20
5.055555555555555
 30
0.0
 11
27.53666666666667
 21
5.037777777777777
 31
0.0
  0
LINE
  5
38D
330
18
100
AcDbEntity
  8
Object
100
AcDbLine
 10
27.53666666666667
 20
5.037777777777777
 30
0.0
 11
27.53666666666667
 21
5.026666666666666
 31
0.0
  0
LINE
  5
38E
330
18
100
AcDbEntity
  8
Object
100
AcDbLine
 10
27.53666666666667
 20
9.155555555555555
 30
0.0
 11
27.53666666666667
 21
5.535555555555555
 31
0.0
  0
LINE
  5
38F
330
18
100
AcDbEntity
  8
Object
100
AcDbLine
 10
27.53666666666667
 20
9.595555555555556
 30
0.0
 11
27.53666666666667
 21
9.612222222222222
 31
0.0
  0
LINE
  5
390
330
18
100
AcDbEntity
  8
Object
100
AcDbLine
 10
27.53666666666667
 20
9.612222222222222
 30
0.0
 11
27.53666666666667
 21
9.619999999999999
 31
0.0
  0
LINE
  5
391
330
18
100
AcDbEntity
  8
Object
100
AcDbLine
 10
27.53666666666667
 20
9.595555555555556
 30
0.0
 11
27.53666666666667
 21
9.573333333333334
 31
0.0
  0
LINE
  5
392
330
18
100
AcDbEntity
  8
Object
100
AcDbLine
 10
27.53666666666667
 20
9.573333333333334
 30
0.0
 11
27.53666666666667
 21
9.544444444444444
 31
0.0
  0
LINE
  5
393
330
18
100
AcDbEntity
  8
Object
100
AcDbLine
 10
27.53666666666667
 20
9.544444444444444
 30
0.0
 11
27.53666666666667
 21
9.508888888888888
 31
0.0
  0
LINE
  5
394
330
18
100
AcDbEntity
  8
Object
100
AcDbLine
 10
27.53666666666667
 20
9.508888888888888
 30
0.0
 11
27.53666666666667
 21
9.468888888888889
 31
0.0
  0
LINE
  5
395
330
18
100
AcDbEntity
  8
Object
100
AcDbLine
 10
27.53666666666667
 20
9.468888888888889
 30
0.0
 11
27.53666666666667
 21
9.423333333333333
 31
0.0
  0
LINE
  5
396
330
18
100
AcDbEntity
  8
Object
100
AcDbLine
 10
27.53666666666667
 20
9.423333333333333
 30
0.0
 11
27.53666666666667
 21
9.374444444444444
 31
0.0
  0
LINE
  5
397
330
18
100
AcDbEntity
  8
Object
100
AcDbLine
 10
27.53666666666667
 20
9.374444444444444
 30
0.0
 11
27.53666666666667
 21
9.322222222222222
 31
0.0
  0
LINE
  5
398
330
18
100
AcDbEntity
  8
Object
100
AcDbLine
 10
27.53666666666667
 20
9.322222222222222
 30
0.0
 11
27.53666666666667
 21
9.267777777777777
 31
0.0
  0
LINE
  5
399
330
18
100
AcDbEntity
  8
Object
100
AcDbLine
 10
27.53666666666667
 20
9.267777777777777
 30
0.0
 11
27.53666666666667
 21
9.21111111111111
 31
0.0
  0
LINE
  5
39A
330
18
100
AcDbEntity
  8
Object
100
AcDbLine
 10
27.53666666666667
 20
9.21111111111111
 30
0.0
 11
27.53666666666667
 21
9.155555555555555
 31
0.0
  0
LINE
  5
39B
330
18
100
AcDbEntity
  8
Object
100
AcDbLine
 10
27.59777777777778
 20
4.963333333333332
 30
0.0
 11
27.59777777777778
 21
4.959999999999999
 31
0.0
  0
LINE
  5
39C
330
18
100
AcDbEntity
  8
Object
100
AcDbLine
 10
27.59777777777778
 20
4.959999999999999
 30
0.0
 11
27.57888888888889
 21
4.963333333333332
 31
0.0
  0
LINE
  5
39D
330
18
100
AcDbEntity
  8
Object
100
AcDbLine
 10
27.57888888888889
 20
5.531111111111111
 30
0.0
 11
27.59777777777778
 21
5.531111111111111
 31
0.0
  0
LINE
  5
39E
330
18
100
AcDbEntity
  8
Object
100
AcDbLine
 10
27.59777777777778
 20
5.531111111111111
 30
0.0
 11
27.59777777777778
 21
5.466666666666666
 31
0.0
  0
LINE
  5
39F
330
18
100
AcDbEntity
  8
Object
100
AcDbLine
 10
27.59777777777778
 20
5.466666666666666
 30
0.0
 11
27.59777777777778
 21
5.402222222222222
 31
0.0
  0
LINE
  5
3A0
330
18
100
AcDbEntity
  8
Object
100
AcDbLine
 10
27.59777777777778
 20
5.402222222222222
 30
0.0
 11
27.59777777777778
 21
5.339999999999999
 31
0.0
  0
LINE
  5
3A1
330
18
100
AcDbEntity
  8
Object
100
AcDbLine
 10
27.59777777777778
 20
5.224444444444444
 30
0.0
 11
27.59777777777778
 21
5.281111111111111
 31
0.0
  0
LINE
  5
3A2
330
18
100
AcDbEntity
  8
Object
100
AcDbLine
 10
27.59777777777778
 20
5.125555555555555
 30
0.0
 11
27.59777777777778
 21
5.172222222222222
 31
0.0
  0
LINE
  5
3A3
330
18
100
AcDbEntity
  8
Object
100
AcDbLine
 10
27.59777777777778
 20
5.046666666666666
 30
0.0
 11
27.59777777777778
 21
5.083333333333333
 31
0.0
  0
LINE
  5
3A4
330
18
100
AcDbEntity
  8
Object
100
AcDbLine
 10
27.59777777777778
 20
4.992222222222221
 30
0.0
 11
27.59777777777778
 21
5.015555555555555
 31
0.0
  0
LINE
  5
3A5
330
18
100
AcDbEntity
  8
Object
100
AcDbLine
 10
27.59777777777778
 20
4.963333333333332
 30
0.0
 11
27.59777777777778
 21
4.974444444444444
 31
0.0
  0
LINE
  5
3A6
330
18
100
AcDbEntity
  8
Object
100
AcDbLine
 10
27.59777777777778
 20
5.281111111111111
 30
0.0
 11
27.59777777777778
 21
5.339999999999999
 31
0.0
  0
LINE
  5
3A7
330
18
100
AcDbEntity
  8
Object
100
AcDbLine
 10
27.59777777777778
 20
5.172222222222222
 30
0.0
 11
27.59777777777778
 21
5.224444444444444
 31
0.0
  0
LINE
  5
3A8
330
18
100
AcDbEntity
  8
Object
100
AcDbLine
 10
27.59777777777778
 20
5.083333333333333
 30
0.0
 11
27.59777777777778
 21
5.125555555555555
 31
0.0
  0
LINE
  5
3A9
330
18
100
AcDbEntity
  8
Object
100
AcDbLine
 10
27.59777777777778
 20
5.015555555555555
 30
0.0
 11
27.59777777777778
 21
5.046666666666666
 31
0.0
  0
LINE
  5
3AA
330
18
100
AcDbEntity
  8
Object
100
AcDbLine
 10
27.59777777777778
 20
4.974444444444444
 30
0.0
 11
27.59777777777778
 21
4.992222222222221
 31
0.0
  0
LINE
  5
3AB
330
18
100
AcDbEntity
  8
Object
100
AcDbLine
 10
27.57888888888889
 20
4.963333333333332
 30
0.0
 11
27.56222222222222
 21
4.972222222222222
 31
0.0
  0
LINE
  5
3AC
330
18
100
AcDbEntity
  8
Object
100
AcDbLine
 10
27.56222222222222
 20
4.972222222222222
 30
0.0
 11
27.54777777777778
 21
4.986666666666666
 31
0.0
  0
LINE
  5
3AD
330
18
100
AcDbEntity
  8
Object
100
AcDbLine
 10
27.54777777777778
 20
4.986666666666666
 30
0.0
 11
27.53888888888889
 21
5.003333333333332
 31
0.0
  0
LINE
  5
3AE
330
18
100
AcDbEntity
  8
Object
100
AcDbLine
 10
27.53666666666667
 20
5.411111111111111
 30
0.0
 11
27.53666666666667
 21
5.472222222222222
 31
0.0
  0
LINE
  5
3AF
330
18
100
AcDbEntity
  8
Object
100
AcDbLine
 10
27.53666666666667
 20
5.472222222222222
 30
0.0
 11
27.53666666666667
 21
5.535555555555555
 31
0.0
  0
LINE
  5
3B0
330
18
100
AcDbEntity
  8
Object
100
AcDbLine
 10
27.53666666666667
 20
5.35111111111111
 30
0.0
 11
27.53666666666667
 21
5.294444444444444
 31
0.0
  0
LINE
  5
3B1
330
18
100
AcDbEntity
  8
Object
100
AcDbLine
 10
27.53666666666667
 20
5.242222222222221
 30
0.0
 11
27.53666666666667
 21
5.193333333333333
 31
0.0
  0
LINE
  5
3B2
330
18
100
AcDbEntity
  8
Object
100
AcDbLine
 10
27.53666666666667
 20
5.15
 30
0.0
 11
27.53666666666667
 21
5.112222222222222
 31
0.0
  0
LINE
  5
3B3
330
18
100
AcDbEntity
  8
Object
100
AcDbLine
 10
27.53666666666667
 20
5.081111111111111
 30
0.0
 11
27.53666666666667
 21
5.055555555555555
 31
0.0
  0
LINE
  5
3B4
330
18
100
AcDbEntity
  8
Object
100
AcDbLine
 10
27.53666666666667
 20
5.023333333333333
 30
0.0
 11
27.53888888888889
 21
5.003333333333332
 31
0.0
  0
LINE
  5
3B5
330
18
100
AcDbEntity
  8
Object
100
AcDbLine
 10
27.53666666666667
 20
5.055555555555555
 30
0.0
 11
27.53666666666667
 21
5.037777777777777
 31
0.0
  0
LINE
  5
3B6
330
18
100
AcDbEntity
  8
Object
100
AcDbLine
 10
27.53666666666667
 20
5.112222222222222
 30
0.0
 11
27.53666666666667
 21
5.081111111111111
 31
0.0
  0
LINE
  5
3B7
330
18
100
AcDbEntity
  8
Object
100
AcDbLine
 10
27.53666666666667
 20
5.193333333333333
 30
0.0
 11
27.53666666666667
 21
5.15
 31
0.0
  0
LINE
  5
3B8
330
18
100
AcDbEntity
  8
Object
100
AcDbLine
 10
27.53666666666667
 20
5.294444444444444
 30
0.0
 11
27.53666666666667
 21
5.242222222222221
 31
0.0
  0
LINE
  5
3B9
330
18
100
AcDbEntity
  8
Object
100
AcDbLine
 10
27.53666666666667
 20
5.411111111111111
 30
0.0
 11
27.53666666666667
 21
5.35111111111111
 31
0.0
  0
LINE
  5
3BA
330
18
100
AcDbEntity
  8
Object
100
AcDbLine
 10
27.53666666666667
 20
5.037777777777777
 30
0.0
 11
27.53666666666667
 21
5.026666666666666
 31
0.0
  0
LINE
  5
3BB
330
18
100
AcDbEntity
  8
Object
100
AcDbLine
 10
27.53666666666667
 20
5.026666666666666
 30
0.0
 11
27.53666666666667
 21
5.023333333333333
 31
0.0
  0
LINE
  5
3BC
330
18
100
AcDbEntity
  8
Object
100
AcDbLine
 10
28.47444444444445
 20
5.405555555555555
 30
0.0
 11
28.47444444444445
 21
5.468888888888888
 31
0.0
  0
LINE
  5
3BD
330
18
100
AcDbEntity
  8
Object
100
AcDbLine
 10
28.47444444444445
 20
5.468888888888888
 30
0.0
 11
28.47444444444445
 21
5.532222222222221
 31
0.0
  0
LINE
  5
3BE
330
18
100
AcDbEntity
  8
Object
100
AcDbLine
 10
28.47444444444445
 20
5.286666666666667
 30
0.0
 11
28.47444444444445
 21
5.345555555555555
 31
0.0
  0
LINE
  5
3BF
330
18
100
AcDbEntity
  8
Object
100
AcDbLine
 10
28.47444444444445
 20
5.181111111111111
 30
0.0
 11
28.47444444444445
 21
5.232222222222222
 31
0.0
  0
LINE
  5
3C0
330
18
100
AcDbEntity
  8
Object
100
AcDbLine
 10
28.47444444444445
 20
5.134444444444444
 30
0.0
 11
28.47444444444445
 21
5.093333333333333
 31
0.0
  0
LINE
  5
3C1
330
18
100
AcDbEntity
  8
Object
100
AcDbLine
 10
28.47444444444445
 20
5.093333333333333
 30
0.0
 11
28.47444444444445
 21
5.057777777777777
 31
0.0
  0
LINE
  5
3C2
330
18
100
AcDbEntity
  8
Object
100
AcDbLine
 10
28.47444444444445
 20
5.057777777777777
 30
0.0
 11
28.47444444444445
 21
5.027777777777777
 31
0.0
  0
LINE
  5
3C3
330
18
100
AcDbEntity
  8
Object
100
AcDbLine
 10
28.47444444444445
 20
4.986666666666666
 30
0.0
 11
28.47444444444445
 21
5.004444444444444
 31
0.0
  0
LINE
  5
3C4
330
18
100
AcDbEntity
  8
Object
100
AcDbLine
 10
28.47444444444445
 20
4.976666666666666
 30
0.0
 11
28.47444444444445
 21
4.973333333333333
 31
0.0
  0
LINE
  5
3C5
330
18
100
AcDbEntity
  8
Object
100
AcDbLine
 10
28.47444444444445
 20
4.973333333333333
 30
0.0
 11
27.66111111111111
 21
4.958888888888888
 31
0.0
  0
LINE
  5
3C6
330
18
100
AcDbEntity
  8
Object
100
AcDbLine
 10
28.47444444444445
 20
4.976666666666666
 30
0.0
 11
28.47444444444445
 21
4.986666666666666
 31
0.0
  0
LINE
  5
3C7
330
18
100
AcDbEntity
  8
Object
100
AcDbLine
 10
28.47444444444445
 20
5.004444444444444
 30
0.0
 11
28.47444444444445
 21
5.027777777777777
 31
0.0
  0
LINE
  5
3C8
330
18
100
AcDbEntity
  8
Object
100
AcDbLine
 10
28.47444444444445
 20
5.134444444444444
 30
0.0
 11
28.47444444444445
 21
5.181111111111111
 31
0.0
  0
LINE
  5
3C9
330
18
100
AcDbEntity
  8
Object
100
AcDbLine
 10
28.47444444444445
 20
5.232222222222222
 30
0.0
 11
28.47444444444445
 21
5.286666666666667
 31
0.0
  0
LINE
  5
3CA
330
18
100
AcDbEntity
  8
Object
100
AcDbLine
 10
28.47444444444445
 20
5.345555555555555
 30
0.0
 11
28.47444444444445
 21
5.405555555555555
 31
0.0
  0
LINE
  5
3CB
330
18
100
AcDbEntity
  8
Object
100
AcDbLine
 10
18.15222222222222
 20
9.151111111111111
 30
0.0
 11
18.11666666666667
 21
8.641111111111111
 31
0.0
  0
LINE
  5
3CC
330
18
100
AcDbEntity
  8
Object
100
AcDbLine
 10
18.11666666666667
 20
8.641111111111111
 30
0.0
 11
18.11444444444444
 21
8.608888888888888
 31
0.0
  0
LINE
  5
3CD
330
18
100
AcDbEntity
  8
Object
100
AcDbLine
 10
18.06111111111111
 20
9.475555555555555
 30
0.0
 11
18.02222222222222
 21
9.523333333333333
 31
0.0
  0
LINE
  5
3CE
330
18
100
AcDbEntity
  8
Object
100
AcDbLine
 10
18.02222222222222
 20
9.523333333333333
 30
0.0
 11
17.97777777777778
 21
9.566666666666666
 31
0.0
  0
LINE
  5
3CF
330
18
100
AcDbEntity
  8
Object
100
AcDbLine
 10
17.97777777777778
 20
9.566666666666666
 30
0.0
 11
17.92888888888889
 21
9.603333333333333
 31
0.0
  0
LINE
  5
3D0
330
18
100
AcDbEntity
  8
Object
100
AcDbLine
 10
17.92888888888889
 20
9.603333333333333
 30
0.0
 11
17.87444444444444
 21
9.634444444444444
 31
0.0
  0
LINE
  5
3D1
330
18
100
AcDbEntity
  8
Object
100
AcDbLine
 10
17.87444444444444
 20
9.634444444444444
 30
0.0
 11
17.81777777777778
 21
9.657777777777777
 31
0.0
  0
LINE
  5
3D2
330
18
100
AcDbEntity
  8
Object
100
AcDbLine
 10
17.81777777777778
 20
9.657777777777777
 30
0.0
 11
17.75888888888889
 21
9.674444444444445
 31
0.0
  0
LINE
  5
3D3
330
18
100
AcDbEntity
  8
Object
100
AcDbLine
 10
17.75888888888889
 20
9.674444444444445
 30
0.0
 11
17.69777777777777
 21
9.683333333333333
 31
0.0
  0
LINE
  5
3D4
330
18
100
AcDbEntity
  8
Object
100
AcDbLine
 10
18.15222222222222
 20
9.151111111111111
 30
0.0
 11
18.15333333333333
 21
9.162222222222222
 31
0.0
  0
LINE
  5
3D5
330
18
100
AcDbEntity
  8
Object
100
AcDbLine
 10
18.15333333333333
 20
9.162222222222222
 30
0.0
 11
18.15333333333333
 21
9.173333333333333
 31
0.0
  0
LINE
  5
3D6
330
18
100
AcDbEntity
  8
Object
100
AcDbLine
 10
18.15333333333333
 20
9.173333333333333
 30
0.0
 11
18.15333333333333
 21
9.185555555555556
 31
0.0
  0
LINE
  5
3D7
330
18
100
AcDbEntity
  8
Object
100
AcDbLine
 10
18.15333333333333
 20
9.185555555555556
 30
0.0
 11
18.15
 21
9.246666666666666
 31
0.0
  0
LINE
  5
3D8
330
18
100
AcDbEntity
  8
Object
100
AcDbLine
 10
18.15
 20
9.246666666666666
 30
0.0
 11
18.13888888888889
 21
9.307777777777777
 31
0.0
  0
LINE
  5
3D9
330
18
100
AcDbEntity
  8
Object
100
AcDbLine
 10
18.13888888888889
 20
9.307777777777777
 30
0.0
 11
18.12
 21
9.366666666666667
 31
0.0
  0
LINE
  5
3DA
330
18
100
AcDbEntity
  8
Object
100
AcDbLine
 10
18.12
 20
9.366666666666667
 30
0.0
 11
18.09333333333333
 21
9.423333333333333
 31
0.0
  0
LINE
  5
3DB
330
18
100
AcDbEntity
  8
Object
100
AcDbLine
 10
18.09333333333333
 20
9.423333333333333
 30
0.0
 11
18.06111111111111
 21
9.475555555555555
 31
0.0
  0
LINE
  5
3DC
330
18
100
AcDbEntity
  8
Object
100
AcDbLine
 10
15.75222222222222
 20
4.958888888888888
 30
0.0
 11
17.00222222222222
 21
4.958888888888888
 31
0.0
  0
LINE
  5
3DD
330
18
100
AcDbEntity
  8
Object
100
AcDbLine
 10
11.59444444444444
 20
4.958888888888888
 30
0.0
 11
13.69888888888889
 21
4.958888888888888
 31
0.0
  0
LINE
  5
3DE
330
18
100
AcDbEntity
  8
Object
100
AcDbLine
 10
17.69777777777777
 20
9.683333333333333
 30
0.0
 11
11.29888888888889
 21
10.24333333333333
 31
0.0
  0
LINE
  5
3DF
330
18
100
AcDbEntity
  8
Object
100
AcDbLine
 10
11.29888888888889
 20
10.24333333333333
 30
0.0
 11
11.25555555555555
 21
10.24555555555555
 31
0.0
  0
LINE
  5
3E0
330
18
100
AcDbEntity
  8
Object
100
AcDbLine
 10
11.25555555555555
 20
10.24555555555555
 30
0.0
 11
11.21222222222222
 21
10.24333333333333
 31
0.0
  0
LINE
  5
3E1
330
18
100
AcDbEntity
  8
Object
100
AcDbLine
 10
11.21222222222222
 20
10.24333333333333
 30
0.0
 11
4.813333333333333
 21
9.683333333333333
 31
0.0
  0
LINE
  5
3E2
330
18
100
AcDbEntity
  8
Object
100
AcDbLine
 10
4.813333333333333
 20
9.683333333333333
 30
0.0
 11
4.754444444444444
 21
9.674444444444445
 31
0.0
  0
LINE
  5
3E3
330
18
100
AcDbEntity
  8
Object
100
AcDbLine
 10
4.754444444444444
 20
9.674444444444445
 30
0.0
 11
4.696666666666666
 21
9.658888888888888
 31
0.0
  0
LINE
  5
3E4
330
18
100
AcDbEntity
  8
Object
100
AcDbLine
 10
4.696666666666666
 20
9.658888888888888
 30
0.0
 11
4.642222222222222
 21
9.636666666666666
 31
0.0
  0
LINE
  5
3E5
330
18
100
AcDbEntity
  8
Object
100
AcDbLine
 10
4.642222222222222
 20
9.636666666666666
 30
0.0
 11
4.589999999999999
 21
9.607777777777778
 31
0.0
  0
LINE
  5
3E6
330
18
100
AcDbEntity
  8
Object
100
AcDbLine
 10
4.589999999999999
 20
9.607777777777778
 30
0.0
 11
4.541111111111111
 21
9.573333333333334
 31
0.0
  0
LINE
  5
3E7
330
18
100
AcDbEntity
  8
Object
100
AcDbLine
 10
4.541111111111111
 20
9.573333333333334
 30
0.0
 11
4.496666666666667
 21
9.532222222222221
 31
0.0
  0
LINE
  5
3E8
330
18
100
AcDbEntity
  8
Object
100
AcDbLine
 10
4.496666666666667
 20
9.532222222222221
 30
0.0
 11
4.458888888888888
 21
9.486666666666666
 31
0.0
  0
LINE
  5
3E9
330
18
100
AcDbEntity
  8
Object
100
AcDbLine
 10
4.458888888888888
 20
9.486666666666666
 30
0.0
 11
4.425555555555555
 21
9.436666666666667
 31
0.0
  0
LINE
  5
3EA
330
18
100
AcDbEntity
  8
Object
100
AcDbLine
 10
4.425555555555555
 20
9.436666666666667
 30
0.0
 11
4.398888888888889
 21
9.384444444444444
 31
0.0
  0
LINE
  5
3EB
330
18
100
AcDbEntity
  8
Object
100
AcDbLine
 10
4.394444444444444
 20
8.641111111111111
 30
0.0
 11
4.396666666666666
 21
8.608888888888888
 31
0.0
  0
LINE
  5
3EC
330
18
100
AcDbEntity
  8
Object
100
AcDbLine
 10
4.398888888888889
 20
9.384444444444444
 30
0.0
 11
4.377777777777778
 21
9.327777777777777
 31
0.0
  0
LINE
  5
3ED
330
18
100
AcDbEntity
  8
Object
100
AcDbLine
 10
4.377777777777778
 20
9.327777777777777
 30
0.0
 11
4.364444444444444
 21
9.269999999999999
 31
0.0
  0
LINE
  5
3EE
330
18
100
AcDbEntity
  8
Object
100
AcDbLine
 10
4.358888888888889
 20
9.151111111111111
 30
0.0
 11
4.394444444444444
 21
8.641111111111111
 31
0.0
  0
LINE
  5
3EF
330
18
100
AcDbEntity
  8
Object
100
AcDbLine
 10
4.364444444444444
 20
9.269999999999999
 30
0.0
 11
4.357777777777777
 21
9.21
 31
0.0
  0
LINE
  5
3F0
330
18
100
AcDbEntity
  8
Object
100
AcDbLine
 10
4.357777777777777
 20
9.21
 30
0.0
 11
4.358888888888889
 21
9.151111111111111
 31
0.0
  0
LINE
  5
3F1
330
18
100
AcDbEntity
  8
Object
100
AcDbLine
 10
18.15222222222222
 20
9.185555555555556
 30
0.0
 11
18.15333333333333
 21
9.185555555555556
 31
0.0
  0
LINE
  5
3F2
330
18
100
AcDbEntity
  8
Object
100
AcDbLine
 10
18.14888888888889
 20
9.246666666666666
 30
0.0
 11
18.13777777777778
 21
9.307777777777777
 31
0.0
  0
LINE
  5
3F3
330
18
100
AcDbEntity
  8
Object
100
AcDbLine
 10
18.13777777777778
 20
9.307777777777777
 30
0.0
 11
18.11888888888889
 21
9.366666666666667
 31
0.0
  0
LINE
  5
3F4
330
18
100
AcDbEntity
  8
Object
100
AcDbLine
 10
18.11888888888889
 20
9.366666666666667
 30
0.0
 11
18.09333333333333
 21
9.422222222222222
 31
0.0
  0
LINE
  5
3F5
330
18
100
AcDbEntity
  8
Object
100
AcDbLine
 10
18.09333333333333
 20
9.422222222222222
 30
0.0
 11
18.06
 21
9.474444444444444
 31
0.0
  0
LINE
  5
3F6
330
18
100
AcDbEntity
  8
Object
100
AcDbLine
 10
18.06
 20
9.474444444444444
 30
0.0
 11
18.02111111111111
 21
9.522222222222222
 31
0.0
  0
LINE
  5
3F7
330
18
100
AcDbEntity
  8
Object
100
AcDbLine
 10
18.02111111111111
 20
9.522222222222222
 30
0.0
 11
17.97666666666667
 21
9.565555555555555
 31
0.0
  0
LINE
  5
3F8
330
18
100
AcDbEntity
  8
Object
100
AcDbLine
 10
17.97666666666667
 20
9.565555555555555
 30
0.0
 11
17.92777777777778
 21
9.602222222222222
 31
0.0
  0
LINE
  5
3F9
330
18
100
AcDbEntity
  8
Object
100
AcDbLine
 10
17.92777777777778
 20
9.602222222222222
 30
0.0
 11
17.87444444444444
 21
9.633333333333332
 31
0.0
  0
LINE
  5
3FA
330
18
100
AcDbEntity
  8
Object
100
AcDbLine
 10
17.87444444444444
 20
9.633333333333332
 30
0.0
 11
17.81777777777778
 21
9.656666666666666
 31
0.0
  0
LINE
  5
3FB
330
18
100
AcDbEntity
  8
Object
100
AcDbLine
 10
17.81777777777778
 20
9.656666666666666
 30
0.0
 11
17.75777777777778
 21
9.673333333333333
 31
0.0
  0
LINE
  5
3FC
330
18
100
AcDbEntity
  8
Object
100
AcDbLine
 10
17.75777777777778
 20
9.673333333333333
 30
0.0
 11
17.69666666666666
 21
9.682222222222222
 31
0.0
  0
LINE
  5
3FD
330
18
100
AcDbEntity
  8
Object
100
AcDbLine
 10
11.21222222222222
 20
10.24333333333333
 30
0.0
 11
11.21222222222222
 21
10.24222222222222
 31
0.0
  0
LINE
  5
3FE
330
18
100
AcDbEntity
  8
Object
100
AcDbLine
 10
11.21222222222222
 20
10.24222222222222
 30
0.0
 11
4.813333333333333
 21
9.682222222222222
 31
0.0
  0
LINE
  5
3FF
330
18
100
AcDbEntity
  8
Object
100
AcDbLine
 10
17.28555555555555
 20
4.959999999999999
 30
0.0
 11
17.28555555555555
 21
4.958888888888888
 31
0.0
  0
LINE
  5
400
330
18
100
AcDbEntity
  8
Object
100
AcDbLine
 10
17.28555555555555
 20
4.958888888888888
 30
0.0
 11
17.00222222222222
 21
4.958888888888888
 31
0.0
  0
LINE
  5
401
330
18
100
AcDbEntity
  8
Object
100
AcDbLine
 10
13.69888888888889
 20
4.958888888888888
 30
0.0
 11
15.75222222222222
 21
4.958888888888888
 31
0.0
  0
LINE
  5
402
330
18
100
AcDbEntity
  8
Object
100
AcDbLine
 10
11.59444444444444
 20
4.958888888888888
 30
0.0
 11
10.91555555555555
 21
4.958888888888888
 31
0.0
  0
LINE
  5
403
330
18
100
AcDbEntity
  8
Object
100
AcDbLine
 10
10.91555555555555
 20
4.958888888888888
 30
0.0
 11
8.812222222222223
 21
4.958888888888888
 31
0.0
  0
LINE
  5
404
330
18
100
AcDbEntity
  8
Object
100
AcDbLine
 10
8.812222222222223
 20
4.958888888888888
 30
0.0
 11
6.758888888888888
 21
4.958888888888888
 31
0.0
  0
LINE
  5
405
330
18
100
AcDbEntity
  8
Object
100
AcDbLine
 10
6.758888888888888
 20
4.958888888888888
 30
0.0
 11
5.508888888888888
 21
4.958888888888888
 31
0.0
  0
LINE
  5
406
330
18
100
AcDbEntity
  8
Object
100
AcDbLine
 10
5.508888888888888
 20
4.958888888888888
 30
0.0
 11
5.225555555555555
 21
4.958888888888888
 31
0.0
  0
LINE
  5
407
330
18
100
AcDbEntity
  8
Object
100
AcDbLine
 10
17.28555555555555
 20
4.959999999999999
 30
0.0
 11
5.225555555555555
 21
4.959999999999999
 31
0.0
  0
LINE
  5
408
330
18
100
AcDbEntity
  8
Object
100
AcDbLine
 10
4.36
 20
9.151111111111111
 30
0.0
 11
4.395555555555555
 21
8.641111111111111
 31
0.0
  0
LINE
  5
409
330
18
100
AcDbEntity
  8
Object
100
AcDbLine
 10
4.395555555555555
 20
8.641111111111111
 30
0.0
 11
4.394444444444444
 21
8.641111111111111
 31
0.0
  0
LINE
  5
40A
330
18
100
AcDbEntity
  8
Object
100
AcDbLine
 10
17.69666666666666
 20
9.682222222222222
 30
0.0
 11
17.69777777777777
 21
9.683333333333333
 31
0.0
  0
LINE
  5
40B
330
18
100
AcDbEntity
  8
Object
100
AcDbLine
 10
4.813333333333333
 20
9.683333333333333
 30
0.0
 11
4.813333333333333
 21
9.682222222222222
 31
0.0
  0
LINE
  5
40C
330
18
100
AcDbEntity
  8
Object
100
AcDbLine
 10
4.813333333333333
 20
9.682222222222222
 30
0.0
 11
4.754444444444444
 21
9.673333333333333
 31
0.0
  0
LINE
  5
40D
330
18
100
AcDbEntity
  8
Object
100
AcDbLine
 10
4.754444444444444
 20
9.673333333333333
 30
0.0
 11
4.697777777777777
 21
9.657777777777777
 31
0.0
  0
LINE
  5
40E
330
18
100
AcDbEntity
  8
Object
100
AcDbLine
 10
4.697777777777777
 20
9.657777777777777
 30
0.0
 11
4.642222222222222
 21
9.635555555555555
 31
0.0
  0
LINE
  5
40F
330
18
100
AcDbEntity
  8
Object
100
AcDbLine
 10
4.642222222222222
 20
9.635555555555555
 30
0.0
 11
4.589999999999999
 21
9.606666666666667
 31
0.0
  0
LINE
  5
410
330
18
100
AcDbEntity
  8
Object
100
AcDbLine
 10
4.589999999999999
 20
9.606666666666667
 30
0.0
 11
4.542222222222222
 21
9.572222222222222
 31
0.0
  0
LINE
  5
411
330
18
100
AcDbEntity
  8
Object
100
AcDbLine
 10
4.542222222222222
 20
9.572222222222222
 30
0.0
 11
4.497777777777777
 21
9.53111111111111
 31
0.0
  0
LINE
  5
412
330
18
100
AcDbEntity
  8
Object
100
AcDbLine
 10
4.497777777777777
 20
9.53111111111111
 30
0.0
 11
4.458888888888888
 21
9.486666666666666
 31
0.0
  0
LINE
  5
413
330
18
100
AcDbEntity
  8
Object
100
AcDbLine
 10
4.458888888888888
 20
9.486666666666666
 30
0.0
 11
4.426666666666666
 21
9.436666666666667
 31
0.0
  0
LINE
  5
414
330
18
100
AcDbEntity
  8
Object
100
AcDbLine
 10
4.426666666666666
 20
9.436666666666667
 30
0.0
 11
4.398888888888889
 21
9.383333333333332
 31
0.0
  0
LINE
  5
415
330
18
100
AcDbEntity
  8
Object
100
AcDbLine
 10
4.398888888888889
 20
9.383333333333332
 30
0.0
 11
4.378888888888888
 21
9.327777777777777
 31
0.0
  0
LINE
  5
416
330
18
100
AcDbEntity
  8
Object
100
AcDbLine
 10
4.378888888888888
 20
9.327777777777777
 30
0.0
 11
4.365555555555555
 21
9.268888888888888
 31
0.0
  0
LINE
  5
417
330
18
100
AcDbEntity
  8
Object
100
AcDbLine
 10
4.365555555555555
 20
9.268888888888888
 30
0.0
 11
4.358888888888889
 21
9.21
 31
0.0
  0
LINE
  5
418
330
18
100
AcDbEntity
  8
Object
100
AcDbLine
 10
4.358888888888889
 20
9.21
 30
0.0
 11
4.36
 21
9.151111111111111
 31
0.0
  0
LINE
  5
419
330
18
100
AcDbEntity
  8
Object
100
AcDbLine
 10
4.36
 20
9.151111111111111
 30
0.0
 11
4.358888888888889
 21
9.151111111111111
 31
0.0
  0
LINE
  5
41A
330
18
100
AcDbEntity
  8
Object
100
AcDbLine
 10
4.612222222222222
 20
5.531111111111111
 30
0.0
 11
4.61111111111111
 21
5.531111111111111
 31
0.0
  0
LINE
  5
41B
330
18
100
AcDbEntity
  8
Object
100
AcDbLine
 10
4.61111111111111
 20
5.531111111111111
 30
0.0
 11
4.396666666666666
 21
8.608888888888888
 31
0.0
  0
LINE
  5
41C
330
18
100
AcDbEntity
  8
Object
100
AcDbLine
 10
4.612222222222222
 20
5.531111111111111
 30
0.0
 11
4.395555555555555
 21
8.641111111111111
 31
0.0
  0
LINE
  5
41D
330
18
100
AcDbEntity
  8
Object
100
AcDbLine
 10
18.11666666666667
 20
8.641111111111111
 30
0.0
 11
18.11555555555555
 21
8.641111111111111
 31
0.0
  0
LINE
  5
41E
330
18
100
AcDbEntity
  8
Object
100
AcDbLine
 10
17.9
 20
5.531111111111111
 30
0.0
 11
18.11444444444444
 21
8.608888888888888
 31
0.0
  0
LINE
  5
41F
330
18
100
AcDbEntity
  8
Object
100
AcDbLine
 10
11.29888888888889
 20
10.24222222222222
 30
0.0
 11
11.29888888888889
 21
10.24333333333333
 31
0.0
  0
LINE
  5
420
330
18
100
AcDbEntity
  8
Object
100
AcDbLine
 10
18.11555555555555
 20
8.641111111111111
 30
0.0
 11
18.15111111111111
 21
9.151111111111111
 31
0.0
  0
LINE
  5
421
330
18
100
AcDbEntity
  8
Object
100
AcDbLine
 10
18.15111111111111
 20
9.151111111111111
 30
0.0
 11
18.15222222222222
 21
9.151111111111111
 31
0.0
  0
LINE
  5
422
330
18
100
AcDbEntity
  8
Object
100
AcDbLine
 10
18.15222222222222
 20
9.173333333333333
 30
0.0
 11
18.15222222222222
 21
9.185555555555556
 31
0.0
  0
LINE
  5
423
330
18
100
AcDbEntity
  8
Object
100
AcDbLine
 10
18.15222222222222
 20
9.185555555555556
 30
0.0
 11
18.14888888888889
 21
9.246666666666666
 31
0.0
  0
LINE
  5
424
330
18
100
AcDbEntity
  8
Object
100
AcDbLine
 10
18.15222222222222
 20
9.173333333333333
 30
0.0
 11
18.15222222222222
 21
9.162222222222222
 31
0.0
  0
LINE
  5
425
330
18
100
AcDbEntity
  8
Object
100
AcDbLine
 10
18.15222222222222
 20
9.162222222222222
 30
0.0
 11
18.15111111111111
 21
9.151111111111111
 31
0.0
  0
LINE
  5
426
330
18
100
AcDbEntity
  8
Object
100
AcDbLine
 10
17.69222222222222
 20
9.619999999999999
 30
0.0
 11
17.74777777777778
 21
9.612222222222222
 31
0.0
  0
LINE
  5
427
330
18
100
AcDbEntity
  8
Object
100
AcDbLine
 10
11.25555555555555
 20
10.20333333333333
 30
0.0
 11
11.25555555555555
 21
10.18333333333333
 31
0.0
  0
LINE
  5
428
330
18
100
AcDbEntity
  8
Object
100
AcDbLine
 10
11.25555555555555
 20
10.18333333333333
 30
0.0
 11
4.818888888888888
 21
9.619999999999999
 31
0.0
  0
LINE
  5
429
330
18
100
AcDbEntity
  8
Object
100
AcDbLine
 10
11.25555555555555
 20
10.20333333333333
 30
0.0
 11
11.25555555555555
 21
10.22111111111111
 31
0.0
  0
LINE
  5
42A
330
18
100
AcDbEntity
  8
Object
100
AcDbLine
 10
11.25555555555555
 20
10.22111111111111
 30
0.0
 11
11.25555555555555
 21
10.23555555555555
 31
0.0
  0
LINE
  5
42B
330
18
100
AcDbEntity
  8
Object
100
AcDbLine
 10
11.25555555555555
 20
10.23555555555555
 30
0.0
 11
11.25555555555555
 21
10.24444444444444
 31
0.0
  0
LINE
  5
42C
330
18
100
AcDbEntity
  8
Object
100
AcDbLine
 10
11.25555555555555
 20
10.24444444444444
 30
0.0
 11
11.21222222222222
 21
10.24222222222222
 31
0.0
  0
LINE
  5
42D
330
18
100
AcDbEntity
  8
Object
100
AcDbLine
 10
17.28555555555555
 20
4.959999999999999
 30
0.0
 11
17.28555555555555
 21
4.963333333333332
 31
0.0
  0
LINE
  5
42E
330
18
100
AcDbEntity
  8
Object
100
AcDbLine
 10
17.28555555555555
 20
4.972222222222222
 30
0.0
 11
17.28555555555555
 21
4.986666666666666
 31
0.0
  0
LINE
  5
42F
330
18
100
AcDbEntity
  8
Object
100
AcDbLine
 10
5.225555555555555
 20
5.023333333333333
 30
0.0
 11
17.28555555555555
 21
5.023333333333333
 31
0.0
  0
LINE
  5
430
330
18
100
AcDbEntity
  8
Object
100
AcDbLine
 10
17.28555555555555
 20
5.023333333333333
 30
0.0
 11
17.28555555555555
 21
5.003333333333332
 31
0.0
  0
LINE
  5
431
330
18
100
AcDbEntity
  8
Object
100
AcDbLine
 10
17.28555555555555
 20
5.003333333333332
 30
0.0
 11
17.28555555555555
 21
4.986666666666666
 31
0.0
  0
LINE
  5
432
330
18
100
AcDbEntity
  8
Object
100
AcDbLine
 10
17.28555555555555
 20
4.963333333333332
 30
0.0
 11
17.28555555555555
 21
4.972222222222222
 31
0.0
  0
LINE
  5
433
330
18
100
AcDbEntity
  8
Object
100
AcDbLine
 10
17.9
 20
5.531111111111111
 30
0.0
 11
17.89888888888889
 21
5.531111111111111
 31
0.0
  0
LINE
  5
434
330
18
100
AcDbEntity
  8
Object
100
AcDbLine
 10
17.89888888888889
 20
5.531111111111111
 30
0.0
 11
17.89
 21
5.466666666666666
 31
0.0
  0
LINE
  5
435
330
18
100
AcDbEntity
  8
Object
100
AcDbLine
 10
17.87666666666666
 20
5.402222222222222
 30
0.0
 11
17.89111111111111
 21
5.465555555555555
 31
0.0
  0
LINE
  5
436
330
18
100
AcDbEntity
  8
Object
100
AcDbLine
 10
17.89
 20
5.466666666666666
 30
0.0
 11
17.87555555555555
 21
5.402222222222222
 31
0.0
  0
LINE
  5
437
330
18
100
AcDbEntity
  8
Object
100
AcDbLine
 10
17.85444444444444
 20
5.339999999999999
 30
0.0
 11
17.87666666666666
 21
5.402222222222222
 31
0.0
  0
LINE
  5
438
330
18
100
AcDbEntity
  8
Object
100
AcDbLine
 10
17.87555555555555
 20
5.402222222222222
 30
0.0
 11
17.85333333333333
 21
5.339999999999999
 31
0.0
  0
LINE
  5
439
330
18
100
AcDbEntity
  8
Object
100
AcDbLine
 10
17.85333333333333
 20
5.339999999999999
 30
0.0
 11
17.82555555555555
 21
5.281111111111111
 31
0.0
  0
LINE
  5
43A
330
18
100
AcDbEntity
  8
Object
100
AcDbLine
 10
17.85444444444444
 20
5.339999999999999
 30
0.0
 11
17.82555555555555
 21
5.28
 31
0.0
  0
LINE
  5
43B
330
18
100
AcDbEntity
  8
Object
100
AcDbLine
 10
17.82555555555555
 20
5.28
 30
0.0
 11
17.79111111111111
 21
5.224444444444444
 31
0.0
  0
LINE
  5
43C
330
18
100
AcDbEntity
  8
Object
100
AcDbLine
 10
17.79111111111111
 20
5.224444444444444
 30
0.0
 11
17.82555555555555
 21
5.281111111111111
 31
0.0
  0
LINE
  5
43D
330
18
100
AcDbEntity
  8
Object
100
AcDbLine
 10
17.75111111111111
 20
5.172222222222222
 30
0.0
 11
17.79111111111111
 21
5.224444444444444
 31
0.0
  0
LINE
  5
43E
330
18
100
AcDbEntity
  8
Object
100
AcDbLine
 10
17.79111111111111
 20
5.224444444444444
 30
0.0
 11
17.75
 21
5.172222222222222
 31
0.0
  0
LINE
  5
43F
330
18
100
AcDbEntity
  8
Object
100
AcDbLine
 10
17.70555555555555
 20
5.124444444444444
 30
0.0
 11
17.75111111111111
 21
5.172222222222222
 31
0.0
  0
LINE
  5
440
330
18
100
AcDbEntity
  8
Object
100
AcDbLine
 10
17.75
 20
5.172222222222222
 30
0.0
 11
17.70444444444444
 21
5.125555555555555
 31
0.0
  0
LINE
  5
441
330
18
100
AcDbEntity
  8
Object
100
AcDbLine
 10
17.70444444444444
 20
5.125555555555555
 30
0.0
 11
17.65444444444444
 21
5.083333333333333
 31
0.0
  0
LINE
  5
442
330
18
100
AcDbEntity
  8
Object
100
AcDbLine
 10
17.70555555555555
 20
5.124444444444444
 30
0.0
 11
17.65444444444444
 21
5.082222222222222
 31
0.0
  0
LINE
  5
443
330
18
100
AcDbEntity
  8
Object
100
AcDbLine
 10
17.65444444444444
 20
5.082222222222222
 30
0.0
 11
17.6
 21
5.045555555555555
 31
0.0
  0
LINE
  5
444
330
18
100
AcDbEntity
  8
Object
100
AcDbLine
 10
17.65444444444444
 20
5.083333333333333
 30
0.0
 11
17.6
 21
5.046666666666666
 31
0.0
  0
LINE
  5
445
330
18
100
AcDbEntity
  8
Object
100
AcDbLine
 10
17.6
 20
5.046666666666666
 30
0.0
 11
17.54111111111111
 21
5.015555555555555
 31
0.0
  0
LINE
  5
446
330
18
100
AcDbEntity
  8
Object
100
AcDbLine
 10
17.48
 20
4.991111111111111
 30
0.0
 11
17.54222222222222
 21
5.014444444444444
 31
0.0
  0
LINE
  5
447
330
18
100
AcDbEntity
  8
Object
100
AcDbLine
 10
17.54111111111111
 20
5.015555555555555
 30
0.0
 11
17.48
 21
4.992222222222221
 31
0.0
  0
LINE
  5
448
330
18
100
AcDbEntity
  8
Object
100
AcDbLine
 10
17.48
 20
4.992222222222221
 30
0.0
 11
17.41666666666667
 21
4.974444444444444
 31
0.0
  0
LINE
  5
449
330
18
100
AcDbEntity
  8
Object
100
AcDbLine
 10
17.48
 20
4.991111111111111
 30
0.0
 11
17.41666666666667
 21
4.973333333333333
 31
0.0
  0
LINE
  5
44A
330
18
100
AcDbEntity
  8
Object
100
AcDbLine
 10
17.41666666666667
 20
4.973333333333333
 30
0.0
 11
17.35222222222222
 21
4.962222222222222
 31
0.0
  0
LINE
  5
44B
330
18
100
AcDbEntity
  8
Object
100
AcDbLine
 10
17.41666666666667
 20
4.974444444444444
 30
0.0
 11
17.35111111111111
 21
4.963333333333332
 31
0.0
  0
LINE
  5
44C
330
18
100
AcDbEntity
  8
Object
100
AcDbLine
 10
17.28555555555555
 20
4.958888888888888
 30
0.0
 11
17.35222222222222
 21
4.962222222222222
 31
0.0
  0
LINE
  5
44D
330
18
100
AcDbEntity
  8
Object
100
AcDbLine
 10
17.35111111111111
 20
4.963333333333332
 30
0.0
 11
17.28555555555555
 21
4.959999999999999
 31
0.0
  0
LINE
  5
44E
330
18
100
AcDbEntity
  8
Object
100
AcDbLine
 10
5.158888888888888
 20
4.963333333333332
 30
0.0
 11
5.225555555555555
 21
4.959999999999999
 31
0.0
  0
LINE
  5
44F
330
18
100
AcDbEntity
  8
Object
100
AcDbLine
 10
5.225555555555555
 20
4.959999999999999
 30
0.0
 11
5.225555555555555
 21
4.958888888888888
 31
0.0
  0
LINE
  5
450
330
18
100
AcDbEntity
  8
Object
100
AcDbLine
 10
5.225555555555555
 20
4.958888888888888
 30
0.0
 11
5.158888888888888
 21
4.962222222222222
 31
0.0
  0
LINE
  5
451
330
18
100
AcDbEntity
  8
Object
100
AcDbLine
 10
5.158888888888888
 20
4.962222222222222
 30
0.0
 11
5.094444444444444
 21
4.973333333333333
 31
0.0
  0
LINE
  5
452
330
18
100
AcDbEntity
  8
Object
100
AcDbLine
 10
5.158888888888888
 20
4.963333333333332
 30
0.0
 11
5.094444444444444
 21
4.974444444444444
 31
0.0
  0
LINE
  5
453
330
18
100
AcDbEntity
  8
Object
100
AcDbLine
 10
5.094444444444444
 20
4.974444444444444
 30
0.0
 11
5.031111111111111
 21
4.992222222222221
 31
0.0
  0
LINE
  5
454
330
18
100
AcDbEntity
  8
Object
100
AcDbLine
 10
5.031111111111111
 20
4.991111111111111
 30
0.0
 11
5.094444444444444
 21
4.973333333333333
 31
0.0
  0
LINE
  5
455
330
18
100
AcDbEntity
  8
Object
100
AcDbLine
 10
5.031111111111111
 20
4.992222222222221
 30
0.0
 11
4.969999999999999
 21
5.015555555555555
 31
0.0
  0
LINE
  5
456
330
18
100
AcDbEntity
  8
Object
100
AcDbLine
 10
5.031111111111111
 20
4.991111111111111
 30
0.0
 11
4.968888888888888
 21
5.014444444444444
 31
0.0
  0
LINE
  5
457
330
18
100
AcDbEntity
  8
Object
100
AcDbLine
 10
4.968888888888888
 20
5.014444444444444
 30
0.0
 11
4.911111111111111
 21
5.045555555555555
 31
0.0
  0
LINE
  5
458
330
18
100
AcDbEntity
  8
Object
100
AcDbLine
 10
4.969999999999999
 20
5.015555555555555
 30
0.0
 11
4.911111111111111
 21
5.046666666666666
 31
0.0
  0
LINE
  5
459
330
18
100
AcDbEntity
  8
Object
100
AcDbLine
 10
4.856666666666666
 20
5.082222222222222
 30
0.0
 11
4.911111111111111
 21
5.045555555555555
 31
0.0
  0
LINE
  5
45A
330
18
100
AcDbEntity
  8
Object
100
AcDbLine
 10
4.911111111111111
 20
5.046666666666666
 30
0.0
 11
4.856666666666666
 21
5.083333333333333
 31
0.0
  0
LINE
  5
45B
330
18
100
AcDbEntity
  8
Object
100
AcDbLine
 10
4.856666666666666
 20
5.083333333333333
 30
0.0
 11
4.806666666666666
 21
5.125555555555555
 31
0.0
  0
LINE
  5
45C
330
18
100
AcDbEntity
  8
Object
100
AcDbLine
 10
4.805555555555555
 20
5.124444444444444
 30
0.0
 11
4.856666666666666
 21
5.082222222222222
 31
0.0
  0
LINE
  5
45D
330
18
100
AcDbEntity
  8
Object
100
AcDbLine
 10
4.806666666666666
 20
5.125555555555555
 30
0.0
 11
4.761111111111111
 21
5.172222222222222
 31
0.0
  0
LINE
  5
45E
330
18
100
AcDbEntity
  8
Object
100
AcDbLine
 10
4.759999999999999
 20
5.172222222222222
 30
0.0
 11
4.805555555555555
 21
5.124444444444444
 31
0.0
  0
LINE
  5
45F
330
18
100
AcDbEntity
  8
Object
100
AcDbLine
 10
4.761111111111111
 20
5.172222222222222
 30
0.0
 11
4.719999999999999
 21
5.224444444444444
 31
0.0
  0
LINE
  5
460
330
18
100
AcDbEntity
  8
Object
100
AcDbLine
 10
4.719999999999999
 20
5.224444444444444
 30
0.0
 11
4.759999999999999
 21
5.172222222222222
 31
0.0
  0
LINE
  5
461
330
18
100
AcDbEntity
  8
Object
100
AcDbLine
 10
4.685555555555555
 20
5.28
 30
0.0
 11
4.719999999999999
 21
5.224444444444444
 31
0.0
  0
LINE
  5
462
330
18
100
AcDbEntity
  8
Object
100
AcDbLine
 10
4.719999999999999
 20
5.224444444444444
 30
0.0
 11
4.685555555555555
 21
5.281111111111111
 31
0.0
  0
LINE
  5
463
330
18
100
AcDbEntity
  8
Object
100
AcDbLine
 10
4.685555555555555
 20
5.281111111111111
 30
0.0
 11
4.657777777777777
 21
5.339999999999999
 31
0.0
  0
LINE
  5
464
330
18
100
AcDbEntity
  8
Object
100
AcDbLine
 10
4.656666666666666
 20
5.339999999999999
 30
0.0
 11
4.685555555555555
 21
5.28
 31
0.0
  0
LINE
  5
465
330
18
100
AcDbEntity
  8
Object
100
AcDbLine
 10
4.657777777777777
 20
5.339999999999999
 30
0.0
 11
4.635555555555555
 21
5.402222222222222
 31
0.0
  0
LINE
  5
466
330
18
100
AcDbEntity
  8
Object
100
AcDbLine
 10
4.634444444444444
 20
5.402222222222222
 30
0.0
 11
4.656666666666666
 21
5.339999999999999
 31
0.0
  0
LINE
  5
467
330
18
100
AcDbEntity
  8
Object
100
AcDbLine
 10
4.635555555555555
 20
5.402222222222222
 30
0.0
 11
4.621111111111111
 21
5.466666666666666
 31
0.0
  0
LINE
  5
468
330
18
100
AcDbEntity
  8
Object
100
AcDbLine
 10
4.62
 20
5.465555555555555
 30
0.0
 11
4.634444444444444
 21
5.402222222222222
 31
0.0
  0
LINE
  5
469
330
18
100
AcDbEntity
  8
Object
100
AcDbLine
 10
4.621111111111111
 20
5.466666666666666
 30
0.0
 11
4.612222222222222
 21
5.531111111111111
 31
0.0
  0
LINE
  5
46A
330
18
100
AcDbEntity
  8
Object
100
AcDbLine
 10
4.61111111111111
 20
5.531111111111111
 30
0.0
 11
4.62
 21
5.465555555555555
 31
0.0
  0
LINE
  5
46B
330
18
100
AcDbEntity
  8
Object
100
AcDbLine
 10
4.422222222222222
 20
9.154444444444443
 30
0.0
 11
4.675555555555555
 21
5.535555555555555
 31
0.0
  0
LINE
  5
46C
330
18
100
AcDbEntity
  8
Object
100
AcDbLine
 10
4.675555555555555
 20
5.535555555555555
 30
0.0
 11
4.655555555555555
 21
5.534444444444444
 31
0.0
  0
LINE
  5
46D
330
18
100
AcDbEntity
  8
Object
100
AcDbLine
 10
4.422222222222222
 20
9.154444444444443
 30
0.0
 11
4.403333333333333
 21
9.153333333333334
 31
0.0
  0
LINE
  5
46E
330
18
100
AcDbEntity
  8
Object
100
AcDbLine
 10
4.638888888888889
 20
5.533333333333333
 30
0.0
 11
4.655555555555555
 21
5.534444444444444
 31
0.0
  0
LINE
  5
46F
330
18
100
AcDbEntity
  8
Object
100
AcDbLine
 10
4.612222222222222
 20
5.531111111111111
 30
0.0
 11
4.615555555555555
 21
5.531111111111111
 31
0.0
  0
LINE
  5
470
330
18
100
AcDbEntity
  8
Object
100
AcDbLine
 10
4.625555555555555
 20
5.532222222222221
 30
0.0
 11
4.638888888888889
 21
5.533333333333333
 31
0.0
  0
LINE
  5
471
330
18
100
AcDbEntity
  8
Object
100
AcDbLine
 10
4.403333333333333
 20
9.153333333333334
 30
0.0
 11
4.385555555555555
 21
9.152222222222222
 31
0.0
  0
LINE
  5
472
330
18
100
AcDbEntity
  8
Object
100
AcDbLine
 10
4.385555555555555
 20
9.152222222222222
 30
0.0
 11
4.372222222222221
 21
9.151111111111111
 31
0.0
  0
LINE
  5
473
330
18
100
AcDbEntity
  8
Object
100
AcDbLine
 10
4.615555555555555
 20
5.531111111111111
 30
0.0
 11
4.625555555555555
 21
5.532222222222221
 31
0.0
  0
LINE
  5
474
330
18
100
AcDbEntity
  8
Object
100
AcDbLine
 10
4.372222222222221
 20
9.151111111111111
 30
0.0
 11
4.363333333333333
 21
9.151111111111111
 31
0.0
  0
LINE
  5
475
330
18
100
AcDbEntity
  8
Object
100
AcDbLine
 10
17.69666666666666
 20
9.669999999999999
 30
0.0
 11
17.69666666666666
 21
9.678888888888888
 31
0.0
  0
LINE
  5
476
330
18
100
AcDbEntity
  8
Object
100
AcDbLine
 10
17.69444444444444
 20
9.656666666666666
 30
0.0
 11
17.69333333333333
 21
9.638888888888889
 31
0.0
  0
LINE
  5
477
330
18
100
AcDbEntity
  8
Object
100
AcDbLine
 10
17.69333333333333
 20
9.638888888888889
 30
0.0
 11
17.69222222222222
 21
9.619999999999999
 31
0.0
  0
LINE
  5
478
330
18
100
AcDbEntity
  8
Object
100
AcDbLine
 10
17.69444444444444
 20
9.656666666666666
 30
0.0
 11
17.69666666666666
 21
9.669999999999999
 31
0.0
  0
LINE
  5
479
330
18
100
AcDbEntity
  8
Object
100
AcDbLine
 10
17.69666666666666
 20
9.678888888888888
 30
0.0
 11
17.69666666666666
 21
9.682222222222222
 31
0.0
  0
LINE
  5
47A
330
18
100
AcDbEntity
  8
Object
100
AcDbLine
 10
11.25555555555555
 20
10.24444444444444
 30
0.0
 11
11.29888888888889
 21
10.24222222222222
 31
0.0
  0
LINE
  5
47B
330
18
100
AcDbEntity
  8
Object
100
AcDbLine
 10
11.29888888888889
 20
10.24222222222222
 30
0.0
 11
17.69666666666666
 21
9.682222222222222
 31
0.0
  0
LINE
  5
47C
330
18
100
AcDbEntity
  8
Object
100
AcDbLine
 10
4.818888888888888
 20
9.619999999999999
 30
0.0
 11
4.817777777777777
 21
9.638888888888889
 31
0.0
  0
LINE
  5
47D
330
18
100
AcDbEntity
  8
Object
100
AcDbLine
 10
4.817777777777777
 20
9.638888888888889
 30
0.0
 11
4.816666666666666
 21
9.656666666666666
 31
0.0
  0
LINE
  5
47E
330
18
100
AcDbEntity
  8
Object
100
AcDbLine
 10
4.816666666666666
 20
9.656666666666666
 30
0.0
 11
4.814444444444444
 21
9.669999999999999
 31
0.0
  0
LINE
  5
47F
330
18
100
AcDbEntity
  8
Object
100
AcDbLine
 10
4.813333333333333
 20
9.682222222222222
 30
0.0
 11
4.814444444444444
 21
9.678888888888888
 31
0.0
  0
LINE
  5
480
330
18
100
AcDbEntity
  8
Object
100
AcDbLine
 10
4.814444444444444
 20
9.678888888888888
 30
0.0
 11
4.814444444444444
 21
9.669999999999999
 31
0.0
  0
LINE
  5
481
330
18
100
AcDbEntity
  8
Object
100
AcDbLine
 10
4.763333333333333
 20
9.612222222222222
 30
0.0
 11
4.708888888888888
 21
9.595555555555556
 31
0.0
  0
LINE
  5
482
330
18
100
AcDbEntity
  8
Object
100
AcDbLine
 10
4.708888888888888
 20
9.595555555555556
 30
0.0
 11
4.657777777777777
 21
9.573333333333334
 31
0.0
  0
LINE
  5
483
330
18
100
AcDbEntity
  8
Object
100
AcDbLine
 10
4.657777777777777
 20
9.573333333333334
 30
0.0
 11
4.608888888888889
 21
9.544444444444444
 31
0.0
  0
LINE
  5
484
330
18
100
AcDbEntity
  8
Object
100
AcDbLine
 10
4.608888888888889
 20
9.544444444444444
 30
0.0
 11
4.564444444444444
 21
9.508888888888888
 31
0.0
  0
LINE
  5
485
330
18
100
AcDbEntity
  8
Object
100
AcDbLine
 10
4.564444444444444
 20
9.508888888888888
 30
0.0
 11
4.525555555555555
 21
9.468888888888889
 31
0.0
  0
LINE
  5
486
330
18
100
AcDbEntity
  8
Object
100
AcDbLine
 10
4.525555555555555
 20
9.468888888888889
 30
0.0
 11
4.492222222222221
 21
9.423333333333333
 31
0.0
  0
LINE
  5
487
330
18
100
AcDbEntity
  8
Object
100
AcDbLine
 10
4.492222222222221
 20
9.423333333333333
 30
0.0
 11
4.464444444444444
 21
9.374444444444444
 31
0.0
  0
LINE
  5
488
330
18
100
AcDbEntity
  8
Object
100
AcDbLine
 10
4.464444444444444
 20
9.374444444444444
 30
0.0
 11
4.443333333333333
 21
9.322222222222222
 31
0.0
  0
LINE
  5
489
330
18
100
AcDbEntity
  8
Object
100
AcDbLine
 10
4.443333333333333
 20
9.322222222222222
 30
0.0
 11
4.428888888888889
 21
9.267777777777777
 31
0.0
  0
LINE
  5
48A
330
18
100
AcDbEntity
  8
Object
100
AcDbLine
 10
4.428888888888889
 20
9.267777777777777
 30
0.0
 11
4.422222222222222
 21
9.21111111111111
 31
0.0
  0
LINE
  5
48B
330
18
100
AcDbEntity
  8
Object
100
AcDbLine
 10
4.422222222222222
 20
9.21111111111111
 30
0.0
 11
4.422222222222222
 21
9.154444444444443
 31
0.0
  0
LINE
  5
48C
330
18
100
AcDbEntity
  8
Object
100
AcDbLine
 10
4.36
 20
9.151111111111111
 30
0.0
 11
4.363333333333333
 21
9.151111111111111
 31
0.0
  0
LINE
  5
48D
330
18
100
AcDbEntity
  8
Object
100
AcDbLine
 10
18.15111111111111
 20
9.151111111111111
 30
0.0
 11
18.14777777777777
 21
9.151111111111111
 31
0.0
  0
LINE
  5
48E
330
18
100
AcDbEntity
  8
Object
100
AcDbLine
 10
17.89888888888889
 20
5.531111111111111
 30
0.0
 11
18.11555555555555
 21
8.641111111111111
 31
0.0
  0
LINE
  5
48F
330
18
100
AcDbEntity
  8
Object
100
AcDbLine
 10
18.14777777777777
 20
9.151111111111111
 30
0.0
 11
18.13888888888889
 21
9.151111111111111
 31
0.0
  0
LINE
  5
490
330
18
100
AcDbEntity
  8
Object
100
AcDbLine
 10
17.89555555555556
 20
5.531111111111111
 30
0.0
 11
17.88555555555555
 21
5.532222222222221
 31
0.0
  0
LINE
  5
491
330
18
100
AcDbEntity
  8
Object
100
AcDbLine
 10
17.88555555555555
 20
5.532222222222221
 30
0.0
 11
17.87222222222222
 21
5.533333333333333
 31
0.0
  0
LINE
  5
492
330
18
100
AcDbEntity
  8
Object
100
AcDbLine
 10
18.13888888888889
 20
9.151111111111111
 30
0.0
 11
18.12555555555555
 21
9.152222222222222
 31
0.0
  0
LINE
  5
493
330
18
100
AcDbEntity
  8
Object
100
AcDbLine
 10
18.12555555555555
 20
9.152222222222222
 30
0.0
 11
18.10777777777778
 21
9.153333333333334
 31
0.0
  0
LINE
  5
494
330
18
100
AcDbEntity
  8
Object
100
AcDbLine
 10
17.87222222222222
 20
5.533333333333333
 30
0.0
 11
17.85555555555555
 21
5.534444444444444
 31
0.0
  0
LINE
  5
495
330
18
100
AcDbEntity
  8
Object
100
AcDbLine
 10
17.85555555555555
 20
5.534444444444444
 30
0.0
 11
17.83555555555555
 21
5.535555555555555
 31
0.0
  0
LINE
  5
496
330
18
100
AcDbEntity
  8
Object
100
AcDbLine
 10
18.10777777777778
 20
9.153333333333334
 30
0.0
 11
18.08888888888889
 21
9.155555555555555
 31
0.0
  0
LINE
  5
497
330
18
100
AcDbEntity
  8
Object
100
AcDbLine
 10
17.74777777777778
 20
9.612222222222222
 30
0.0
 11
17.80222222222222
 21
9.595555555555556
 31
0.0
  0
LINE
  5
498
330
18
100
AcDbEntity
  8
Object
100
AcDbLine
 10
17.80222222222222
 20
9.595555555555556
 30
0.0
 11
17.85333333333333
 21
9.573333333333334
 31
0.0
  0
LINE
  5
499
330
18
100
AcDbEntity
  8
Object
100
AcDbLine
 10
17.85333333333333
 20
9.573333333333334
 30
0.0
 11
17.90222222222222
 21
9.544444444444444
 31
0.0
  0
LINE
  5
49A
330
18
100
AcDbEntity
  8
Object
100
AcDbLine
 10
17.90222222222222
 20
9.544444444444444
 30
0.0
 11
17.94666666666666
 21
9.508888888888888
 31
0.0
  0
LINE
  5
49B
330
18
100
AcDbEntity
  8
Object
100
AcDbLine
 10
17.94666666666666
 20
9.508888888888888
 30
0.0
 11
17.98555555555555
 21
9.468888888888889
 31
0.0
  0
LINE
  5
49C
330
18
100
AcDbEntity
  8
Object
100
AcDbLine
 10
17.98555555555555
 20
9.468888888888889
 30
0.0
 11
18.01888888888889
 21
9.423333333333333
 31
0.0
  0
LINE
  5
49D
330
18
100
AcDbEntity
  8
Object
100
AcDbLine
 10
18.01888888888889
 20
9.423333333333333
 30
0.0
 11
18.04666666666667
 21
9.374444444444444
 31
0.0
  0
LINE
  5
49E
330
18
100
AcDbEntity
  8
Object
100
AcDbLine
 10
18.04666666666667
 20
9.374444444444444
 30
0.0
 11
18.06777777777778
 21
9.322222222222222
 31
0.0
  0
LINE
  5
49F
330
18
100
AcDbEntity
  8
Object
100
AcDbLine
 10
18.06777777777778
 20
9.322222222222222
 30
0.0
 11
18.08222222222222
 21
9.267777777777777
 31
0.0
  0
LINE
  5
4A0
330
18
100
AcDbEntity
  8
Object
100
AcDbLine
 10
18.08222222222222
 20
9.267777777777777
 30
0.0
 11
18.08888888888889
 21
9.21111111111111
 31
0.0
  0
LINE
  5
4A1
330
18
100
AcDbEntity
  8
Object
100
AcDbLine
 10
18.08888888888889
 20
9.21111111111111
 30
0.0
 11
18.08888888888889
 21
9.155555555555555
 31
0.0
  0
LINE
  5
4A2
330
18
100
AcDbEntity
  8
Object
100
AcDbLine
 10
18.08888888888889
 20
9.155555555555555
 30
0.0
 11
17.83555555555555
 21
5.535555555555555
 31
0.0
  0
LINE
  5
4A3
330
18
100
AcDbEntity
  8
Object
100
AcDbLine
 10
17.47111111111111
 20
8.197777777777778
 30
0.0
 11
17.50333333333333
 21
8.195555555555555
 31
0.0
  0
LINE
  5
4A4
330
18
100
AcDbEntity
  8
Object
100
AcDbLine
 10
17.63555555555555
 20
8.022222222222222
 30
0.0
 11
17.46333333333333
 21
5.558888888888889
 31
0.0
  0
LINE
  5
4A5
330
18
100
AcDbEntity
  8
Object
100
AcDbLine
 10
17.83555555555555
 20
5.535555555555555
 30
0.0
 11
17.82777777777778
 21
5.472222222222222
 31
0.0
  0
LINE
  5
4A6
330
18
100
AcDbEntity
  8
Object
100
AcDbLine
 10
17.82777777777778
 20
5.472222222222222
 30
0.0
 11
17.81222222222222
 21
5.411111111111111
 31
0.0
  0
LINE
  5
4A7
330
18
100
AcDbEntity
  8
Object
100
AcDbLine
 10
17.81222222222222
 20
5.411111111111111
 30
0.0
 11
17.79
 21
5.35111111111111
 31
0.0
  0
LINE
  5
4A8
330
18
100
AcDbEntity
  8
Object
100
AcDbLine
 10
17.79
 20
5.35111111111111
 30
0.0
 11
17.76111111111111
 21
5.294444444444444
 31
0.0
  0
LINE
  5
4A9
330
18
100
AcDbEntity
  8
Object
100
AcDbLine
 10
17.76111111111111
 20
5.294444444444444
 30
0.0
 11
17.72555555555555
 21
5.242222222222221
 31
0.0
  0
LINE
  5
4AA
330
18
100
AcDbEntity
  8
Object
100
AcDbLine
 10
17.72555555555555
 20
5.242222222222221
 30
0.0
 11
17.68444444444444
 21
5.193333333333333
 31
0.0
  0
LINE
  5
4AB
330
18
100
AcDbEntity
  8
Object
100
AcDbLine
 10
17.42333333333333
 20
5.462222222222222
 30
0.0
 11
17.39777777777777
 21
5.437777777777777
 31
0.0
  0
LINE
  5
4AC
330
18
100
AcDbEntity
  8
Object
100
AcDbLine
 10
17.68444444444444
 20
5.193333333333333
 30
0.0
 11
17.63777777777778
 21
5.15
 31
0.0
  0
LINE
  5
4AD
330
18
100
AcDbEntity
  8
Object
100
AcDbLine
 10
17.63777777777778
 20
5.15
 30
0.0
 11
17.58666666666666
 21
5.112222222222222
 31
0.0
  0
LINE
  5
4AE
330
18
100
AcDbEntity
  8
Object
100
AcDbLine
 10
17.39777777777777
 20
5.437777777777777
 30
0.0
 11
17.36777777777778
 21
5.419999999999999
 31
0.0
  0
LINE
  5
4AF
330
18
100
AcDbEntity
  8
Object
100
AcDbLine
 10
17.58666666666666
 20
5.112222222222222
 30
0.0
 11
17.53111111111111
 21
5.081111111111111
 31
0.0
  0
LINE
  5
4B0
330
18
100
AcDbEntity
  8
Object
100
AcDbLine
 10
17.53111111111111
 20
5.081111111111111
 30
0.0
 11
17.47333333333333
 21
5.055555555555555
 31
0.0
  0
LINE
  5
4B1
330
18
100
AcDbEntity
  8
Object
100
AcDbLine
 10
17.36777777777778
 20
5.419999999999999
 30
0.0
 11
17.33444444444444
 21
5.408888888888888
 31
0.0
  0
LINE
  5
4B2
330
18
100
AcDbEntity
  8
Object
100
AcDbLine
 10
17.47333333333333
 20
5.055555555555555
 30
0.0
 11
17.41222222222222
 21
5.037777777777777
 31
0.0
  0
LINE
  5
4B3
330
18
100
AcDbEntity
  8
Object
100
AcDbLine
 10
17.41222222222222
 20
5.037777777777777
 30
0.0
 11
17.35
 21
5.026666666666666
 31
0.0
  0
LINE
  5
4B4
330
18
100
AcDbEntity
  8
Object
100
AcDbLine
 10
17.33444444444444
 20
5.408888888888888
 30
0.0
 11
17.29888888888889
 21
5.405555555555555
 31
0.0
  0
LINE
  5
4B5
330
18
100
AcDbEntity
  8
Object
100
AcDbLine
 10
17.28555555555555
 20
5.023333333333333
 30
0.0
 11
17.35
 21
5.026666666666666
 31
0.0
  0
LINE
  5
4B6
330
18
100
AcDbEntity
  8
Object
100
AcDbLine
 10
17.69222222222222
 20
9.619999999999999
 30
0.0
 11
11.25555555555555
 21
10.18333333333333
 31
0.0
  0
LINE
  5
4B7
330
18
100
AcDbEntity
  8
Object
100
AcDbLine
 10
17.29888888888889
 20
5.405555555555555
 30
0.0
 11
5.212222222222222
 21
5.405555555555555
 31
0.0
  0
LINE
  5
4B8
330
18
100
AcDbEntity
  8
Object
100
AcDbLine
 10
5.212222222222222
 20
5.405555555555555
 30
0.0
 11
5.176666666666666
 21
5.408888888888888
 31
0.0
  0
LINE
  5
4B9
330
18
100
AcDbEntity
  8
Object
100
AcDbLine
 10
5.161111111111111
 20
5.026666666666666
 30
0.0
 11
5.225555555555555
 21
5.023333333333333
 31
0.0
  0
LINE
  5
4BA
330
18
100
AcDbEntity
  8
Object
100
AcDbLine
 10
5.04
 20
8.197777777777778
 30
0.0
 11
17.47111111111111
 21
8.197777777777778
 31
0.0
  0
LINE
  5
4BB
330
18
100
AcDbEntity
  8
Object
100
AcDbLine
 10
5.176666666666666
 20
5.408888888888888
 30
0.0
 11
5.143333333333333
 21
5.419999999999999
 31
0.0
  0
LINE
  5
4BC
330
18
100
AcDbEntity
  8
Object
100
AcDbLine
 10
5.143333333333333
 20
5.419999999999999
 30
0.0
 11
5.113333333333333
 21
5.437777777777777
 31
0.0
  0
LINE
  5
4BD
330
18
100
AcDbEntity
  8
Object
100
AcDbLine
 10
5.113333333333333
 20
5.437777777777777
 30
0.0
 11
5.087777777777778
 21
5.462222222222222
 31
0.0
  0
LINE
  5
4BE
330
18
100
AcDbEntity
  8
Object
100
AcDbLine
 10
5.087777777777778
 20
5.462222222222222
 30
0.0
 11
5.067777777777777
 21
5.491111111111111
 31
0.0
  0
LINE
  5
4BF
330
18
100
AcDbEntity
  8
Object
100
AcDbLine
 10
5.067777777777777
 20
5.491111111111111
 30
0.0
 11
5.054444444444444
 21
5.523333333333333
 31
0.0
  0
LINE
  5
4C0
330
18
100
AcDbEntity
  8
Object
100
AcDbLine
 10
4.818888888888888
 20
9.619999999999999
 30
0.0
 11
4.763333333333333
 21
9.612222222222222
 31
0.0
  0
LINE
  5
4C1
330
18
100
AcDbEntity
  8
Object
100
AcDbLine
 10
5.054444444444444
 20
5.523333333333333
 30
0.0
 11
5.047777777777778
 21
5.558888888888889
 31
0.0
  0
LINE
  5
4C2
330
18
100
AcDbEntity
  8
Object
100
AcDbLine
 10
5.047777777777778
 20
5.558888888888889
 30
0.0
 11
4.875555555555555
 21
8.022222222222222
 31
0.0
  0
LINE
  5
4C3
330
18
100
AcDbEntity
  8
Object
100
AcDbLine
 10
5.04
 20
8.197777777777778
 30
0.0
 11
5.006666666666666
 21
8.194444444444444
 31
0.0
  0
LINE
  5
4C4
330
18
100
AcDbEntity
  8
Object
100
AcDbLine
 10
5.006666666666666
 20
8.194444444444444
 30
0.0
 11
4.974444444444444
 21
8.184444444444444
 31
0.0
  0
LINE
  5
4C5
330
18
100
AcDbEntity
  8
Object
100
AcDbLine
 10
4.974444444444444
 20
8.184444444444444
 30
0.0
 11
4.944444444444444
 21
8.167777777777777
 31
0.0
  0
LINE
  5
4C6
330
18
100
AcDbEntity
  8
Object
100
AcDbLine
 10
4.944444444444444
 20
8.167777777777777
 30
0.0
 11
4.918888888888888
 21
8.145555555555555
 31
0.0
  0
LINE
  5
4C7
330
18
100
AcDbEntity
  8
Object
100
AcDbLine
 10
4.918888888888888
 20
8.145555555555555
 30
0.0
 11
4.898888888888889
 21
8.118888888888889
 31
0.0
  0
LINE
  5
4C8
330
18
100
AcDbEntity
  8
Object
100
AcDbLine
 10
4.898888888888889
 20
8.118888888888889
 30
0.0
 11
4.884444444444444
 21
8.088888888888888
 31
0.0
  0
LINE
  5
4C9
330
18
100
AcDbEntity
  8
Object
100
AcDbLine
 10
4.884444444444444
 20
8.088888888888888
 30
0.0
 11
4.876666666666666
 21
8.055555555555555
 31
0.0
  0
LINE
  5
4CA
330
18
100
AcDbEntity
  8
Object
100
AcDbLine
 10
4.876666666666666
 20
8.055555555555555
 30
0.0
 11
4.875555555555555
 21
8.022222222222222
 31
0.0
  0
LINE
  5
4CB
330
18
100
AcDbEntity
  8
Object
100
AcDbLine
 10
17.89888888888889
 20
5.531111111111111
 30
0.0
 11
17.89555555555556
 21
5.531111111111111
 31
0.0
  0
LINE
  5
4CC
330
18
100
AcDbEntity
  8
Object
100
AcDbLine
 10
5.225555555555555
 20
5.023333333333333
 30
0.0
 11
5.225555555555555
 21
5.003333333333332
 31
0.0
  0
LINE
  5
4CD
330
18
100
AcDbEntity
  8
Object
100
AcDbLine
 10
5.225555555555555
 20
5.003333333333332
 30
0.0
 11
5.225555555555555
 21
4.986666666666666
 31
0.0
  0
LINE
  5
4CE
330
18
100
AcDbEntity
  8
Object
100
AcDbLine
 10
5.225555555555555
 20
4.959999999999999
 30
0.0
 11
5.225555555555555
 21
4.963333333333332
 31
0.0
  0
LINE
  5
4CF
330
18
100
AcDbEntity
  8
Object
100
AcDbLine
 10
5.225555555555555
 20
4.986666666666666
 30
0.0
 11
5.225555555555555
 21
4.972222222222222
 31
0.0
  0
LINE
  5
4D0
330
18
100
AcDbEntity
  8
Object
100
AcDbLine
 10
5.225555555555555
 20
4.972222222222222
 30
0.0
 11
5.225555555555555
 21
4.963333333333332
 31
0.0
  0
LINE
  5
4D1
330
18
100
AcDbEntity
  8
Object
100
AcDbLine
 10
5.161111111111111
 20
5.026666666666666
 30
0.0
 11
5.098888888888889
 21
5.037777777777777
 31
0.0
  0
LINE
  5
4D2
330
18
100
AcDbEntity
  8
Object
100
AcDbLine
 10
5.098888888888889
 20
5.037777777777777
 30
0.0
 11
5.037777777777777
 21
5.055555555555555
 31
0.0
  0
LINE
  5
4D3
330
18
100
AcDbEntity
  8
Object
100
AcDbLine
 10
5.037777777777777
 20
5.055555555555555
 30
0.0
 11
4.978888888888889
 21
5.081111111111111
 31
0.0
  0
LINE
  5
4D4
330
18
100
AcDbEntity
  8
Object
100
AcDbLine
 10
4.978888888888889
 20
5.081111111111111
 30
0.0
 11
4.924444444444444
 21
5.112222222222222
 31
0.0
  0
LINE
  5
4D5
330
18
100
AcDbEntity
  8
Object
100
AcDbLine
 10
4.924444444444444
 20
5.112222222222222
 30
0.0
 11
4.873333333333333
 21
5.15
 31
0.0
  0
LINE
  5
4D6
330
18
100
AcDbEntity
  8
Object
100
AcDbLine
 10
4.873333333333333
 20
5.15
 30
0.0
 11
4.826666666666667
 21
5.193333333333333
 31
0.0
  0
LINE
  5
4D7
330
18
100
AcDbEntity
  8
Object
100
AcDbLine
 10
4.826666666666667
 20
5.193333333333333
 30
0.0
 11
4.785555555555555
 21
5.242222222222221
 31
0.0
  0
LINE
  5
4D8
330
18
100
AcDbEntity
  8
Object
100
AcDbLine
 10
4.785555555555555
 20
5.242222222222221
 30
0.0
 11
4.75
 21
5.294444444444444
 31
0.0
  0
LINE
  5
4D9
330
18
100
AcDbEntity
  8
Object
100
AcDbLine
 10
4.75
 20
5.294444444444444
 30
0.0
 11
4.721111111111111
 21
5.35111111111111
 31
0.0
  0
LINE
  5
4DA
330
18
100
AcDbEntity
  8
Object
100
AcDbLine
 10
4.721111111111111
 20
5.35111111111111
 30
0.0
 11
4.698888888888888
 21
5.411111111111111
 31
0.0
  0
LINE
  5
4DB
330
18
100
AcDbEntity
  8
Object
100
AcDbLine
 10
4.698888888888888
 20
5.411111111111111
 30
0.0
 11
4.683333333333333
 21
5.472222222222222
 31
0.0
  0
LINE
  5
4DC
330
18
100
AcDbEntity
  8
Object
100
AcDbLine
 10
4.683333333333333
 20
5.472222222222222
 30
0.0
 11
4.675555555555555
 21
5.535555555555555
 31
0.0
  0
LINE
  5
4DD
330
18
100
AcDbEntity
  8
Object
100
AcDbLine
 10
17.89111111111111
 20
5.465555555555555
 30
0.0
 11
17.9
 21
5.531111111111111
 31
0.0
  0
LINE
  5
4DE
330
18
100
AcDbEntity
  8
Object
100
AcDbLine
 10
17.54222222222222
 20
5.014444444444444
 30
0.0
 11
17.6
 21
5.045555555555555
 31
0.0
  0
LINE
  5
4DF
330
18
100
AcDbEntity
  8
Object
100
AcDbLine
 10
17.63555555555555
 20
8.022222222222222
 30
0.0
 11
17.60222222222222
 21
8.024444444444444
 31
0.0
  0
LINE
  5
4E0
330
18
100
AcDbEntity
  8
Object
100
AcDbLine
 10
17.60222222222222
 20
8.024444444444444
 30
0.0
 11
17.43
 21
5.56111111111111
 31
0.0
  0
LINE
  5
4E1
330
18
100
AcDbEntity
  8
Object
100
AcDbLine
 10
5.184444444444444
 20
5.44111111111111
 30
0.0
 11
5.212222222222222
 21
5.437777777777777
 31
0.0
  0
LINE
  5
4E2
330
18
100
AcDbEntity
  8
Object
100
AcDbLine
 10
5.212222222222222
 20
5.437777777777777
 30
0.0
 11
5.212222222222222
 21
5.405555555555555
 31
0.0
  0
LINE
  5
4E3
330
18
100
AcDbEntity
  8
Object
100
AcDbLine
 10
5.184444444444444
 20
5.44111111111111
 30
0.0
 11
5.156666666666666
 21
5.45
 31
0.0
  0
LINE
  5
4E4
330
18
100
AcDbEntity
  8
Object
100
AcDbLine
 10
5.156666666666666
 20
5.45
 30
0.0
 11
5.133333333333333
 21
5.464444444444444
 31
0.0
  0
LINE
  5
4E5
330
18
100
AcDbEntity
  8
Object
100
AcDbLine
 10
5.133333333333333
 20
5.464444444444444
 30
0.0
 11
5.112222222222222
 21
5.483333333333333
 31
0.0
  0
LINE
  5
4E6
330
18
100
AcDbEntity
  8
Object
100
AcDbLine
 10
5.112222222222222
 20
5.483333333333333
 30
0.0
 11
5.096666666666666
 21
5.506666666666666
 31
0.0
  0
LINE
  5
4E7
330
18
100
AcDbEntity
  8
Object
100
AcDbLine
 10
5.096666666666666
 20
5.506666666666666
 30
0.0
 11
5.085555555555555
 21
5.533333333333333
 31
0.0
  0
LINE
  5
4E8
330
18
100
AcDbEntity
  8
Object
100
AcDbLine
 10
5.085555555555555
 20
5.533333333333333
 30
0.0
 11
5.081111111111111
 21
5.56111111111111
 31
0.0
  0
LINE
  5
4E9
330
18
100
AcDbEntity
  8
Object
100
AcDbLine
 10
17.63222222222222
 20
8.065555555555555
 30
0.0
 11
17.63555555555555
 21
8.033333333333333
 31
0.0
  0
LINE
  5
4EA
330
18
100
AcDbEntity
  8
Object
100
AcDbLine
 10
17.63555555555555
 20
8.033333333333333
 30
0.0
 11
17.60333333333333
 21
8.033333333333333
 31
0.0
  0
LINE
  5
4EB
330
18
100
AcDbEntity
  8
Object
100
AcDbLine
 10
17.63222222222222
 20
8.065555555555555
 30
0.0
 11
17.62333333333333
 21
8.096666666666665
 31
0.0
  0
LINE
  5
4EC
330
18
100
AcDbEntity
  8
Object
100
AcDbLine
 10
17.62333333333333
 20
8.096666666666665
 30
0.0
 11
17.60777777777778
 21
8.125555555555555
 31
0.0
  0
LINE
  5
4ED
330
18
100
AcDbEntity
  8
Object
100
AcDbLine
 10
17.6
 20
8.063333333333332
 30
0.0
 11
17.59
 21
8.091111111111111
 31
0.0
  0
LINE
  5
4EE
330
18
100
AcDbEntity
  8
Object
100
AcDbLine
 10
17.59
 20
8.091111111111111
 30
0.0
 11
17.57444444444444
 21
8.115555555555555
 31
0.0
  0
LINE
  5
4EF
330
18
100
AcDbEntity
  8
Object
100
AcDbLine
 10
17.60777777777778
 20
8.125555555555555
 30
0.0
 11
17.58777777777777
 21
8.15
 31
0.0
  0
LINE
  5
4F0
330
18
100
AcDbEntity
  8
Object
100
AcDbLine
 10
17.58777777777777
 20
8.15
 30
0.0
 11
17.56222222222222
 21
8.171111111111111
 31
0.0
  0
LINE
  5
4F1
330
18
100
AcDbEntity
  8
Object
100
AcDbLine
 10
17.55333333333333
 20
8.136666666666666
 30
0.0
 11
17.57444444444444
 21
8.115555555555555
 31
0.0
  0
LINE
  5
4F2
330
18
100
AcDbEntity
  8
Object
100
AcDbLine
 10
17.56222222222222
 20
8.171111111111111
 30
0.0
 11
17.53444444444444
 21
8.185555555555556
 31
0.0
  0
LINE
  5
4F3
330
18
100
AcDbEntity
  8
Object
100
AcDbLine
 10
17.52888888888889
 20
8.152222222222222
 30
0.0
 11
17.55333333333333
 21
8.136666666666666
 31
0.0
  0
LINE
  5
4F4
330
18
100
AcDbEntity
  8
Object
100
AcDbLine
 10
17.53444444444444
 20
8.185555555555556
 30
0.0
 11
17.50333333333333
 21
8.195555555555555
 31
0.0
  0
LINE
  5
4F5
330
18
100
AcDbEntity
  8
Object
100
AcDbLine
 10
17.52888888888889
 20
8.152222222222222
 30
0.0
 11
17.5
 21
8.162222222222222
 31
0.0
  0
LINE
  5
4F6
330
18
100
AcDbEntity
  8
Object
100
AcDbLine
 10
17.5
 20
8.162222222222222
 30
0.0
 11
17.47111111111111
 21
8.165555555555554
 31
0.0
  0
LINE
  5
4F7
330
18
100
AcDbEntity
  8
Object
100
AcDbLine
 10
17.43
 20
5.56111111111111
 30
0.0
 11
17.46333333333333
 21
5.558888888888889
 31
0.0
  0
LINE
  5
4F8
330
18
100
AcDbEntity
  8
Object
100
AcDbLine
 10
17.46333333333333
 20
5.558888888888889
 30
0.0
 11
17.45666666666666
 21
5.523333333333333
 31
0.0
  0
LINE
  5
4F9
330
18
100
AcDbEntity
  8
Object
100
AcDbLine
 10
17.45666666666666
 20
5.523333333333333
 30
0.0
 11
17.44333333333333
 21
5.491111111111111
 31
0.0
  0
LINE
  5
4FA
330
18
100
AcDbEntity
  8
Object
100
AcDbLine
 10
17.43
 20
5.56111111111111
 30
0.0
 11
17.42555555555555
 21
5.533333333333333
 31
0.0
  0
LINE
  5
4FB
330
18
100
AcDbEntity
  8
Object
100
AcDbLine
 10
17.42555555555555
 20
5.533333333333333
 30
0.0
 11
17.41444444444444
 21
5.506666666666666
 31
0.0
  0
LINE
  5
4FC
330
18
100
AcDbEntity
  8
Object
100
AcDbLine
 10
17.42333333333333
 20
5.462222222222222
 30
0.0
 11
17.44333333333333
 21
5.491111111111111
 31
0.0
  0
LINE
  5
4FD
330
18
100
AcDbEntity
  8
Object
100
AcDbLine
 10
17.41444444444444
 20
5.506666666666666
 30
0.0
 11
17.39888888888889
 21
5.483333333333333
 31
0.0
  0
LINE
  5
4FE
330
18
100
AcDbEntity
  8
Object
100
AcDbLine
 10
17.39888888888889
 20
5.483333333333333
 30
0.0
 11
17.37777777777777
 21
5.464444444444444
 31
0.0
  0
LINE
  5
4FF
330
18
100
AcDbEntity
  8
Object
100
AcDbLine
 10
17.37777777777777
 20
5.464444444444444
 30
0.0
 11
17.35333333333333
 21
5.45
 31
0.0
  0
LINE
  5
500
330
18
100
AcDbEntity
  8
Object
100
AcDbLine
 10
17.35333333333333
 20
5.45
 30
0.0
 11
17.32666666666666
 21
5.44111111111111
 31
0.0
  0
LINE
  5
501
330
18
100
AcDbEntity
  8
Object
100
AcDbLine
 10
17.32666666666666
 20
5.44111111111111
 30
0.0
 11
17.29888888888889
 21
5.437777777777777
 31
0.0
  0
LINE
  5
502
330
18
100
AcDbEntity
  8
Object
100
AcDbLine
 10
4.908888888888888
 20
8.024444444444444
 30
0.0
 11
5.081111111111111
 21
5.56111111111111
 31
0.0
  0
LINE
  5
503
330
18
100
AcDbEntity
  8
Object
100
AcDbLine
 10
5.081111111111111
 20
5.56111111111111
 30
0.0
 11
5.047777777777778
 21
5.558888888888889
 31
0.0
  0
LINE
  5
504
330
18
100
AcDbEntity
  8
Object
100
AcDbLine
 10
4.908888888888888
 20
8.024444444444444
 30
0.0
 11
4.875555555555555
 21
8.022222222222222
 31
0.0
  0
LINE
  5
505
330
18
100
AcDbEntity
  8
Object
100
AcDbLine
 10
17.63555555555555
 20
8.025555555555555
 30
0.0
 11
17.63555555555555
 21
8.029999999999999
 31
0.0
  0
LINE
  5
506
330
18
100
AcDbEntity
  8
Object
100
AcDbLine
 10
17.63555555555555
 20
8.029999999999999
 30
0.0
 11
17.63555555555555
 21
8.033333333333333
 31
0.0
  0
LINE
  5
507
330
18
100
AcDbEntity
  8
Object
100
AcDbLine
 10
17.63555555555555
 20
8.022222222222222
 30
0.0
 11
17.63555555555555
 21
8.025555555555555
 31
0.0
  0
LINE
  5
508
330
18
100
AcDbEntity
  8
Object
100
AcDbLine
 10
5.212222222222222
 20
5.437777777777777
 30
0.0
 11
17.29888888888889
 21
5.437777777777777
 31
0.0
  0
LINE
  5
509
330
18
100
AcDbEntity
  8
Object
100
AcDbLine
 10
17.29888888888889
 20
5.437777777777777
 30
0.0
 11
17.29888888888889
 21
5.405555555555555
 31
0.0
  0
LINE
  5
50A
330
18
100
AcDbEntity
  8
Object
100
AcDbLine
 10
5.04
 20
8.197777777777778
 30
0.0
 11
5.04
 21
8.165555555555554
 31
0.0
  0
LINE
  5
50B
330
18
100
AcDbEntity
  8
Object
100
AcDbLine
 10
5.04
 20
8.165555555555554
 30
0.0
 11
5.008888888888888
 21
8.162222222222222
 31
0.0
  0
LINE
  5
50C
330
18
100
AcDbEntity
  8
Object
100
AcDbLine
 10
5.008888888888888
 20
8.162222222222222
 30
0.0
 11
4.98
 21
8.151111111111111
 31
0.0
  0
LINE
  5
50D
330
18
100
AcDbEntity
  8
Object
100
AcDbLine
 10
4.98
 20
8.151111111111111
 30
0.0
 11
4.954444444444444
 21
8.134444444444444
 31
0.0
  0
LINE
  5
50E
330
18
100
AcDbEntity
  8
Object
100
AcDbLine
 10
4.954444444444444
 20
8.134444444444444
 30
0.0
 11
4.933333333333333
 21
8.11111111111111
 31
0.0
  0
LINE
  5
50F
330
18
100
AcDbEntity
  8
Object
100
AcDbLine
 10
4.933333333333333
 20
8.11111111111111
 30
0.0
 11
4.918888888888888
 21
8.084444444444445
 31
0.0
  0
LINE
  5
510
330
18
100
AcDbEntity
  8
Object
100
AcDbLine
 10
4.918888888888888
 20
8.084444444444445
 30
0.0
 11
4.91
 21
8.055555555555555
 31
0.0
  0
LINE
  5
511
330
18
100
AcDbEntity
  8
Object
100
AcDbLine
 10
4.91
 20
8.055555555555555
 30
0.0
 11
4.908888888888888
 21
8.024444444444444
 31
0.0
  0
LINE
  5
512
330
18
100
AcDbEntity
  8
Object
100
AcDbLine
 10
17.47111111111111
 20
8.197777777777778
 30
0.0
 11
17.47111111111111
 21
8.165555555555554
 31
0.0
  0
LINE
  5
513
330
18
100
AcDbEntity
  8
Object
100
AcDbLine
 10
17.47111111111111
 20
8.165555555555554
 30
0.0
 11
5.04
 21
8.165555555555554
 31
0.0
  0
LINE
  5
514
330
18
100
AcDbEntity
  8
Object
100
AcDbLine
 10
17.60222222222222
 20
8.024444444444444
 30
0.0
 11
17.59888888888889
 21
8.024444444444444
 31
0.0
  0
LINE
  5
515
330
18
100
AcDbEntity
  8
Object
100
AcDbLine
 10
17.59888888888889
 20
8.024444444444444
 30
0.0
 11
17.59
 21
8.025555555555555
 31
0.0
  0
LINE
  5
516
330
18
100
AcDbEntity
  8
Object
100
AcDbLine
 10
17.41777777777778
 20
5.562222222222222
 30
0.0
 11
17.42666666666666
 21
5.56111111111111
 31
0.0
  0
LINE
  5
517
330
18
100
AcDbEntity
  8
Object
100
AcDbLine
 10
17.59
 20
8.025555555555555
 30
0.0
 11
17.57555555555556
 21
8.026666666666667
 31
0.0
  0
LINE
  5
518
330
18
100
AcDbEntity
  8
Object
100
AcDbLine
 10
17.57555555555556
 20
8.026666666666667
 30
0.0
 11
17.55888888888889
 21
8.027777777777778
 31
0.0
  0
LINE
  5
519
330
18
100
AcDbEntity
  8
Object
100
AcDbLine
 10
17.41777777777778
 20
5.562222222222222
 30
0.0
 11
17.40333333333333
 21
5.562222222222222
 31
0.0
  0
LINE
  5
51A
330
18
100
AcDbEntity
  8
Object
100
AcDbLine
 10
17.40333333333333
 20
5.562222222222222
 30
0.0
 11
17.38666666666667
 21
5.563333333333333
 31
0.0
  0
LINE
  5
51B
330
18
100
AcDbEntity
  8
Object
100
AcDbLine
 10
17.55888888888889
 20
8.027777777777778
 30
0.0
 11
17.54
 21
8.028888888888888
 31
0.0
  0
LINE
  5
51C
330
18
100
AcDbEntity
  8
Object
100
AcDbLine
 10
17.38666666666667
 20
5.563333333333333
 30
0.0
 11
17.36777777777778
 21
5.565555555555555
 31
0.0
  0
LINE
  5
51D
330
18
100
AcDbEntity
  8
Object
100
AcDbLine
 10
17.36777777777778
 20
5.565555555555555
 30
0.0
 11
17.54
 21
8.028888888888888
 31
0.0
  0
LINE
  5
51E
330
18
100
AcDbEntity
  8
Object
100
AcDbLine
 10
5.212222222222222
 20
5.501111111111111
 30
0.0
 11
5.212222222222222
 21
5.482222222222222
 31
0.0
  0
LINE
  5
51F
330
18
100
AcDbEntity
  8
Object
100
AcDbLine
 10
5.212222222222222
 20
5.482222222222222
 30
0.0
 11
5.212222222222222
 21
5.465555555555555
 31
0.0
  0
LINE
  5
520
330
18
100
AcDbEntity
  8
Object
100
AcDbLine
 10
5.212222222222222
 20
5.465555555555555
 30
0.0
 11
5.212222222222222
 21
5.451111111111111
 31
0.0
  0
LINE
  5
521
330
18
100
AcDbEntity
  8
Object
100
AcDbLine
 10
5.212222222222222
 20
5.437777777777777
 30
0.0
 11
5.212222222222222
 21
5.442222222222222
 31
0.0
  0
LINE
  5
522
330
18
100
AcDbEntity
  8
Object
100
AcDbLine
 10
5.212222222222222
 20
5.442222222222222
 30
0.0
 11
5.212222222222222
 21
5.451111111111111
 31
0.0
  0
LINE
  5
523
330
18
100
AcDbEntity
  8
Object
100
AcDbLine
 10
5.147777777777777
 20
5.544444444444444
 30
0.0
 11
5.143333333333333
 21
5.565555555555555
 31
0.0
  0
LINE
  5
524
330
18
100
AcDbEntity
  8
Object
100
AcDbLine
 10
17.60333333333333
 20
8.033333333333333
 30
0.0
 11
17.60333333333333
 21
8.03111111111111
 31
0.0
  0
LINE
  5
525
330
18
100
AcDbEntity
  8
Object
100
AcDbLine
 10
17.60333333333333
 20
8.03111111111111
 30
0.0
 11
17.60222222222222
 21
8.027777777777778
 31
0.0
  0
LINE
  5
526
330
18
100
AcDbEntity
  8
Object
100
AcDbLine
 10
17.60222222222222
 20
8.027777777777778
 30
0.0
 11
17.60222222222222
 21
8.024444444444444
 31
0.0
  0
LINE
  5
527
330
18
100
AcDbEntity
  8
Object
100
AcDbLine
 10
17.60333333333333
 20
8.033333333333333
 30
0.0
 11
17.6
 21
8.063333333333332
 31
0.0
  0
LINE
  5
528
330
18
100
AcDbEntity
  8
Object
100
AcDbLine
 10
17.53777777777777
 20
8.05111111111111
 30
0.0
 11
17.52888888888889
 21
8.072222222222222
 31
0.0
  0
LINE
  5
529
330
18
100
AcDbEntity
  8
Object
100
AcDbLine
 10
17.52888888888889
 20
8.072222222222222
 30
0.0
 11
17.51333333333333
 21
8.088888888888888
 31
0.0
  0
LINE
  5
52A
330
18
100
AcDbEntity
  8
Object
100
AcDbLine
 10
17.51333333333333
 20
8.088888888888888
 30
0.0
 11
17.49333333333333
 21
8.098888888888888
 31
0.0
  0
LINE
  5
52B
330
18
100
AcDbEntity
  8
Object
100
AcDbLine
 10
17.49333333333333
 20
8.098888888888888
 30
0.0
 11
17.47111111111111
 21
8.103333333333333
 31
0.0
  0
LINE
  5
52C
330
18
100
AcDbEntity
  8
Object
100
AcDbLine
 10
17.43
 20
5.56111111111111
 30
0.0
 11
17.42666666666666
 21
5.56111111111111
 31
0.0
  0
LINE
  5
52D
330
18
100
AcDbEntity
  8
Object
100
AcDbLine
 10
17.36333333333333
 20
5.544444444444444
 30
0.0
 11
17.35333333333333
 21
5.526666666666666
 31
0.0
  0
LINE
  5
52E
330
18
100
AcDbEntity
  8
Object
100
AcDbLine
 10
17.35333333333333
 20
5.526666666666666
 30
0.0
 11
17.33777777777778
 21
5.513333333333333
 31
0.0
  0
LINE
  5
52F
330
18
100
AcDbEntity
  8
Object
100
AcDbLine
 10
17.33777777777778
 20
5.513333333333333
 30
0.0
 11
17.32
 21
5.503333333333332
 31
0.0
  0
LINE
  5
530
330
18
100
AcDbEntity
  8
Object
100
AcDbLine
 10
17.32
 20
5.503333333333332
 30
0.0
 11
17.29888888888889
 21
5.501111111111111
 31
0.0
  0
LINE
  5
531
330
18
100
AcDbEntity
  8
Object
100
AcDbLine
 10
4.952222222222221
 20
8.027777777777778
 30
0.0
 11
4.971111111111111
 21
8.028888888888888
 31
0.0
  0
LINE
  5
532
330
18
100
AcDbEntity
  8
Object
100
AcDbLine
 10
4.971111111111111
 20
8.028888888888888
 30
0.0
 11
5.143333333333333
 21
5.565555555555555
 31
0.0
  0
LINE
  5
533
330
18
100
AcDbEntity
  8
Object
100
AcDbLine
 10
5.143333333333333
 20
5.565555555555555
 30
0.0
 11
5.124444444444444
 21
5.563333333333333
 31
0.0
  0
LINE
  5
534
330
18
100
AcDbEntity
  8
Object
100
AcDbLine
 10
5.124444444444444
 20
5.563333333333333
 30
0.0
 11
5.107777777777777
 21
5.562222222222222
 31
0.0
  0
LINE
  5
535
330
18
100
AcDbEntity
  8
Object
100
AcDbLine
 10
4.952222222222221
 20
8.027777777777778
 30
0.0
 11
4.935555555555555
 21
8.026666666666667
 31
0.0
  0
LINE
  5
536
330
18
100
AcDbEntity
  8
Object
100
AcDbLine
 10
4.935555555555555
 20
8.026666666666667
 30
0.0
 11
4.921111111111111
 21
8.025555555555555
 31
0.0
  0
LINE
  5
537
330
18
100
AcDbEntity
  8
Object
100
AcDbLine
 10
5.107777777777777
 20
5.562222222222222
 30
0.0
 11
5.093333333333333
 21
5.562222222222222
 31
0.0
  0
LINE
  5
538
330
18
100
AcDbEntity
  8
Object
100
AcDbLine
 10
5.093333333333333
 20
5.562222222222222
 30
0.0
 11
5.084444444444444
 21
5.56111111111111
 31
0.0
  0
LINE
  5
539
330
18
100
AcDbEntity
  8
Object
100
AcDbLine
 10
4.921111111111111
 20
8.025555555555555
 30
0.0
 11
4.912222222222221
 21
8.024444444444444
 31
0.0
  0
LINE
  5
53A
330
18
100
AcDbEntity
  8
Object
100
AcDbLine
 10
4.912222222222221
 20
8.024444444444444
 30
0.0
 11
4.908888888888888
 21
8.024444444444444
 31
0.0
  0
LINE
  5
53B
330
18
100
AcDbEntity
  8
Object
100
AcDbLine
 10
5.081111111111111
 20
5.56111111111111
 30
0.0
 11
5.084444444444444
 21
5.56111111111111
 31
0.0
  0
LINE
  5
53C
330
18
100
AcDbEntity
  8
Object
100
AcDbLine
 10
17.29888888888889
 20
5.437777777777777
 30
0.0
 11
17.29888888888889
 21
5.442222222222222
 31
0.0
  0
LINE
  5
53D
330
18
100
AcDbEntity
  8
Object
100
AcDbLine
 10
17.29888888888889
 20
5.451111111111111
 30
0.0
 11
17.29888888888889
 21
5.465555555555555
 31
0.0
  0
LINE
  5
53E
330
18
100
AcDbEntity
  8
Object
100
AcDbLine
 10
5.212222222222222
 20
5.501111111111111
 30
0.0
 11
17.29888888888889
 21
5.501111111111111
 31
0.0
  0
LINE
  5
53F
330
18
100
AcDbEntity
  8
Object
100
AcDbLine
 10
17.29888888888889
 20
5.501111111111111
 30
0.0
 11
17.29888888888889
 21
5.482222222222222
 31
0.0
  0
LINE
  5
540
330
18
100
AcDbEntity
  8
Object
100
AcDbLine
 10
17.29888888888889
 20
5.482222222222222
 30
0.0
 11
17.29888888888889
 21
5.465555555555555
 31
0.0
  0
LINE
  5
541
330
18
100
AcDbEntity
  8
Object
100
AcDbLine
 10
17.29888888888889
 20
5.442222222222222
 30
0.0
 11
17.29888888888889
 21
5.451111111111111
 31
0.0
  0
LINE
  5
542
330
18
100
AcDbEntity
  8
Object
100
AcDbLine
 10
5.04
 20
8.103333333333333
 30
0.0
 11
5.04
 21
8.12111111111111
 31
0.0
  0
LINE
  5
543
330
18
100
AcDbEntity
  8
Object
100
AcDbLine
 10
5.04
 20
8.12111111111111
 30
0.0
 11
5.04
 21
8.138888888888889
 31
0.0
  0
LINE
  5
544
330
18
100
AcDbEntity
  8
Object
100
AcDbLine
 10
5.04
 20
8.138888888888889
 30
0.0
 11
5.04
 21
8.152222222222222
 31
0.0
  0
LINE
  5
545
330
18
100
AcDbEntity
  8
Object
100
AcDbLine
 10
5.04
 20
8.152222222222222
 30
0.0
 11
5.04
 21
8.161111111111111
 31
0.0
  0
LINE
  5
546
330
18
100
AcDbEntity
  8
Object
100
AcDbLine
 10
5.04
 20
8.161111111111111
 30
0.0
 11
5.04
 21
8.165555555555554
 31
0.0
  0
LINE
  5
547
330
18
100
AcDbEntity
  8
Object
100
AcDbLine
 10
4.982222222222222
 20
8.072222222222222
 30
0.0
 11
4.972222222222222
 21
8.05111111111111
 31
0.0
  0
LINE
  5
548
330
18
100
AcDbEntity
  8
Object
100
AcDbLine
 10
4.972222222222222
 20
8.05111111111111
 30
0.0
 11
4.971111111111111
 21
8.028888888888888
 31
0.0
  0
LINE
  5
549
330
18
100
AcDbEntity
  8
Object
100
AcDbLine
 10
17.47111111111111
 20
8.165555555555554
 30
0.0
 11
17.47111111111111
 21
8.161111111111111
 31
0.0
  0
LINE
  5
54A
330
18
100
AcDbEntity
  8
Object
100
AcDbLine
 10
17.47111111111111
 20
8.161111111111111
 30
0.0
 11
17.47111111111111
 21
8.152222222222222
 31
0.0
  0
LINE
  5
54B
330
18
100
AcDbEntity
  8
Object
100
AcDbLine
 10
17.47111111111111
 20
8.138888888888889
 30
0.0
 11
17.47111111111111
 21
8.12111111111111
 31
0.0
  0
LINE
  5
54C
330
18
100
AcDbEntity
  8
Object
100
AcDbLine
 10
17.47111111111111
 20
8.12111111111111
 30
0.0
 11
17.47111111111111
 21
8.103333333333333
 31
0.0
  0
LINE
  5
54D
330
18
100
AcDbEntity
  8
Object
100
AcDbLine
 10
17.47111111111111
 20
8.138888888888889
 30
0.0
 11
17.47111111111111
 21
8.152222222222222
 31
0.0
  0
LINE
  5
54E
330
18
100
AcDbEntity
  8
Object
100
AcDbLine
 10
17.54
 20
8.028888888888888
 30
0.0
 11
17.53777777777777
 21
8.05111111111111
 31
0.0
  0
LINE
  5
54F
330
18
100
AcDbEntity
  8
Object
100
AcDbLine
 10
17.36333333333333
 20
5.544444444444444
 30
0.0
 11
17.36777777777778
 21
5.565555555555555
 31
0.0
  0
LINE
  5
550
330
18
100
AcDbEntity
  8
Object
100
AcDbLine
 10
5.212222222222222
 20
5.501111111111111
 30
0.0
 11
5.19111111111111
 21
5.503333333333332
 31
0.0
  0
LINE
  5
551
330
18
100
AcDbEntity
  8
Object
100
AcDbLine
 10
5.19111111111111
 20
5.503333333333332
 30
0.0
 11
5.173333333333332
 21
5.513333333333333
 31
0.0
  0
LINE
  5
552
330
18
100
AcDbEntity
  8
Object
100
AcDbLine
 10
5.173333333333332
 20
5.513333333333333
 30
0.0
 11
5.157777777777777
 21
5.526666666666666
 31
0.0
  0
LINE
  5
553
330
18
100
AcDbEntity
  8
Object
100
AcDbLine
 10
5.157777777777777
 20
5.526666666666666
 30
0.0
 11
5.147777777777777
 21
5.544444444444444
 31
0.0
  0
LINE
  5
554
330
18
100
AcDbEntity
  8
Object
100
AcDbLine
 10
17.47111111111111
 20
8.103333333333333
 30
0.0
 11
5.04
 21
8.103333333333333
 31
0.0
  0
LINE
  5
555
330
18
100
AcDbEntity
  8
Object
100
AcDbLine
 10
4.982222222222222
 20
8.072222222222222
 30
0.0
 11
4.997777777777777
 21
8.088888888888888
 31
0.0
  0
LINE
  5
556
330
18
100
AcDbEntity
  8
Object
100
AcDbLine
 10
4.997777777777777
 20
8.088888888888888
 30
0.0
 11
5.017777777777777
 21
8.098888888888888
 31
0.0
  0
LINE
  5
557
330
18
100
AcDbEntity
  8
Object
100
AcDbLine
 10
5.017777777777777
 20
8.098888888888888
 30
0.0
 11
5.04
 21
8.103333333333333
 31
0.0
  0
LINE
  5
558
330
18
100
AcDbEntity
  8
Object
100
AcDbLine
 10
9.688888888888888
 20
6.717777777777778
 30
0.0
 11
9.526666666666667
 21
6.324444444444444
 31
0.0
  0
LINE
  5
559
330
18
100
AcDbEntity
  8
Object
100
AcDbLine
 10
9.835555555555554
 20
6.45
 30
0.0
 11
10.16555555555555
 21
6.45
 31
0.0
  0
LINE
  5
55A
330
18
100
AcDbEntity
  8
Object
100
AcDbLine
 10
10.61444444444444
 20
6.324444444444444
 30
0.0
 11
10.61444444444444
 21
6.694444444444444
 31
0.0
  0
LINE
  5
55B
330
18
100
AcDbEntity
  8
Object
100
AcDbLine
 10
12.59888888888889
 20
7.192222222222222
 30
0.0
 11
12.41777777777778
 21
7.192222222222222
 31
0.0
  0
LINE
  5
55C
330
18
100
AcDbEntity
  8
Object
100
AcDbLine
 10
13.13444444444444
 20
7.192222222222222
 30
0.0
 11
13.13444444444444
 21
7.015555555555555
 31
0.0
  0
LINE
  5
55D
330
18
100
AcDbEntity
  8
Object
100
AcDbLine
 10
12.75111111111111
 20
7.192222222222222
 30
0.0
 11
12.75111111111111
 21
6.324444444444444
 31
0.0
  0
LINE
  5
55E
330
18
100
AcDbEntity
  8
Object
100
AcDbLine
 10
11.82888888888889
 20
6.48
 30
0.0
 11
11.82555555555555
 21
6.444444444444444
 31
0.0
  0
LINE
  5
55F
330
18
100
AcDbEntity
  8
Object
100
AcDbLine
 10
11.82555555555555
 20
6.444444444444444
 30
0.0
 11
11.81333333333333
 21
6.412222222222221
 31
0.0
  0
LINE
  5
560
330
18
100
AcDbEntity
  8
Object
100
AcDbLine
 10
11.81333333333333
 20
6.412222222222221
 30
0.0
 11
11.79555555555555
 21
6.382222222222222
 31
0.0
  0
LINE
  5
561
330
18
100
AcDbEntity
  8
Object
100
AcDbLine
 10
11.79555555555555
 20
6.382222222222222
 30
0.0
 11
11.77111111111111
 21
6.357777777777777
 31
0.0
  0
LINE
  5
562
330
18
100
AcDbEntity
  8
Object
100
AcDbLine
 10
11.77111111111111
 20
6.357777777777777
 30
0.0
 11
11.74111111111111
 21
6.339999999999999
 31
0.0
  0
LINE
  5
563
330
18
100
AcDbEntity
  8
Object
100
AcDbLine
 10
11.74111111111111
 20
6.339999999999999
 30
0.0
 11
11.70888888888889
 21
6.327777777777777
 31
0.0
  0
LINE
  5
564
330
18
100
AcDbEntity
  8
Object
100
AcDbLine
 10
11.70888888888889
 20
6.327777777777777
 30
0.0
 11
11.67444444444444
 21
6.324444444444444
 31
0.0
  0
LINE
  5
565
330
18
100
AcDbEntity
  8
Object
100
AcDbLine
 10
10.77333333333333
 20
6.324444444444444
 30
0.0
 11
11.03555555555555
 21
6.324444444444444
 31
0.0
  0
LINE
  5
566
330
18
100
AcDbEntity
  8
Object
100
AcDbLine
 10
10.81333333333333
 20
7.192222222222222
 30
0.0
 11
10.81333333333333
 21
6.837777777777778
 31
0.0
  0
LINE
  5
567
330
18
100
AcDbEntity
  8
Object
100
AcDbLine
 10
10.66111111111111
 20
7.192222222222222
 30
0.0
 11
10.37111111111111
 21
7.192222222222222
 31
0.0
  0
LINE
  5
568
330
18
100
AcDbEntity
  8
Object
100
AcDbLine
 10
10.37111111111111
 20
7.192222222222222
 30
0.0
 11
10.37111111111111
 21
6.627777777777778
 31
0.0
  0
LINE
  5
569
330
18
100
AcDbEntity
  8
Object
100
AcDbLine
 10
8.731111111111111
 20
6.324444444444444
 30
0.0
 11
9.241111111111111
 21
6.324444444444444
 31
0.0
  0
LINE
  5
56A
330
18
100
AcDbEntity
  8
Object
100
AcDbLine
 10
9.782222222222221
 20
6.324444444444444
 30
0.0
 11
9.835555555555554
 21
6.45
 31
0.0
  0
LINE
  5
56B
330
18
100
AcDbEntity
  8
Object
100
AcDbLine
 10
12.75111111111111
 20
6.324444444444444
 30
0.0
 11
12.98333333333333
 21
6.324444444444444
 31
0.0
  0
LINE
  5
56C
330
18
100
AcDbEntity
  8
Object
100
AcDbLine
 10
11.18666666666666
 20
6.324444444444444
 30
0.0
 11
11.67444444444444
 21
6.324444444444444
 31
0.0
  0
LINE
  5
56D
330
18
100
AcDbEntity
  8
Object
100
AcDbLine
 10
11.82888888888889
 20
7.037777777777777
 30
0.0
 11
11.82555555555555
 21
7.072222222222221
 31
0.0
  0
LINE
  5
56E
330
18
100
AcDbEntity
  8
Object
100
AcDbLine
 10
11.82555555555555
 20
7.072222222222221
 30
0.0
 11
11.81333333333333
 21
7.104444444444444
 31
0.0
  0
LINE
  5
56F
330
18
100
AcDbEntity
  8
Object
100
AcDbLine
 10
11.81333333333333
 20
7.104444444444444
 30
0.0
 11
11.79555555555555
 21
7.134444444444444
 31
0.0
  0
LINE
  5
570
330
18
100
AcDbEntity
  8
Object
100
AcDbLine
 10
11.79555555555555
 20
7.134444444444444
 30
0.0
 11
11.77111111111111
 21
7.158888888888888
 31
0.0
  0
LINE
  5
571
330
18
100
AcDbEntity
  8
Object
100
AcDbLine
 10
11.77111111111111
 20
7.158888888888888
 30
0.0
 11
11.74111111111111
 21
7.176666666666666
 31
0.0
  0
LINE
  5
572
330
18
100
AcDbEntity
  8
Object
100
AcDbLine
 10
11.74111111111111
 20
7.176666666666666
 30
0.0
 11
11.70888888888889
 21
7.188888888888889
 31
0.0
  0
LINE
  5
573
330
18
100
AcDbEntity
  8
Object
100
AcDbLine
 10
11.70888888888889
 20
7.188888888888889
 30
0.0
 11
11.67444444444444
 21
7.192222222222222
 31
0.0
  0
LINE
  5
574
330
18
100
AcDbEntity
  8
Object
100
AcDbLine
 10
9.688888888888888
 20
6.717777777777778
 30
0.0
 11
9.648888888888889
 21
6.701111111111111
 31
0.0
  0
LINE
  5
575
330
18
100
AcDbEntity
  8
Object
100
AcDbLine
 10
9.648888888888889
 20
6.701111111111111
 30
0.0
 11
9.606666666666667
 21
6.688888888888889
 31
0.0
  0
LINE
  5
576
330
18
100
AcDbEntity
  8
Object
100
AcDbLine
 10
9.606666666666667
 20
6.688888888888889
 30
0.0
 11
9.562222222222223
 21
6.681111111111111
 31
0.0
  0
LINE
  5
577
330
18
100
AcDbEntity
  8
Object
100
AcDbLine
 10
9.562222222222223
 20
6.681111111111111
 30
0.0
 11
9.518888888888888
 21
6.678888888888889
 31
0.0
  0
LINE
  5
578
330
18
100
AcDbEntity
  8
Object
100
AcDbLine
 10
10.22666666666666
 20
6.324444444444444
 30
0.0
 11
10.61444444444444
 21
6.324444444444444
 31
0.0
  0
LINE
  5
579
330
18
100
AcDbEntity
  8
Object
100
AcDbLine
 10
11.03555555555555
 20
7.192222222222222
 30
0.0
 11
10.81333333333333
 21
7.192222222222222
 31
0.0
  0
LINE
  5
57A
330
18
100
AcDbEntity
  8
Object
100
AcDbLine
 10
13.57777777777777
 20
7.015555555555555
 30
0.0
 11
13.77666666666667
 21
7.015555555555555
 31
0.0
  0
LINE
  5
57B
330
18
100
AcDbEntity
  8
Object
100
AcDbLine
 10
10.11666666666666
 20
7.192222222222222
 30
0.0
 11
9.887777777777777
 21
7.192222222222222
 31
0.0
  0
LINE
  5
57C
330
18
100
AcDbEntity
  8
Object
100
AcDbLine
 10
12.26666666666667
 20
6.567777777777777
 30
0.0
 11
12.26666666666667
 21
7.192222222222222
 31
0.0
  0
LINE
  5
57D
330
18
100
AcDbEntity
  8
Object
100
AcDbLine
 10
8.731111111111111
 20
7.458888888888888
 30
0.0
 11
8.731111111111111
 21
6.324444444444444
 31
0.0
  0
LINE
  5
57E
330
18
100
AcDbEntity
  8
Object
100
AcDbLine
 10
10.61444444444444
 20
6.694444444444444
 30
0.0
 11
10.77333333333333
 21
6.324444444444444
 31
0.0
  0
LINE
  5
57F
330
18
100
AcDbEntity
  8
Object
100
AcDbLine
 10
12.13555555555555
 20
6.324444444444444
 30
0.0
 11
12.44444444444444
 21
6.324444444444444
 31
0.0
  0
LINE
  5
580
330
18
100
AcDbEntity
  8
Object
100
AcDbLine
 10
11.67444444444444
 20
7.192222222222222
 30
0.0
 11
11.18666666666666
 21
7.192222222222222
 31
0.0
  0
LINE
  5
581
330
18
100
AcDbEntity
  8
Object
100
AcDbLine
 10
9.241111111111111
 20
6.678888888888889
 30
0.0
 11
9.518888888888888
 21
6.678888888888889
 31
0.0
  0
LINE
  5
582
330
18
100
AcDbEntity
  8
Object
100
AcDbLine
 10
11.98
 20
7.192222222222222
 30
0.0
 11
11.98
 21
6.48
 31
0.0
  0
LINE
  5
583
330
18
100
AcDbEntity
  8
Object
100
AcDbLine
 10
13.77666666666667
 20
7.015555555555555
 30
0.0
 11
13.77666666666667
 21
7.192222222222222
 31
0.0
  0
LINE
  5
584
330
18
100
AcDbEntity
  8
Object
100
AcDbLine
 10
12.98333333333333
 20
7.192222222222222
 30
0.0
 11
12.75111111111111
 21
7.192222222222222
 31
0.0
  0
LINE
  5
585
330
18
100
AcDbEntity
  8
Object
100
AcDbLine
 10
11.82888888888889
 20
6.48
 30
0.0
 11
11.82888888888889
 21
7.037777777777777
 31
0.0
  0
LINE
  5
586
330
18
100
AcDbEntity
  8
Object
100
AcDbLine
 10
10.81333333333333
 20
6.837777777777778
 30
0.0
 11
10.66111111111111
 21
7.192222222222222
 31
0.0
  0
LINE
  5
587
330
18
100
AcDbEntity
  8
Object
100
AcDbLine
 10
10.37111111111111
 20
6.627777777777778
 30
0.0
 11
10.11666666666666
 21
7.192222222222222
 31
0.0
  0
LINE
  5
588
330
18
100
AcDbEntity
  8
Object
100
AcDbLine
 10
13.31222222222222
 20
6.324444444444444
 30
0.0
 11
13.57777777777777
 21
6.324444444444444
 31
0.0
  0
LINE
  5
589
330
18
100
AcDbEntity
  8
Object
100
AcDbLine
 10
12.41777777777778
 20
6.567777777777777
 30
0.0
 11
12.41444444444444
 21
6.551111111111111
 31
0.0
  0
LINE
  5
58A
330
18
100
AcDbEntity
  8
Object
100
AcDbLine
 10
12.41444444444444
 20
6.551111111111111
 30
0.0
 11
12.40555555555555
 21
6.536666666666667
 31
0.0
  0
LINE
  5
58B
330
18
100
AcDbEntity
  8
Object
100
AcDbLine
 10
12.40555555555555
 20
6.536666666666667
 30
0.0
 11
12.39111111111111
 21
6.526666666666666
 31
0.0
  0
LINE
  5
58C
330
18
100
AcDbEntity
  8
Object
100
AcDbLine
 10
12.39111111111111
 20
6.526666666666666
 30
0.0
 11
12.37333333333333
 21
6.523333333333333
 31
0.0
  0
LINE
  5
58D
330
18
100
AcDbEntity
  8
Object
100
AcDbLine
 10
12.98333333333333
 20
6.324444444444444
 30
0.0
 11
12.98333333333333
 21
7.192222222222222
 31
0.0
  0
LINE
  5
58E
330
18
100
AcDbEntity
  8
Object
100
AcDbLine
 10
9.241111111111111
 20
6.324444444444444
 30
0.0
 11
9.241111111111111
 21
6.678888888888889
 31
0.0
  0
LINE
  5
58F
330
18
100
AcDbEntity
  8
Object
100
AcDbLine
 10
13.77666666666667
 20
7.192222222222222
 30
0.0
 11
13.13444444444444
 21
7.192222222222222
 31
0.0
  0
LINE
  5
590
330
18
100
AcDbEntity
  8
Object
100
AcDbLine
 10
12.59888888888889
 20
6.48
 30
0.0
 11
12.59888888888889
 21
7.192222222222222
 31
0.0
  0
LINE
  5
591
330
18
100
AcDbEntity
  8
Object
100
AcDbLine
 10
12.31111111111111
 20
6.523333333333333
 30
0.0
 11
12.29444444444444
 21
6.526666666666666
 31
0.0
  0
LINE
  5
592
330
18
100
AcDbEntity
  8
Object
100
AcDbLine
 10
12.29444444444444
 20
6.526666666666666
 30
0.0
 11
12.28
 21
6.536666666666667
 31
0.0
  0
LINE
  5
593
330
18
100
AcDbEntity
  8
Object
100
AcDbLine
 10
12.28
 20
6.536666666666667
 30
0.0
 11
12.27
 21
6.551111111111111
 31
0.0
  0
LINE
  5
594
330
18
100
AcDbEntity
  8
Object
100
AcDbLine
 10
12.27
 20
6.551111111111111
 30
0.0
 11
12.26666666666667
 21
6.567777777777777
 31
0.0
  0
LINE
  5
595
330
18
100
AcDbEntity
  8
Object
100
AcDbLine
 10
13.57777777777777
 20
6.324444444444444
 30
0.0
 11
13.57777777777777
 21
7.015555555555555
 31
0.0
  0
LINE
  5
596
330
18
100
AcDbEntity
  8
Object
100
AcDbLine
 10
9.887777777777777
 20
7.192222222222222
 30
0.0
 11
9.867777777777778
 21
7.242222222222221
 31
0.0
  0
LINE
  5
597
330
18
100
AcDbEntity
  8
Object
100
AcDbLine
 10
9.867777777777778
 20
7.242222222222221
 30
0.0
 11
9.839999999999999
 21
7.288888888888888
 31
0.0
  0
LINE
  5
598
330
18
100
AcDbEntity
  8
Object
100
AcDbLine
 10
9.839999999999999
 20
7.288888888888888
 30
0.0
 11
9.806666666666666
 21
7.331111111111111
 31
0.0
  0
LINE
  5
599
330
18
100
AcDbEntity
  8
Object
100
AcDbLine
 10
9.806666666666666
 20
7.331111111111111
 30
0.0
 11
9.767777777777777
 21
7.368888888888888
 31
0.0
  0
LINE
  5
59A
330
18
100
AcDbEntity
  8
Object
100
AcDbLine
 10
9.767777777777777
 20
7.368888888888888
 30
0.0
 11
9.723333333333332
 21
7.4
 31
0.0
  0
LINE
  5
59B
330
18
100
AcDbEntity
  8
Object
100
AcDbLine
 10
9.723333333333332
 20
7.4
 30
0.0
 11
9.675555555555556
 21
7.425555555555555
 31
0.0
  0
LINE
  5
59C
330
18
100
AcDbEntity
  8
Object
100
AcDbLine
 10
9.675555555555556
 20
7.425555555555555
 30
0.0
 11
9.625555555555555
 21
7.443333333333333
 31
0.0
  0
LINE
  5
59D
330
18
100
AcDbEntity
  8
Object
100
AcDbLine
 10
9.625555555555555
 20
7.443333333333333
 30
0.0
 11
9.572222222222222
 21
7.454444444444444
 31
0.0
  0
LINE
  5
59E
330
18
100
AcDbEntity
  8
Object
100
AcDbLine
 10
9.572222222222222
 20
7.454444444444444
 30
0.0
 11
9.518888888888888
 21
7.458888888888888
 31
0.0
  0
LINE
  5
59F
330
18
100
AcDbEntity
  8
Object
100
AcDbLine
 10
12.13555555555555
 20
6.324444444444444
 30
0.0
 11
12.10111111111111
 21
6.327777777777777
 31
0.0
  0
LINE
  5
5A0
330
18
100
AcDbEntity
  8
Object
100
AcDbLine
 10
12.10111111111111
 20
6.327777777777777
 30
0.0
 11
12.06777777777778
 21
6.339999999999999
 31
0.0
  0
LINE
  5
5A1
330
18
100
AcDbEntity
  8
Object
100
AcDbLine
 10
12.06777777777778
 20
6.339999999999999
 30
0.0
 11
12.03888888888889
 21
6.357777777777777
 31
0.0
  0
LINE
  5
5A2
330
18
100
AcDbEntity
  8
Object
100
AcDbLine
 10
12.03888888888889
 20
6.357777777777777
 30
0.0
 11
12.01444444444444
 21
6.382222222222222
 31
0.0
  0
LINE
  5
5A3
330
18
100
AcDbEntity
  8
Object
100
AcDbLine
 10
12.01444444444444
 20
6.382222222222222
 30
0.0
 11
11.99555555555555
 21
6.412222222222221
 31
0.0
  0
LINE
  5
5A4
330
18
100
AcDbEntity
  8
Object
100
AcDbLine
 10
11.99555555555555
 20
6.412222222222221
 30
0.0
 11
11.98444444444444
 21
6.444444444444444
 31
0.0
  0
LINE
  5
5A5
330
18
100
AcDbEntity
  8
Object
100
AcDbLine
 10
11.98444444444444
 20
6.444444444444444
 30
0.0
 11
11.98
 21
6.48
 31
0.0
  0
LINE
  5
5A6
330
18
100
AcDbEntity
  8
Object
100
AcDbLine
 10
13.13444444444444
 20
7.015555555555555
 30
0.0
 11
13.31222222222222
 21
7.015555555555555
 31
0.0
  0
LINE
  5
5A7
330
18
100
AcDbEntity
  8
Object
100
AcDbLine
 10
12.41777777777778
 20
7.192222222222222
 30
0.0
 11
12.41777777777778
 21
6.567777777777777
 31
0.0
  0
LINE
  5
5A8
330
18
100
AcDbEntity
  8
Object
100
AcDbLine
 10
12.26666666666667
 20
7.192222222222222
 30
0.0
 11
11.98
 21
7.192222222222222
 31
0.0
  0
LINE
  5
5A9
330
18
100
AcDbEntity
  8
Object
100
AcDbLine
 10
9.526666666666667
 20
6.324444444444444
 30
0.0
 11
9.782222222222221
 21
6.324444444444444
 31
0.0
  0
LINE
  5
5AA
330
18
100
AcDbEntity
  8
Object
100
AcDbLine
 10
10.16555555555555
 20
6.45
 30
0.0
 11
10.22666666666666
 21
6.324444444444444
 31
0.0
  0
LINE
  5
5AB
330
18
100
AcDbEntity
  8
Object
100
AcDbLine
 10
13.31222222222222
 20
7.015555555555555
 30
0.0
 11
13.31222222222222
 21
6.324444444444444
 31
0.0
  0
LINE
  5
5AC
330
18
100
AcDbEntity
  8
Object
100
AcDbLine
 10
11.03555555555555
 20
6.324444444444444
 30
0.0
 11
11.03555555555555
 21
7.192222222222222
 31
0.0
  0
LINE
  5
5AD
330
18
100
AcDbEntity
  8
Object
100
AcDbLine
 10
12.59888888888889
 20
6.48
 30
0.0
 11
12.59555555555555
 21
6.444444444444444
 31
0.0
  0
LINE
  5
5AE
330
18
100
AcDbEntity
  8
Object
100
AcDbLine
 10
12.59555555555555
 20
6.444444444444444
 30
0.0
 11
12.58444444444444
 21
6.412222222222221
 31
0.0
  0
LINE
  5
5AF
330
18
100
AcDbEntity
  8
Object
100
AcDbLine
 10
12.58444444444444
 20
6.412222222222221
 30
0.0
 11
12.56555555555555
 21
6.382222222222222
 31
0.0
  0
LINE
  5
5B0
330
18
100
AcDbEntity
  8
Object
100
AcDbLine
 10
12.56555555555555
 20
6.382222222222222
 30
0.0
 11
12.54111111111111
 21
6.357777777777777
 31
0.0
  0
LINE
  5
5B1
330
18
100
AcDbEntity
  8
Object
100
AcDbLine
 10
12.54111111111111
 20
6.357777777777777
 30
0.0
 11
12.51111111111111
 21
6.339999999999999
 31
0.0
  0
LINE
  5
5B2
330
18
100
AcDbEntity
  8
Object
100
AcDbLine
 10
12.51111111111111
 20
6.339999999999999
 30
0.0
 11
12.47888888888889
 21
6.327777777777777
 31
0.0
  0
LINE
  5
5B3
330
18
100
AcDbEntity
  8
Object
100
AcDbLine
 10
12.47888888888889
 20
6.327777777777777
 30
0.0
 11
12.44444444444444
 21
6.324444444444444
 31
0.0
  0
LINE
  5
5B4
330
18
100
AcDbEntity
  8
Object
100
AcDbLine
 10
12.37333333333333
 20
6.523333333333333
 30
0.0
 11
12.31111111111111
 21
6.523333333333333
 31
0.0
  0
LINE
  5
5B5
330
18
100
AcDbEntity
  8
Object
100
AcDbLine
 10
11.18666666666666
 20
7.192222222222222
 30
0.0
 11
11.18666666666666
 21
6.324444444444444
 31
0.0
  0
LINE
  5
5B6
330
18
100
AcDbEntity
  8
Object
100
AcDbLine
 10
9.518888888888888
 20
7.458888888888888
 30
0.0
 11
8.731111111111111
 21
7.458888888888888
 31
0.0
  0
LINE
  5
5B7
330
18
100
AcDbEntity
  8
Object
100
AcDbLine
 10
10.81333333333333
 20
6.837777777777778
 30
0.0
 11
10.81333333333333
 21
7.192222222222222
 31
0.0
  0
LINE
  5
5B8
330
18
100
AcDbEntity
  8
Object
100
AcDbLine
 10
10.81333333333333
 20
7.192222222222222
 30
0.0
 11
11.03555555555555
 21
7.192222222222222
 31
0.0
  0
LINE
  5
5B9
330
18
100
AcDbEntity
  8
Object
100
AcDbLine
 10
11.03555555555555
 20
7.192222222222222
 30
0.0
 11
11.03555555555555
 21
6.324444444444444
 31
0.0
  0
LINE
  5
5BA
330
18
100
AcDbEntity
  8
Object
100
AcDbLine
 10
11.03555555555555
 20
6.324444444444444
 30
0.0
 11
10.77333333333333
 21
6.324444444444444
 31
0.0
  0
LINE
  5
5BB
330
18
100
AcDbEntity
  8
Object
100
AcDbLine
 10
10.81333333333333
 20
6.837777777777778
 30
0.0
 11
10.66111111111111
 21
7.192222222222222
 31
0.0
  0
LINE
  5
5BC
330
18
100
AcDbEntity
  8
Object
100
AcDbLine
 10
10.61444444444444
 20
6.694444444444444
 30
0.0
 11
10.77333333333333
 21
6.324444444444444
 31
0.0
  0
LINE
  5
5BD
330
18
100
AcDbEntity
  8
Object
100
AcDbLine
 10
10.37111111111111
 20
6.627777777777778
 30
0.0
 11
10.37111111111111
 21
7.192222222222222
 31
0.0
  0
LINE
  5
5BE
330
18
100
AcDbEntity
  8
Object
100
AcDbLine
 10
10.37111111111111
 20
7.192222222222222
 30
0.0
 11
10.66111111111111
 21
7.192222222222222
 31
0.0
  0
LINE
  5
5BF
330
18
100
AcDbEntity
  8
Object
100
AcDbLine
 10
10.61444444444444
 20
6.694444444444444
 30
0.0
 11
10.61444444444444
 21
6.324444444444444
 31
0.0
  0
LINE
  5
5C0
330
18
100
AcDbEntity
  8
Object
100
AcDbLine
 10
10.61444444444444
 20
6.324444444444444
 30
0.0
 11
10.22666666666666
 21
6.324444444444444
 31
0.0
  0
LINE
  5
5C1
330
18
100
AcDbEntity
  8
Object
100
AcDbLine
 10
10.22666666666666
 20
6.324444444444444
 30
0.0
 11
10.16555555555555
 21
6.45
 31
0.0
  0
LINE
  5
5C2
330
18
100
AcDbEntity
  8
Object
100
AcDbLine
 10
10.37111111111111
 20
6.627777777777778
 30
0.0
 11
10.11666666666666
 21
7.192222222222222
 31
0.0
  0
LINE
  5
5C3
330
18
100
AcDbEntity
  8
Object
100
AcDbLine
 10
9.998888888888888
 20
6.883333333333333
 30
0.0
 11
10.10888888888889
 21
6.637777777777777
 31
0.0
  0
LINE
  5
5C4
330
18
100
AcDbEntity
  8
Object
100
AcDbLine
 10
10.11666666666666
 20
7.192222222222222
 30
0.0
 11
9.887777777777777
 21
7.192222222222222
 31
0.0
  0
LINE
  5
5C5
330
18
100
AcDbEntity
  8
Object
100
AcDbLine
 10
9.835555555555554
 20
6.45
 30
0.0
 11
10.16555555555555
 21
6.45
 31
0.0
  0
LINE
  5
5C6
330
18
100
AcDbEntity
  8
Object
100
AcDbLine
 10
10.10888888888889
 20
6.637777777777777
 30
0.0
 11
9.89
 21
6.637777777777777
 31
0.0
  0
LINE
  5
5C7
330
18
100
AcDbEntity
  8
Object
100
AcDbLine
 10
9.89
 20
6.637777777777777
 30
0.0
 11
9.998888888888888
 21
6.883333333333333
 31
0.0
  0
LINE
  5
5C8
330
18
100
AcDbEntity
  8
Object
100
AcDbLine
 10
9.526666666666667
 20
6.324444444444444
 30
0.0
 11
9.782222222222221
 21
6.324444444444444
 31
0.0
  0
LINE
  5
5C9
330
18
100
AcDbEntity
  8
Object
100
AcDbLine
 10
9.782222222222221
 20
6.324444444444444
 30
0.0
 11
9.835555555555554
 21
6.45
 31
0.0
  0
LINE
  5
5CA
330
18
100
AcDbEntity
  8
Object
100
AcDbLine
 10
9.688888888888888
 20
6.717777777777778
 30
0.0
 11
9.526666666666667
 21
6.324444444444444
 31
0.0
  0
LINE
  5
5CB
330
18
100
AcDbEntity
  8
Object
100
AcDbLine
 10
9.675555555555556
 20
7.425555555555555
 30
0.0
 11
9.723333333333332
 21
7.4
 31
0.0
  0
LINE
  5
5CC
330
18
100
AcDbEntity
  8
Object
100
AcDbLine
 10
9.723333333333332
 20
7.4
 30
0.0
 11
9.767777777777777
 21
7.368888888888888
 31
0.0
  0
LINE
  5
5CD
330
18
100
AcDbEntity
  8
Object
100
AcDbLine
 10
9.767777777777777
 20
7.368888888888888
 30
0.0
 11
9.806666666666666
 21
7.331111111111111
 31
0.0
  0
LINE
  5
5CE
330
18
100
AcDbEntity
  8
Object
100
AcDbLine
 10
9.806666666666666
 20
7.331111111111111
 30
0.0
 11
9.839999999999999
 21
7.288888888888888
 31
0.0
  0
LINE
  5
5CF
330
18
100
AcDbEntity
  8
Object
100
AcDbLine
 10
9.839999999999999
 20
7.288888888888888
 30
0.0
 11
9.867777777777778
 21
7.242222222222221
 31
0.0
  0
LINE
  5
5D0
330
18
100
AcDbEntity
  8
Object
100
AcDbLine
 10
9.867777777777778
 20
7.242222222222221
 30
0.0
 11
9.887777777777777
 21
7.192222222222222
 31
0.0
  0
LINE
  5
5D1
330
18
100
AcDbEntity
  8
Object
100
AcDbLine
 10
9.406666666666666
 20
7.203333333333333
 30
0.0
 11
9.406666666666666
 21
6.915555555555555
 31
0.0
  0
LINE
  5
5D2
330
18
100
AcDbEntity
  8
Object
100
AcDbLine
 10
9.648888888888889
 20
6.701111111111111
 30
0.0
 11
9.688888888888888
 21
6.717777777777778
 31
0.0
  0
LINE
  5
5D3
330
18
100
AcDbEntity
  8
Object
100
AcDbLine
 10
9.572222222222222
 20
7.454444444444444
 30
0.0
 11
9.625555555555555
 21
7.443333333333333
 31
0.0
  0
LINE
  5
5D4
330
18
100
AcDbEntity
  8
Object
100
AcDbLine
 10
9.625555555555555
 20
7.443333333333333
 30
0.0
 11
9.675555555555556
 21
7.425555555555555
 31
0.0
  0
LINE
  5
5D5
330
18
100
AcDbEntity
  8
Object
100
AcDbLine
 10
9.404444444444443
 20
7.221111111111111
 30
0.0
 11
9.406666666666666
 21
7.203333333333333
 31
0.0
  0
LINE
  5
5D6
330
18
100
AcDbEntity
  8
Object
100
AcDbLine
 10
9.648888888888889
 20
6.701111111111111
 30
0.0
 11
9.606666666666667
 21
6.688888888888889
 31
0.0
  0
LINE
  5
5D7
330
18
100
AcDbEntity
  8
Object
100
AcDbLine
 10
9.606666666666667
 20
6.688888888888889
 30
0.0
 11
9.562222222222223
 21
6.681111111111111
 31
0.0
  0
LINE
  5
5D8
330
18
100
AcDbEntity
  8
Object
100
AcDbLine
 10
9.406666666666666
 20
6.915555555555555
 30
0.0
 11
9.404444444444443
 21
6.898888888888889
 31
0.0
  0
LINE
  5
5D9
330
18
100
AcDbEntity
  8
Object
100
AcDbLine
 10
9.572222222222222
 20
7.454444444444444
 30
0.0
 11
9.518888888888888
 21
7.458888888888888
 31
0.0
  0
LINE
  5
5DA
330
18
100
AcDbEntity
  8
Object
100
AcDbLine
 10
9.396666666666666
 20
7.236666666666666
 30
0.0
 11
9.404444444444443
 21
7.221111111111111
 31
0.0
  0
LINE
  5
5DB
330
18
100
AcDbEntity
  8
Object
100
AcDbLine
 10
9.518888888888888
 20
6.678888888888889
 30
0.0
 11
9.562222222222223
 21
6.681111111111111
 31
0.0
  0
LINE
  5
5DC
330
18
100
AcDbEntity
  8
Object
100
AcDbLine
 10
9.404444444444443
 20
6.898888888888889
 30
0.0
 11
9.396666666666666
 21
6.883333333333333
 31
0.0
  0
LINE
  5
5DD
330
18
100
AcDbEntity
  8
Object
100
AcDbLine
 10
9.384444444444444
 20
7.248888888888888
 30
0.0
 11
9.396666666666666
 21
7.236666666666666
 31
0.0
  0
LINE
  5
5DE
330
18
100
AcDbEntity
  8
Object
100
AcDbLine
 10
9.396666666666666
 20
6.883333333333333
 30
0.0
 11
9.384444444444444
 21
6.871111111111111
 31
0.0
  0
LINE
  5
5DF
330
18
100
AcDbEntity
  8
Object
100
AcDbLine
 10
9.368888888888889
 20
7.256666666666666
 30
0.0
 11
9.384444444444444
 21
7.248888888888888
 31
0.0
  0
LINE
  5
5E0
330
18
100
AcDbEntity
  8
Object
100
AcDbLine
 10
9.384444444444444
 20
6.871111111111111
 30
0.0
 11
9.368888888888889
 21
6.863333333333333
 31
0.0
  0
LINE
  5
5E1
330
18
100
AcDbEntity
  8
Object
100
AcDbLine
 10
9.35111111111111
 20
7.258888888888888
 30
0.0
 11
9.368888888888889
 21
7.256666666666666
 31
0.0
  0
LINE
  5
5E2
330
18
100
AcDbEntity
  8
Object
100
AcDbLine
 10
9.368888888888889
 20
6.863333333333333
 30
0.0
 11
9.35111111111111
 21
6.86
 31
0.0
  0
LINE
  5
5E3
330
18
100
AcDbEntity
  8
Object
100
AcDbLine
 10
9.241111111111111
 20
7.258888888888888
 30
0.0
 11
9.35111111111111
 21
7.258888888888888
 31
0.0
  0
LINE
  5
5E4
330
18
100
AcDbEntity
  8
Object
100
AcDbLine
 10
9.241111111111111
 20
6.678888888888889
 30
0.0
 11
9.518888888888888
 21
6.678888888888889
 31
0.0
  0
LINE
  5
5E5
330
18
100
AcDbEntity
  8
Object
100
AcDbLine
 10
9.35111111111111
 20
6.86
 30
0.0
 11
9.241111111111111
 21
6.86
 31
0.0
  0
LINE
  5
5E6
330
18
100
AcDbEntity
  8
Object
100
AcDbLine
 10
9.518888888888888
 20
7.458888888888888
 30
0.0
 11
8.731111111111111
 21
7.458888888888888
 31
0.0
  0
LINE
  5
5E7
330
18
100
AcDbEntity
  8
Object
100
AcDbLine
 10
9.241111111111111
 20
6.86
 30
0.0
 11
9.241111111111111
 21
7.258888888888888
 31
0.0
  0
LINE
  5
5E8
330
18
100
AcDbEntity
  8
Object
100
AcDbLine
 10
9.241111111111111
 20
6.678888888888889
 30
0.0
 11
9.241111111111111
 21
6.324444444444444
 31
0.0
  0
LINE
  5
5E9
330
18
100
AcDbEntity
  8
Object
100
AcDbLine
 10
9.241111111111111
 20
6.324444444444444
 30
0.0
 11
8.731111111111111
 21
6.324444444444444
 31
0.0
  0
LINE
  5
5EA
330
18
100
AcDbEntity
  8
Object
100
AcDbLine
 10
8.731111111111111
 20
6.324444444444444
 30
0.0
 11
8.731111111111111
 21
7.458888888888888
 31
0.0
  0
LINE
  5
5EB
330
18
100
AcDbEntity
  8
Object
100
AcDbLine
 10
12.41777777777778
 20
6.567777777777777
 30
0.0
 11
12.41777777777778
 21
7.192222222222222
 31
0.0
  0
LINE
  5
5EC
330
18
100
AcDbEntity
  8
Object
100
AcDbLine
 10
12.41777777777778
 20
7.192222222222222
 30
0.0
 11
12.59888888888889
 21
7.192222222222222
 31
0.0
  0
LINE
  5
5ED
330
18
100
AcDbEntity
  8
Object
100
AcDbLine
 10
12.59888888888889
 20
7.192222222222222
 30
0.0
 11
12.59888888888889
 21
6.48
 31
0.0
  0
LINE
  5
5EE
330
18
100
AcDbEntity
  8
Object
100
AcDbLine
 10
12.41777777777778
 20
6.567777777777777
 30
0.0
 11
12.41444444444444
 21
6.551111111111111
 31
0.0
  0
LINE
  5
5EF
330
18
100
AcDbEntity
  8
Object
100
AcDbLine
 10
12.59555555555555
 20
6.444444444444444
 30
0.0
 11
12.59888888888889
 21
6.48
 31
0.0
  0
LINE
  5
5F0
330
18
100
AcDbEntity
  8
Object
100
AcDbLine
 10
12.41444444444444
 20
6.551111111111111
 30
0.0
 11
12.40555555555555
 21
6.536666666666667
 31
0.0
  0
LINE
  5
5F1
330
18
100
AcDbEntity
  8
Object
100
AcDbLine
 10
12.59555555555555
 20
6.444444444444444
 30
0.0
 11
12.58444444444444
 21
6.412222222222221
 31
0.0
  0
LINE
  5
5F2
330
18
100
AcDbEntity
  8
Object
100
AcDbLine
 10
12.58444444444444
 20
6.412222222222221
 30
0.0
 11
12.56555555555555
 21
6.382222222222222
 31
0.0
  0
LINE
  5
5F3
330
18
100
AcDbEntity
  8
Object
100
AcDbLine
 10
12.56555555555555
 20
6.382222222222222
 30
0.0
 11
12.54111111111111
 21
6.357777777777777
 31
0.0
  0
LINE
  5
5F4
330
18
100
AcDbEntity
  8
Object
100
AcDbLine
 10
12.54111111111111
 20
6.357777777777777
 30
0.0
 11
12.51111111111111
 21
6.339999999999999
 31
0.0
  0
LINE
  5
5F5
330
18
100
AcDbEntity
  8
Object
100
AcDbLine
 10
12.40555555555555
 20
6.536666666666667
 30
0.0
 11
12.39111111111111
 21
6.526666666666666
 31
0.0
  0
LINE
  5
5F6
330
18
100
AcDbEntity
  8
Object
100
AcDbLine
 10
12.51111111111111
 20
6.339999999999999
 30
0.0
 11
12.47888888888889
 21
6.327777777777777
 31
0.0
  0
LINE
  5
5F7
330
18
100
AcDbEntity
  8
Object
100
AcDbLine
 10
12.47888888888889
 20
6.327777777777777
 30
0.0
 11
12.44444444444444
 21
6.324444444444444
 31
0.0
  0
LINE
  5
5F8
330
18
100
AcDbEntity
  8
Object
100
AcDbLine
 10
12.39111111111111
 20
6.526666666666666
 30
0.0
 11
12.37333333333333
 21
6.523333333333333
 31
0.0
  0
LINE
  5
5F9
330
18
100
AcDbEntity
  8
Object
100
AcDbLine
 10
12.37333333333333
 20
6.523333333333333
 30
0.0
 11
12.31111111111111
 21
6.523333333333333
 31
0.0
  0
LINE
  5
5FA
330
18
100
AcDbEntity
  8
Object
100
AcDbLine
 10
12.27
 20
6.551111111111111
 30
0.0
 11
12.28
 21
6.536666666666667
 31
0.0
  0
LINE
  5
5FB
330
18
100
AcDbEntity
  8
Object
100
AcDbLine
 10
12.28
 20
6.536666666666667
 30
0.0
 11
12.29444444444444
 21
6.526666666666666
 31
0.0
  0
LINE
  5
5FC
330
18
100
AcDbEntity
  8
Object
100
AcDbLine
 10
12.29444444444444
 20
6.526666666666666
 30
0.0
 11
12.31111111111111
 21
6.523333333333333
 31
0.0
  0
LINE
  5
5FD
330
18
100
AcDbEntity
  8
Object
100
AcDbLine
 10
12.44444444444444
 20
6.324444444444444
 30
0.0
 11
12.13555555555555
 21
6.324444444444444
 31
0.0
  0
LINE
  5
5FE
330
18
100
AcDbEntity
  8
Object
100
AcDbLine
 10
12.13555555555555
 20
6.324444444444444
 30
0.0
 11
12.10111111111111
 21
6.327777777777777
 31
0.0
  0
LINE
  5
5FF
330
18
100
AcDbEntity
  8
Object
100
AcDbLine
 10
12.10111111111111
 20
6.327777777777777
 30
0.0
 11
12.06777777777778
 21
6.339999999999999
 31
0.0
  0
LINE
  5
600
330
18
100
AcDbEntity
  8
Object
100
AcDbLine
 10
12.06777777777778
 20
6.339999999999999
 30
0.0
 11
12.03888888888889
 21
6.357777777777777
 31
0.0
  0
LINE
  5
601
330
18
100
AcDbEntity
  8
Object
100
AcDbLine
 10
12.03888888888889
 20
6.357777777777777
 30
0.0
 11
12.01444444444444
 21
6.382222222222222
 31
0.0
  0
LINE
  5
602
330
18
100
AcDbEntity
  8
Object
100
AcDbLine
 10
12.01444444444444
 20
6.382222222222222
 30
0.0
 11
11.99555555555555
 21
6.412222222222221
 31
0.0
  0
LINE
  5
603
330
18
100
AcDbEntity
  8
Object
100
AcDbLine
 10
11.99555555555555
 20
6.412222222222221
 30
0.0
 11
11.98444444444444
 21
6.444444444444444
 31
0.0
  0
LINE
  5
604
330
18
100
AcDbEntity
  8
Object
100
AcDbLine
 10
11.98
 20
7.192222222222222
 30
0.0
 11
11.98
 21
6.48
 31
0.0
  0
LINE
  5
605
330
18
100
AcDbEntity
  8
Object
100
AcDbLine
 10
12.27
 20
6.551111111111111
 30
0.0
 11
12.26666666666667
 21
6.567777777777777
 31
0.0
  0
LINE
  5
606
330
18
100
AcDbEntity
  8
Object
100
AcDbLine
 10
11.98
 20
6.48
 30
0.0
 11
11.98444444444444
 21
6.444444444444444
 31
0.0
  0
LINE
  5
607
330
18
100
AcDbEntity
  8
Object
100
AcDbLine
 10
11.98
 20
7.192222222222222
 30
0.0
 11
12.26666666666667
 21
7.192222222222222
 31
0.0
  0
LINE
  5
608
330
18
100
AcDbEntity
  8
Object
100
AcDbLine
 10
12.26666666666667
 20
7.192222222222222
 30
0.0
 11
12.26666666666667
 21
6.567777777777777
 31
0.0
  0
LINE
  5
609
330
18
100
AcDbEntity
  8
Object
100
AcDbLine
 10
13.77666666666667
 20
7.192222222222222
 30
0.0
 11
13.77666666666667
 21
7.015555555555555
 31
0.0
  0
LINE
  5
60A
330
18
100
AcDbEntity
  8
Object
100
AcDbLine
 10
13.77666666666667
 20
7.015555555555555
 30
0.0
 11
13.57777777777777
 21
7.015555555555555
 31
0.0
  0
LINE
  5
60B
330
18
100
AcDbEntity
  8
Object
100
AcDbLine
 10
13.31222222222222
 20
7.015555555555555
 30
0.0
 11
13.31222222222222
 21
6.324444444444444
 31
0.0
  0
LINE
  5
60C
330
18
100
AcDbEntity
  8
Object
100
AcDbLine
 10
13.57777777777777
 20
7.015555555555555
 30
0.0
 11
13.57777777777777
 21
6.324444444444444
 31
0.0
  0
LINE
  5
60D
330
18
100
AcDbEntity
  8
Object
100
AcDbLine
 10
13.57777777777777
 20
6.324444444444444
 30
0.0
 11
13.31222222222222
 21
6.324444444444444
 31
0.0
  0
LINE
  5
60E
330
18
100
AcDbEntity
  8
Object
100
AcDbLine
 10
13.77666666666667
 20
7.192222222222222
 30
0.0
 11
13.13444444444444
 21
7.192222222222222
 31
0.0
  0
LINE
  5
60F
330
18
100
AcDbEntity
  8
Object
100
AcDbLine
 10
13.31222222222222
 20
7.015555555555555
 30
0.0
 11
13.13444444444444
 21
7.015555555555555
 31
0.0
  0
LINE
  5
610
330
18
100
AcDbEntity
  8
Object
100
AcDbLine
 10
13.13444444444444
 20
7.015555555555555
 30
0.0
 11
13.13444444444444
 21
7.192222222222222
 31
0.0
  0
LINE
  5
611
330
18
100
AcDbEntity
  8
Object
100
AcDbLine
 10
12.98333333333333
 20
7.192222222222222
 30
0.0
 11
12.98333333333333
 21
6.324444444444444
 31
0.0
  0
LINE
  5
612
330
18
100
AcDbEntity
  8
Object
100
AcDbLine
 10
12.98333333333333
 20
6.324444444444444
 30
0.0
 11
12.75111111111111
 21
6.324444444444444
 31
0.0
  0
LINE
  5
613
330
18
100
AcDbEntity
  8
Object
100
AcDbLine
 10
12.75111111111111
 20
6.324444444444444
 30
0.0
 11
12.75111111111111
 21
7.192222222222222
 31
0.0
  0
LINE
  5
614
330
18
100
AcDbEntity
  8
Object
100
AcDbLine
 10
12.75111111111111
 20
7.192222222222222
 30
0.0
 11
12.98333333333333
 21
7.192222222222222
 31
0.0
  0
LINE
  5
615
330
18
100
AcDbEntity
  8
Object
100
AcDbLine
 10
11.82888888888889
 20
6.48
 30
0.0
 11
11.82888888888889
 21
7.037777777777777
 31
0.0
  0
LINE
  5
616
330
18
100
AcDbEntity
  8
Object
100
AcDbLine
 10
11.57666666666666
 20
6.966666666666666
 30
0.0
 11
11.57666666666666
 21
6.567777777777777
 31
0.0
  0
LINE
  5
617
330
18
100
AcDbEntity
  8
Object
100
AcDbLine
 10
11.70888888888889
 20
7.188888888888889
 30
0.0
 11
11.74111111111111
 21
7.176666666666666
 31
0.0
  0
LINE
  5
618
330
18
100
AcDbEntity
  8
Object
100
AcDbLine
 10
11.74111111111111
 20
7.176666666666666
 30
0.0
 11
11.77111111111111
 21
7.158888888888888
 31
0.0
  0
LINE
  5
619
330
18
100
AcDbEntity
  8
Object
100
AcDbLine
 10
11.77111111111111
 20
7.158888888888888
 30
0.0
 11
11.79555555555555
 21
7.134444444444444
 31
0.0
  0
LINE
  5
61A
330
18
100
AcDbEntity
  8
Object
100
AcDbLine
 10
11.79555555555555
 20
7.134444444444444
 30
0.0
 11
11.81333333333333
 21
7.104444444444444
 31
0.0
  0
LINE
  5
61B
330
18
100
AcDbEntity
  8
Object
100
AcDbLine
 10
11.81333333333333
 20
7.104444444444444
 30
0.0
 11
11.82555555555555
 21
7.072222222222221
 31
0.0
  0
LINE
  5
61C
330
18
100
AcDbEntity
  8
Object
100
AcDbLine
 10
11.82555555555555
 20
7.072222222222221
 30
0.0
 11
11.82888888888889
 21
7.037777777777777
 31
0.0
  0
LINE
  5
61D
330
18
100
AcDbEntity
  8
Object
100
AcDbLine
 10
11.57333333333333
 20
6.984444444444444
 30
0.0
 11
11.57666666666666
 21
6.966666666666666
 31
0.0
  0
LINE
  5
61E
330
18
100
AcDbEntity
  8
Object
100
AcDbLine
 10
11.82888888888889
 20
6.48
 30
0.0
 11
11.82555555555555
 21
6.444444444444444
 31
0.0
  0
LINE
  5
61F
330
18
100
AcDbEntity
  8
Object
100
AcDbLine
 10
11.82555555555555
 20
6.444444444444444
 30
0.0
 11
11.81333333333333
 21
6.412222222222221
 31
0.0
  0
LINE
  5
620
330
18
100
AcDbEntity
  8
Object
100
AcDbLine
 10
11.57666666666666
 20
6.567777777777777
 30
0.0
 11
11.57333333333333
 21
6.551111111111111
 31
0.0
  0
LINE
  5
621
330
18
100
AcDbEntity
  8
Object
100
AcDbLine
 10
11.79555555555555
 20
6.382222222222222
 30
0.0
 11
11.81333333333333
 21
6.412222222222221
 31
0.0
  0
LINE
  5
622
330
18
100
AcDbEntity
  8
Object
100
AcDbLine
 10
11.70888888888889
 20
7.188888888888889
 30
0.0
 11
11.67444444444444
 21
7.192222222222222
 31
0.0
  0
LINE
  5
623
330
18
100
AcDbEntity
  8
Object
100
AcDbLine
 10
11.56333333333333
 20
6.997777777777777
 30
0.0
 11
11.57333333333333
 21
6.984444444444444
 31
0.0
  0
LINE
  5
624
330
18
100
AcDbEntity
  8
Object
100
AcDbLine
 10
11.79555555555555
 20
6.382222222222222
 30
0.0
 11
11.77111111111111
 21
6.357777777777777
 31
0.0
  0
LINE
  5
625
330
18
100
AcDbEntity
  8
Object
100
AcDbLine
 10
11.77111111111111
 20
6.357777777777777
 30
0.0
 11
11.74111111111111
 21
6.339999999999999
 31
0.0
  0
LINE
  5
626
330
18
100
AcDbEntity
  8
Object
100
AcDbLine
 10
11.74111111111111
 20
6.339999999999999
 30
0.0
 11
11.70888888888889
 21
6.327777777777777
 31
0.0
  0
LINE
  5
627
330
18
100
AcDbEntity
  8
Object
100
AcDbLine
 10
11.70888888888889
 20
6.327777777777777
 30
0.0
 11
11.67444444444444
 21
6.324444444444444
 31
0.0
  0
LINE
  5
628
330
18
100
AcDbEntity
  8
Object
100
AcDbLine
 10
11.57333333333333
 20
6.551111111111111
 30
0.0
 11
11.56333333333333
 21
6.536666666666667
 31
0.0
  0
LINE
  5
629
330
18
100
AcDbEntity
  8
Object
100
AcDbLine
 10
11.54888888888889
 20
7.007777777777778
 30
0.0
 11
11.56333333333333
 21
6.997777777777777
 31
0.0
  0
LINE
  5
62A
330
18
100
AcDbEntity
  8
Object
100
AcDbLine
 10
11.56333333333333
 20
6.536666666666667
 30
0.0
 11
11.54888888888889
 21
6.526666666666666
 31
0.0
  0
LINE
  5
62B
330
18
100
AcDbEntity
  8
Object
100
AcDbLine
 10
11.53222222222222
 20
7.011111111111111
 30
0.0
 11
11.54888888888889
 21
7.007777777777778
 31
0.0
  0
LINE
  5
62C
330
18
100
AcDbEntity
  8
Object
100
AcDbLine
 10
11.54888888888889
 20
6.526666666666666
 30
0.0
 11
11.53222222222222
 21
6.523333333333333
 31
0.0
  0
LINE
  5
62D
330
18
100
AcDbEntity
  8
Object
100
AcDbLine
 10
11.44333333333333
 20
7.011111111111111
 30
0.0
 11
11.53222222222222
 21
7.011111111111111
 31
0.0
  0
LINE
  5
62E
330
18
100
AcDbEntity
  8
Object
100
AcDbLine
 10
11.53222222222222
 20
6.523333333333333
 30
0.0
 11
11.44333333333333
 21
6.523333333333333
 31
0.0
  0
LINE
  5
62F
330
18
100
AcDbEntity
  8
Object
100
AcDbLine
 10
11.67444444444444
 20
7.192222222222222
 30
0.0
 11
11.18666666666666
 21
7.192222222222222
 31
0.0
  0
LINE
  5
630
330
18
100
AcDbEntity
  8
Object
100
AcDbLine
 10
11.44333333333333
 20
6.523333333333333
 30
0.0
 11
11.44333333333333
 21
7.011111111111111
 31
0.0
  0
LINE
  5
631
330
18
100
AcDbEntity
  8
Object
100
AcDbLine
 10
11.67444444444444
 20
6.324444444444444
 30
0.0
 11
11.18666666666666
 21
6.324444444444444
 31
0.0
  0
LINE
  5
632
330
18
100
AcDbEntity
  8
Object
100
AcDbLine
 10
11.18666666666666
 20
6.324444444444444
 30
0.0
 11
11.18666666666666
 21
7.192222222222222
 31
0.0
  0
LINE
  5
633
330
18
100
AcDbEntity
  8
Object
100
AcDbLine
 10
9.89
 20
6.637777777777777
 30
0.0
 11
9.998888888888888
 21
6.883333333333333
 31
0.0
  0
LINE
  5
634
330
18
100
AcDbEntity
  8
Object
100
AcDbLine
 10
9.35111111111111
 20
6.86
 30
0.0
 11
9.241111111111111
 21
6.86
 31
0.0
  0
LINE
  5
635
330
18
100
AcDbEntity
  8
Object
100
AcDbLine
 10
10.10888888888889
 20
6.637777777777777
 30
0.0
 11
9.89
 21
6.637777777777777
 31
0.0
  0
LINE
  5
636
330
18
100
AcDbEntity
  8
Object
100
AcDbLine
 10
9.35111111111111
 20
7.258888888888888
 30
0.0
 11
9.241111111111111
 21
7.258888888888888
 31
0.0
  0
LINE
  5
637
330
18
100
AcDbEntity
  8
Object
100
AcDbLine
 10
9.241111111111111
 20
7.258888888888888
 30
0.0
 11
9.241111111111111
 21
6.86
 31
0.0
  0
LINE
  5
638
330
18
100
AcDbEntity
  8
Object
100
AcDbLine
 10
9.406666666666666
 20
7.203333333333333
 30
0.0
 11
9.406666666666666
 21
6.915555555555555
 31
0.0
  0
LINE
  5
639
330
18
100
AcDbEntity
  8
Object
100
AcDbLine
 10
9.406666666666666
 20
6.915555555555555
 30
0.0
 11
9.404444444444443
 21
6.898888888888889
 31
0.0
  0
LINE
  5
63A
330
18
100
AcDbEntity
  8
Object
100
AcDbLine
 10
9.404444444444443
 20
6.898888888888889
 30
0.0
 11
9.396666666666666
 21
6.883333333333333
 31
0.0
  0
LINE
  5
63B
330
18
100
AcDbEntity
  8
Object
100
AcDbLine
 10
9.396666666666666
 20
6.883333333333333
 30
0.0
 11
9.384444444444444
 21
6.871111111111111
 31
0.0
  0
LINE
  5
63C
330
18
100
AcDbEntity
  8
Object
100
AcDbLine
 10
9.384444444444444
 20
6.871111111111111
 30
0.0
 11
9.368888888888889
 21
6.863333333333333
 31
0.0
  0
LINE
  5
63D
330
18
100
AcDbEntity
  8
Object
100
AcDbLine
 10
9.368888888888889
 20
6.863333333333333
 30
0.0
 11
9.35111111111111
 21
6.86
 31
0.0
  0
LINE
  5
63E
330
18
100
AcDbEntity
  8
Object
100
AcDbLine
 10
9.406666666666666
 20
7.203333333333333
 30
0.0
 11
9.404444444444443
 21
7.221111111111111
 31
0.0
  0
LINE
  5
63F
330
18
100
AcDbEntity
  8
Object
100
AcDbLine
 10
9.404444444444443
 20
7.221111111111111
 30
0.0
 11
9.396666666666666
 21
7.236666666666666
 31
0.0
  0
LINE
  5
640
330
18
100
AcDbEntity
  8
Object
100
AcDbLine
 10
9.396666666666666
 20
7.236666666666666
 30
0.0
 11
9.384444444444444
 21
7.248888888888888
 31
0.0
  0
LINE
  5
641
330
18
100
AcDbEntity
  8
Object
100
AcDbLine
 10
9.384444444444444
 20
7.248888888888888
 30
0.0
 11
9.368888888888889
 21
7.256666666666666
 31
0.0
  0
LINE
  5
642
330
18
100
AcDbEntity
  8
Object
100
AcDbLine
 10
9.368888888888889
 20
7.256666666666666
 30
0.0
 11
9.35111111111111
 21
7.258888888888888
 31
0.0
  0
LINE
  5
643
330
18
100
AcDbEntity
  8
Object
100
AcDbLine
 10
9.998888888888888
 20
6.883333333333333
 30
0.0
 11
10.10888888888889
 21
6.637777777777777
 31
0.0
  0
LINE
  5
644
330
18
100
AcDbEntity
  8
Object
100
AcDbLine
 10
11.57666666666666
 20
6.567777777777777
 30
0.0
 11
11.57333333333333
 21
6.551111111111111
 31
0.0
  0
LINE
  5
645
330
18
100
AcDbEntity
  8
Object
100
AcDbLine
 10
11.57333333333333
 20
6.551111111111111
 30
0.0
 11
11.56333333333333
 21
6.536666666666667
 31
0.0
  0
LINE
  5
646
330
18
100
AcDbEntity
  8
Object
100
AcDbLine
 10
11.56333333333333
 20
6.536666666666667
 30
0.0
 11
11.54888888888889
 21
6.526666666666666
 31
0.0
  0
LINE
  5
647
330
18
100
AcDbEntity
  8
Object
100
AcDbLine
 10
11.54888888888889
 20
6.526666666666666
 30
0.0
 11
11.53222222222222
 21
6.523333333333333
 31
0.0
  0
LINE
  5
648
330
18
100
AcDbEntity
  8
Object
100
AcDbLine
 10
11.53222222222222
 20
6.523333333333333
 30
0.0
 11
11.44333333333333
 21
6.523333333333333
 31
0.0
  0
LINE
  5
649
330
18
100
AcDbEntity
  8
Object
100
AcDbLine
 10
11.44333333333333
 20
7.011111111111111
 30
0.0
 11
11.53222222222222
 21
7.011111111111111
 31
0.0
  0
LINE
  5
64A
330
18
100
AcDbEntity
  8
Object
100
AcDbLine
 10
11.57666666666666
 20
6.966666666666666
 30
0.0
 11
11.57666666666666
 21
6.567777777777777
 31
0.0
  0
LINE
  5
64B
330
18
100
AcDbEntity
  8
Object
100
AcDbLine
 10
11.44333333333333
 20
6.523333333333333
 30
0.0
 11
11.44333333333333
 21
7.011111111111111
 31
0.0
  0
LINE
  5
64C
330
18
100
AcDbEntity
  8
Object
100
AcDbLine
 10
11.57666666666666
 20
6.966666666666666
 30
0.0
 11
11.57333333333333
 21
6.984444444444444
 31
0.0
  0
LINE
  5
64D
330
18
100
AcDbEntity
  8
Object
100
AcDbLine
 10
11.57333333333333
 20
6.984444444444444
 30
0.0
 11
11.56333333333333
 21
6.997777777777777
 31
0.0
  0
LINE
  5
64E
330
18
100
AcDbEntity
  8
Object
100
AcDbLine
 10
11.56333333333333
 20
6.997777777777777
 30
0.0
 11
11.54888888888889
 21
7.007777777777778
 31
0.0
  0
LINE
  5
64F
330
18
100
AcDbEntity
  8
Object
100
AcDbLine
 10
11.54888888888889
 20
7.007777777777778
 30
0.0
 11
11.53222222222222
 21
7.011111111111111
 31
0.0
  0
LINE
  5
650
330
18
100
AcDbEntity
  8
Object
100
AcDbLine
 10
9.934444444444444
 20
17.45222222222222
 30
0.0
 11
9.927777777777777
 21
17.45222222222222
 31
0.0
  0
LINE
  5
651
330
18
100
AcDbEntity
  8
Object
100
AcDbLine
 10
9.927777777777777
 20
17.45222222222222
 30
0.0
 11
9.913333333333333
 21
17.45222222222222
 31
0.0
  0
LINE
  5
652
330
18
100
AcDbEntity
  8
Object
100
AcDbLine
 10
9.913333333333333
 20
17.45222222222222
 30
0.0
 11
9.894444444444443
 21
17.45222222222222
 31
0.0
  0
LINE
  5
653
330
18
100
AcDbEntity
  8
Object
100
AcDbLine
 10
9.894444444444443
 20
17.45222222222222
 30
0.0
 11
9.868888888888889
 21
17.45222222222222
 31
0.0
  0
LINE
  5
654
330
18
100
AcDbEntity
  8
Object
100
AcDbLine
 10
9.868888888888889
 20
17.45222222222222
 30
0.0
 11
9.839999999999999
 21
17.45222222222222
 31
0.0
  0
LINE
  5
655
330
18
100
AcDbEntity
  8
Object
100
AcDbLine
 10
9.839999999999999
 20
17.45222222222222
 30
0.0
 11
9.808888888888889
 21
17.45222222222222
 31
0.0
  0
LINE
  5
656
330
18
100
AcDbEntity
  8
Object
100
AcDbLine
 10
9.808888888888889
 20
17.45222222222222
 30
0.0
 11
9.775555555555555
 21
17.45222222222222
 31
0.0
  0
LINE
  5
657
330
18
100
AcDbEntity
  8
Object
100
AcDbLine
 10
9.775555555555555
 20
17.45222222222222
 30
0.0
 11
9.742222222222222
 21
17.45222222222222
 31
0.0
  0
LINE
  5
658
330
18
100
AcDbEntity
  8
Object
100
AcDbLine
 10
9.742222222222222
 20
17.45222222222222
 30
0.0
 11
9.71
 21
17.45222222222222
 31
0.0
  0
LINE
  5
659
330
18
100
AcDbEntity
  8
Object
100
AcDbLine
 10
9.71
 20
17.45222222222222
 30
0.0
 11
9.681111111111111
 21
17.45222222222222
 31
0.0
  0
LINE
  5
65A
330
18
100
AcDbEntity
  8
Object
100
AcDbLine
 10
9.681111111111111
 20
17.45222222222222
 30
0.0
 11
9.656666666666666
 21
17.45222222222222
 31
0.0
  0
LINE
  5
65B
330
18
100
AcDbEntity
  8
Object
100
AcDbLine
 10
9.656666666666666
 20
17.45222222222222
 30
0.0
 11
9.636666666666666
 21
17.45222222222222
 31
0.0
  0
LINE
  5
65C
330
18
100
AcDbEntity
  8
Object
100
AcDbLine
 10
9.636666666666666
 20
17.45222222222222
 30
0.0
 11
9.623333333333333
 21
17.45222222222222
 31
0.0
  0
LINE
  5
65D
330
18
100
AcDbEntity
  8
Object
100
AcDbLine
 10
9.623333333333333
 20
17.45222222222222
 30
0.0
 11
9.616666666666667
 21
17.45222222222222
 31
0.0
  0
LINE
  5
65E
330
18
100
AcDbEntity
  8
Object
100
AcDbLine
 10
9.742222222222222
 20
17.45222222222222
 30
0.0
 11
9.775555555555555
 21
17.45222222222222
 31
0.0
  0
LINE
  5
65F
330
18
100
AcDbEntity
  8
Object
100
AcDbLine
 10
9.775555555555555
 20
17.45222222222222
 30
0.0
 11
9.775555555555555
 21
17.44555555555555
 31
0.0
  0
LINE
  5
660
330
18
100
AcDbEntity
  8
Object
100
AcDbLine
 10
9.742222222222222
 20
17.45222222222222
 30
0.0
 11
9.71
 21
17.45222222222222
 31
0.0
  0
LINE
  5
661
330
18
100
AcDbEntity
  8
Object
100
AcDbLine
 10
9.71
 20
17.45222222222222
 30
0.0
 11
9.681111111111111
 21
17.45222222222222
 31
0.0
  0
LINE
  5
662
330
18
100
AcDbEntity
  8
Object
100
AcDbLine
 10
9.681111111111111
 20
17.45222222222222
 30
0.0
 11
9.656666666666666
 21
17.45222222222222
 31
0.0
  0
LINE
  5
663
330
18
100
AcDbEntity
  8
Object
100
AcDbLine
 10
9.656666666666666
 20
17.45222222222222
 30
0.0
 11
9.636666666666666
 21
17.45222222222222
 31
0.0
  0
LINE
  5
664
330
18
100
AcDbEntity
  8
Object
100
AcDbLine
 10
9.636666666666666
 20
17.45222222222222
 30
0.0
 11
9.623333333333333
 21
17.45222222222222
 31
0.0
  0
LINE
  5
665
330
18
100
AcDbEntity
  8
Object
100
AcDbLine
 10
9.623333333333333
 20
17.45222222222222
 30
0.0
 11
9.616666666666667
 21
17.45222222222222
 31
0.0
  0
LINE
  5
666
330
18
100
AcDbEntity
  8
Object
100
AcDbLine
 10
9.616666666666667
 20
17.45222222222222
 30
0.0
 11
9.616666666666667
 21
17.44555555555555
 31
0.0
  0
LINE
  5
667
330
18
100
AcDbEntity
  8
Object
100
AcDbLine
 10
9.616666666666667
 20
17.44555555555555
 30
0.0
 11
9.616666666666667
 21
17.45222222222222
 31
0.0
  0
LINE
  5
668
330
18
100
AcDbEntity
  8
Object
100
AcDbLine
 10
9.934444444444444
 20
17.44555555555555
 30
0.0
 11
9.934444444444444
 21
17.45222222222222
 31
0.0
  0
LINE
  5
669
330
18
100
AcDbEntity
  8
Object
100
AcDbLine
 10
9.934444444444444
 20
17.45222222222222
 30
0.0
 11
9.934444444444444
 21
17.44555555555555
 31
0.0
  0
LINE
  5
66A
330
18
100
AcDbEntity
  8
Object
100
AcDbLine
 10
9.934444444444444
 20
17.45222222222222
 30
0.0
 11
9.927777777777777
 21
17.45222222222222
 31
0.0
  0
LINE
  5
66B
330
18
100
AcDbEntity
  8
Object
100
AcDbLine
 10
9.927777777777777
 20
17.45222222222222
 30
0.0
 11
9.913333333333333
 21
17.45222222222222
 31
0.0
  0
LINE
  5
66C
330
18
100
AcDbEntity
  8
Object
100
AcDbLine
 10
9.913333333333333
 20
17.45222222222222
 30
0.0
 11
9.894444444444443
 21
17.45222222222222
 31
0.0
  0
LINE
  5
66D
330
18
100
AcDbEntity
  8
Object
100
AcDbLine
 10
9.894444444444443
 20
17.45222222222222
 30
0.0
 11
9.868888888888889
 21
17.45222222222222
 31
0.0
  0
LINE
  5
66E
330
18
100
AcDbEntity
  8
Object
100
AcDbLine
 10
9.868888888888889
 20
17.45222222222222
 30
0.0
 11
9.839999999999999
 21
17.45222222222222
 31
0.0
  0
LINE
  5
66F
330
18
100
AcDbEntity
  8
Object
100
AcDbLine
 10
9.839999999999999
 20
17.45222222222222
 30
0.0
 11
9.808888888888889
 21
17.45222222222222
 31
0.0
  0
LINE
  5
670
330
18
100
AcDbEntity
  8
Object
100
AcDbLine
 10
9.808888888888889
 20
17.45222222222222
 30
0.0
 11
9.775555555555555
 21
17.45222222222222
 31
0.0
  0
LINE
  5
671
330
18
100
AcDbEntity
  8
Object
100
AcDbLine
 10
17.68222222222222
 20
17.44555555555555
 30
0.0
 11
17.68111111111111
 21
17.44555555555555
 31
0.0
  0
LINE
  5
672
330
18
100
AcDbEntity
  8
Object
100
AcDbLine
 10
17.68111111111111
 20
17.44555555555555
 30
0.0
 11
17.67333333333333
 21
17.44555555555555
 31
0.0
  0
LINE
  5
673
330
18
100
AcDbEntity
  8
Object
100
AcDbLine
 10
17.75888888888889
 20
17.44555555555555
 30
0.0
 11
17.68222222222222
 21
17.44555555555555
 31
0.0
  0
LINE
  5
674
330
18
100
AcDbEntity
  8
Object
100
AcDbLine
 10
17.67333333333333
 20
17.44555555555555
 30
0.0
 11
17.65888888888889
 21
17.44555555555555
 31
0.0
  0
LINE
  5
675
330
18
100
AcDbEntity
  8
Object
100
AcDbLine
 10
17.65888888888889
 20
17.44555555555555
 30
0.0
 11
17.63777777777778
 21
17.44555555555555
 31
0.0
  0
LINE
  5
676
330
18
100
AcDbEntity
  8
Object
100
AcDbLine
 10
17.63777777777778
 20
17.44555555555555
 30
0.0
 11
17.61222222222222
 21
17.44555555555555
 31
0.0
  0
LINE
  5
677
330
18
100
AcDbEntity
  8
Object
100
AcDbLine
 10
17.61222222222222
 20
17.44555555555555
 30
0.0
 11
17.58111111111111
 21
17.44555555555555
 31
0.0
  0
LINE
  5
678
330
18
100
AcDbEntity
  8
Object
100
AcDbLine
 10
17.58111111111111
 20
17.44555555555555
 30
0.0
 11
17.54666666666667
 21
17.44555555555555
 31
0.0
  0
LINE
  5
679
330
18
100
AcDbEntity
  8
Object
100
AcDbLine
 10
17.54666666666667
 20
17.44555555555555
 30
0.0
 11
17.51
 21
17.44555555555555
 31
0.0
  0
LINE
  5
67A
330
18
100
AcDbEntity
  8
Object
100
AcDbLine
 10
17.51
 20
17.44555555555555
 30
0.0
 11
17.47111111111111
 21
17.44555555555555
 31
0.0
  0
LINE
  5
67B
330
18
100
AcDbEntity
  8
Object
100
AcDbLine
 10
17.47111111111111
 20
17.44555555555555
 30
0.0
 11
5.04
 21
17.44555555555555
 31
0.0
  0
LINE
  5
67C
330
18
100
AcDbEntity
  8
Object
100
AcDbLine
 10
5.04
 20
17.44555555555555
 30
0.0
 11
5.001111111111111
 21
17.44555555555555
 31
0.0
  0
LINE
  5
67D
330
18
100
AcDbEntity
  8
Object
100
AcDbLine
 10
5.001111111111111
 20
17.44555555555555
 30
0.0
 11
4.964444444444444
 21
17.44555555555555
 31
0.0
  0
LINE
  5
67E
330
18
100
AcDbEntity
  8
Object
100
AcDbLine
 10
4.964444444444444
 20
17.44555555555555
 30
0.0
 11
4.929999999999999
 21
17.44555555555555
 31
0.0
  0
LINE
  5
67F
330
18
100
AcDbEntity
  8
Object
100
AcDbLine
 10
4.929999999999999
 20
17.44555555555555
 30
0.0
 11
4.898888888888889
 21
17.44555555555555
 31
0.0
  0
LINE
  5
680
330
18
100
AcDbEntity
  8
Object
100
AcDbLine
 10
4.898888888888889
 20
17.44555555555555
 30
0.0
 11
4.873333333333333
 21
17.44555555555555
 31
0.0
  0
LINE
  5
681
330
18
100
AcDbEntity
  8
Object
100
AcDbLine
 10
4.873333333333333
 20
17.44555555555555
 30
0.0
 11
4.852222222222222
 21
17.44555555555555
 31
0.0
  0
LINE
  5
682
330
18
100
AcDbEntity
  8
Object
100
AcDbLine
 10
4.852222222222222
 20
17.44555555555555
 30
0.0
 11
4.837777777777778
 21
17.44555555555555
 31
0.0
  0
LINE
  5
683
330
18
100
AcDbEntity
  8
Object
100
AcDbLine
 10
4.837777777777778
 20
17.44555555555555
 30
0.0
 11
4.83
 21
17.44555555555555
 31
0.0
  0
LINE
  5
684
330
18
100
AcDbEntity
  8
Object
100
AcDbLine
 10
4.83
 20
17.44555555555555
 30
0.0
 11
4.828888888888888
 21
17.44555555555555
 31
0.0
  0
LINE
  5
685
330
18
100
AcDbEntity
  8
Object
100
AcDbLine
 10
4.828888888888888
 20
17.44555555555555
 30
0.0
 11
4.756666666666666
 21
17.44555555555555
 31
0.0
  0
LINE
  5
686
330
18
100
AcDbEntity
  8
Object
100
AcDbLine
 10
17.68111111111111
 20
17.44555555555555
 30
0.0
 11
17.68222222222222
 21
17.44555555555555
 31
0.0
  0
LINE
  5
687
330
18
100
AcDbEntity
  8
Object
100
AcDbLine
 10
17.68222222222222
 20
17.44555555555555
 30
0.0
 11
17.71777777777777
 21
16.75777777777778
 31
0.0
  0
LINE
  5
688
330
18
100
AcDbEntity
  8
Object
100
AcDbLine
 10
17.68111111111111
 20
17.44555555555555
 30
0.0
 11
17.67333333333333
 21
17.44555555555555
 31
0.0
  0
LINE
  5
689
330
18
100
AcDbEntity
  8
Object
100
AcDbLine
 10
17.67333333333333
 20
17.44555555555555
 30
0.0
 11
17.65888888888889
 21
17.44555555555555
 31
0.0
  0
LINE
  5
68A
330
18
100
AcDbEntity
  8
Object
100
AcDbLine
 10
17.65888888888889
 20
17.44555555555555
 30
0.0
 11
17.63777777777778
 21
17.44555555555555
 31
0.0
  0
LINE
  5
68B
330
18
100
AcDbEntity
  8
Object
100
AcDbLine
 10
17.63777777777778
 20
17.44555555555555
 30
0.0
 11
17.61222222222222
 21
17.44555555555555
 31
0.0
  0
LINE
  5
68C
330
18
100
AcDbEntity
  8
Object
100
AcDbLine
 10
17.61222222222222
 20
17.44555555555555
 30
0.0
 11
17.58111111111111
 21
17.44555555555555
 31
0.0
  0
LINE
  5
68D
330
18
100
AcDbEntity
  8
Object
100
AcDbLine
 10
17.58111111111111
 20
17.44555555555555
 30
0.0
 11
17.54666666666667
 21
17.44555555555555
 31
0.0
  0
LINE
  5
68E
330
18
100
AcDbEntity
  8
Object
100
AcDbLine
 10
17.54666666666667
 20
17.44555555555555
 30
0.0
 11
17.51
 21
17.44555555555555
 31
0.0
  0
LINE
  5
68F
330
18
100
AcDbEntity
  8
Object
100
AcDbLine
 10
17.51
 20
17.44555555555555
 30
0.0
 11
17.47111111111111
 21
17.44555555555555
 31
0.0
  0
LINE
  5
690
330
18
100
AcDbEntity
  8
Object
100
AcDbLine
 10
9.978888888888889
 20
17.45
 30
0.0
 11
10.00111111111111
 21
17.45
 31
0.0
  0
LINE
  5
691
330
18
100
AcDbEntity
  8
Object
100
AcDbLine
 10
10.00111111111111
 20
17.45
 30
0.0
 11
10.00111111111111
 21
17.44555555555555
 31
0.0
  0
LINE
  5
692
330
18
100
AcDbEntity
  8
Object
100
AcDbLine
 10
9.978888888888889
 20
17.45
 30
0.0
 11
9.978888888888889
 21
17.44555555555555
 31
0.0
  0
LINE
  5
693
330
18
100
AcDbEntity
  8
Object
100
AcDbLine
 10
4.756666666666666
 20
17.44555555555555
 30
0.0
 11
4.69111111111111
 21
17.26555555555555
 31
0.0
  0
LINE
  5
694
330
18
100
AcDbEntity
  8
Object
100
AcDbLine
 10
9.414444444444445
 20
17.45
 30
0.0
 11
9.455555555555555
 21
17.45
 31
0.0
  0
LINE
  5
695
330
18
100
AcDbEntity
  8
Object
100
AcDbLine
 10
9.455555555555555
 20
17.45
 30
0.0
 11
9.455555555555555
 21
17.44555555555555
 31
0.0
  0
LINE
  5
696
330
18
100
AcDbEntity
  8
Object
100
AcDbLine
 10
17.47111111111111
 20
16.75777777777778
 30
0.0
 11
17.47111111111111
 21
17.44555555555555
 31
0.0
  0
LINE
  5
697
330
18
100
AcDbEntity
  8
Object
100
AcDbLine
 10
17.47111111111111
 20
17.44555555555555
 30
0.0
 11
5.04
 21
17.44555555555555
 31
0.0
  0
LINE
  5
698
330
18
100
AcDbEntity
  8
Object
100
AcDbLine
 10
4.828888888888888
 20
17.44555555555555
 30
0.0
 11
4.756666666666666
 21
17.44555555555555
 31
0.0
  0
LINE
  5
699
330
18
100
AcDbEntity
  8
Object
100
AcDbLine
 10
4.69111111111111
 20
17.26555555555555
 30
0.0
 11
4.682222222222222
 21
16.75777777777778
 31
0.0
  0
LINE
  5
69A
330
18
100
AcDbEntity
  8
Object
100
AcDbLine
 10
9.978888888888889
 20
17.45
 30
0.0
 11
9.978888888888889
 21
17.44555555555555
 31
0.0
  0
LINE
  5
69B
330
18
100
AcDbEntity
  8
Object
100
AcDbLine
 10
9.553333333333332
 20
17.45
 30
0.0
 11
9.537777777777778
 21
17.45
 31
0.0
  0
LINE
  5
69C
330
18
100
AcDbEntity
  8
Object
100
AcDbLine
 10
9.403333333333334
 20
17.45
 30
0.0
 11
9.414444444444445
 21
17.45
 31
0.0
  0
LINE
  5
69D
330
18
100
AcDbEntity
  8
Object
100
AcDbLine
 10
9.414444444444445
 20
17.45
 30
0.0
 11
9.414444444444445
 21
17.44555555555555
 31
0.0
  0
LINE
  5
69E
330
18
100
AcDbEntity
  8
Object
100
AcDbLine
 10
9.403333333333334
 20
17.45
 30
0.0
 11
9.403333333333334
 21
17.44555555555555
 31
0.0
  0
LINE
  5
69F
330
18
100
AcDbEntity
  8
Object
100
AcDbLine
 10
9.616666666666667
 20
17.45
 30
0.0
 11
9.606666666666667
 21
17.45
 31
0.0
  0
LINE
  5
6A0
330
18
100
AcDbEntity
  8
Object
100
AcDbLine
 10
9.472222222222221
 20
17.45
 30
0.0
 11
9.472222222222221
 21
17.44555555555555
 31
0.0
  0
LINE
  5
6A1
330
18
100
AcDbEntity
  8
Object
100
AcDbLine
 10
9.537777777777778
 20
17.44555555555555
 30
0.0
 11
9.537777777777778
 21
17.45
 31
0.0
  0
LINE
  5
6A2
330
18
100
AcDbEntity
  8
Object
100
AcDbLine
 10
9.537777777777778
 20
17.45
 30
0.0
 11
9.513333333333333
 21
17.45
 31
0.0
  0
LINE
  5
6A3
330
18
100
AcDbEntity
  8
Object
100
AcDbLine
 10
9.553333333333332
 20
17.44555555555555
 30
0.0
 11
9.553333333333332
 21
17.45
 31
0.0
  0
LINE
  5
6A4
330
18
100
AcDbEntity
  8
Object
100
AcDbLine
 10
9.455555555555555
 20
17.44555555555555
 30
0.0
 11
9.455555555555555
 21
17.45
 31
0.0
  0
LINE
  5
6A5
330
18
100
AcDbEntity
  8
Object
100
AcDbLine
 10
9.606666666666667
 20
17.44555555555555
 30
0.0
 11
9.606666666666667
 21
17.45
 31
0.0
  0
LINE
  5
6A6
330
18
100
AcDbEntity
  8
Object
100
AcDbLine
 10
9.585555555555554
 20
17.44555555555555
 30
0.0
 11
9.585555555555554
 21
17.45
 31
0.0
  0
LINE
  5
6A7
330
18
100
AcDbEntity
  8
Object
100
AcDbLine
 10
9.585555555555554
 20
17.45
 30
0.0
 11
9.606666666666667
 21
17.45
 31
0.0
  0
LINE
  5
6A8
330
18
100
AcDbEntity
  8
Object
100
AcDbLine
 10
9.942222222222222
 20
17.44555555555555
 30
0.0
 11
9.942222222222222
 21
17.45
 31
0.0
  0
LINE
  5
6A9
330
18
100
AcDbEntity
  8
Object
100
AcDbLine
 10
17.83333333333333
 20
16.75777777777778
 30
0.0
 11
17.82444444444444
 21
17.26555555555555
 31
0.0
  0
LINE
  5
6AA
330
18
100
AcDbEntity
  8
Object
100
AcDbLine
 10
17.68222222222222
 20
17.44555555555555
 30
0.0
 11
17.75888888888889
 21
17.44555555555555
 31
0.0
  0
LINE
  5
6AB
330
18
100
AcDbEntity
  8
Object
100
AcDbLine
 10
17.75888888888889
 20
17.44555555555555
 30
0.0
 11
17.82444444444444
 21
17.26555555555555
 31
0.0
  0
LINE
  5
6AC
330
18
100
AcDbEntity
  8
Object
100
AcDbLine
 10
9.403333333333334
 20
17.45
 30
0.0
 11
9.394444444444443
 21
17.45
 31
0.0
  0
LINE
  5
6AD
330
18
100
AcDbEntity
  8
Object
100
AcDbLine
 10
9.394444444444443
 20
17.45
 30
0.0
 11
9.394444444444443
 21
17.44555555555555
 31
0.0
  0
LINE
  5
6AE
330
18
100
AcDbEntity
  8
Object
100
AcDbLine
 10
9.403333333333334
 20
17.45
 30
0.0
 11
9.403333333333334
 21
17.44555555555555
 31
0.0
  0
LINE
  5
6AF
330
18
100
AcDbEntity
  8
Object
100
AcDbLine
 10
9.394444444444443
 20
17.45
 30
0.0
 11
9.394444444444443
 21
17.44555555555555
 31
0.0
  0
LINE
  5
6B0
330
18
100
AcDbEntity
  8
Object
100
AcDbLine
 10
10.08888888888889
 20
17.45
 30
0.0
 11
10.08888888888889
 21
17.44555555555555
 31
0.0
  0
LINE
  5
6B1
330
18
100
AcDbEntity
  8
Object
100
AcDbLine
 10
10.16222222222222
 20
17.44555555555555
 30
0.0
 11
10.16222222222222
 21
17.45
 31
0.0
  0
LINE
  5
6B2
330
18
100
AcDbEntity
  8
Object
100
AcDbLine
 10
9.942222222222222
 20
17.44555555555555
 30
0.0
 11
9.942222222222222
 21
17.45
 31
0.0
  0
LINE
  5
6B3
330
18
100
AcDbEntity
  8
Object
100
AcDbLine
 10
9.942222222222222
 20
17.45
 30
0.0
 11
9.934444444444444
 21
17.45
 31
0.0
  0
LINE
  5
6B4
330
18
100
AcDbEntity
  8
Object
100
AcDbLine
 10
9.585555555555554
 20
17.45
 30
0.0
 11
9.585555555555554
 21
17.44555555555555
 31
0.0
  0
LINE
  5
6B5
330
18
100
AcDbEntity
  8
Object
100
AcDbLine
 10
5.001111111111111
 20
17.44555555555555
 30
0.0
 11
5.04
 21
17.44555555555555
 31
0.0
  0
LINE
  5
6B6
330
18
100
AcDbEntity
  8
Object
100
AcDbLine
 10
5.04
 20
17.44555555555555
 30
0.0
 11
5.04
 21
16.75777777777778
 31
0.0
  0
LINE
  5
6B7
330
18
100
AcDbEntity
  8
Object
100
AcDbLine
 10
5.001111111111111
 20
17.44555555555555
 30
0.0
 11
4.964444444444444
 21
17.44555555555555
 31
0.0
  0
LINE
  5
6B8
330
18
100
AcDbEntity
  8
Object
100
AcDbLine
 10
4.964444444444444
 20
17.44555555555555
 30
0.0
 11
4.929999999999999
 21
17.44555555555555
 31
0.0
  0
LINE
  5
6B9
330
18
100
AcDbEntity
  8
Object
100
AcDbLine
 10
4.929999999999999
 20
17.44555555555555
 30
0.0
 11
4.898888888888889
 21
17.44555555555555
 31
0.0
  0
LINE
  5
6BA
330
18
100
AcDbEntity
  8
Object
100
AcDbLine
 10
4.898888888888889
 20
17.44555555555555
 30
0.0
 11
4.873333333333333
 21
17.44555555555555
 31
0.0
  0
LINE
  5
6BB
330
18
100
AcDbEntity
  8
Object
100
AcDbLine
 10
4.873333333333333
 20
17.44555555555555
 30
0.0
 11
4.852222222222222
 21
17.44555555555555
 31
0.0
  0
LINE
  5
6BC
330
18
100
AcDbEntity
  8
Object
100
AcDbLine
 10
4.852222222222222
 20
17.44555555555555
 30
0.0
 11
4.837777777777778
 21
17.44555555555555
 31
0.0
  0
LINE
  5
6BD
330
18
100
AcDbEntity
  8
Object
100
AcDbLine
 10
4.837777777777778
 20
17.44555555555555
 30
0.0
 11
4.83
 21
17.44555555555555
 31
0.0
  0
LINE
  5
6BE
330
18
100
AcDbEntity
  8
Object
100
AcDbLine
 10
4.793333333333333
 20
16.75777777777778
 30
0.0
 11
4.828888888888888
 21
17.44555555555555
 31
0.0
  0
LINE
  5
6BF
330
18
100
AcDbEntity
  8
Object
100
AcDbLine
 10
4.828888888888888
 20
17.44555555555555
 30
0.0
 11
4.83
 21
17.44555555555555
 31
0.0
  0
LINE
  5
6C0
330
18
100
AcDbEntity
  8
Object
100
AcDbLine
 10
10.06333333333333
 20
17.44555555555555
 30
0.0
 11
10.06333333333333
 21
17.45
 31
0.0
  0
LINE
  5
6C1
330
18
100
AcDbEntity
  8
Object
100
AcDbLine
 10
10.06333333333333
 20
17.45
 30
0.0
 11
10.00111111111111
 21
17.45
 31
0.0
  0
LINE
  5
6C2
330
18
100
AcDbEntity
  8
Object
100
AcDbLine
 10
10.06333333333333
 20
17.44555555555555
 30
0.0
 11
10.06333333333333
 21
17.45
 31
0.0
  0
LINE
  5
6C3
330
18
100
AcDbEntity
  8
Object
100
AcDbLine
 10
10.08888888888889
 20
17.45
 30
0.0
 11
10.16222222222222
 21
17.45
 31
0.0
  0
LINE
  5
6C4
330
18
100
AcDbEntity
  8
Object
100
AcDbLine
 10
10.16222222222222
 20
17.45
 30
0.0
 11
10.16222222222222
 21
17.44555555555555
 31
0.0
  0
LINE
  5
6C5
330
18
100
AcDbEntity
  8
Object
100
AcDbLine
 10
10.08888888888889
 20
17.45
 30
0.0
 11
10.08888888888889
 21
17.44555555555555
 31
0.0
  0
LINE
  5
6C6
330
18
100
AcDbEntity
  8
Object
100
AcDbLine
 10
9.472222222222221
 20
17.45
 30
0.0
 11
9.487777777777777
 21
17.45
 31
0.0
  0
LINE
  5
6C7
330
18
100
AcDbEntity
  8
Object
100
AcDbLine
 10
9.487777777777777
 20
17.45
 30
0.0
 11
9.487777777777777
 21
17.44555555555555
 31
0.0
  0
LINE
  5
6C8
330
18
100
AcDbEntity
  8
Object
100
AcDbLine
 10
9.487777777777777
 20
17.45
 30
0.0
 11
9.513333333333333
 21
17.45
 31
0.0
  0
LINE
  5
6C9
330
18
100
AcDbEntity
  8
Object
100
AcDbLine
 10
9.513333333333333
 20
17.45
 30
0.0
 11
9.513333333333333
 21
17.44555555555555
 31
0.0
  0
LINE
  5
6CA
330
18
100
AcDbEntity
  8
Object
100
AcDbLine
 10
10.16222222222222
 20
17.45
 30
0.0
 11
10.08888888888889
 21
17.45
 31
0.0
  0
LINE
  5
6CB
330
18
100
AcDbEntity
  8
Object
100
AcDbLine
 10
18.15333333333333
 20
16.75888888888889
 30
0.0
 11
18.15333333333333
 21
16.75777777777778
 31
0.0
  0
LINE
  5
6CC
330
18
100
AcDbEntity
  8
Object
100
AcDbLine
 10
18.15333333333333
 20
16.75777777777778
 30
0.0
 11
18.15
 21
16.75777777777778
 31
0.0
  0
LINE
  5
6CD
330
18
100
AcDbEntity
  8
Object
100
AcDbLine
 10
18.15
 20
16.75777777777778
 30
0.0
 11
18.13888888888889
 21
16.75777777777778
 31
0.0
  0
LINE
  5
6CE
330
18
100
AcDbEntity
  8
Object
100
AcDbLine
 10
18.13888888888889
 20
16.75777777777778
 30
0.0
 11
18.12
 21
16.75777777777778
 31
0.0
  0
LINE
  5
6CF
330
18
100
AcDbEntity
  8
Object
100
AcDbLine
 10
18.12
 20
16.75777777777778
 30
0.0
 11
18.09333333333333
 21
16.75777777777778
 31
0.0
  0
LINE
  5
6D0
330
18
100
AcDbEntity
  8
Object
100
AcDbLine
 10
18.09333333333333
 20
16.75777777777778
 30
0.0
 11
18.06111111111111
 21
16.75777777777778
 31
0.0
  0
LINE
  5
6D1
330
18
100
AcDbEntity
  8
Object
100
AcDbLine
 10
18.06111111111111
 20
16.75777777777778
 30
0.0
 11
18.02222222222222
 21
16.75777777777778
 31
0.0
  0
LINE
  5
6D2
330
18
100
AcDbEntity
  8
Object
100
AcDbLine
 10
18.02222222222222
 20
16.75777777777778
 30
0.0
 11
17.97777777777778
 21
16.75777777777778
 31
0.0
  0
LINE
  5
6D3
330
18
100
AcDbEntity
  8
Object
100
AcDbLine
 10
17.97777777777778
 20
16.75777777777778
 30
0.0
 11
17.92888888888889
 21
16.75777777777778
 31
0.0
  0
LINE
  5
6D4
330
18
100
AcDbEntity
  8
Object
100
AcDbLine
 10
17.92888888888889
 20
16.75777777777778
 30
0.0
 11
17.87444444444444
 21
16.75777777777778
 31
0.0
  0
LINE
  5
6D5
330
18
100
AcDbEntity
  8
Object
100
AcDbLine
 10
17.87444444444444
 20
16.75777777777778
 30
0.0
 11
17.81777777777778
 21
16.75777777777778
 31
0.0
  0
LINE
  5
6D6
330
18
100
AcDbEntity
  8
Object
100
AcDbLine
 10
17.81777777777778
 20
16.75777777777778
 30
0.0
 11
17.75888888888889
 21
16.75777777777778
 31
0.0
  0
LINE
  5
6D7
330
18
100
AcDbEntity
  8
Object
100
AcDbLine
 10
17.71777777777777
 20
16.75888888888889
 30
0.0
 11
17.71777777777777
 21
16.75777777777778
 31
0.0
  0
LINE
  5
6D8
330
18
100
AcDbEntity
  8
Object
100
AcDbLine
 10
17.75888888888889
 20
16.75777777777778
 30
0.0
 11
17.69777777777777
 21
16.75777777777778
 31
0.0
  0
LINE
  5
6D9
330
18
100
AcDbEntity
  8
Object
100
AcDbLine
 10
17.69777777777777
 20
16.75777777777778
 30
0.0
 11
11.29888888888889
 21
16.75777777777778
 31
0.0
  0
LINE
  5
6DA
330
18
100
AcDbEntity
  8
Object
100
AcDbLine
 10
11.29888888888889
 20
16.75777777777778
 30
0.0
 11
11.25555555555555
 21
16.75777777777778
 31
0.0
  0
LINE
  5
6DB
330
18
100
AcDbEntity
  8
Object
100
AcDbLine
 10
11.25555555555555
 20
16.75777777777778
 30
0.0
 11
11.21222222222222
 21
16.75777777777778
 31
0.0
  0
LINE
  5
6DC
330
18
100
AcDbEntity
  8
Object
100
AcDbLine
 10
11.21222222222222
 20
16.75777777777778
 30
0.0
 11
4.813333333333333
 21
16.75777777777778
 31
0.0
  0
LINE
  5
6DD
330
18
100
AcDbEntity
  8
Object
100
AcDbLine
 10
4.793333333333333
 20
16.75888888888889
 30
0.0
 11
4.793333333333333
 21
16.75777777777778
 31
0.0
  0
LINE
  5
6DE
330
18
100
AcDbEntity
  8
Object
100
AcDbLine
 10
4.813333333333333
 20
16.75777777777778
 30
0.0
 11
4.754444444444444
 21
16.75777777777778
 31
0.0
  0
LINE
  5
6DF
330
18
100
AcDbEntity
  8
Object
100
AcDbLine
 10
4.754444444444444
 20
16.75777777777778
 30
0.0
 11
4.696666666666666
 21
16.75777777777778
 31
0.0
  0
LINE
  5
6E0
330
18
100
AcDbEntity
  8
Object
100
AcDbLine
 10
4.696666666666666
 20
16.75777777777778
 30
0.0
 11
4.642222222222222
 21
16.75777777777778
 31
0.0
  0
LINE
  5
6E1
330
18
100
AcDbEntity
  8
Object
100
AcDbLine
 10
4.642222222222222
 20
16.75777777777778
 30
0.0
 11
4.589999999999999
 21
16.75777777777778
 31
0.0
  0
LINE
  5
6E2
330
18
100
AcDbEntity
  8
Object
100
AcDbLine
 10
4.589999999999999
 20
16.75777777777778
 30
0.0
 11
4.541111111111111
 21
16.75777777777778
 31
0.0
  0
LINE
  5
6E3
330
18
100
AcDbEntity
  8
Object
100
AcDbLine
 10
4.541111111111111
 20
16.75777777777778
 30
0.0
 11
4.496666666666667
 21
16.75777777777778
 31
0.0
  0
LINE
  5
6E4
330
18
100
AcDbEntity
  8
Object
100
AcDbLine
 10
4.496666666666667
 20
16.75777777777778
 30
0.0
 11
4.458888888888888
 21
16.75777777777778
 31
0.0
  0
LINE
  5
6E5
330
18
100
AcDbEntity
  8
Object
100
AcDbLine
 10
4.458888888888888
 20
16.75777777777778
 30
0.0
 11
4.425555555555555
 21
16.75777777777778
 31
0.0
  0
LINE
  5
6E6
330
18
100
AcDbEntity
  8
Object
100
AcDbLine
 10
4.425555555555555
 20
16.75777777777778
 30
0.0
 11
4.398888888888889
 21
16.75777777777778
 31
0.0
  0
LINE
  5
6E7
330
18
100
AcDbEntity
  8
Object
100
AcDbLine
 10
4.398888888888889
 20
16.75777777777778
 30
0.0
 11
4.377777777777778
 21
16.75777777777778
 31
0.0
  0
LINE
  5
6E8
330
18
100
AcDbEntity
  8
Object
100
AcDbLine
 10
4.377777777777778
 20
16.75777777777778
 30
0.0
 11
4.364444444444444
 21
16.75777777777778
 31
0.0
  0
LINE
  5
6E9
330
18
100
AcDbEntity
  8
Object
100
AcDbLine
 10
4.364444444444444
 20
16.75777777777778
 30
0.0
 11
4.357777777777777
 21
16.75777777777778
 31
0.0
  0
LINE
  5
6EA
330
18
100
AcDbEntity
  8
Object
100
AcDbLine
 10
9.455555555555555
 20
17.45
 30
0.0
 11
9.414444444444445
 21
17.45
 31
0.0
  0
LINE
  5
6EB
330
18
100
AcDbEntity
  8
Object
100
AcDbLine
 10
9.414444444444445
 20
17.45
 30
0.0
 11
9.403333333333334
 21
17.45
 31
0.0
  0
LINE
  5
6EC
330
18
100
AcDbEntity
  8
Object
100
AcDbLine
 10
9.403333333333334
 20
17.45
 30
0.0
 11
9.394444444444443
 21
17.45
 31
0.0
  0
LINE
  5
6ED
330
18
100
AcDbEntity
  8
Object
100
AcDbLine
 10
10.06333333333333
 20
17.45
 30
0.0
 11
10.00111111111111
 21
17.45
 31
0.0
  0
LINE
  5
6EE
330
18
100
AcDbEntity
  8
Object
100
AcDbLine
 10
10.00111111111111
 20
17.45
 30
0.0
 11
9.978888888888889
 21
17.45
 31
0.0
  0
LINE
  5
6EF
330
18
100
AcDbEntity
  8
Object
100
AcDbLine
 10
9.942222222222222
 20
17.45
 30
0.0
 11
9.934444444444444
 21
17.45
 31
0.0
  0
LINE
  5
6F0
330
18
100
AcDbEntity
  8
Object
100
AcDbLine
 10
9.553333333333332
 20
17.45
 30
0.0
 11
9.537777777777778
 21
17.45
 31
0.0
  0
LINE
  5
6F1
330
18
100
AcDbEntity
  8
Object
100
AcDbLine
 10
9.537777777777778
 20
17.45
 30
0.0
 11
9.513333333333333
 21
17.45
 31
0.0
  0
LINE
  5
6F2
330
18
100
AcDbEntity
  8
Object
100
AcDbLine
 10
9.513333333333333
 20
17.45
 30
0.0
 11
9.487777777777777
 21
17.45
 31
0.0
  0
LINE
  5
6F3
330
18
100
AcDbEntity
  8
Object
100
AcDbLine
 10
9.487777777777777
 20
17.45
 30
0.0
 11
9.472222222222221
 21
17.45
 31
0.0
  0
LINE
  5
6F4
330
18
100
AcDbEntity
  8
Object
100
AcDbLine
 10
9.616666666666667
 20
17.45
 30
0.0
 11
9.606666666666667
 21
17.45
 31
0.0
  0
LINE
  5
6F5
330
18
100
AcDbEntity
  8
Object
100
AcDbLine
 10
9.606666666666667
 20
17.45
 30
0.0
 11
9.585555555555554
 21
17.45
 31
0.0
  0
LINE
  5
6F6
330
18
100
AcDbEntity
  8
Object
100
AcDbLine
 10
18.15
 20
16.75777777777778
 30
0.0
 11
18.15333333333333
 21
16.75777777777778
 31
0.0
  0
LINE
  5
6F7
330
18
100
AcDbEntity
  8
Object
100
AcDbLine
 10
18.15333333333333
 20
16.75777777777778
 30
0.0
 11
18.15222222222222
 21
16.69444444444444
 31
0.0
  0
LINE
  5
6F8
330
18
100
AcDbEntity
  8
Object
100
AcDbLine
 10
18.15
 20
16.75777777777778
 30
0.0
 11
18.13888888888889
 21
16.75777777777778
 31
0.0
  0
LINE
  5
6F9
330
18
100
AcDbEntity
  8
Object
100
AcDbLine
 10
18.13777777777778
 20
16.69444444444444
 30
0.0
 11
18.14888888888889
 21
16.69444444444444
 31
0.0
  0
LINE
  5
6FA
330
18
100
AcDbEntity
  8
Object
100
AcDbLine
 10
18.13888888888889
 20
16.75777777777778
 30
0.0
 11
18.12
 21
16.75777777777778
 31
0.0
  0
LINE
  5
6FB
330
18
100
AcDbEntity
  8
Object
100
AcDbLine
 10
18.11888888888889
 20
16.69444444444444
 30
0.0
 11
18.13777777777778
 21
16.69444444444444
 31
0.0
  0
LINE
  5
6FC
330
18
100
AcDbEntity
  8
Object
100
AcDbLine
 10
18.12
 20
16.75777777777778
 30
0.0
 11
18.09333333333333
 21
16.75777777777778
 31
0.0
  0
LINE
  5
6FD
330
18
100
AcDbEntity
  8
Object
100
AcDbLine
 10
18.09333333333333
 20
16.69444444444444
 30
0.0
 11
18.11888888888889
 21
16.69444444444444
 31
0.0
  0
LINE
  5
6FE
330
18
100
AcDbEntity
  8
Object
100
AcDbLine
 10
18.09333333333333
 20
16.75777777777778
 30
0.0
 11
18.06111111111111
 21
16.75777777777778
 31
0.0
  0
LINE
  5
6FF
330
18
100
AcDbEntity
  8
Object
100
AcDbLine
 10
18.06
 20
16.69444444444444
 30
0.0
 11
18.09333333333333
 21
16.69444444444444
 31
0.0
  0
LINE
  5
700
330
18
100
AcDbEntity
  8
Object
100
AcDbLine
 10
18.06111111111111
 20
16.75777777777778
 30
0.0
 11
18.02222222222222
 21
16.75777777777778
 31
0.0
  0
LINE
  5
701
330
18
100
AcDbEntity
  8
Object
100
AcDbLine
 10
18.02111111111111
 20
16.69444444444444
 30
0.0
 11
18.06
 21
16.69444444444444
 31
0.0
  0
LINE
  5
702
330
18
100
AcDbEntity
  8
Object
100
AcDbLine
 10
18.02222222222222
 20
16.75777777777778
 30
0.0
 11
17.97777777777778
 21
16.75777777777778
 31
0.0
  0
LINE
  5
703
330
18
100
AcDbEntity
  8
Object
100
AcDbLine
 10
17.97666666666667
 20
16.69444444444444
 30
0.0
 11
18.02111111111111
 21
16.69444444444444
 31
0.0
  0
LINE
  5
704
330
18
100
AcDbEntity
  8
Object
100
AcDbLine
 10
17.97777777777778
 20
16.75777777777778
 30
0.0
 11
17.92888888888889
 21
16.75777777777778
 31
0.0
  0
LINE
  5
705
330
18
100
AcDbEntity
  8
Object
100
AcDbLine
 10
17.97666666666667
 20
16.69444444444444
 30
0.0
 11
17.92777777777778
 21
16.69444444444444
 31
0.0
  0
LINE
  5
706
330
18
100
AcDbEntity
  8
Object
100
AcDbLine
 10
17.92777777777778
 20
16.69444444444444
 30
0.0
 11
17.87444444444444
 21
16.69444444444444
 31
0.0
  0
LINE
  5
707
330
18
100
AcDbEntity
  8
Object
100
AcDbLine
 10
17.92888888888889
 20
16.75777777777778
 30
0.0
 11
17.87444444444444
 21
16.75777777777778
 31
0.0
  0
LINE
  5
708
330
18
100
AcDbEntity
  8
Object
100
AcDbLine
 10
17.87444444444444
 20
16.75777777777778
 30
0.0
 11
17.81777777777778
 21
16.75777777777778
 31
0.0
  0
LINE
  5
709
330
18
100
AcDbEntity
  8
Object
100
AcDbLine
 10
17.81777777777778
 20
16.69444444444444
 30
0.0
 11
17.87444444444444
 21
16.69444444444444
 31
0.0
  0
LINE
  5
70A
330
18
100
AcDbEntity
  8
Object
100
AcDbLine
 10
17.81777777777778
 20
16.75777777777778
 30
0.0
 11
17.75888888888889
 21
16.75777777777778
 31
0.0
  0
LINE
  5
70B
330
18
100
AcDbEntity
  8
Object
100
AcDbLine
 10
17.75777777777778
 20
16.69444444444444
 30
0.0
 11
17.81777777777778
 21
16.69444444444444
 31
0.0
  0
LINE
  5
70C
330
18
100
AcDbEntity
  8
Object
100
AcDbLine
 10
17.75888888888889
 20
16.75777777777778
 30
0.0
 11
17.69777777777777
 21
16.75777777777778
 31
0.0
  0
LINE
  5
70D
330
18
100
AcDbEntity
  8
Object
100
AcDbLine
 10
17.69666666666666
 20
16.69444444444444
 30
0.0
 11
17.75777777777778
 21
16.69444444444444
 31
0.0
  0
LINE
  5
70E
330
18
100
AcDbEntity
  8
Object
100
AcDbLine
 10
8.733333333333332
 20
17.56111111111111
 30
0.0
 11
8.755555555555556
 21
17.55
 31
0.0
  0
LINE
  5
70F
330
18
100
AcDbEntity
  8
Object
100
AcDbLine
 10
8.755555555555556
 20
17.55
 30
0.0
 11
8.775555555555555
 21
17.53333333333333
 31
0.0
  0
LINE
  5
710
330
18
100
AcDbEntity
  8
Object
100
AcDbLine
 10
8.775555555555555
 20
17.53333333333333
 30
0.0
 11
8.792222222222221
 21
17.51333333333333
 31
0.0
  0
LINE
  5
711
330
18
100
AcDbEntity
  8
Object
100
AcDbLine
 10
8.792222222222221
 20
17.51333333333333
 30
0.0
 11
8.803333333333332
 21
17.49111111111111
 31
0.0
  0
LINE
  5
712
330
18
100
AcDbEntity
  8
Object
100
AcDbLine
 10
8.733333333333332
 20
17.56111111111111
 30
0.0
 11
8.71
 21
17.56777777777777
 31
0.0
  0
LINE
  5
713
330
18
100
AcDbEntity
  8
Object
100
AcDbLine
 10
8.71
 20
17.56777777777777
 30
0.0
 11
8.687777777777776
 21
17.57
 31
0.0
  0
LINE
  5
714
330
18
100
AcDbEntity
  8
Object
100
AcDbLine
 10
8.803333333333332
 20
17.49111111111111
 30
0.0
 11
8.81
 21
17.46777777777777
 31
0.0
  0
LINE
  5
715
330
18
100
AcDbEntity
  8
Object
100
AcDbLine
 10
8.81
 20
17.46777777777777
 30
0.0
 11
8.812222222222223
 21
17.44555555555555
 31
0.0
  0
LINE
  5
716
330
18
100
AcDbEntity
  8
Object
100
AcDbLine
 10
8.687777777777776
 20
17.57
 30
0.0
 11
6.883333333333333
 21
17.57
 31
0.0
  0
LINE
  5
717
330
18
100
AcDbEntity
  8
Object
100
AcDbLine
 10
6.795555555555555
 20
17.53333333333333
 30
0.0
 11
6.815555555555555
 21
17.55
 31
0.0
  0
LINE
  5
718
330
18
100
AcDbEntity
  8
Object
100
AcDbLine
 10
6.815555555555555
 20
17.55
 30
0.0
 11
6.837777777777778
 21
17.56111111111111
 31
0.0
  0
LINE
  5
719
330
18
100
AcDbEntity
  8
Object
100
AcDbLine
 10
6.795555555555555
 20
17.53333333333333
 30
0.0
 11
6.778888888888888
 21
17.51333333333333
 31
0.0
  0
LINE
  5
71A
330
18
100
AcDbEntity
  8
Object
100
AcDbLine
 10
6.837777777777778
 20
17.56111111111111
 30
0.0
 11
6.86111111111111
 21
17.56777777777777
 31
0.0
  0
LINE
  5
71B
330
18
100
AcDbEntity
  8
Object
100
AcDbLine
 10
6.86111111111111
 20
17.56777777777777
 30
0.0
 11
6.883333333333333
 21
17.57
 31
0.0
  0
LINE
  5
71C
330
18
100
AcDbEntity
  8
Object
100
AcDbLine
 10
6.778888888888888
 20
17.51333333333333
 30
0.0
 11
6.767777777777777
 21
17.49111111111111
 31
0.0
  0
LINE
  5
71D
330
18
100
AcDbEntity
  8
Object
100
AcDbLine
 10
6.767777777777777
 20
17.49111111111111
 30
0.0
 11
6.761111111111111
 21
17.46777777777777
 31
0.0
  0
LINE
  5
71E
330
18
100
AcDbEntity
  8
Object
100
AcDbLine
 10
6.761111111111111
 20
17.46777777777777
 30
0.0
 11
6.758888888888888
 21
17.44555555555555
 31
0.0
  0
LINE
  5
71F
330
18
100
AcDbEntity
  8
Object
100
AcDbLine
 10
10.95222222222222
 20
17.45222222222222
 30
0.0
 11
10.95111111111111
 21
17.44555555555555
 31
0.0
  0
LINE
  5
720
330
18
100
AcDbEntity
  8
Object
100
AcDbLine
 10
4.813333333333333
 20
16.75777777777778
 30
0.0
 11
11.21222222222222
 21
16.75777777777778
 31
0.0
  0
LINE
  5
721
330
18
100
AcDbEntity
  8
Object
100
AcDbLine
 10
11.21222222222222
 20
16.75777777777778
 30
0.0
 11
11.21222222222222
 21
16.69444444444444
 31
0.0
  0
LINE
  5
722
330
18
100
AcDbEntity
  8
Object
100
AcDbLine
 10
11.21222222222222
 20
16.69444444444444
 30
0.0
 11
4.813333333333333
 21
16.69444444444444
 31
0.0
  0
LINE
  5
723
330
18
100
AcDbEntity
  8
Object
100
AcDbLine
 10
5.429999999999999
 20
17.56111111111111
 30
0.0
 11
5.452222222222221
 21
17.55
 31
0.0
  0
LINE
  5
724
330
18
100
AcDbEntity
  8
Object
100
AcDbLine
 10
5.452222222222221
 20
17.55
 30
0.0
 11
5.472222222222222
 21
17.53333333333333
 31
0.0
  0
LINE
  5
725
330
18
100
AcDbEntity
  8
Object
100
AcDbLine
 10
5.472222222222222
 20
17.53333333333333
 30
0.0
 11
5.487777777777777
 21
17.51333333333333
 31
0.0
  0
LINE
  5
726
330
18
100
AcDbEntity
  8
Object
100
AcDbLine
 10
5.429999999999999
 20
17.56111111111111
 30
0.0
 11
5.406666666666666
 21
17.56777777777777
 31
0.0
  0
LINE
  5
727
330
18
100
AcDbEntity
  8
Object
100
AcDbLine
 10
5.406666666666666
 20
17.56777777777777
 30
0.0
 11
5.383333333333333
 21
17.57
 31
0.0
  0
LINE
  5
728
330
18
100
AcDbEntity
  8
Object
100
AcDbLine
 10
5.487777777777777
 20
17.51333333333333
 30
0.0
 11
5.5
 21
17.49111111111111
 31
0.0
  0
LINE
  5
729
330
18
100
AcDbEntity
  8
Object
100
AcDbLine
 10
5.5
 20
17.49111111111111
 30
0.0
 11
5.506666666666666
 21
17.46777777777777
 31
0.0
  0
LINE
  5
72A
330
18
100
AcDbEntity
  8
Object
100
AcDbLine
 10
5.506666666666666
 20
17.46777777777777
 30
0.0
 11
5.508888888888888
 21
17.44555555555555
 31
0.0
  0
LINE
  5
72B
330
18
100
AcDbEntity
  8
Object
100
AcDbLine
 10
5.383333333333333
 20
17.57
 30
0.0
 11
5.216666666666666
 21
17.57
 31
0.0
  0
LINE
  5
72C
330
18
100
AcDbEntity
  8
Object
100
AcDbLine
 10
11.54777777777778
 20
17.49555555555555
 30
0.0
 11
11.53555555555555
 21
17.51777777777778
 31
0.0
  0
LINE
  5
72D
330
18
100
AcDbEntity
  8
Object
100
AcDbLine
 10
11.5
 20
17.55111111111111
 30
0.0
 11
11.51888888888889
 21
17.53555555555555
 31
0.0
  0
LINE
  5
72E
330
18
100
AcDbEntity
  8
Object
100
AcDbLine
 10
11.51888888888889
 20
17.53555555555555
 30
0.0
 11
11.53555555555555
 21
17.51777777777778
 31
0.0
  0
LINE
  5
72F
330
18
100
AcDbEntity
  8
Object
100
AcDbLine
 10
11.5
 20
17.55111111111111
 30
0.0
 11
11.47777777777778
 21
17.56222222222222
 31
0.0
  0
LINE
  5
730
330
18
100
AcDbEntity
  8
Object
100
AcDbLine
 10
11.55555555555555
 20
17.47333333333333
 30
0.0
 11
11.54777777777778
 21
17.49555555555555
 31
0.0
  0
LINE
  5
731
330
18
100
AcDbEntity
  8
Object
100
AcDbLine
 10
11.47777777777778
 20
17.56222222222222
 30
0.0
 11
11.45555555555555
 21
17.56888888888889
 31
0.0
  0
LINE
  5
732
330
18
100
AcDbEntity
  8
Object
100
AcDbLine
 10
11.55777777777778
 20
17.45222222222222
 30
0.0
 11
11.55555555555555
 21
17.47333333333333
 31
0.0
  0
LINE
  5
733
330
18
100
AcDbEntity
  8
Object
100
AcDbLine
 10
11.45555555555555
 20
17.56888888888889
 30
0.0
 11
11.43333333333333
 21
17.57
 31
0.0
  0
LINE
  5
734
330
18
100
AcDbEntity
  8
Object
100
AcDbLine
 10
11.43333333333333
 20
17.57
 30
0.0
 11
11.07666666666666
 21
17.57
 31
0.0
  0
LINE
  5
735
330
18
100
AcDbEntity
  8
Object
100
AcDbLine
 10
10.97444444444444
 20
17.51777777777778
 30
0.0
 11
10.99111111111111
 21
17.53555555555555
 31
0.0
  0
LINE
  5
736
330
18
100
AcDbEntity
  8
Object
100
AcDbLine
 10
10.99111111111111
 20
17.53555555555555
 30
0.0
 11
11.01
 21
17.55111111111111
 31
0.0
  0
LINE
  5
737
330
18
100
AcDbEntity
  8
Object
100
AcDbLine
 10
10.97444444444444
 20
17.51777777777778
 30
0.0
 11
10.96222222222222
 21
17.49555555555555
 31
0.0
  0
LINE
  5
738
330
18
100
AcDbEntity
  8
Object
100
AcDbLine
 10
11.01
 20
17.55111111111111
 30
0.0
 11
11.03222222222222
 21
17.56222222222222
 31
0.0
  0
LINE
  5
739
330
18
100
AcDbEntity
  8
Object
100
AcDbLine
 10
11.03222222222222
 20
17.56222222222222
 30
0.0
 11
11.05444444444444
 21
17.56888888888889
 31
0.0
  0
LINE
  5
73A
330
18
100
AcDbEntity
  8
Object
100
AcDbLine
 10
10.96222222222222
 20
17.49555555555555
 30
0.0
 11
10.95555555555555
 21
17.47333333333333
 31
0.0
  0
LINE
  5
73B
330
18
100
AcDbEntity
  8
Object
100
AcDbLine
 10
10.95555555555555
 20
17.47333333333333
 30
0.0
 11
10.95222222222222
 21
17.45222222222222
 31
0.0
  0
LINE
  5
73C
330
18
100
AcDbEntity
  8
Object
100
AcDbLine
 10
11.07666666666666
 20
17.57
 30
0.0
 11
11.05444444444444
 21
17.56888888888889
 31
0.0
  0
LINE
  5
73D
330
18
100
AcDbEntity
  8
Object
100
AcDbLine
 10
11.55777777777778
 20
17.44555555555555
 30
0.0
 11
11.55777777777778
 21
17.45222222222222
 31
0.0
  0
LINE
  5
73E
330
18
100
AcDbEntity
  8
Object
100
AcDbLine
 10
10.95222222222222
 20
17.45222222222222
 30
0.0
 11
10.95111111111111
 21
17.44555555555555
 31
0.0
  0
LINE
  5
73F
330
18
100
AcDbEntity
  8
Object
100
AcDbLine
 10
17.69666666666666
 20
16.69444444444444
 30
0.0
 11
17.69777777777777
 21
16.75777777777778
 31
0.0
  0
LINE
  5
740
330
18
100
AcDbEntity
  8
Object
100
AcDbLine
 10
17.69777777777777
 20
16.75777777777778
 30
0.0
 11
11.29888888888889
 21
16.75777777777778
 31
0.0
  0
LINE
  5
741
330
18
100
AcDbEntity
  8
Object
100
AcDbLine
 10
4.412222222222221
 20
17.36333333333333
 30
0.0
 11
4.507777777777778
 21
17.36333333333333
 31
0.0
  0
LINE
  5
742
330
18
100
AcDbEntity
  8
Object
100
AcDbLine
 10
4.507777777777778
 20
17.36333333333333
 30
0.0
 11
4.513333333333333
 21
16.75777777777778
 31
0.0
  0
LINE
  5
743
330
18
100
AcDbEntity
  8
Object
100
AcDbLine
 10
4.412222222222221
 20
17.36333333333333
 30
0.0
 11
4.396666666666666
 21
16.75777777777778
 31
0.0
  0
LINE
  5
744
330
18
100
AcDbEntity
  8
Object
100
AcDbLine
 10
17.78888888888889
 20
17.57
 30
0.0
 11
17.79777777777778
 21
17.57
 31
0.0
  0
LINE
  5
745
330
18
100
AcDbEntity
  8
Object
100
AcDbLine
 10
17.79777777777778
 20
17.57
 30
0.0
 11
17.79333333333333
 21
17.34888888888889
 31
0.0
  0
LINE
  5
746
330
18
100
AcDbEntity
  8
Object
100
AcDbLine
 10
17.78888888888889
 20
17.57
 30
0.0
 11
17.77333333333333
 21
17.57
 31
0.0
  0
LINE
  5
747
330
18
100
AcDbEntity
  8
Object
100
AcDbLine
 10
17.77333333333333
 20
17.57
 30
0.0
 11
17.74888888888889
 21
17.57
 31
0.0
  0
LINE
  5
748
330
18
100
AcDbEntity
  8
Object
100
AcDbLine
 10
17.74888888888889
 20
17.57
 30
0.0
 11
17.71888888888889
 21
17.57
 31
0.0
  0
LINE
  5
749
330
18
100
AcDbEntity
  8
Object
100
AcDbLine
 10
17.71888888888889
 20
17.57
 30
0.0
 11
17.68111111111111
 21
17.57
 31
0.0
  0
LINE
  5
74A
330
18
100
AcDbEntity
  8
Object
100
AcDbLine
 10
17.68111111111111
 20
17.57
 30
0.0
 11
17.63777777777778
 21
17.57
 31
0.0
  0
LINE
  5
74B
330
18
100
AcDbEntity
  8
Object
100
AcDbLine
 10
17.63777777777778
 20
17.57
 30
0.0
 11
17.58888888888889
 21
17.57
 31
0.0
  0
LINE
  5
74C
330
18
100
AcDbEntity
  8
Object
100
AcDbLine
 10
17.58888888888889
 20
17.57
 30
0.0
 11
17.53666666666666
 21
17.57
 31
0.0
  0
LINE
  5
74D
330
18
100
AcDbEntity
  8
Object
100
AcDbLine
 10
17.53666666666666
 20
17.57
 30
0.0
 11
17.47888888888889
 21
17.57
 31
0.0
  0
LINE
  5
74E
330
18
100
AcDbEntity
  8
Object
100
AcDbLine
 10
17.47888888888889
 20
17.57
 30
0.0
 11
17.41888888888889
 21
17.57
 31
0.0
  0
LINE
  5
74F
330
18
100
AcDbEntity
  8
Object
100
AcDbLine
 10
17.41888888888889
 20
17.57
 30
0.0
 11
17.35666666666666
 21
17.57
 31
0.0
  0
LINE
  5
750
330
18
100
AcDbEntity
  8
Object
100
AcDbLine
 10
17.35666666666666
 20
17.57
 30
0.0
 11
17.29444444444444
 21
17.57
 31
0.0
  0
LINE
  5
751
330
18
100
AcDbEntity
  8
Object
100
AcDbLine
 10
4.754444444444444
 20
16.75777777777778
 30
0.0
 11
4.813333333333333
 21
16.75777777777778
 31
0.0
  0
LINE
  5
752
330
18
100
AcDbEntity
  8
Object
100
AcDbLine
 10
4.813333333333333
 20
16.75777777777778
 30
0.0
 11
4.813333333333333
 21
16.69444444444444
 31
0.0
  0
LINE
  5
753
330
18
100
AcDbEntity
  8
Object
100
AcDbLine
 10
4.813333333333333
 20
16.69444444444444
 30
0.0
 11
4.754444444444444
 21
16.69444444444444
 31
0.0
  0
LINE
  5
754
330
18
100
AcDbEntity
  8
Object
100
AcDbLine
 10
4.754444444444444
 20
16.69444444444444
 30
0.0
 11
4.697777777777777
 21
16.69444444444444
 31
0.0
  0
LINE
  5
755
330
18
100
AcDbEntity
  8
Object
100
AcDbLine
 10
4.754444444444444
 20
16.75777777777778
 30
0.0
 11
4.696666666666666
 21
16.75777777777778
 31
0.0
  0
LINE
  5
756
330
18
100
AcDbEntity
  8
Object
100
AcDbLine
 10
4.696666666666666
 20
16.75777777777778
 30
0.0
 11
4.642222222222222
 21
16.75777777777778
 31
0.0
  0
LINE
  5
757
330
18
100
AcDbEntity
  8
Object
100
AcDbLine
 10
4.697777777777777
 20
16.69444444444444
 30
0.0
 11
4.642222222222222
 21
16.69444444444444
 31
0.0
  0
LINE
  5
758
330
18
100
AcDbEntity
  8
Object
100
AcDbLine
 10
4.642222222222222
 20
16.69444444444444
 30
0.0
 11
4.589999999999999
 21
16.69444444444444
 31
0.0
  0
LINE
  5
759
330
18
100
AcDbEntity
  8
Object
100
AcDbLine
 10
4.642222222222222
 20
16.75777777777778
 30
0.0
 11
4.589999999999999
 21
16.75777777777778
 31
0.0
  0
LINE
  5
75A
330
18
100
AcDbEntity
  8
Object
100
AcDbLine
 10
4.542222222222222
 20
16.69444444444444
 30
0.0
 11
4.589999999999999
 21
16.69444444444444
 31
0.0
  0
LINE
  5
75B
330
18
100
AcDbEntity
  8
Object
100
AcDbLine
 10
4.589999999999999
 20
16.75777777777778
 30
0.0
 11
4.541111111111111
 21
16.75777777777778
 31
0.0
  0
LINE
  5
75C
330
18
100
AcDbEntity
  8
Object
100
AcDbLine
 10
4.497777777777777
 20
16.69444444444444
 30
0.0
 11
4.542222222222222
 21
16.69444444444444
 31
0.0
  0
LINE
  5
75D
330
18
100
AcDbEntity
  8
Object
100
AcDbLine
 10
4.541111111111111
 20
16.75777777777778
 30
0.0
 11
4.496666666666667
 21
16.75777777777778
 31
0.0
  0
LINE
  5
75E
330
18
100
AcDbEntity
  8
Object
100
AcDbLine
 10
4.496666666666667
 20
16.75777777777778
 30
0.0
 11
4.458888888888888
 21
16.75777777777778
 31
0.0
  0
LINE
  5
75F
330
18
100
AcDbEntity
  8
Object
100
AcDbLine
 10
4.497777777777777
 20
16.69444444444444
 30
0.0
 11
4.458888888888888
 21
16.69444444444444
 31
0.0
  0
LINE
  5
760
330
18
100
AcDbEntity
  8
Object
100
AcDbLine
 10
4.458888888888888
 20
16.69444444444444
 30
0.0
 11
4.426666666666666
 21
16.69444444444444
 31
0.0
  0
LINE
  5
761
330
18
100
AcDbEntity
  8
Object
100
AcDbLine
 10
4.458888888888888
 20
16.75777777777778
 30
0.0
 11
4.425555555555555
 21
16.75777777777778
 31
0.0
  0
LINE
  5
762
330
18
100
AcDbEntity
  8
Object
100
AcDbLine
 10
4.425555555555555
 20
16.75777777777778
 30
0.0
 11
4.398888888888889
 21
16.75777777777778
 31
0.0
  0
LINE
  5
763
330
18
100
AcDbEntity
  8
Object
100
AcDbLine
 10
4.426666666666666
 20
16.69444444444444
 30
0.0
 11
4.398888888888889
 21
16.69444444444444
 31
0.0
  0
LINE
  5
764
330
18
100
AcDbEntity
  8
Object
100
AcDbLine
 10
4.398888888888889
 20
16.69444444444444
 30
0.0
 11
4.378888888888888
 21
16.69444444444444
 31
0.0
  0
LINE
  5
765
330
18
100
AcDbEntity
  8
Object
100
AcDbLine
 10
4.398888888888889
 20
16.75777777777778
 30
0.0
 11
4.377777777777778
 21
16.75777777777778
 31
0.0
  0
LINE
  5
766
330
18
100
AcDbEntity
  8
Object
100
AcDbLine
 10
4.365555555555555
 20
16.69444444444444
 30
0.0
 11
4.378888888888888
 21
16.69444444444444
 31
0.0
  0
LINE
  5
767
330
18
100
AcDbEntity
  8
Object
100
AcDbLine
 10
4.377777777777778
 20
16.75777777777778
 30
0.0
 11
4.364444444444444
 21
16.75777777777778
 31
0.0
  0
LINE
  5
768
330
18
100
AcDbEntity
  8
Object
100
AcDbLine
 10
4.358888888888889
 20
16.69444444444444
 30
0.0
 11
4.365555555555555
 21
16.69444444444444
 31
0.0
  0
LINE
  5
769
330
18
100
AcDbEntity
  8
Object
100
AcDbLine
 10
4.364444444444444
 20
16.75777777777778
 30
0.0
 11
4.357777777777777
 21
16.75777777777778
 31
0.0
  0
LINE
  5
76A
330
18
100
AcDbEntity
  8
Object
100
AcDbLine
 10
4.357777777777777
 20
16.75777777777778
 30
0.0
 11
4.358888888888889
 21
16.69444444444444
 31
0.0
  0
LINE
  5
76B
330
18
100
AcDbEntity
  8
Object
100
AcDbLine
 10
5.216666666666666
 20
17.44555555555555
 30
0.0
 11
5.216666666666666
 21
17.57
 31
0.0
  0
LINE
  5
76C
330
18
100
AcDbEntity
  8
Object
100
AcDbLine
 10
5.216666666666666
 20
17.57
 30
0.0
 11
5.154444444444444
 21
17.57
 31
0.0
  0
LINE
  5
76D
330
18
100
AcDbEntity
  8
Object
100
AcDbLine
 10
5.154444444444444
 20
17.57
 30
0.0
 11
5.092222222222222
 21
17.57
 31
0.0
  0
LINE
  5
76E
330
18
100
AcDbEntity
  8
Object
100
AcDbLine
 10
5.092222222222222
 20
17.57
 30
0.0
 11
5.032222222222221
 21
17.57
 31
0.0
  0
LINE
  5
76F
330
18
100
AcDbEntity
  8
Object
100
AcDbLine
 10
5.032222222222221
 20
17.57
 30
0.0
 11
4.974444444444444
 21
17.57
 31
0.0
  0
LINE
  5
770
330
18
100
AcDbEntity
  8
Object
100
AcDbLine
 10
4.974444444444444
 20
17.57
 30
0.0
 11
4.921111111111111
 21
17.57
 31
0.0
  0
LINE
  5
771
330
18
100
AcDbEntity
  8
Object
100
AcDbLine
 10
4.921111111111111
 20
17.57
 30
0.0
 11
4.873333333333333
 21
17.57
 31
0.0
  0
LINE
  5
772
330
18
100
AcDbEntity
  8
Object
100
AcDbLine
 10
4.873333333333333
 20
17.57
 30
0.0
 11
4.83
 21
17.57
 31
0.0
  0
LINE
  5
773
330
18
100
AcDbEntity
  8
Object
100
AcDbLine
 10
4.83
 20
17.57
 30
0.0
 11
4.792222222222222
 21
17.57
 31
0.0
  0
LINE
  5
774
330
18
100
AcDbEntity
  8
Object
100
AcDbLine
 10
4.792222222222222
 20
17.57
 30
0.0
 11
4.762222222222222
 21
17.57
 31
0.0
  0
LINE
  5
775
330
18
100
AcDbEntity
  8
Object
100
AcDbLine
 10
4.762222222222222
 20
17.57
 30
0.0
 11
4.737777777777777
 21
17.57
 31
0.0
  0
LINE
  5
776
330
18
100
AcDbEntity
  8
Object
100
AcDbLine
 10
4.737777777777777
 20
17.57
 30
0.0
 11
4.722222222222222
 21
17.57
 31
0.0
  0
LINE
  5
777
330
18
100
AcDbEntity
  8
Object
100
AcDbLine
 10
4.722222222222222
 20
17.57
 30
0.0
 11
4.713333333333332
 21
17.57
 31
0.0
  0
LINE
  5
778
330
18
100
AcDbEntity
  8
Object
100
AcDbLine
 10
17.02333333333333
 20
17.51333333333333
 30
0.0
 11
17.03888888888888
 21
17.53333333333333
 31
0.0
  0
LINE
  5
779
330
18
100
AcDbEntity
  8
Object
100
AcDbLine
 10
17.03888888888888
 20
17.53333333333333
 30
0.0
 11
17.05888888888889
 21
17.55
 31
0.0
  0
LINE
  5
77A
330
18
100
AcDbEntity
  8
Object
100
AcDbLine
 10
17.05888888888889
 20
17.55
 30
0.0
 11
17.08111111111111
 21
17.56111111111111
 31
0.0
  0
LINE
  5
77B
330
18
100
AcDbEntity
  8
Object
100
AcDbLine
 10
17.08111111111111
 20
17.56111111111111
 30
0.0
 11
17.10444444444444
 21
17.56777777777777
 31
0.0
  0
LINE
  5
77C
330
18
100
AcDbEntity
  8
Object
100
AcDbLine
 10
17.02333333333333
 20
17.51333333333333
 30
0.0
 11
17.01111111111111
 21
17.49111111111111
 31
0.0
  0
LINE
  5
77D
330
18
100
AcDbEntity
  8
Object
100
AcDbLine
 10
17.01111111111111
 20
17.49111111111111
 30
0.0
 11
17.00444444444444
 21
17.46777777777777
 31
0.0
  0
LINE
  5
77E
330
18
100
AcDbEntity
  8
Object
100
AcDbLine
 10
17.10444444444444
 20
17.56777777777777
 30
0.0
 11
17.12777777777777
 21
17.57
 31
0.0
  0
LINE
  5
77F
330
18
100
AcDbEntity
  8
Object
100
AcDbLine
 10
17.12777777777777
 20
17.57
 30
0.0
 11
17.29444444444444
 21
17.57
 31
0.0
  0
LINE
  5
780
330
18
100
AcDbEntity
  8
Object
100
AcDbLine
 10
17.00444444444444
 20
17.46777777777777
 30
0.0
 11
17.00222222222222
 21
17.44555555555555
 31
0.0
  0
LINE
  5
781
330
18
100
AcDbEntity
  8
Object
100
AcDbLine
 10
17.29444444444444
 20
17.44555555555555
 30
0.0
 11
17.29444444444444
 21
17.57
 31
0.0
  0
LINE
  5
782
330
18
100
AcDbEntity
  8
Object
100
AcDbLine
 10
4.52111111111111
 20
17.57
 30
0.0
 11
4.713333333333332
 21
17.57
 31
0.0
  0
LINE
  5
783
330
18
100
AcDbEntity
  8
Object
100
AcDbLine
 10
4.713333333333332
 20
17.57
 30
0.0
 11
4.716666666666666
 21
17.33777777777778
 31
0.0
  0
LINE
  5
784
330
18
100
AcDbEntity
  8
Object
100
AcDbLine
 10
18.00333333333333
 20
17.36333333333333
 30
0.0
 11
18.09888888888889
 21
17.36333333333333
 31
0.0
  0
LINE
  5
785
330
18
100
AcDbEntity
  8
Object
100
AcDbLine
 10
18.09888888888889
 20
17.36333333333333
 30
0.0
 11
18.11444444444444
 21
16.75777777777778
 31
0.0
  0
LINE
  5
786
330
18
100
AcDbEntity
  8
Object
100
AcDbLine
 10
17.99666666666666
 20
17.54777777777778
 30
0.0
 11
17.99555555555555
 21
17.55666666666667
 31
0.0
  0
LINE
  5
787
330
18
100
AcDbEntity
  8
Object
100
AcDbLine
 10
17.99
 20
17.57
 30
0.0
 11
17.99222222222222
 21
17.56666666666666
 31
0.0
  0
LINE
  5
788
330
18
100
AcDbEntity
  8
Object
100
AcDbLine
 10
17.99222222222222
 20
17.56666666666666
 30
0.0
 11
17.99555555555555
 21
17.55666666666667
 31
0.0
  0
LINE
  5
789
330
18
100
AcDbEntity
  8
Object
100
AcDbLine
 10
17.99666666666666
 20
17.54777777777778
 30
0.0
 11
17.99777777777778
 21
17.53777777777777
 31
0.0
  0
LINE
  5
78A
330
18
100
AcDbEntity
  8
Object
100
AcDbLine
 10
17.99777777777778
 20
17.53777777777777
 30
0.0
 11
17.99888888888889
 21
17.52555555555555
 31
0.0
  0
LINE
  5
78B
330
18
100
AcDbEntity
  8
Object
100
AcDbLine
 10
17.99888888888889
 20
17.52555555555555
 30
0.0
 11
18.0
 21
17.51222222222222
 31
0.0
  0
LINE
  5
78C
330
18
100
AcDbEntity
  8
Object
100
AcDbLine
 10
18.0
 20
17.51222222222222
 30
0.0
 11
18.00111111111111
 21
17.49666666666666
 31
0.0
  0
LINE
  5
78D
330
18
100
AcDbEntity
  8
Object
100
AcDbLine
 10
18.00111111111111
 20
17.49666666666666
 30
0.0
 11
18.00111111111111
 21
17.48
 31
0.0
  0
LINE
  5
78E
330
18
100
AcDbEntity
  8
Object
100
AcDbLine
 10
18.00111111111111
 20
17.48
 30
0.0
 11
18.00222222222222
 21
17.46222222222222
 31
0.0
  0
LINE
  5
78F
330
18
100
AcDbEntity
  8
Object
100
AcDbLine
 10
18.00222222222222
 20
17.46222222222222
 30
0.0
 11
18.00222222222222
 21
17.44333333333333
 31
0.0
  0
LINE
  5
790
330
18
100
AcDbEntity
  8
Object
100
AcDbLine
 10
18.00222222222222
 20
17.44333333333333
 30
0.0
 11
18.00333333333333
 21
17.40333333333333
 31
0.0
  0
LINE
  5
791
330
18
100
AcDbEntity
  8
Object
100
AcDbLine
 10
18.00333333333333
 20
17.40333333333333
 30
0.0
 11
18.00333333333333
 21
17.36333333333333
 31
0.0
  0
LINE
  5
792
330
18
100
AcDbEntity
  8
Object
100
AcDbLine
 10
18.00333333333333
 20
17.36333333333333
 30
0.0
 11
17.99777777777778
 21
16.75777777777778
 31
0.0
  0
LINE
  5
793
330
18
100
AcDbEntity
  8
Object
100
AcDbLine
 10
17.99
 20
17.57
 30
0.0
 11
17.79777777777778
 21
17.57
 31
0.0
  0
LINE
  5
794
330
18
100
AcDbEntity
  8
Object
100
AcDbLine
 10
11.25555555555555
 20
16.67888888888889
 30
0.0
 11
11.29888888888889
 21
16.69444444444444
 31
0.0
  0
LINE
  5
795
330
18
100
AcDbEntity
  8
Object
100
AcDbLine
 10
11.25555555555555
 20
16.75777777777778
 30
0.0
 11
11.29888888888889
 21
16.75777777777778
 31
0.0
  0
LINE
  5
796
330
18
100
AcDbEntity
  8
Object
100
AcDbLine
 10
11.29888888888889
 20
16.75777777777778
 30
0.0
 11
11.29888888888889
 21
16.69444444444444
 31
0.0
  0
LINE
  5
797
330
18
100
AcDbEntity
  8
Object
100
AcDbLine
 10
11.25555555555555
 20
16.75777777777778
 30
0.0
 11
11.21222222222222
 21
16.75777777777778
 31
0.0
  0
LINE
  5
798
330
18
100
AcDbEntity
  8
Object
100
AcDbLine
 10
11.55777777777778
 20
17.44555555555555
 30
0.0
 11
11.55777777777778
 21
17.45222222222222
 31
0.0
  0
LINE
  5
799
330
18
100
AcDbEntity
  8
Object
100
AcDbLine
 10
15.74333333333333
 20
17.49111111111111
 30
0.0
 11
15.73222222222222
 21
17.51333333333333
 31
0.0
  0
LINE
  5
79A
330
18
100
AcDbEntity
  8
Object
100
AcDbLine
 10
15.69555555555555
 20
17.55
 30
0.0
 11
15.71555555555555
 21
17.53333333333333
 31
0.0
  0
LINE
  5
79B
330
18
100
AcDbEntity
  8
Object
100
AcDbLine
 10
15.71555555555555
 20
17.53333333333333
 30
0.0
 11
15.73222222222222
 21
17.51333333333333
 31
0.0
  0
LINE
  5
79C
330
18
100
AcDbEntity
  8
Object
100
AcDbLine
 10
15.69555555555555
 20
17.55
 30
0.0
 11
15.67333333333333
 21
17.56111111111111
 31
0.0
  0
LINE
  5
79D
330
18
100
AcDbEntity
  8
Object
100
AcDbLine
 10
15.74333333333333
 20
17.49111111111111
 30
0.0
 11
15.75111111111111
 21
17.46777777777777
 31
0.0
  0
LINE
  5
79E
330
18
100
AcDbEntity
  8
Object
100
AcDbLine
 10
15.75111111111111
 20
17.46777777777777
 30
0.0
 11
15.75222222222222
 21
17.44555555555555
 31
0.0
  0
LINE
  5
79F
330
18
100
AcDbEntity
  8
Object
100
AcDbLine
 10
15.67333333333333
 20
17.56111111111111
 30
0.0
 11
15.65
 21
17.56777777777777
 31
0.0
  0
LINE
  5
7A0
330
18
100
AcDbEntity
  8
Object
100
AcDbLine
 10
15.65
 20
17.56777777777777
 30
0.0
 11
15.62777777777777
 21
17.57
 31
0.0
  0
LINE
  5
7A1
330
18
100
AcDbEntity
  8
Object
100
AcDbLine
 10
13.71888888888889
 20
17.51333333333333
 30
0.0
 11
13.73555555555555
 21
17.53333333333333
 31
0.0
  0
LINE
  5
7A2
330
18
100
AcDbEntity
  8
Object
100
AcDbLine
 10
13.73555555555555
 20
17.53333333333333
 30
0.0
 11
13.75555555555555
 21
17.55
 31
0.0
  0
LINE
  5
7A3
330
18
100
AcDbEntity
  8
Object
100
AcDbLine
 10
13.75555555555555
 20
17.55
 30
0.0
 11
13.77777777777778
 21
17.56111111111111
 31
0.0
  0
LINE
  5
7A4
330
18
100
AcDbEntity
  8
Object
100
AcDbLine
 10
13.71888888888889
 20
17.51333333333333
 30
0.0
 11
13.70777777777778
 21
17.49111111111111
 31
0.0
  0
LINE
  5
7A5
330
18
100
AcDbEntity
  8
Object
100
AcDbLine
 10
13.70777777777778
 20
17.49111111111111
 30
0.0
 11
13.70111111111111
 21
17.46777777777777
 31
0.0
  0
LINE
  5
7A6
330
18
100
AcDbEntity
  8
Object
100
AcDbLine
 10
13.77777777777778
 20
17.56111111111111
 30
0.0
 11
13.80111111111111
 21
17.56777777777777
 31
0.0
  0
LINE
  5
7A7
330
18
100
AcDbEntity
  8
Object
100
AcDbLine
 10
13.80111111111111
 20
17.56777777777777
 30
0.0
 11
13.82333333333333
 21
17.57
 31
0.0
  0
LINE
  5
7A8
330
18
100
AcDbEntity
  8
Object
100
AcDbLine
 10
13.70111111111111
 20
17.46777777777777
 30
0.0
 11
13.69888888888889
 21
17.44555555555555
 31
0.0
  0
LINE
  5
7A9
330
18
100
AcDbEntity
  8
Object
100
AcDbLine
 10
15.62777777777777
 20
17.57
 30
0.0
 11
13.82333333333333
 21
17.57
 31
0.0
  0
LINE
  5
7AA
330
18
100
AcDbEntity
  8
Object
100
AcDbLine
 10
13.82333333333333
 20
17.57
 30
0.0
 11
13.80111111111111
 21
17.56777777777777
 31
0.0
  0
LINE
  5
7AB
330
18
100
AcDbEntity
  8
Object
100
AcDbLine
 10
13.80111111111111
 20
17.56777777777777
 30
0.0
 11
13.77777777777778
 21
17.56111111111111
 31
0.0
  0
LINE
  5
7AC
330
18
100
AcDbEntity
  8
Object
100
AcDbLine
 10
13.77777777777778
 20
17.56111111111111
 30
0.0
 11
13.75555555555555
 21
17.55
 31
0.0
  0
LINE
  5
7AD
330
18
100
AcDbEntity
  8
Object
100
AcDbLine
 10
13.75555555555555
 20
17.55
 30
0.0
 11
13.73555555555555
 21
17.53333333333333
 31
0.0
  0
LINE
  5
7AE
330
18
100
AcDbEntity
  8
Object
100
AcDbLine
 10
13.73555555555555
 20
17.53333333333333
 30
0.0
 11
13.71888888888889
 21
17.51333333333333
 31
0.0
  0
LINE
  5
7AF
330
18
100
AcDbEntity
  8
Object
100
AcDbLine
 10
13.71888888888889
 20
17.51333333333333
 30
0.0
 11
13.70777777777778
 21
17.49111111111111
 31
0.0
  0
LINE
  5
7B0
330
18
100
AcDbEntity
  8
Object
100
AcDbLine
 10
13.70777777777778
 20
17.49111111111111
 30
0.0
 11
13.70111111111111
 21
17.46777777777777
 31
0.0
  0
LINE
  5
7B1
330
18
100
AcDbEntity
  8
Object
100
AcDbLine
 10
13.70111111111111
 20
17.46777777777777
 30
0.0
 11
13.69888888888889
 21
17.44555555555555
 31
0.0
  0
LINE
  5
7B2
330
18
100
AcDbEntity
  8
Object
100
AcDbLine
 10
18.14777777777777
 20
16.67444444444444
 30
0.0
 11
18.15222222222222
 21
16.69444444444444
 31
0.0
  0
LINE
  5
7B3
330
18
100
AcDbEntity
  8
Object
100
AcDbLine
 10
18.15222222222222
 20
16.69444444444444
 30
0.0
 11
18.14888888888889
 21
16.69444444444444
 31
0.0
  0
LINE
  5
7B4
330
18
100
AcDbEntity
  8
Object
100
AcDbLine
 10
18.15222222222222
 20
16.69444444444444
 30
0.0
 11
18.14777777777777
 21
16.67444444444444
 31
0.0
  0
LINE
  5
7B5
330
18
100
AcDbEntity
  8
Object
100
AcDbLine
 10
18.14777777777777
 20
16.67444444444444
 30
0.0
 11
18.13888888888889
 21
16.65777777777778
 31
0.0
  0
LINE
  5
7B6
330
18
100
AcDbEntity
  8
Object
100
AcDbLine
 10
18.13888888888889
 20
16.65777777777778
 30
0.0
 11
18.13666666666667
 21
16.65555555555555
 31
0.0
  0
LINE
  5
7B7
330
18
100
AcDbEntity
  8
Object
100
AcDbLine
 10
18.14777777777777
 20
16.67444444444444
 30
0.0
 11
18.13888888888889
 21
16.65777777777778
 31
0.0
  0
LINE
  5
7B8
330
18
100
AcDbEntity
  8
Object
100
AcDbLine
 10
18.13888888888889
 20
16.65777777777778
 30
0.0
 11
18.13666666666667
 21
16.65555555555555
 31
0.0
  0
LINE
  5
7B9
330
18
100
AcDbEntity
  8
Object
100
AcDbLine
 10
18.13666666666667
 20
16.65555555555555
 30
0.0
 11
18.12555555555555
 21
16.64444444444444
 31
0.0
  0
LINE
  5
7BA
330
18
100
AcDbEntity
  8
Object
100
AcDbLine
 10
18.12555555555555
 20
16.64444444444444
 30
0.0
 11
18.13666666666667
 21
16.65555555555555
 31
0.0
  0
LINE
  5
7BB
330
18
100
AcDbEntity
  8
Object
100
AcDbLine
 10
18.12
 20
16.64111111111111
 30
0.0
 11
18.12555555555555
 21
16.64444444444444
 31
0.0
  0
LINE
  5
7BC
330
18
100
AcDbEntity
  8
Object
100
AcDbLine
 10
18.12555555555555
 20
16.64444444444444
 30
0.0
 11
18.12
 21
16.64111111111111
 31
0.0
  0
LINE
  5
7BD
330
18
100
AcDbEntity
  8
Object
100
AcDbLine
 10
18.12
 20
16.64111111111111
 30
0.0
 11
18.10777777777778
 21
16.63555555555555
 31
0.0
  0
LINE
  5
7BE
330
18
100
AcDbEntity
  8
Object
100
AcDbLine
 10
18.10777777777778
 20
16.63555555555555
 30
0.0
 11
18.12
 21
16.64111111111111
 31
0.0
  0
LINE
  5
7BF
330
18
100
AcDbEntity
  8
Object
100
AcDbLine
 10
18.1
 20
16.63333333333333
 30
0.0
 11
18.10777777777778
 21
16.63555555555555
 31
0.0
  0
LINE
  5
7C0
330
18
100
AcDbEntity
  8
Object
100
AcDbLine
 10
18.10777777777778
 20
16.63555555555555
 30
0.0
 11
18.1
 21
16.63333333333333
 31
0.0
  0
LINE
  5
7C1
330
18
100
AcDbEntity
  8
Object
100
AcDbLine
 10
18.1
 20
16.63333333333333
 30
0.0
 11
18.08888888888889
 21
16.63333333333333
 31
0.0
  0
LINE
  5
7C2
330
18
100
AcDbEntity
  8
Object
100
AcDbLine
 10
18.08888888888889
 20
16.63333333333333
 30
0.0
 11
18.1
 21
16.63333333333333
 31
0.0
  0
LINE
  5
7C3
330
18
100
AcDbEntity
  8
Object
100
AcDbLine
 10
18.08888888888889
 20
16.63333333333333
 30
0.0
 11
18.08222222222222
 21
16.63333333333333
 31
0.0
  0
LINE
  5
7C4
330
18
100
AcDbEntity
  8
Object
100
AcDbLine
 10
18.08222222222222
 20
16.63333333333333
 30
0.0
 11
18.06777777777778
 21
16.63333333333333
 31
0.0
  0
LINE
  5
7C5
330
18
100
AcDbEntity
  8
Object
100
AcDbLine
 10
18.06777777777778
 20
16.63333333333333
 30
0.0
 11
18.04666666666667
 21
16.63333333333333
 31
0.0
  0
LINE
  5
7C6
330
18
100
AcDbEntity
  8
Object
100
AcDbLine
 10
18.04666666666667
 20
16.63333333333333
 30
0.0
 11
18.01888888888889
 21
16.63333333333333
 31
0.0
  0
LINE
  5
7C7
330
18
100
AcDbEntity
  8
Object
100
AcDbLine
 10
18.01888888888889
 20
16.63333333333333
 30
0.0
 11
17.98555555555555
 21
16.63333333333333
 31
0.0
  0
LINE
  5
7C8
330
18
100
AcDbEntity
  8
Object
100
AcDbLine
 10
17.98555555555555
 20
16.63333333333333
 30
0.0
 11
17.94666666666666
 21
16.63333333333333
 31
0.0
  0
LINE
  5
7C9
330
18
100
AcDbEntity
  8
Object
100
AcDbLine
 10
17.94666666666666
 20
16.63333333333333
 30
0.0
 11
17.90222222222222
 21
16.63333333333333
 31
0.0
  0
LINE
  5
7CA
330
18
100
AcDbEntity
  8
Object
100
AcDbLine
 10
17.90222222222222
 20
16.63333333333333
 30
0.0
 11
17.85333333333333
 21
16.63333333333333
 31
0.0
  0
LINE
  5
7CB
330
18
100
AcDbEntity
  8
Object
100
AcDbLine
 10
17.85333333333333
 20
16.63333333333333
 30
0.0
 11
17.80222222222222
 21
16.63333333333333
 31
0.0
  0
LINE
  5
7CC
330
18
100
AcDbEntity
  8
Object
100
AcDbLine
 10
17.80222222222222
 20
16.63333333333333
 30
0.0
 11
17.74777777777778
 21
16.63333333333333
 31
0.0
  0
LINE
  5
7CD
330
18
100
AcDbEntity
  8
Object
100
AcDbLine
 10
17.74777777777778
 20
16.63333333333333
 30
0.0
 11
17.69222222222222
 21
16.63333333333333
 31
0.0
  0
LINE
  5
7CE
330
18
100
AcDbEntity
  8
Object
100
AcDbLine
 10
8.687777777777776
 20
17.57
 30
0.0
 11
6.883333333333333
 21
17.57
 31
0.0
  0
LINE
  5
7CF
330
18
100
AcDbEntity
  8
Object
100
AcDbLine
 10
6.883333333333333
 20
17.57
 30
0.0
 11
6.86111111111111
 21
17.56777777777777
 31
0.0
  0
LINE
  5
7D0
330
18
100
AcDbEntity
  8
Object
100
AcDbLine
 10
6.86111111111111
 20
17.56777777777777
 30
0.0
 11
6.837777777777778
 21
17.56111111111111
 31
0.0
  0
LINE
  5
7D1
330
18
100
AcDbEntity
  8
Object
100
AcDbLine
 10
6.837777777777778
 20
17.56111111111111
 30
0.0
 11
6.815555555555555
 21
17.55
 31
0.0
  0
LINE
  5
7D2
330
18
100
AcDbEntity
  8
Object
100
AcDbLine
 10
6.815555555555555
 20
17.55
 30
0.0
 11
6.795555555555555
 21
17.53333333333333
 31
0.0
  0
LINE
  5
7D3
330
18
100
AcDbEntity
  8
Object
100
AcDbLine
 10
6.795555555555555
 20
17.53333333333333
 30
0.0
 11
6.778888888888888
 21
17.51333333333333
 31
0.0
  0
LINE
  5
7D4
330
18
100
AcDbEntity
  8
Object
100
AcDbLine
 10
6.778888888888888
 20
17.51333333333333
 30
0.0
 11
6.767777777777777
 21
17.49111111111111
 31
0.0
  0
LINE
  5
7D5
330
18
100
AcDbEntity
  8
Object
100
AcDbLine
 10
6.767777777777777
 20
17.49111111111111
 30
0.0
 11
6.761111111111111
 21
17.46777777777777
 31
0.0
  0
LINE
  5
7D6
330
18
100
AcDbEntity
  8
Object
100
AcDbLine
 10
6.761111111111111
 20
17.46777777777777
 30
0.0
 11
6.758888888888888
 21
17.44555555555555
 31
0.0
  0
LINE
  5
7D7
330
18
100
AcDbEntity
  8
Object
100
AcDbLine
 10
8.812222222222223
 20
17.44555555555555
 30
0.0
 11
8.81
 21
17.46777777777777
 31
0.0
  0
LINE
  5
7D8
330
18
100
AcDbEntity
  8
Object
100
AcDbLine
 10
8.81
 20
17.46777777777777
 30
0.0
 11
8.803333333333332
 21
17.49111111111111
 31
0.0
  0
LINE
  5
7D9
330
18
100
AcDbEntity
  8
Object
100
AcDbLine
 10
8.803333333333332
 20
17.49111111111111
 30
0.0
 11
8.792222222222221
 21
17.51333333333333
 31
0.0
  0
LINE
  5
7DA
330
18
100
AcDbEntity
  8
Object
100
AcDbLine
 10
8.792222222222221
 20
17.51333333333333
 30
0.0
 11
8.775555555555555
 21
17.53333333333333
 31
0.0
  0
LINE
  5
7DB
330
18
100
AcDbEntity
  8
Object
100
AcDbLine
 10
8.775555555555555
 20
17.53333333333333
 30
0.0
 11
8.755555555555556
 21
17.55
 31
0.0
  0
LINE
  5
7DC
330
18
100
AcDbEntity
  8
Object
100
AcDbLine
 10
8.755555555555556
 20
17.55
 30
0.0
 11
8.733333333333332
 21
17.56111111111111
 31
0.0
  0
LINE
  5
7DD
330
18
100
AcDbEntity
  8
Object
100
AcDbLine
 10
8.733333333333332
 20
17.56111111111111
 30
0.0
 11
8.71
 21
17.56777777777777
 31
0.0
  0
LINE
  5
7DE
330
18
100
AcDbEntity
  8
Object
100
AcDbLine
 10
8.71
 20
17.56777777777777
 30
0.0
 11
8.687777777777776
 21
17.57
 31
0.0
  0
LINE
  5
7DF
330
18
100
AcDbEntity
  8
Object
100
AcDbLine
 10
11.07666666666666
 20
17.57
 30
0.0
 11
11.05444444444444
 21
17.56888888888889
 31
0.0
  0
LINE
  5
7E0
330
18
100
AcDbEntity
  8
Object
100
AcDbLine
 10
11.05444444444444
 20
17.56888888888889
 30
0.0
 11
11.03222222222222
 21
17.56222222222222
 31
0.0
  0
LINE
  5
7E1
330
18
100
AcDbEntity
  8
Object
100
AcDbLine
 10
11.03222222222222
 20
17.56222222222222
 30
0.0
 11
11.01
 21
17.55111111111111
 31
0.0
  0
LINE
  5
7E2
330
18
100
AcDbEntity
  8
Object
100
AcDbLine
 10
11.01
 20
17.55111111111111
 30
0.0
 11
10.99111111111111
 21
17.53555555555555
 31
0.0
  0
LINE
  5
7E3
330
18
100
AcDbEntity
  8
Object
100
AcDbLine
 10
10.99111111111111
 20
17.53555555555555
 30
0.0
 11
10.97444444444444
 21
17.51777777777778
 31
0.0
  0
LINE
  5
7E4
330
18
100
AcDbEntity
  8
Object
100
AcDbLine
 10
10.97444444444444
 20
17.51777777777778
 30
0.0
 11
10.96222222222222
 21
17.49555555555555
 31
0.0
  0
LINE
  5
7E5
330
18
100
AcDbEntity
  8
Object
100
AcDbLine
 10
10.96222222222222
 20
17.49555555555555
 30
0.0
 11
10.95555555555555
 21
17.47333333333333
 31
0.0
  0
LINE
  5
7E6
330
18
100
AcDbEntity
  8
Object
100
AcDbLine
 10
10.95555555555555
 20
17.47333333333333
 30
0.0
 11
10.95222222222222
 21
17.45222222222222
 31
0.0
  0
LINE
  5
7E7
330
18
100
AcDbEntity
  8
Object
100
AcDbLine
 10
11.25555555555555
 20
16.63555555555555
 30
0.0
 11
11.25555555555555
 21
16.63333333333333
 31
0.0
  0
LINE
  5
7E8
330
18
100
AcDbEntity
  8
Object
100
AcDbLine
 10
11.25555555555555
 20
16.63333333333333
 30
0.0
 11
4.818888888888888
 21
16.63333333333333
 31
0.0
  0
LINE
  5
7E9
330
18
100
AcDbEntity
  8
Object
100
AcDbLine
 10
11.25555555555555
 20
16.63555555555555
 30
0.0
 11
11.25555555555555
 21
16.64555555555556
 31
0.0
  0
LINE
  5
7EA
330
18
100
AcDbEntity
  8
Object
100
AcDbLine
 10
11.25555555555555
 20
16.64555555555556
 30
0.0
 11
11.25555555555555
 21
16.66111111111111
 31
0.0
  0
LINE
  5
7EB
330
18
100
AcDbEntity
  8
Object
100
AcDbLine
 10
11.25555555555555
 20
16.66111111111111
 30
0.0
 11
11.25555555555555
 21
16.67888888888889
 31
0.0
  0
LINE
  5
7EC
330
18
100
AcDbEntity
  8
Object
100
AcDbLine
 10
11.25555555555555
 20
16.67888888888889
 30
0.0
 11
11.21222222222222
 21
16.69444444444444
 31
0.0
  0
LINE
  5
7ED
330
18
100
AcDbEntity
  8
Object
100
AcDbLine
 10
15.75222222222222
 20
17.44555555555555
 30
0.0
 11
15.75111111111111
 21
17.46777777777777
 31
0.0
  0
LINE
  5
7EE
330
18
100
AcDbEntity
  8
Object
100
AcDbLine
 10
15.75111111111111
 20
17.46777777777777
 30
0.0
 11
15.74333333333333
 21
17.49111111111111
 31
0.0
  0
LINE
  5
7EF
330
18
100
AcDbEntity
  8
Object
100
AcDbLine
 10
15.74333333333333
 20
17.49111111111111
 30
0.0
 11
15.73222222222222
 21
17.51333333333333
 31
0.0
  0
LINE
  5
7F0
330
18
100
AcDbEntity
  8
Object
100
AcDbLine
 10
15.73222222222222
 20
17.51333333333333
 30
0.0
 11
15.71555555555555
 21
17.53333333333333
 31
0.0
  0
LINE
  5
7F1
330
18
100
AcDbEntity
  8
Object
100
AcDbLine
 10
15.71555555555555
 20
17.53333333333333
 30
0.0
 11
15.69555555555555
 21
17.55
 31
0.0
  0
LINE
  5
7F2
330
18
100
AcDbEntity
  8
Object
100
AcDbLine
 10
15.69555555555555
 20
17.55
 30
0.0
 11
15.67333333333333
 21
17.56111111111111
 31
0.0
  0
LINE
  5
7F3
330
18
100
AcDbEntity
  8
Object
100
AcDbLine
 10
15.67333333333333
 20
17.56111111111111
 30
0.0
 11
15.65
 21
17.56777777777777
 31
0.0
  0
LINE
  5
7F4
330
18
100
AcDbEntity
  8
Object
100
AcDbLine
 10
15.65
 20
17.56777777777777
 30
0.0
 11
15.62777777777777
 21
17.57
 31
0.0
  0
LINE
  5
7F5
330
18
100
AcDbEntity
  8
Object
100
AcDbLine
 10
5.383333333333333
 20
17.57
 30
0.0
 11
5.216666666666666
 21
17.57
 31
0.0
  0
LINE
  5
7F6
330
18
100
AcDbEntity
  8
Object
100
AcDbLine
 10
5.216666666666666
 20
17.57
 30
0.0
 11
5.154444444444444
 21
17.57
 31
0.0
  0
LINE
  5
7F7
330
18
100
AcDbEntity
  8
Object
100
AcDbLine
 10
5.154444444444444
 20
17.57
 30
0.0
 11
5.092222222222222
 21
17.57
 31
0.0
  0
LINE
  5
7F8
330
18
100
AcDbEntity
  8
Object
100
AcDbLine
 10
5.092222222222222
 20
17.57
 30
0.0
 11
5.032222222222221
 21
17.57
 31
0.0
  0
LINE
  5
7F9
330
18
100
AcDbEntity
  8
Object
100
AcDbLine
 10
5.032222222222221
 20
17.57
 30
0.0
 11
4.974444444444444
 21
17.57
 31
0.0
  0
LINE
  5
7FA
330
18
100
AcDbEntity
  8
Object
100
AcDbLine
 10
4.974444444444444
 20
17.57
 30
0.0
 11
4.921111111111111
 21
17.57
 31
0.0
  0
LINE
  5
7FB
330
18
100
AcDbEntity
  8
Object
100
AcDbLine
 10
4.921111111111111
 20
17.57
 30
0.0
 11
4.873333333333333
 21
17.57
 31
0.0
  0
LINE
  5
7FC
330
18
100
AcDbEntity
  8
Object
100
AcDbLine
 10
4.873333333333333
 20
17.57
 30
0.0
 11
4.83
 21
17.57
 31
0.0
  0
LINE
  5
7FD
330
18
100
AcDbEntity
  8
Object
100
AcDbLine
 10
4.83
 20
17.57
 30
0.0
 11
4.792222222222222
 21
17.57
 31
0.0
  0
LINE
  5
7FE
330
18
100
AcDbEntity
  8
Object
100
AcDbLine
 10
4.792222222222222
 20
17.57
 30
0.0
 11
4.762222222222222
 21
17.57
 31
0.0
  0
LINE
  5
7FF
330
18
100
AcDbEntity
  8
Object
100
AcDbLine
 10
4.762222222222222
 20
17.57
 30
0.0
 11
4.737777777777777
 21
17.57
 31
0.0
  0
LINE
  5
800
330
18
100
AcDbEntity
  8
Object
100
AcDbLine
 10
4.737777777777777
 20
17.57
 30
0.0
 11
4.722222222222222
 21
17.57
 31
0.0
  0
LINE
  5
801
330
18
100
AcDbEntity
  8
Object
100
AcDbLine
 10
4.722222222222222
 20
17.57
 30
0.0
 11
4.713333333333332
 21
17.57
 31
0.0
  0
LINE
  5
802
330
18
100
AcDbEntity
  8
Object
100
AcDbLine
 10
4.713333333333332
 20
17.57
 30
0.0
 11
4.52111111111111
 21
17.57
 31
0.0
  0
LINE
  5
803
330
18
100
AcDbEntity
  8
Object
100
AcDbLine
 10
4.52111111111111
 20
17.57
 30
0.0
 11
4.433333333333333
 21
17.57
 31
0.0
  0
LINE
  5
804
330
18
100
AcDbEntity
  8
Object
100
AcDbLine
 10
5.508888888888888
 20
17.44555555555555
 30
0.0
 11
5.506666666666666
 21
17.46777777777777
 31
0.0
  0
LINE
  5
805
330
18
100
AcDbEntity
  8
Object
100
AcDbLine
 10
5.506666666666666
 20
17.46777777777777
 30
0.0
 11
5.5
 21
17.49111111111111
 31
0.0
  0
LINE
  5
806
330
18
100
AcDbEntity
  8
Object
100
AcDbLine
 10
5.5
 20
17.49111111111111
 30
0.0
 11
5.487777777777777
 21
17.51333333333333
 31
0.0
  0
LINE
  5
807
330
18
100
AcDbEntity
  8
Object
100
AcDbLine
 10
5.487777777777777
 20
17.51333333333333
 30
0.0
 11
5.472222222222222
 21
17.53333333333333
 31
0.0
  0
LINE
  5
808
330
18
100
AcDbEntity
  8
Object
100
AcDbLine
 10
5.472222222222222
 20
17.53333333333333
 30
0.0
 11
5.452222222222221
 21
17.55
 31
0.0
  0
LINE
  5
809
330
18
100
AcDbEntity
  8
Object
100
AcDbLine
 10
5.452222222222221
 20
17.55
 30
0.0
 11
5.429999999999999
 21
17.56111111111111
 31
0.0
  0
LINE
  5
80A
330
18
100
AcDbEntity
  8
Object
100
AcDbLine
 10
5.429999999999999
 20
17.56111111111111
 30
0.0
 11
5.406666666666666
 21
17.56777777777777
 31
0.0
  0
LINE
  5
80B
330
18
100
AcDbEntity
  8
Object
100
AcDbLine
 10
5.406666666666666
 20
17.56777777777777
 30
0.0
 11
5.383333333333333
 21
17.57
 31
0.0
  0
LINE
  5
80C
330
18
100
AcDbEntity
  8
Object
100
AcDbLine
 10
11.55777777777778
 20
17.45222222222222
 30
0.0
 11
11.55555555555555
 21
17.47333333333333
 31
0.0
  0
LINE
  5
80D
330
18
100
AcDbEntity
  8
Object
100
AcDbLine
 10
11.55555555555555
 20
17.47333333333333
 30
0.0
 11
11.54777777777778
 21
17.49555555555555
 31
0.0
  0
LINE
  5
80E
330
18
100
AcDbEntity
  8
Object
100
AcDbLine
 10
11.54777777777778
 20
17.49555555555555
 30
0.0
 11
11.53555555555555
 21
17.51777777777778
 31
0.0
  0
LINE
  5
80F
330
18
100
AcDbEntity
  8
Object
100
AcDbLine
 10
11.53555555555555
 20
17.51777777777778
 30
0.0
 11
11.51888888888889
 21
17.53555555555555
 31
0.0
  0
LINE
  5
810
330
18
100
AcDbEntity
  8
Object
100
AcDbLine
 10
11.51888888888889
 20
17.53555555555555
 30
0.0
 11
11.5
 21
17.55111111111111
 31
0.0
  0
LINE
  5
811
330
18
100
AcDbEntity
  8
Object
100
AcDbLine
 10
11.5
 20
17.55111111111111
 30
0.0
 11
11.47777777777778
 21
17.56222222222222
 31
0.0
  0
LINE
  5
812
330
18
100
AcDbEntity
  8
Object
100
AcDbLine
 10
11.47777777777778
 20
17.56222222222222
 30
0.0
 11
11.45555555555555
 21
17.56888888888889
 31
0.0
  0
LINE
  5
813
330
18
100
AcDbEntity
  8
Object
100
AcDbLine
 10
11.45555555555555
 20
17.56888888888889
 30
0.0
 11
11.43333333333333
 21
17.57
 31
0.0
  0
LINE
  5
814
330
18
100
AcDbEntity
  8
Object
100
AcDbLine
 10
11.43333333333333
 20
17.57
 30
0.0
 11
11.07666666666666
 21
17.57
 31
0.0
  0
LINE
  5
815
330
18
100
AcDbEntity
  8
Object
100
AcDbLine
 10
17.69666666666666
 20
16.65777777777778
 30
0.0
 11
17.69666666666666
 21
16.67555555555555
 31
0.0
  0
LINE
  5
816
330
18
100
AcDbEntity
  8
Object
100
AcDbLine
 10
17.69444444444444
 20
16.64444444444444
 30
0.0
 11
17.69333333333333
 21
16.63555555555555
 31
0.0
  0
LINE
  5
817
330
18
100
AcDbEntity
  8
Object
100
AcDbLine
 10
17.69333333333333
 20
16.63555555555555
 30
0.0
 11
17.69222222222222
 21
16.63333333333333
 31
0.0
  0
LINE
  5
818
330
18
100
AcDbEntity
  8
Object
100
AcDbLine
 10
17.69222222222222
 20
16.63333333333333
 30
0.0
 11
11.25555555555555
 21
16.63333333333333
 31
0.0
  0
LINE
  5
819
330
18
100
AcDbEntity
  8
Object
100
AcDbLine
 10
17.69444444444444
 20
16.64444444444444
 30
0.0
 11
17.69666666666666
 21
16.65777777777778
 31
0.0
  0
LINE
  5
81A
330
18
100
AcDbEntity
  8
Object
100
AcDbLine
 10
17.69666666666666
 20
16.67555555555555
 30
0.0
 11
17.69666666666666
 21
16.69444444444444
 31
0.0
  0
LINE
  5
81B
330
18
100
AcDbEntity
  8
Object
100
AcDbLine
 10
17.69666666666666
 20
16.69444444444444
 30
0.0
 11
11.29888888888889
 21
16.69444444444444
 31
0.0
  0
LINE
  5
81C
330
18
100
AcDbEntity
  8
Object
100
AcDbLine
 10
4.433333333333333
 20
17.57
 30
0.0
 11
4.429999999999999
 21
17.56666666666666
 31
0.0
  0
LINE
  5
81D
330
18
100
AcDbEntity
  8
Object
100
AcDbLine
 10
4.429999999999999
 20
17.56666666666666
 30
0.0
 11
4.426666666666666
 21
17.55666666666667
 31
0.0
  0
LINE
  5
81E
330
18
100
AcDbEntity
  8
Object
100
AcDbLine
 10
4.426666666666666
 20
17.55666666666667
 30
0.0
 11
4.425555555555555
 21
17.54777777777778
 31
0.0
  0
LINE
  5
81F
330
18
100
AcDbEntity
  8
Object
100
AcDbLine
 10
4.425555555555555
 20
17.54777777777778
 30
0.0
 11
4.423333333333332
 21
17.53777777777777
 31
0.0
  0
LINE
  5
820
330
18
100
AcDbEntity
  8
Object
100
AcDbLine
 10
4.423333333333332
 20
17.53777777777777
 30
0.0
 11
4.422222222222222
 21
17.52555555555555
 31
0.0
  0
LINE
  5
821
330
18
100
AcDbEntity
  8
Object
100
AcDbLine
 10
4.422222222222222
 20
17.52555555555555
 30
0.0
 11
4.421111111111111
 21
17.51222222222222
 31
0.0
  0
LINE
  5
822
330
18
100
AcDbEntity
  8
Object
100
AcDbLine
 10
4.421111111111111
 20
17.51222222222222
 30
0.0
 11
4.418888888888888
 21
17.49666666666666
 31
0.0
  0
LINE
  5
823
330
18
100
AcDbEntity
  8
Object
100
AcDbLine
 10
4.418888888888888
 20
17.49666666666666
 30
0.0
 11
4.417777777777777
 21
17.48
 31
0.0
  0
LINE
  5
824
330
18
100
AcDbEntity
  8
Object
100
AcDbLine
 10
4.417777777777777
 20
17.48
 30
0.0
 11
4.416666666666666
 21
17.46222222222222
 31
0.0
  0
LINE
  5
825
330
18
100
AcDbEntity
  8
Object
100
AcDbLine
 10
4.416666666666666
 20
17.46222222222222
 30
0.0
 11
4.415555555555555
 21
17.44333333333333
 31
0.0
  0
LINE
  5
826
330
18
100
AcDbEntity
  8
Object
100
AcDbLine
 10
4.415555555555555
 20
17.44333333333333
 30
0.0
 11
4.413333333333333
 21
17.40333333333333
 31
0.0
  0
LINE
  5
827
330
18
100
AcDbEntity
  8
Object
100
AcDbLine
 10
4.413333333333333
 20
17.40333333333333
 30
0.0
 11
4.412222222222221
 21
17.36333333333333
 31
0.0
  0
LINE
  5
828
330
18
100
AcDbEntity
  8
Object
100
AcDbLine
 10
4.433333333333333
 20
17.57
 30
0.0
 11
4.52111111111111
 21
17.57
 31
0.0
  0
LINE
  5
829
330
18
100
AcDbEntity
  8
Object
100
AcDbLine
 10
4.52111111111111
 20
17.57
 30
0.0
 11
4.518888888888889
 21
17.56666666666666
 31
0.0
  0
LINE
  5
82A
330
18
100
AcDbEntity
  8
Object
100
AcDbLine
 10
4.518888888888889
 20
17.56666666666666
 30
0.0
 11
4.515555555555555
 21
17.55666666666667
 31
0.0
  0
LINE
  5
82B
330
18
100
AcDbEntity
  8
Object
100
AcDbLine
 10
4.515555555555555
 20
17.55666666666667
 30
0.0
 11
4.514444444444444
 21
17.54777777777778
 31
0.0
  0
LINE
  5
82C
330
18
100
AcDbEntity
  8
Object
100
AcDbLine
 10
4.514444444444444
 20
17.54777777777778
 30
0.0
 11
4.513333333333333
 21
17.53777777777777
 31
0.0
  0
LINE
  5
82D
330
18
100
AcDbEntity
  8
Object
100
AcDbLine
 10
4.513333333333333
 20
17.53777777777777
 30
0.0
 11
4.512222222222222
 21
17.52555555555555
 31
0.0
  0
LINE
  5
82E
330
18
100
AcDbEntity
  8
Object
100
AcDbLine
 10
4.512222222222222
 20
17.52555555555555
 30
0.0
 11
4.511111111111111
 21
17.51222222222222
 31
0.0
  0
LINE
  5
82F
330
18
100
AcDbEntity
  8
Object
100
AcDbLine
 10
4.511111111111111
 20
17.51222222222222
 30
0.0
 11
4.509999999999999
 21
17.49666666666666
 31
0.0
  0
LINE
  5
830
330
18
100
AcDbEntity
  8
Object
100
AcDbLine
 10
4.509999999999999
 20
17.49666666666666
 30
0.0
 11
4.509999999999999
 21
17.48
 31
0.0
  0
LINE
  5
831
330
18
100
AcDbEntity
  8
Object
100
AcDbLine
 10
4.509999999999999
 20
17.48
 30
0.0
 11
4.508888888888888
 21
17.46222222222222
 31
0.0
  0
LINE
  5
832
330
18
100
AcDbEntity
  8
Object
100
AcDbLine
 10
4.508888888888888
 20
17.46222222222222
 30
0.0
 11
4.508888888888888
 21
17.44333333333333
 31
0.0
  0
LINE
  5
833
330
18
100
AcDbEntity
  8
Object
100
AcDbLine
 10
4.508888888888888
 20
17.44333333333333
 30
0.0
 11
4.507777777777778
 21
17.40333333333333
 31
0.0
  0
LINE
  5
834
330
18
100
AcDbEntity
  8
Object
100
AcDbLine
 10
4.507777777777778
 20
17.40333333333333
 30
0.0
 11
4.507777777777778
 21
17.36333333333333
 31
0.0
  0
LINE
  5
835
330
18
100
AcDbEntity
  8
Object
100
AcDbLine
 10
17.12777777777777
 20
17.57
 30
0.0
 11
17.10444444444444
 21
17.56777777777777
 31
0.0
  0
LINE
  5
836
330
18
100
AcDbEntity
  8
Object
100
AcDbLine
 10
17.10444444444444
 20
17.56777777777777
 30
0.0
 11
17.08111111111111
 21
17.56111111111111
 31
0.0
  0
LINE
  5
837
330
18
100
AcDbEntity
  8
Object
100
AcDbLine
 10
17.08111111111111
 20
17.56111111111111
 30
0.0
 11
17.05888888888889
 21
17.55
 31
0.0
  0
LINE
  5
838
330
18
100
AcDbEntity
  8
Object
100
AcDbLine
 10
17.05888888888889
 20
17.55
 30
0.0
 11
17.03888888888888
 21
17.53333333333333
 31
0.0
  0
LINE
  5
839
330
18
100
AcDbEntity
  8
Object
100
AcDbLine
 10
17.03888888888888
 20
17.53333333333333
 30
0.0
 11
17.02333333333333
 21
17.51333333333333
 31
0.0
  0
LINE
  5
83A
330
18
100
AcDbEntity
  8
Object
100
AcDbLine
 10
17.02333333333333
 20
17.51333333333333
 30
0.0
 11
17.01111111111111
 21
17.49111111111111
 31
0.0
  0
LINE
  5
83B
330
18
100
AcDbEntity
  8
Object
100
AcDbLine
 10
17.01111111111111
 20
17.49111111111111
 30
0.0
 11
17.00444444444444
 21
17.46777777777777
 31
0.0
  0
LINE
  5
83C
330
18
100
AcDbEntity
  8
Object
100
AcDbLine
 10
17.00444444444444
 20
17.46777777777777
 30
0.0
 11
17.00222222222222
 21
17.44555555555555
 31
0.0
  0
LINE
  5
83D
330
18
100
AcDbEntity
  8
Object
100
AcDbLine
 10
18.07777777777778
 20
17.57
 30
0.0
 11
17.99
 21
17.57
 31
0.0
  0
LINE
  5
83E
330
18
100
AcDbEntity
  8
Object
100
AcDbLine
 10
17.99
 20
17.57
 30
0.0
 11
17.79777777777778
 21
17.57
 31
0.0
  0
LINE
  5
83F
330
18
100
AcDbEntity
  8
Object
100
AcDbLine
 10
17.79777777777778
 20
17.57
 30
0.0
 11
17.78888888888889
 21
17.57
 31
0.0
  0
LINE
  5
840
330
18
100
AcDbEntity
  8
Object
100
AcDbLine
 10
17.78888888888889
 20
17.57
 30
0.0
 11
17.77333333333333
 21
17.57
 31
0.0
  0
LINE
  5
841
330
18
100
AcDbEntity
  8
Object
100
AcDbLine
 10
17.77333333333333
 20
17.57
 30
0.0
 11
17.74888888888889
 21
17.57
 31
0.0
  0
LINE
  5
842
330
18
100
AcDbEntity
  8
Object
100
AcDbLine
 10
17.74888888888889
 20
17.57
 30
0.0
 11
17.71888888888889
 21
17.57
 31
0.0
  0
LINE
  5
843
330
18
100
AcDbEntity
  8
Object
100
AcDbLine
 10
17.71888888888889
 20
17.57
 30
0.0
 11
17.68111111111111
 21
17.57
 31
0.0
  0
LINE
  5
844
330
18
100
AcDbEntity
  8
Object
100
AcDbLine
 10
17.68111111111111
 20
17.57
 30
0.0
 11
17.63777777777778
 21
17.57
 31
0.0
  0
LINE
  5
845
330
18
100
AcDbEntity
  8
Object
100
AcDbLine
 10
17.63777777777778
 20
17.57
 30
0.0
 11
17.58888888888889
 21
17.57
 31
0.0
  0
LINE
  5
846
330
18
100
AcDbEntity
  8
Object
100
AcDbLine
 10
17.58888888888889
 20
17.57
 30
0.0
 11
17.53666666666666
 21
17.57
 31
0.0
  0
LINE
  5
847
330
18
100
AcDbEntity
  8
Object
100
AcDbLine
 10
17.53666666666666
 20
17.57
 30
0.0
 11
17.47888888888889
 21
17.57
 31
0.0
  0
LINE
  5
848
330
18
100
AcDbEntity
  8
Object
100
AcDbLine
 10
17.47888888888889
 20
17.57
 30
0.0
 11
17.41888888888889
 21
17.57
 31
0.0
  0
LINE
  5
849
330
18
100
AcDbEntity
  8
Object
100
AcDbLine
 10
17.41888888888889
 20
17.57
 30
0.0
 11
17.35666666666666
 21
17.57
 31
0.0
  0
LINE
  5
84A
330
18
100
AcDbEntity
  8
Object
100
AcDbLine
 10
17.35666666666666
 20
17.57
 30
0.0
 11
17.29444444444444
 21
17.57
 31
0.0
  0
LINE
  5
84B
330
18
100
AcDbEntity
  8
Object
100
AcDbLine
 10
17.29444444444444
 20
17.57
 30
0.0
 11
17.12777777777777
 21
17.57
 31
0.0
  0
LINE
  5
84C
330
18
100
AcDbEntity
  8
Object
100
AcDbLine
 10
4.818888888888888
 20
16.63333333333333
 30
0.0
 11
4.817777777777777
 21
16.63555555555555
 31
0.0
  0
LINE
  5
84D
330
18
100
AcDbEntity
  8
Object
100
AcDbLine
 10
4.817777777777777
 20
16.63555555555555
 30
0.0
 11
4.816666666666666
 21
16.64444444444444
 31
0.0
  0
LINE
  5
84E
330
18
100
AcDbEntity
  8
Object
100
AcDbLine
 10
4.816666666666666
 20
16.64444444444444
 30
0.0
 11
4.814444444444444
 21
16.65777777777778
 31
0.0
  0
LINE
  5
84F
330
18
100
AcDbEntity
  8
Object
100
AcDbLine
 10
4.813333333333333
 20
16.69444444444444
 30
0.0
 11
4.814444444444444
 21
16.67555555555555
 31
0.0
  0
LINE
  5
850
330
18
100
AcDbEntity
  8
Object
100
AcDbLine
 10
4.814444444444444
 20
16.67555555555555
 30
0.0
 11
4.814444444444444
 21
16.65777777777778
 31
0.0
  0
LINE
  5
851
330
18
100
AcDbEntity
  8
Object
100
AcDbLine
 10
4.818888888888888
 20
16.63333333333333
 30
0.0
 11
4.763333333333333
 21
16.63333333333333
 31
0.0
  0
LINE
  5
852
330
18
100
AcDbEntity
  8
Object
100
AcDbLine
 10
4.763333333333333
 20
16.63333333333333
 30
0.0
 11
4.708888888888888
 21
16.63333333333333
 31
0.0
  0
LINE
  5
853
330
18
100
AcDbEntity
  8
Object
100
AcDbLine
 10
4.708888888888888
 20
16.63333333333333
 30
0.0
 11
4.657777777777777
 21
16.63333333333333
 31
0.0
  0
LINE
  5
854
330
18
100
AcDbEntity
  8
Object
100
AcDbLine
 10
4.657777777777777
 20
16.63333333333333
 30
0.0
 11
4.608888888888889
 21
16.63333333333333
 31
0.0
  0
LINE
  5
855
330
18
100
AcDbEntity
  8
Object
100
AcDbLine
 10
4.608888888888889
 20
16.63333333333333
 30
0.0
 11
4.564444444444444
 21
16.63333333333333
 31
0.0
  0
LINE
  5
856
330
18
100
AcDbEntity
  8
Object
100
AcDbLine
 10
4.564444444444444
 20
16.63333333333333
 30
0.0
 11
4.525555555555555
 21
16.63333333333333
 31
0.0
  0
LINE
  5
857
330
18
100
AcDbEntity
  8
Object
100
AcDbLine
 10
4.525555555555555
 20
16.63333333333333
 30
0.0
 11
4.492222222222221
 21
16.63333333333333
 31
0.0
  0
LINE
  5
858
330
18
100
AcDbEntity
  8
Object
100
AcDbLine
 10
4.492222222222221
 20
16.63333333333333
 30
0.0
 11
4.464444444444444
 21
16.63333333333333
 31
0.0
  0
LINE
  5
859
330
18
100
AcDbEntity
  8
Object
100
AcDbLine
 10
4.464444444444444
 20
16.63333333333333
 30
0.0
 11
4.443333333333333
 21
16.63333333333333
 31
0.0
  0
LINE
  5
85A
330
18
100
AcDbEntity
  8
Object
100
AcDbLine
 10
4.443333333333333
 20
16.63333333333333
 30
0.0
 11
4.428888888888889
 21
16.63333333333333
 31
0.0
  0
LINE
  5
85B
330
18
100
AcDbEntity
  8
Object
100
AcDbLine
 10
4.422222222222222
 20
16.63333333333333
 30
0.0
 11
4.411111111111111
 21
16.63333333333333
 31
0.0
  0
LINE
  5
85C
330
18
100
AcDbEntity
  8
Object
100
AcDbLine
 10
4.428888888888889
 20
16.63333333333333
 30
0.0
 11
4.422222222222222
 21
16.63333333333333
 31
0.0
  0
LINE
  5
85D
330
18
100
AcDbEntity
  8
Object
100
AcDbLine
 10
4.422222222222222
 20
16.63333333333333
 30
0.0
 11
4.411111111111111
 21
16.63333333333333
 31
0.0
  0
LINE
  5
85E
330
18
100
AcDbEntity
  8
Object
100
AcDbLine
 10
4.411111111111111
 20
16.63333333333333
 30
0.0
 11
4.403333333333333
 21
16.63555555555555
 31
0.0
  0
LINE
  5
85F
330
18
100
AcDbEntity
  8
Object
100
AcDbLine
 10
4.403333333333333
 20
16.63555555555555
 30
0.0
 11
4.411111111111111
 21
16.63333333333333
 31
0.0
  0
LINE
  5
860
330
18
100
AcDbEntity
  8
Object
100
AcDbLine
 10
4.39111111111111
 20
16.64111111111111
 30
0.0
 11
4.403333333333333
 21
16.63555555555555
 31
0.0
  0
LINE
  5
861
330
18
100
AcDbEntity
  8
Object
100
AcDbLine
 10
4.403333333333333
 20
16.63555555555555
 30
0.0
 11
4.39111111111111
 21
16.64111111111111
 31
0.0
  0
LINE
  5
862
330
18
100
AcDbEntity
  8
Object
100
AcDbLine
 10
4.39111111111111
 20
16.64111111111111
 30
0.0
 11
4.385555555555555
 21
16.64444444444444
 31
0.0
  0
LINE
  5
863
330
18
100
AcDbEntity
  8
Object
100
AcDbLine
 10
4.385555555555555
 20
16.64444444444444
 30
0.0
 11
4.39111111111111
 21
16.64111111111111
 31
0.0
  0
LINE
  5
864
330
18
100
AcDbEntity
  8
Object
100
AcDbLine
 10
4.374444444444444
 20
16.65555555555555
 30
0.0
 11
4.385555555555555
 21
16.64444444444444
 31
0.0
  0
LINE
  5
865
330
18
100
AcDbEntity
  8
Object
100
AcDbLine
 10
4.385555555555555
 20
16.64444444444444
 30
0.0
 11
4.374444444444444
 21
16.65555555555555
 31
0.0
  0
LINE
  5
866
330
18
100
AcDbEntity
  8
Object
100
AcDbLine
 10
4.374444444444444
 20
16.65555555555555
 30
0.0
 11
4.372222222222221
 21
16.65777777777778
 31
0.0
  0
LINE
  5
867
330
18
100
AcDbEntity
  8
Object
100
AcDbLine
 10
4.372222222222221
 20
16.65777777777778
 30
0.0
 11
4.374444444444444
 21
16.65555555555555
 31
0.0
  0
LINE
  5
868
330
18
100
AcDbEntity
  8
Object
100
AcDbLine
 10
4.363333333333333
 20
16.67444444444444
 30
0.0
 11
4.372222222222221
 21
16.65777777777778
 31
0.0
  0
LINE
  5
869
330
18
100
AcDbEntity
  8
Object
100
AcDbLine
 10
4.372222222222221
 20
16.65777777777778
 30
0.0
 11
4.363333333333333
 21
16.67444444444444
 31
0.0
  0
LINE
  5
86A
330
18
100
AcDbEntity
  8
Object
100
AcDbLine
 10
4.363333333333333
 20
16.67444444444444
 30
0.0
 11
4.358888888888889
 21
16.69444444444444
 31
0.0
  0
LINE
  5
86B
330
18
100
AcDbEntity
  8
Object
100
AcDbLine
 10
4.358888888888889
 20
16.69444444444444
 30
0.0
 11
4.363333333333333
 21
16.67444444444444
 31
0.0
  0
LINE
  5
86C
330
18
100
AcDbEntity
  8
Object
100
AcDbLine
 10
18.09555555555555
 20
17.44333333333333
 30
0.0
 11
18.09777777777778
 21
17.40333333333333
 31
0.0
  0
LINE
  5
86D
330
18
100
AcDbEntity
  8
Object
100
AcDbLine
 10
18.09777777777778
 20
17.40333333333333
 30
0.0
 11
18.09888888888889
 21
17.36333333333333
 31
0.0
  0
LINE
  5
86E
330
18
100
AcDbEntity
  8
Object
100
AcDbLine
 10
18.09333333333333
 20
17.48
 30
0.0
 11
18.09444444444444
 21
17.46222222222222
 31
0.0
  0
LINE
  5
86F
330
18
100
AcDbEntity
  8
Object
100
AcDbLine
 10
18.09444444444444
 20
17.46222222222222
 30
0.0
 11
18.09555555555555
 21
17.44333333333333
 31
0.0
  0
LINE
  5
870
330
18
100
AcDbEntity
  8
Object
100
AcDbLine
 10
18.09
 20
17.51222222222222
 30
0.0
 11
18.09222222222222
 21
17.49666666666666
 31
0.0
  0
LINE
  5
871
330
18
100
AcDbEntity
  8
Object
100
AcDbLine
 10
18.09222222222222
 20
17.49666666666666
 30
0.0
 11
18.09333333333333
 21
17.48
 31
0.0
  0
LINE
  5
872
330
18
100
AcDbEntity
  8
Object
100
AcDbLine
 10
18.09
 20
17.51222222222222
 30
0.0
 11
18.08888888888889
 21
17.52555555555555
 31
0.0
  0
LINE
  5
873
330
18
100
AcDbEntity
  8
Object
100
AcDbLine
 10
18.08888888888889
 20
17.52555555555555
 30
0.0
 11
18.08666666666666
 21
17.53777777777777
 31
0.0
  0
LINE
  5
874
330
18
100
AcDbEntity
  8
Object
100
AcDbLine
 10
18.08666666666666
 20
17.53777777777777
 30
0.0
 11
18.08555555555555
 21
17.54777777777778
 31
0.0
  0
LINE
  5
875
330
18
100
AcDbEntity
  8
Object
100
AcDbLine
 10
18.08555555555555
 20
17.54777777777778
 30
0.0
 11
18.08444444444444
 21
17.55666666666667
 31
0.0
  0
LINE
  5
876
330
18
100
AcDbEntity
  8
Object
100
AcDbLine
 10
18.08444444444444
 20
17.55666666666667
 30
0.0
 11
18.08111111111111
 21
17.56666666666666
 31
0.0
  0
LINE
  5
877
330
18
100
AcDbEntity
  8
Object
100
AcDbLine
 10
18.08111111111111
 20
17.56666666666666
 30
0.0
 11
18.07777777777778
 21
17.57
 31
0.0
  0
LINE
  5
878
330
18
100
AcDbEntity
  8
Object
100
AcDbLine
 10
18.07777777777778
 20
17.57
 30
0.0
 11
17.99
 21
17.57
 31
0.0
  0
LINE
  5
879
330
18
100
AcDbEntity
  8
Object
100
AcDbLine
 10
15.62777777777777
 20
17.57
 30
0.0
 11
13.82333333333333
 21
17.57
 31
0.0
  0
LINE
  5
87A
330
18
100
AcDbEntity
  8
Object
100
AcDbLine
 10
18.08888888888889
 20
16.63333333333333
 30
0.0
 11
18.08222222222222
 21
16.63333333333333
 31
0.0
  0
LINE
  5
87B
330
18
100
AcDbEntity
  8
Object
100
AcDbLine
 10
18.08222222222222
 20
16.63333333333333
 30
0.0
 11
18.06777777777778
 21
16.63333333333333
 31
0.0
  0
LINE
  5
87C
330
18
100
AcDbEntity
  8
Object
100
AcDbLine
 10
18.06777777777778
 20
16.63333333333333
 30
0.0
 11
18.04666666666667
 21
16.63333333333333
 31
0.0
  0
LINE
  5
87D
330
18
100
AcDbEntity
  8
Object
100
AcDbLine
 10
18.04666666666667
 20
16.63333333333333
 30
0.0
 11
18.01888888888889
 21
16.63333333333333
 31
0.0
  0
LINE
  5
87E
330
18
100
AcDbEntity
  8
Object
100
AcDbLine
 10
18.01888888888889
 20
16.63333333333333
 30
0.0
 11
17.98555555555555
 21
16.63333333333333
 31
0.0
  0
LINE
  5
87F
330
18
100
AcDbEntity
  8
Object
100
AcDbLine
 10
17.98555555555555
 20
16.63333333333333
 30
0.0
 11
17.94666666666666
 21
16.63333333333333
 31
0.0
  0
LINE
  5
880
330
18
100
AcDbEntity
  8
Object
100
AcDbLine
 10
17.94666666666666
 20
16.63333333333333
 30
0.0
 11
17.90222222222222
 21
16.63333333333333
 31
0.0
  0
LINE
  5
881
330
18
100
AcDbEntity
  8
Object
100
AcDbLine
 10
17.90222222222222
 20
16.63333333333333
 30
0.0
 11
17.85333333333333
 21
16.63333333333333
 31
0.0
  0
LINE
  5
882
330
18
100
AcDbEntity
  8
Object
100
AcDbLine
 10
17.85333333333333
 20
16.63333333333333
 30
0.0
 11
17.80222222222222
 21
16.63333333333333
 31
0.0
  0
LINE
  5
883
330
18
100
AcDbEntity
  8
Object
100
AcDbLine
 10
17.80222222222222
 20
16.63333333333333
 30
0.0
 11
17.74777777777778
 21
16.63333333333333
 31
0.0
  0
LINE
  5
884
330
18
100
AcDbEntity
  8
Object
100
AcDbLine
 10
17.74777777777778
 20
16.63333333333333
 30
0.0
 11
17.69222222222222
 21
16.63333333333333
 31
0.0
  0
LINE
  5
885
330
18
100
AcDbEntity
  8
Object
100
AcDbLine
 10
17.63111111111111
 20
16.63333333333333
 30
0.0
 11
17.64
 21
16.63333333333333
 31
0.0
  0
LINE
  5
886
330
18
100
AcDbEntity
  8
Object
100
AcDbLine
 10
17.69222222222222
 20
16.63333333333333
 30
0.0
 11
11.25555555555555
 21
16.63333333333333
 31
0.0
  0
LINE
  5
887
330
18
100
AcDbEntity
  8
Object
100
AcDbLine
 10
11.25555555555555
 20
16.63333333333333
 30
0.0
 11
4.818888888888888
 21
16.63333333333333
 31
0.0
  0
LINE
  5
888
330
18
100
AcDbEntity
  8
Object
100
AcDbLine
 10
4.818888888888888
 20
16.63333333333333
 30
0.0
 11
4.763333333333333
 21
16.63333333333333
 31
0.0
  0
LINE
  5
889
330
18
100
AcDbEntity
  8
Object
100
AcDbLine
 10
4.763333333333333
 20
16.63333333333333
 30
0.0
 11
4.708888888888888
 21
16.63333333333333
 31
0.0
  0
LINE
  5
88A
330
18
100
AcDbEntity
  8
Object
100
AcDbLine
 10
4.708888888888888
 20
16.63333333333333
 30
0.0
 11
4.657777777777777
 21
16.63333333333333
 31
0.0
  0
LINE
  5
88B
330
18
100
AcDbEntity
  8
Object
100
AcDbLine
 10
4.657777777777777
 20
16.63333333333333
 30
0.0
 11
4.608888888888889
 21
16.63333333333333
 31
0.0
  0
LINE
  5
88C
330
18
100
AcDbEntity
  8
Object
100
AcDbLine
 10
4.608888888888889
 20
16.63333333333333
 30
0.0
 11
4.564444444444444
 21
16.63333333333333
 31
0.0
  0
LINE
  5
88D
330
18
100
AcDbEntity
  8
Object
100
AcDbLine
 10
4.564444444444444
 20
16.63333333333333
 30
0.0
 11
4.525555555555555
 21
16.63333333333333
 31
0.0
  0
LINE
  5
88E
330
18
100
AcDbEntity
  8
Object
100
AcDbLine
 10
4.525555555555555
 20
16.63333333333333
 30
0.0
 11
4.492222222222221
 21
16.63333333333333
 31
0.0
  0
LINE
  5
88F
330
18
100
AcDbEntity
  8
Object
100
AcDbLine
 10
4.492222222222221
 20
16.63333333333333
 30
0.0
 11
4.464444444444444
 21
16.63333333333333
 31
0.0
  0
LINE
  5
890
330
18
100
AcDbEntity
  8
Object
100
AcDbLine
 10
4.464444444444444
 20
16.63333333333333
 30
0.0
 11
4.443333333333333
 21
16.63333333333333
 31
0.0
  0
LINE
  5
891
330
18
100
AcDbEntity
  8
Object
100
AcDbLine
 10
4.443333333333333
 20
16.63333333333333
 30
0.0
 11
4.428888888888889
 21
16.63333333333333
 31
0.0
  0
LINE
  5
892
330
18
100
AcDbEntity
  8
Object
100
AcDbLine
 10
4.422222222222222
 20
16.63333333333333
 30
0.0
 11
4.428888888888889
 21
16.63333333333333
 31
0.0
  0
DIMENSION
  5
893
330
18
100
AcDbEntity
  8
Dimension
100
AcDbDimension
  2
*D0
 10
18.15222222222222
 20
11.50354169707319
 30
0.0
 11
11.25555555555555
 21
11.50354169707319
 31
0.0
 70
    32
 71
     5
 42
13.79333333333333
  3
STANDARD
100
AcDbAlignedDimension
 13
4.358888888888889
 23
9.151111111111111
 33
0.0
 14
18.15222222222222
 24
9.151111111111111
 34
0.0
100
AcDbRotatedDimension
  0
DIMENSION
  5
8A1
330
18
100
AcDbEntity
  8
Dimension
100
AcDbDimension
  2
*D1
 10
26.49469749517582
 20
4.959999999999999
 30
0.0
 11
26.49469749517582
 21
7.602222222222225
 31
0.0
 70
    32
 71
     5
 42
5.284444444444442
  3
STANDARD
100
AcDbAlignedDimension
 13
27.58222222222222
 23
10.24444444444444
 33
0.0
 14
27.59777777777778
 24
4.959999999999999
 34
0.0
 50
90.0
100
AcDbRotatedDimension
  0
DIMENSION
  5
8AF
330
18
100
AcDbEntity
  8
Dimension
100
AcDbDimension
  2
*D2
 10
19.55471035681982
 20
17.57
 30
0.0
 11
19.55471035681982
 21
17.10166666666667
 31
0.0
 70
    32
 71
     5
 42
0.9366666666666674
  3
STANDARD
100
AcDbAlignedDimension
 13
18.1
 23
16.63333333333333
 33
0.0
 14
18.07777777777778
 24
17.57
 34
0.0
 50
90.0
100
AcDbRotatedDimension
  0
ENDSEC
  0
SECTION
  2
OBJECTS
  0
DICTIONARY
  5
C
330
0
100
AcDbDictionary
281
     1
  3
ACAD_COLOR
350
126
  3
ACAD_GROUP
350
D
  3
ACAD_LAYOUT
350
129
  3
ACAD_MATERIAL
350
125
  3
ACAD_MLINESTYLE
350
1B
  3
ACAD_PLOTSETTINGS
350
12A
  3
ACAD_PLOTSTYLENAME
350
123
  3
ACAD_TABLESTYLE
350
127
  3
ACDBHEADERROUNDTRIPXREC
350
8CE
  3
AcDbVariableDictionary
350
156
  3
ASE_INDEX_DICTIONARY
350
160
  0
DICTIONARY
  5
16C
330
2
100
AcDbDictionary
280
     1
281
     1
  3
ACAD_LAYERFILTERS
360
170
  3
ACLYDICTIONARY
360
16F
  0
DICTIONARY
  5
126
102
{ACAD_REACTORS
330
C
102
}
330
C
100
AcDbDictionary
281
     1
  0
DICTIONARY
  5
D
102
{ACAD_REACTORS
330
C
102
}
330
C
100
AcDbDictionary
281
     1
  0
DICTIONARY
  5
129
102
{ACAD_REACTORS
330
C
102
}
330
C
100
AcDbDictionary
281
     1
  3
Layout1
350
12C
  3
Model
350
12B
  0
DICTIONARY
  5
125
102
{ACAD_REACTORS
330
C
102
}
330
C
100
AcDbDictionary
281
     1
  0
DICTIONARY
  5
1B
102
{ACAD_REACTORS
330
C
102
}
330
C
100
AcDbDictionary
281
     1
  3
STANDARD
350
1C
  0
DICTIONARY
  5
12A
102
{ACAD_REACTORS
330
C
102
}
330
C
100
AcDbDictionary
281
     1
  0
ACDBDICTIONARYWDFLT
  5
123
102
{ACAD_REACTORS
330
C
102
}
330
C
100
AcDbDictionary
281
     1
  3
Normal
350
124
100
AcDbDictionaryWithDefault
340
124
  0
DICTIONARY
  5
127
102
{ACAD_REACTORS
330
C
102
}
330
C
100
AcDbDictionary
281
     1
  3
Standard
350
128
  0
DICTIONARY
  5
8CE
102
{ACAD_REACTORS
330
C
102
}
330
C
100
AcDbDictionary
281
     1
  0
DICTIONARY
  5
156
102
{ACAD_REACTORS
330
C
102
}
330
C
100
AcDbDictionary
281
     1
  3
CTABLESTYLE
350
157
  3
DIMASSOC
350
8CB
  3
PROJECTNAME
350
8CC
  0
DICTIONARY
  5
160
102
{ACAD_REACTORS
330
C
102
}
330
C
100
AcDbDictionary
281
     1
  3
ASEBlockHierarchyIndexRecord
350
162
1001
DCO15
1040
1529148088.992
  0
DICTIONARY
  5
170
102
{ACAD_REACTORS
330
16C
102
}
330
16C
100
AcDbDictionary
281
     1
  0
DICTIONARY
  5
16F
102
{ACAD_REACTORS
330
16C
102
}
330
16C
100
AcDbDictionary
281
     1
1001
ACAD
1000
<All
  0
LAYOUT
  5
12C
102
{ACAD_XDICTIONARY
360
8D1
102
}
102
{ACAD_REACTORS
330
129
102
}
330
129
100
AcDbPlotSettings
  1

  2
\\RSENG\RSplotter4NT
  4

  6

 40
0.0
 41
0.0
 42
0.0
 43
0.0
 44
0.0
 45
0.0
 46
0.0
 47
0.0
 48
0.0
 49
0.0
140
0.0
141
0.0
142
1.0
143
1.0
 70
   688
 72
     0
 73
     0
 74
     5
  7
Symantec Fax Starter Edition
 75
    16
147
1.0
148
0.0
149
0.0
100
AcDbLayout
  1
Layout1
 70
     1
 71
     1
 10
0.0
 20
0.0
 11
12.0
 21
9.0
 12
0.0
 22
0.0
 32
0.0
 14
1.000000000000000E+20
 24
1.000000000000000E+20
 34
1.000000000000000E+20
 15
-1.000000000000000E+20
 25
-1.000000000000000E+20
 35
-1.000000000000000E+20
146
0.0
 13
0.0
 23
0.0
 33
0.0
 16
1.0
 26
0.0
 36
0.0
 17
0.0
 27
1.0
 37
0.0
 76
     0
330
15
  0
LAYOUT
  5
12B
102
{ACAD_XDICTIONARY
360
8CF
102
}
102
{ACAD_REACTORS
330
129
102
}
330
129
100
AcDbPlotSettings
  1

  2
\\RSENG\RSplotter4NT
  4

  6

 40
0.0
 41
0.0
 42
0.0
 43
0.0
 44
0.0
 45
0.0
 46
0.0
 47
0.0
 48
0.0
 49
0.0
140
0.0
141
0.0
142
1.0
143
1.0
 70
  1712
 72
     0
 73
     0
 74
     0
  7
Symantec Fax Starter Edition
 75
     0
147
1.0
148
0.0
149
0.0
100
AcDbLayout
  1
Model
 70
     1
 71
     0
 10
0.0
 20
0.0
 11
12.0
 21
9.0
 12
0.0
 22
0.0
 32
0.0
 14
0.0
 24
0.0
 34
0.0
 15
0.0
 25
0.0
 35
0.0
146
0.0
 13
0.0
 23
0.0
 33
0.0
 16
1.0
 26
0.0
 36
0.0
 17
0.0
 27
1.0
 37
0.0
 76
     0
330
18
  0
MLINESTYLE
  5
1C
102
{ACAD_REACTORS
330
1B
102
}
330
1B
100
AcDbMlineStyle
  2
STANDARD
 70
     0
  3

 62
   256
 51
90.0
 52
90.0
 71
     2
 49
0.5
 62
   256
  6
BYLAYER
 49
-0.5
 62
   256
  6
BYLAYER
  0
ACDBPLACEHOLDER
  5
124
102
{ACAD_REACTORS
330
123
102
}
330
123
  0
TABLESTYLE
  5
128
102
{ACAD_REACTORS
330
127
102
}
330
127
100
AcDbTableStyle
  3
Standard
 70
     0
 71
     0
 40
0.06
 41
0.06
280
     0
281
     0
  7
STANDARD
140
0.18
170
     2
 62
     0
 63
     7
283
     0
274
    -2
284
     1
 64
     0
275
    -2
285
     1
 65
     0
276
    -2
286
     1
 66
     0
277
    -2
287
     1
 67
     0
278
    -2
288
     1
 68
     0
279
    -2
289
     1
 69
     0
  7
STANDARD
140
0.25
170
     5
 62
     0
 63
     7
283
     0
274
    -2
284
     1
 64
     0
275
    -2
285
     1
 65
     0
276
    -2
286
     1
 66
     0
277
    -2
287
     1
 67
     0
278
    -2
288
     1
 68
     0
279
    -2
289
     1
 69
     0
  7
STANDARD
140
0.18
170
     5
 62
     0
 63
     7
283
     0
274
    -2
284
     1
 64
     0
275
    -2
285
     1
 65
     0
276
    -2
286
     1
 66
     0
277
    -2
287
     1
 67
     0
278
    -2
288
     1
 68
     0
279
    -2
289
     1
 69
     0
  0
DICTIONARYVAR
  5
157
102
{ACAD_REACTORS
330
156
102
}
330
156
100
DictionaryVariables
280
     0
  1
STANDARD
  0
DICTIONARYVAR
  5
8CB
102
{ACAD_REACTORS
330
156
102
}
330
156
100
DictionaryVariables
280
     0
  1
1
  0
DICTIONARYVAR
  5
8CC
102
{ACAD_REACTORS
330
156
102
}
330
156
100
DictionaryVariables
280
     0
  1

  0
XRECORD
  5
162
102
{ACAD_REACTORS
330
160
102
}
330
160
100
AcDbXrecord
280
     1
  0
DICTIONARY
  5
8D1
330
12C
100
AcDbDictionary
280
     1
281
     1
  3
ACAD_XREC_ROUNDTRIP
360
8D2
  0
DICTIONARY
  5
8CF
330
12B
100
AcDbDictionary
280
     1
281
     1
  3
ACAD_XREC_ROUNDTRIP
360
8D0
  0
XRECORD
  5
8D2
102
{ACAD_REACTORS
330
8D1
102
}
330
8D1
100
AcDbXrecord
280
     1
102
SHADEPLOT
 70
     0
102
SHADEPLOTRESLEVEL
 70
     2
102
SHADEPLOTCUSTOMDPI
 70
   300
  0
XRECORD
  5
8D0
102
{ACAD_REACTORS
330
8CF
102
}
330
8CF
100
AcDbXrecord
280
     1
102
SHADEPLOT
 70
     0
102
SHADEPLOTRESLEVEL
 70
     2
102
SHADEPLOTCUSTOMDPI
 70
   300
  0
ENDSEC
  0
EOF
