  0
SECTION
  2
HEADER
  9
$ACADVER
  1
AC1015
  9
$ACADMAINTVER
 70
    20
  9
$DWGCODEPAGE
  3
ANSI_1252
  9
$INSBASE
 10
0.0
 20
0.0
 30
0.0
  9
$EXTMIN
 10
-0.075
 20
-0.075
 30
0.0
  9
$EXTMAX
 10
22.075
 20
17.075
 30
0.0
  9
$LIMMIN
 10
0.0
 20
0.0
  9
$LIMMAX
 10
12.0
 20
9.0
  9
$ORTHOMODE
 70
     0
  9
$REGENMODE
 70
     1
  9
$FILLMODE
 70
     1
  9
$QTEXTMODE
 70
     0
  9
$MIRRTEXT
 70
     1
  9
$LTSCALE
 40
1.0
  9
$ATTMODE
 70
     1
  9
$TEXTSIZE
 40
0.125
  9
$TRACEWID
 40
0.05
  9
$TEXTSTYLE
  7
STANDARD
  9
$CLAYER
  8
0
  9
$CELTYPE
  6
BYLAYER
  9
$CECOLOR
 62
   256
  9
$CELTSCALE
 40
1.0
  9
$DISPSILH
 70
     0
  9
$DIMSCALE
 40
1.0
  9
$DIMASZ
 40
0.125
  9
$DIMEXO
 40
0.0625
  9
$DIMDLI
 40
0.38
  9
$DIMRND
 40
0.0
  9
$DIMDLE
 40
0.0
  9
$DIMEXE
 40
0.125
  9
$DIMTP
 40
0.0
  9
$DIMTM
 40
0.0
  9
$DIMTXT
 40
0.09
  9
$DIMCEN
 40
0.09
  9
$DIMTSZ
 40
0.0
  9
$DIMTOL
 70
     0
  9
$DIMLIM
 70
     0
  9
$DIMTIH
 70
     1
  9
$DIMTOH
 70
     1
  9
$DIMSE1
 70
     0
  9
$DIMSE2
 70
     0
  9
$DIMTAD
 70
     0
  9
$DIMZIN
 70
     0
  9
$DIMBLK
  1

  9
$DIMASO
 70
     1
  9
$DIMSHO
 70
     1
  9
$DIMPOST
  1

  9
$DIMAPOST
  1
mm
  9
$DIMALT
 70
     1
  9
$DIMALTD
 70
     1
  9
$DIMALTF
 40
25.4
  9
$DIMLFAC
 40
1.0
  9
$DIMTOFL
 70
     0
  9
$DIMTVP
 40
0.0
  9
$DIMTIX
 70
     0
  9
$DIMSOXD
 70
     0
  9
$DIMSAH
 70
     0
  9
$DIMBLK1
  1

  9
$DIMBLK2
  1

  9
$DIMSTYLE
  2
STANDARD
  9
$DIMCLRD
 70
     0
  9
$DIMCLRE
 70
     0
  9
$DIMCLRT
 70
     0
  9
$DIMTFAC
 40
1.0
  9
$DIMGAP
 40
0.09
  9
$DIMJUST
 70
     0
  9
$DIMSD1
 70
     0
  9
$DIMSD2
 70
     0
  9
$DIMTOLJ
 70
     1
  9
$DIMTZIN
 70
     0
  9
$DIMALTZ
 70
     0
  9
$DIMALTTZ
 70
     0
  9
$DIMUPT
 70
     0
  9
$DIMDEC
 70
     2
  9
$DIMTDEC
 70
     2
  9
$DIMALTU
 70
     2
  9
$DIMALTTD
 70
     1
  9
$DIMTXSTY
  7
STANDARD
  9
$DIMAUNIT
 70
     0
  9
$DIMADEC
 70
     0
  9
$DIMALTRND
 40
0.0
  9
$DIMAZIN
 70
     0
  9
$DIMDSEP
 70
    46
  9
$DIMATFIT
 70
     3
  9
$DIMFRAC
 70
     0
  9
$DIMLDRBLK
  1

  9
$DIMLUNIT
 70
     2
  9
$DIMLWD
 70
    -2
  9
$DIMLWE
 70
    -2
  9
$DIMTMOVE
 70
     0
  9
$LUNITS
 70
     2
  9
$LUPREC
 70
     2
  9
$SKETCHINC
 40
0.1
  9
$FILLETRAD
 40
0.5
  9
$AUNITS
 70
     0
  9
$AUPREC
 70
     0
  9
$MENU
  1
.
  9
$ELEVATION
 40
0.0
  9
$PELEVATION
 40
0.0
  9
$THICKNESS
 40
0.0
  9
$LIMCHECK
 70
     0
  9
$CHAMFERA
 40
0.5
  9
$CHAMFERB
 40
0.5
  9
$CHAMFERC
 40
1.0
  9
$CHAMFERD
 40
0.0
  9
$SKPOLY
 70
     0
  9
$TDCREATE
 40
2451681.555436007
  9
$TDUCREATE
 40
2451681.763769340
  9
$TDUPDATE
 40
2454294.613596319
  9
$TDUUPDATE
 40
2454294.821929653
  9
$TDINDWG
 40
0.2140465625
  9
$TDUSRTIMER
 40
0.2140465625
  9
$USRTIMER
 70
     1
  9
$ANGBASE
 50
0.0
  9
$ANGDIR
 70
     0
  9
$PDMODE
 70
     2
  9
$PDSIZE
 40
0.075
  9
$PLINEWID
 40
0.0
  9
$SPLFRAME
 70
     0
  9
$SPLINETYPE
 70
     6
  9
$SPLINESEGS
 70
     8
  9
$HANDSEED
  5
68D
  9
$SURFTAB1
 70
     6
  9
$SURFTAB2
 70
     6
  9
$SURFTYPE
 70
     6
  9
$SURFU
 70
     6
  9
$SURFV
 70
     6
  9
$UCSBASE
  2

  9
$UCSNAME
  2

  9
$UCSORG
 10
0.0
 20
0.0
 30
0.0
  9
$UCSXDIR
 10
1.0
 20
0.0
 30
0.0
  9
$UCSYDIR
 10
0.0
 20
1.0
 30
0.0
  9
$UCSORTHOREF
  2

  9
$UCSORTHOVIEW
 70
     0
  9
$UCSORGTOP
 10
0.0
 20
0.0
 30
0.0
  9
$UCSORGBOTTOM
 10
0.0
 20
0.0
 30
0.0
  9
$UCSORGLEFT
 10
0.0
 20
0.0
 30
0.0
  9
$UCSORGRIGHT
 10
0.0
 20
0.0
 30
0.0
  9
$UCSORGFRONT
 10
0.0
 20
0.0
 30
0.0
  9
$UCSORGBACK
 10
0.0
 20
0.0
 30
0.0
  9
$PUCSBASE
  2

  9
$PUCSNAME
  2

  9
$PUCSORG
 10
0.0
 20
0.0
 30
0.0
  9
$PUCSXDIR
 10
1.0
 20
0.0
 30
0.0
  9
$PUCSYDIR
 10
0.0
 20
1.0
 30
0.0
  9
$PUCSORTHOREF
  2

  9
$PUCSORTHOVIEW
 70
     0
  9
$PUCSORGTOP
 10
0.0
 20
0.0
 30
0.0
  9
$PUCSORGBOTTOM
 10
0.0
 20
0.0
 30
0.0
  9
$PUCSORGLEFT
 10
0.0
 20
0.0
 30
0.0
  9
$PUCSORGRIGHT
 10
0.0
 20
0.0
 30
0.0
  9
$PUCSORGFRONT
 10
0.0
 20
0.0
 30
0.0
  9
$PUCSORGBACK
 10
0.0
 20
0.0
 30
0.0
  9
$USERI1
 70
     0
  9
$USERI2
 70
     0
  9
$USERI3
 70
     0
  9
$USERI4
 70
     0
  9
$USERI5
 70
     0
  9
$USERR1
 40
0.0
  9
$USERR2
 40
0.0
  9
$USERR3
 40
0.0
  9
$USERR4
 40
0.0
  9
$USERR5
 40
0.0
  9
$WORLDVIEW
 70
     1
  9
$SHADEDGE
 70
     3
  9
$SHADEDIF
 70
    70
  9
$TILEMODE
 70
     1
  9
$MAXACTVP
 70
    48
  9
$PINSBASE
 10
0.0
 20
0.0
 30
0.0
  9
$PLIMCHECK
 70
     0
  9
$PEXTMIN
 10
1.000000000000000E+20
 20
1.000000000000000E+20
 30
1.000000000000000E+20
  9
$PEXTMAX
 10
-1.000000000000000E+20
 20
-1.000000000000000E+20
 30
-1.000000000000000E+20
  9
$PLIMMIN
 10
0.0
 20
0.0
  9
$PLIMMAX
 10
12.0
 20
9.0
  9
$UNITMODE
 70
     0
  9
$VISRETAIN
 70
     1
  9
$PLINEGEN
 70
     0
  9
$PSLTSCALE
 70
     1
  9
$TREEDEPTH
 70
  3020
  9
$CMLSTYLE
  2
STANDARD
  9
$CMLJUST
 70
     0
  9
$CMLSCALE
 40
1.0
  9
$PROXYGRAPHICS
 70
     1
  9
$MEASUREMENT
 70
     0
  9
$CELWEIGHT
370
    -1
  9
$ENDCAPS
280
     0
  9
$JOINSTYLE
280
     0
  9
$LWDISPLAY
290
     0
  9
$INSUNITS
 70
     0
  9
$HYPERLINKBASE
  1

  9
$STYLESHEET
  1

  9
$XEDIT
290
     1
  9
$CEPSNTYPE
380
     0
  9
$PSTYLEMODE
290
     1
  9
$FINGERPRINTGUID
  2
{71EC7F31-AA06-4ECF-8D30-7E7FC2EDBC33}
  9
$VERSIONGUID
  2
{238FB6D6-5DAA-46EA-BE84-6D388B63E3C6}
  9
$EXTNAMES
290
     1
  9
$PSVPSCALE
 40
0.0
  9
$OLESTARTUP
290
     0
  0
ENDSEC
  0
SECTION
  2
CLASSES
  0
CLASS
  1
ACDBDICTIONARYWDFLT
  2
AcDbDictionaryWithDefault
  3
ObjectDBX Classes
 90
        0
280
     0
281
     0
  0
CLASS
  1
TABLESTYLE
  2
AcDbTableStyle
  3
ObjectDBX Classes
 90
     2047
280
     0
281
     0
  0
CLASS
  1
DICTIONARYVAR
  2
AcDbDictionaryVar
  3
ObjectDBX Classes
 90
        0
280
     0
281
     0
  0
CLASS
  1
ACDBPLACEHOLDER
  2
AcDbPlaceHolder
  3
ObjectDBX Classes
 90
        0
280
     0
281
     0
  0
CLASS
  1
LAYOUT
  2
AcDbLayout
  3
ObjectDBX Classes
 90
        0
280
     0
281
     0
  0
ENDSEC
  0
SECTION
  2
TABLES
  0
TABLE
  2
VPORT
  5
8
330
0
100
AcDbSymbolTable
 70
     2
  0
VPORT
  5
687
330
8
100
AcDbSymbolTableRecord
100
AcDbViewportTableRecord
  2
*Active
 70
     0
 10
0.0
 20
0.0
 11
1.0
 21
1.0
 12
11.00000010314714
 22
9.103929070580019
 13
0.0
 23
0.0
 14
0.5
 24
0.5
 15
0.5
 25
0.5
 16
0.0
 26
0.0
 36
1.0
 17
0.0
 27
0.0
 37
0.0
 40
18.4699008689387
 41
1.499364675984752
 42
50.0
 43
0.0
 44
0.0
 50
0.0
 51
0.0
 71
     0
 72
   100
 73
     1
 74
     1
 75
     0
 76
     0
 77
     0
 78
     0
281
     0
 65
     1
110
0.0
120
0.0
130
0.0
111
1.0
121
0.0
131
0.0
112
0.0
122
1.0
132
0.0
 79
     0
146
0.0
  0
ENDTAB
  0
TABLE
  2
LTYPE
  5
5
330
0
100
AcDbSymbolTable
 70
     1
  0
LTYPE
  5
12
330
5
100
AcDbSymbolTableRecord
100
AcDbLinetypeTableRecord
  2
BYBLOCK
 70
     0
  3

 72
    65
 73
     0
 40
0.0
  0
LTYPE
  5
13
330
5
100
AcDbSymbolTableRecord
100
AcDbLinetypeTableRecord
  2
BYLAYER
 70
     0
  3

 72
    65
 73
     0
 40
0.0
  0
LTYPE
  5
14
330
5
100
AcDbSymbolTableRecord
100
AcDbLinetypeTableRecord
  2
CONTINUOUS
 70
     0
  3
Solid line
 72
    65
 73
     0
 40
0.0
  0
ENDTAB
  0
TABLE
  2
LAYER
  5
2
102
{ACAD_XDICTIONARY
360
154
102
}
330
0
100
AcDbSymbolTable
 70
     6
  0
LAYER
  5
E
330
2
100
AcDbSymbolTableRecord
100
AcDbLayerTableRecord
  2
0
 70
     0
 62
     7
  6
CONTINUOUS
370
    -3
390
10B
  0
LAYER
  5
20
330
2
100
AcDbSymbolTableRecord
100
AcDbLayerTableRecord
  2
Title Block
 70
     0
 62
     3
  6
CONTINUOUS
370
    -3
390
10B
  0
LAYER
  5
21
330
2
100
AcDbSymbolTableRecord
100
AcDbLayerTableRecord
  2
Dimension
 70
     0
 62
     6
  6
CONTINUOUS
370
    -3
390
10B
  0
LAYER
  5
22
330
2
100
AcDbSymbolTableRecord
100
AcDbLayerTableRecord
  2
Text
 70
     0
 62
     1
  6
CONTINUOUS
370
    -3
390
10B
  0
LAYER
  5
23
330
2
100
AcDbSymbolTableRecord
100
AcDbLayerTableRecord
  2
Object
 70
     0
 62
     5
  6
CONTINUOUS
370
    -3
390
10B
  0
LAYER
  5
179
330
2
100
AcDbSymbolTableRecord
100
AcDbLayerTableRecord
  2
Defpoints
 70
     0
 62
     7
  6
CONTINUOUS
290
     0
370
    -3
390
10B
  0
ENDTAB
  0
TABLE
  2
STYLE
  5
3
330
0
100
AcDbSymbolTable
 70
     1
  0
STYLE
  5
F
330
3
100
AcDbSymbolTableRecord
100
AcDbTextStyleTableRecord
  2
STANDARD
 70
     0
 40
0.0
 41
1.0
 50
0.0
 71
     0
 42
0.125
  3
technic_.ttf
  4

1001
ACAD
1000
Technic
1071
      514
  0
ENDTAB
  0
TABLE
  2
VIEW
  5
6
330
0
100
AcDbSymbolTable
 70
     0
  0
ENDTAB
  0
TABLE
  2
UCS
  5
7
330
0
100
AcDbSymbolTable
 70
     0
  0
ENDTAB
  0
TABLE
  2
APPID
  5
9
330
0
100
AcDbSymbolTable
 70
     4
  0
APPID
  5
10
330
9
100
AcDbSymbolTableRecord
100
AcDbRegAppTableRecord
  2
ACAD
 70
     0
  0
APPID
  5
149
330
9
100
AcDbSymbolTableRecord
100
AcDbRegAppTableRecord
  2
DCO15
 70
     0
  0
APPID
  5
153
330
9
100
AcDbSymbolTableRecord
100
AcDbRegAppTableRecord
  2
AcAecLayerStandard
 70
     0
  0
APPID
  5
1A9
330
9
100
AcDbSymbolTableRecord
100
AcDbRegAppTableRecord
  2
ACAD_DSTYLE_DIMTEXT_FILL
 70
     0
  0
ENDTAB
  0
TABLE
  2
DIMSTYLE
  5
A
330
0
100
AcDbSymbolTable
 70
     1
100
AcDbDimStyleTable
 71
     1
340
1D
  0
DIMSTYLE
105
1D
102
{ACAD_REACTORS
330
5C5
330
5DE
330
5EC
330
619
102
}
330
A
100
AcDbSymbolTableRecord
100
AcDbDimStyleTableRecord
  2
STANDARD
 70
     0
  4
mm
 41
0.125
 44
0.125
140
0.09
170
     1
171
     1
271
     2
272
     2
274
     1
340
F
  0
ENDTAB
  0
TABLE
  2
BLOCK_RECORD
  5
1
330
0
100
AcDbSymbolTable
 70
     4
  0
BLOCK_RECORD
  5
18
330
1
100
AcDbSymbolTableRecord
100
AcDbBlockTableRecord
  2
*MODEL_SPACE
340
112
  0
BLOCK_RECORD
  5
15
330
1
100
AcDbSymbolTableRecord
100
AcDbBlockTableRecord
  2
*PAPER_SPACE
340
113
  0
BLOCK_RECORD
  5
5C6
330
1
100
AcDbSymbolTableRecord
100
AcDbBlockTableRecord
  2
*D0
340
0
  0
BLOCK_RECORD
  5
5DF
330
1
100
AcDbSymbolTableRecord
100
AcDbBlockTableRecord
  2
*D1
340
0
  0
BLOCK_RECORD
  5
5ED
330
1
100
AcDbSymbolTableRecord
100
AcDbBlockTableRecord
  2
*D2
340
0
  0
BLOCK_RECORD
  5
61A
330
1
100
AcDbSymbolTableRecord
100
AcDbBlockTableRecord
  2
*D3
340
0
  0
ENDTAB
  0
ENDSEC
  0
SECTION
  2
BLOCKS
  0
BLOCK
  5
19
330
18
100
AcDbEntity
  8
0
100
AcDbBlockBegin
  2
*MODEL_SPACE
 70
     0
 10
0.0
 20
0.0
 30
0.0
  3
*MODEL_SPACE
  1

  0
ENDBLK
  5
1A
330
18
100
AcDbEntity
  8
0
100
AcDbBlockEnd
  0
BLOCK
  5
16
330
15
100
AcDbEntity
 67
     1
  8
0
100
AcDbBlockBegin
  2
*PAPER_SPACE
 70
     0
 10
0.0
 20
0.0
 30
0.0
  3
*PAPER_SPACE
  1

  0
ENDBLK
  5
17
330
15
100
AcDbEntity
 67
     1
  8
0
100
AcDbBlockEnd
  0
BLOCK
  5
5D1
330
5C6
100
AcDbEntity
  8
0
100
AcDbBlockBegin
  2
*D0
 70
     1
 10
0.0
 20
0.0
 30
0.0
  3
*D0
  1

  0
LINE
  5
5D3
330
5C6
100
AcDbEntity
  8
Dimension
 62
     0
370
    -2
100
AcDbLine
 10
3.665999999999999
 20
8.248499999999999
 30
0.0
 11
3.665999999999999
 21
10.60370983512949
 31
0.0
  0
LINE
  5
5D4
330
5C6
100
AcDbEntity
  8
Dimension
 62
     0
370
    -2
100
AcDbLine
 10
17.275
 20
8.085499999999999
 30
0.0
 11
17.275
 21
10.60370983512949
 31
0.0
  0
LINE
  5
5D5
330
5C6
100
AcDbEntity
  8
Dimension
 62
     0
370
    -2
100
AcDbLine
 10
3.790999999999999
 20
10.47870983512949
 30
0.0
 11
9.926157894736842
 21
10.47870983512949
 31
0.0
  0
LINE
  5
5D6
330
5C6
100
AcDbEntity
  8
Dimension
 62
     0
370
    -2
100
AcDbLine
 10
17.15
 20
10.47870983512949
 30
0.0
 11
11.01484210526316
 21
10.47870983512949
 31
0.0
  0
SOLID
  5
5D7
330
5C6
100
AcDbEntity
  8
Dimension
 62
     0
100
AcDbTrace
 10
3.790999999999999
 20
10.49954316846283
 30
0.0
 11
3.790999999999999
 21
10.45787650179616
 31
0.0
 12
3.665999999999999
 22
10.47870983512949
 32
0.0
 13
3.665999999999999
 23
10.47870983512949
 33
0.0
  0
SOLID
  5
5D8
330
5C6
100
AcDbEntity
  8
Dimension
 62
     0
100
AcDbTrace
 10
17.15
 20
10.49954316846283
 30
0.0
 11
17.15
 21
10.45787650179616
 31
0.0
 12
17.275
 22
10.47870983512949
 32
0.0
 13
17.275
 23
10.47870983512949
 33
0.0
  0
MTEXT
  5
5D9
330
5C6
100
AcDbEntity
  8
Dimension
 62
     0
100
AcDbMText
 10
10.4705
 20
10.47870983512949
 30
0.0
 40
0.09
 41
0.0
 71
     5
 72
     1
  1
\A1;13.63 [346.1mm]
 73
     1
 44
1.0
1001
ACAD
1000
MTEXTBEGIN
1070
    73
1070
     1
1070
    44
1040
1.0
1070
    74
1070
     0
1000
MTEXTEND
  0
POINT
  5
5DA
330
5C6
100
AcDbEntity
  8
Defpoints
 62
     0
100
AcDbPoint
 10
3.665999999999999
 20
8.185999999999999
 30
0.0
  0
POINT
  5
5DB
330
5C6
100
AcDbEntity
  8
Defpoints
 62
     0
100
AcDbPoint
 10
17.275
 20
8.022999999999999
 30
0.0
  0
POINT
  5
5DC
330
5C6
100
AcDbEntity
  8
Defpoints
 62
     0
100
AcDbPoint
 10
17.275
 20
10.47870983512949
 30
0.0
  0
ENDBLK
  5
5D2
330
5C6
100
AcDbEntity
  8
0
100
AcDbBlockEnd
  0
BLOCK
  5
5EA
330
5DF
100
AcDbEntity
  8
0
100
AcDbBlockBegin
  2
*D1
 70
     1
 10
0.0
 20
0.0
 30
0.0
  3
*D1
  1

  0
LINE
  5
5E0
330
5DF
100
AcDbEntity
  8
Dimension
 62
     0
370
    -2
100
AcDbLine
 10
10.4535
 20
9.22
 30
0.0
 11
18.88106794987464
 21
9.219999999999998
 31
0.0
  0
LINE
  5
5E1
330
5DF
100
AcDbEntity
  8
Dimension
 62
     0
370
    -2
100
AcDbLine
 10
16.9835
 20
7.748
 30
0.0
 11
18.88106794987464
 21
7.747999999999999
 31
0.0
  0
LINE
  5
5E2
330
5DF
100
AcDbEntity
  8
Dimension
 62
     0
370
    -2
100
AcDbLine
 10
18.75606794987465
 20
9.094999999999998
 30
0.0
 11
18.75606794987465
 21
8.637026315789473
 31
0.0
  0
LINE
  5
5E3
330
5DF
100
AcDbEntity
  8
Dimension
 62
     0
370
    -2
100
AcDbLine
 10
18.75606794987464
 20
7.872999999999999
 30
0.0
 11
18.75606794987465
 21
8.330973684210526
 31
0.0
  0
SOLID
  5
5E4
330
5DF
100
AcDbEntity
  8
Dimension
 62
     0
100
AcDbTrace
 10
18.73523461654131
 20
9.094999999999998
 30
0.0
 11
18.77690128320798
 21
9.094999999999998
 31
0.0
 12
18.75606794987465
 22
9.219999999999998
 32
0.0
 13
18.75606794987465
 23
9.219999999999998
 33
0.0
  0
SOLID
  5
5E5
330
5DF
100
AcDbEntity
  8
Dimension
 62
     0
100
AcDbTrace
 10
18.73523461654131
 20
7.872999999999999
 30
0.0
 11
18.77690128320798
 21
7.872999999999999
 31
0.0
 12
18.75606794987464
 22
7.747999999999999
 32
0.0
 13
18.75606794987464
 23
7.747999999999999
 33
0.0
  0
MTEXT
  5
5E6
330
5DF
100
AcDbEntity
  8
Dimension
 62
     0
100
AcDbMText
 10
18.75606794987464
 20
8.484000000000001
 30
0.0
 40
0.09
 41
0.0
 71
     5
 72
     1
  1
\A1;1.47 [37.4mm]
 73
     1
 44
1.0
1001
ACAD
1000
MTEXTBEGIN
1070
    73
1070
     1
1070
    44
1040
1.0
1070
    74
1070
     0
1000
MTEXTEND
  0
POINT
  5
5E7
330
5DF
100
AcDbEntity
  8
Defpoints
 62
     0
100
AcDbPoint
 10
10.391
 20
9.22
 30
0.0
  0
POINT
  5
5E8
330
5DF
100
AcDbEntity
  8
Defpoints
 62
     0
100
AcDbPoint
 10
16.921
 20
7.748
 30
0.0
  0
POINT
  5
5E9
330
5DF
100
AcDbEntity
  8
Defpoints
 62
     0
100
AcDbPoint
 10
18.75606794987464
 20
7.747999999999999
 30
0.0
  0
ENDBLK
  5
5EB
330
5DF
100
AcDbEntity
  8
0
100
AcDbBlockEnd
  0
BLOCK
  5
5F9
330
5ED
100
AcDbEntity
  8
0
100
AcDbBlockBegin
  2
*D2
 70
     1
 10
0.0
 20
0.0
 30
0.0
  3
*D2
  1

  0
LINE
  5
675
330
5ED
100
AcDbEntity
  8
Dimension
 62
     0
370
    -2
100
AcDbLine
 10
13.7516659861152
 20
8.916999999999999
 30
0.0
 11
13.7516659861152
 21
9.041999999999999
 31
0.0
  0
LINE
  5
676
330
5ED
100
AcDbEntity
  8
Dimension
 62
     0
370
    -2
100
AcDbLine
 10
13.7516659861152
 20
8.571918798665183
 30
0.0
 11
13.7516659861152
 21
8.052843642198997
 31
0.0
  0
LINE
  5
677
330
5ED
100
AcDbEntity
  8
Dimension
 62
     0
370
    -2
100
AcDbLine
 10
13.7516659861152
 20
8.052843642198997
 30
0.0
 11
13.6266659861152
 21
8.052843642198997
 31
0.0
  0
SOLID
  5
678
330
5ED
100
AcDbEntity
  8
Dimension
 62
     0
100
AcDbTrace
 10
13.73083265278186
 20
8.916999999999999
 30
0.0
 11
13.77249931944853
 21
8.916999999999999
 31
0.0
 12
13.7516659861152
 22
8.791999999999999
 32
0.0
 13
13.7516659861152
 23
8.791999999999999
 33
0.0
  0
SOLID
  5
679
330
5ED
100
AcDbEntity
  8
Dimension
 62
     0
100
AcDbTrace
 10
13.73083265278186
 20
8.571918798665183
 30
0.0
 11
13.77249931944853
 21
8.571918798665183
 31
0.0
 12
13.7516659861152
 22
8.696918798665183
 32
0.0
 13
13.7516659861152
 23
8.696918798665183
 33
0.0
  0
MTEXT
  5
67A
330
5ED
100
AcDbEntity
  8
Dimension
 62
     0
100
AcDbMText
 10
13.18192914400993
 20
8.052843642199
 30
0.0
 40
0.09
 41
0.0
 71
     5
 72
     1
  1
\A1;0.10 [2.4mm]
 73
     1
 44
1.0
1001
ACAD
1000
MTEXTBEGIN
1070
    73
1070
     1
1070
    44
1040
1.0
1070
    74
1070
     0
1000
MTEXTEND
  0
POINT
  5
67B
330
5ED
100
AcDbEntity
  8
Defpoints
 62
     0
100
AcDbPoint
 10
13.8485
 20
8.791999999999999
 30
0.0
  0
POINT
  5
67C
330
5ED
100
AcDbEntity
  8
Defpoints
 62
     0
100
AcDbPoint
 10
13.8485
 20
8.696918798665183
 30
0.0
  0
POINT
  5
67D
330
5ED
100
AcDbEntity
  8
Defpoints
 62
     0
100
AcDbPoint
 10
13.7516659861152
 20
8.696918798665183
 30
0.0
  0
ENDBLK
  5
5FA
330
5ED
100
AcDbEntity
  8
0
100
AcDbBlockEnd
  0
BLOCK
  5
626
330
61A
100
AcDbEntity
  8
0
100
AcDbBlockBegin
  2
*D3
 70
     1
 10
0.0
 20
0.0
 30
0.0
  3
*D3
  1

  0
LINE
  5
66C
330
61A
100
AcDbEntity
  8
Dimension
 62
     0
370
    -2
100
AcDbLine
 10
6.476873002670153
 20
8.880500000000001
 30
0.0
 11
6.476873002670153
 21
9.005500000000001
 31
0.0
  0
LINE
  5
66D
330
61A
100
AcDbEntity
  8
Dimension
 62
     0
370
    -2
100
AcDbLine
 10
6.476873002670153
 20
8.535668553200247
 30
0.0
 11
6.476873002670153
 21
8.063729679678308
 31
0.0
  0
LINE
  5
66E
330
61A
100
AcDbEntity
  8
Dimension
 62
     0
370
    -2
100
AcDbLine
 10
6.476873002670153
 20
8.063729679678308
 30
0.0
 11
6.351873002670153
 21
8.063729679678308
 31
0.0
  0
SOLID
  5
66F
330
61A
100
AcDbEntity
  8
Dimension
 62
     0
100
AcDbTrace
 10
6.45603966933682
 20
8.880500000000001
 30
0.0
 11
6.497706336003486
 21
8.880500000000001
 31
0.0
 12
6.476873002670153
 22
8.755500000000001
 32
0.0
 13
6.476873002670153
 23
8.755500000000001
 33
0.0
  0
SOLID
  5
670
330
61A
100
AcDbEntity
  8
Dimension
 62
     0
100
AcDbTrace
 10
6.45603966933682
 20
8.535668553200247
 30
0.0
 11
6.497706336003486
 21
8.535668553200247
 31
0.0
 12
6.476873002670153
 22
8.660668553200247
 32
0.0
 13
6.476873002670153
 23
8.660668553200247
 33
0.0
  0
MTEXT
  5
671
330
61A
100
AcDbEntity
  8
Dimension
 62
     0
100
AcDbMText
 10
5.907136160564888
 20
8.06372967967831
 30
0.0
 40
0.09
 41
0.0
 71
     5
 72
     1
  1
\A1;0.10 [2.4mm]
 73
     1
 44
1.0
1001
ACAD
1000
MTEXTBEGIN
1070
    73
1070
     1
1070
    44
1040
1.0
1070
    74
1070
     0
1000
MTEXTEND
  0
POINT
  5
672
330
61A
100
AcDbEntity
  8
Defpoints
 62
     0
100
AcDbPoint
 10
6.4935
 20
8.755500000000001
 30
0.0
  0
POINT
  5
673
330
61A
100
AcDbEntity
  8
Defpoints
 62
     0
100
AcDbPoint
 10
6.4935
 20
8.660668553200247
 30
0.0
  0
POINT
  5
674
330
61A
100
AcDbEntity
  8
Defpoints
 62
     0
100
AcDbPoint
 10
6.476873002670153
 20
8.660668553200247
 30
0.0
  0
ENDBLK
  5
627
330
61A
100
AcDbEntity
  8
0
100
AcDbBlockEnd
  0
ENDSEC
  0
SECTION
  2
ENTITIES
  0
TEXT
  5
51
330
18
100
AcDbEntity
  8
Title Block
100
AcDbText
 10
17.77669501265554
 20
2.672489851525508
 30
0.0
 40
0.05
  1
FILENAME:
100
AcDbText
  0
TEXT
  5
52
330
18
100
AcDbEntity
  8
Title Block
100
AcDbText
 10
17.76928502872825
 20
2.076224967549325
 30
0.0
 40
0.35
  1
PANDUIT
100
AcDbText
  0
TEXT
  5
53
330
18
100
AcDbEntity
  8
Title Block
100
AcDbText
 10
19.72182039882138
 20
2.061410940562986
 30
0.0
 40
0.125
  1
CORP. TINLEY PARK, IL
100
AcDbText
  0
TEXT
  5
54
330
18
100
AcDbEntity
  8
Title Block
100
AcDbText
 10
17.78039997670861
 20
1.91697409709392
 30
0.0
 40
0.05
  1
TITLE:
100
AcDbText
  0
MTEXT
  5
57
330
18
100
AcDbEntity
  8
Title Block
100
AcDbMText
 10
19.0
 20
1.372215793536348
 30
0.0
 40
0.075
 41
2.5
 71
     5
 72
     5
  1
UNLESS OTHERWISE SPECIFIED,\PDIMENSIONAL TOLERANCES ARE:       
 73
     1
 44
1.0
1001
ACAD
1000
MTEXTBEGIN
1070
    73
1070
     1
1070
    44
1040
1.0
1070
    74
1070
     0
1000
MTEXTEND
  0
MTEXT
  5
58
330
18
100
AcDbEntity
  8
Title Block
100
AcDbMText
 10
18.39237986661001
 20
1.131487708483632
 30
0.0
 40
0.075
 41
2.5
 71
     5
 72
     5
  1
(.X)\P(.XX)
 73
     1
 44
1.0
1001
ACAD
1000
MTEXTBEGIN
1070
    73
1070
     1
1070
    44
1040
1.0
1070
    74
1070
     0
1000
MTEXTEND
  0
MTEXT
  5
59
330
18
100
AcDbEntity
  8
Title Block
100
AcDbMText
 10
19.40014005312411
 20
1.131487708483632
 30
0.0
 40
0.075
 41
2.5
 71
     5
 72
     5
  1
(.XXX)\PANGLES:
 73
     1
 44
1.0
1001
ACAD
1000
MTEXTBEGIN
1070
    73
1070
     1
1070
    44
1040
1.0
1070
    74
1070
     0
1000
MTEXTEND
  0
MTEXT
  5
5A
330
18
100
AcDbEntity
  8
Title Block
100
AcDbMText
 10
21.0
 20
1.25
 30
0.0
 40
0.06
 41
1.5
 71
     5
 72
     5
  1
UNLESS OTHERWISE SPECIFIED,\PALL DIMENSIONS ARE GIVEN IN INCHES, THIRD ANGLE PROJECTION
 73
     1
 44
1.0
1001
ACAD
1000
MTEXTBEGIN
1070
    73
1070
     1
1070
    44
1040
1.0
1070
    74
1070
     0
1000
MTEXTEND
  0
TEXT
  5
5E
330
18
100
AcDbEntity
  8
Title Block
100
AcDbText
 10
17.76076445430618
 20
0.9281373372752312
 30
0.0
 40
0.05
  1
DRAWN BY:
100
AcDbText
  0
TEXT
  5
5F
330
18
100
AcDbEntity
  8
Title Block
100
AcDbText
 10
17.76446947418043
 20
0.6811431865635028
 30
0.0
 40
0.05
  1
DATE:
100
AcDbText
  0
TEXT
  5
60
330
18
100
AcDbEntity
  8
Title Block
100
AcDbText
 10
17.76817443823349
 20
0.4304455338317968
 30
0.0
 40
0.05
  1
CHECKED BY:
100
AcDbText
  0
TEXT
  5
62
330
18
100
AcDbEntity
  8
Title Block
100
AcDbText
 10
18.52028959313306
 20
0.9281373372752312
 30
0.0
 40
0.05
  1
MATERIAL:
100
AcDbText
  0
TEXT
  5
63
330
18
100
AcDbEntity
  8
Title Block
100
AcDbText
 10
20.26534493878154
 20
0.9281373372752312
 30
0.0
 40
0.05
  1
SCALE:
100
AcDbText
  0
TEXT
  5
64
330
18
100
AcDbEntity
  8
Title Block
100
AcDbText
 10
20.26534493878154
 20
0.6725952630490007
 30
0.0
 40
0.05
  1
DRAWING NUMBER:
100
AcDbText
  0
TEXT
  5
65
330
18
100
AcDbEntity
  8
Title Block
100
AcDbText
 10
21.34942622928997
 20
0.6762987650689816
 30
0.0
 40
0.05
  1
DRAWING
100
AcDbText
  0
TEXT
  5
66
330
18
100
AcDbEntity
  8
Title Block
100
AcDbText
 10
21.42723125590085
 20
0.2811642688682026
 30
0.0
 40
0.05
  1
SIZE
100
AcDbText
  0
TEXT
  5
67
330
18
100
AcDbEntity
  8
Title Block
100
AcDbText
 10
21.39373130657865
 20
0.3826699445861052
 30
0.0
 40
0.25
  1
C
100
AcDbText
  0
MTEXT
  5
68
330
18
100
AcDbEntity
  8
Title Block
100
AcDbMText
 10
11.37499999999999
 20
0.375
 30
0.0
 40
0.05
 41
0.25
 71
     5
 72
     5
  1
REV
 73
     1
 44
1.0
1001
ACAD
1000
MTEXTBEGIN
1070
    73
1070
     1
1070
    44
1040
1.0
1070
    74
1070
     0
1000
MTEXTEND
  0
MTEXT
  5
69
330
18
100
AcDbEntity
  8
Title Block
100
AcDbMText
 10
11.74999999999999
 20
0.375
 30
0.0
 40
0.05
 41
0.5
 71
     5
 72
     5
  1
DATE
 73
     1
 44
1.0
1001
ACAD
1000
MTEXTBEGIN
1070
    73
1070
     1
1070
    44
1040
1.0
1070
    74
1070
     0
1000
MTEXTEND
  0
MTEXT
  5
6A
330
18
100
AcDbEntity
  8
Title Block
100
AcDbMText
 10
12.18999999999999
 20
0.375
 30
0.0
 40
0.05
 41
0.38
 71
     5
 72
     5
  1
BY
 73
     1
 44
1.0
1001
ACAD
1000
MTEXTBEGIN
1070
    73
1070
     1
1070
    44
1040
1.0
1070
    74
1070
     0
1000
MTEXTEND
  0
MTEXT
  5
6B
330
18
100
AcDbEntity
  8
Title Block
100
AcDbMText
 10
12.56499999999999
 20
0.375
 30
0.0
 40
0.05
 41
0.38
 71
     5
 72
     5
  1
CHK
 73
     1
 44
1.0
1001
ACAD
1000
MTEXTBEGIN
1070
    73
1070
     1
1070
    44
1040
1.0
1070
    74
1070
     0
1000
MTEXTEND
  0
MTEXT
  5
6C
330
18
100
AcDbEntity
  8
Title Block
100
AcDbMText
 10
14.12499999999999
 20
0.375
 30
0.0
 40
0.05
 41
2.75
 71
     5
 72
     5
  1
DESCRIPTION
 73
     1
 44
1.0
1001
ACAD
1000
MTEXTBEGIN
1070
    73
1070
     1
1070
    44
1040
1.0
1070
    74
1070
     0
1000
MTEXTEND
  0
MTEXT
  5
6D
330
18
100
AcDbEntity
  8
Title Block
100
AcDbMText
 10
16.065
 20
0.375
 30
0.0
 40
0.05
 41
1.129999999999999
 71
     5
 72
     5
  1
ECN   -   R
 73
     1
 44
1.0
1001
ACAD
1000
MTEXTBEGIN
1070
    73
1070
     1
1070
    44
1040
1.0
1070
    74
1070
     0
1000
MTEXTEND
  0
MTEXT
  5
6E
330
18
100
AcDbEntity
  8
Title Block
100
AcDbMText
 10
16.81499999999999
 20
0.375
 30
0.0
 40
0.05
 41
0.38
 71
     5
 72
     5
  1
CUST
 73
     1
 44
1.0
1001
ACAD
1000
MTEXTBEGIN
1070
    73
1070
     1
1070
    44
1040
1.0
1070
    74
1070
     0
1000
MTEXTEND
  0
MTEXT
  5
6F
330
18
100
AcDbEntity
  8
Title Block
100
AcDbMText
 10
17.19
 20
0.375
 30
0.0
 40
0.05
 41
0.38
 71
     5
 72
     5
  1
SUP
 73
     1
 44
1.0
1001
ACAD
1000
MTEXTBEGIN
1070
    73
1070
     1
1070
    44
1040
1.0
1070
    74
1070
     0
1000
MTEXTEND
  0
LINE
  5
A5
330
18
100
AcDbEntity
  8
Title Block
100
AcDbLine
 10
21.75
 20
2.749999999999999
 30
0.0
 11
11.25
 21
2.75
 31
0.0
  0
LINE
  5
A6
330
18
100
AcDbEntity
  8
Title Block
100
AcDbLine
 10
17.74999999999999
 20
2.75
 30
0.0
 11
17.74999999999999
 21
0.25
 31
0.0
  0
LINE
  5
A7
330
18
100
AcDbEntity
  8
Title Block
100
AcDbLine
 10
21.75
 20
2.499999999999999
 30
0.0
 11
11.25
 21
2.5
 31
0.0
  0
LINE
  5
A8
330
18
100
AcDbEntity
  8
Title Block
100
AcDbLine
 10
17.74999999999999
 20
2.25
 30
0.0
 11
11.25
 21
2.25
 31
0.0
  0
LINE
  5
A9
330
18
100
AcDbEntity
  8
Title Block
100
AcDbLine
 10
21.75
 20
1.999999999999999
 30
0.0
 11
11.25
 21
2.0
 31
0.0
  0
LINE
  5
AA
330
18
100
AcDbEntity
  8
Title Block
100
AcDbLine
 10
17.74999999999999
 20
1.75
 30
0.0
 11
11.25
 21
1.75
 31
0.0
  0
LINE
  5
AB
330
18
100
AcDbEntity
  8
Title Block
100
AcDbLine
 10
21.75
 20
1.499999999999999
 30
0.0
 11
11.25
 21
1.5
 31
0.0
  0
LINE
  5
AC
330
18
100
AcDbEntity
  8
Title Block
100
AcDbLine
 10
17.74999999999999
 20
1.25
 30
0.0
 11
11.25
 21
1.25
 31
0.0
  0
LINE
  5
AD
330
18
100
AcDbEntity
  8
Title Block
100
AcDbLine
 10
21.75
 20
0.9999999999999996
 30
0.0
 11
11.25
 21
1.0
 31
0.0
  0
LINE
  5
AE
330
18
100
AcDbEntity
  8
Title Block
100
AcDbLine
 10
18.49999999999999
 20
0.75
 30
0.0
 11
11.25
 21
0.7500000000000009
 31
0.0
  0
LINE
  5
AF
330
18
100
AcDbEntity
  8
Title Block
100
AcDbLine
 10
18.49999999999999
 20
0.5
 30
0.0
 11
11.25
 21
0.5000000000000009
 31
0.0
  0
LINE
  5
B6
330
18
100
AcDbEntity
  8
Title Block
100
AcDbLine
 10
11.25
 20
0.25
 30
0.0
 11
11.25
 21
2.75
 31
0.0
  0
LINE
  5
BC
330
18
100
AcDbEntity
  8
Title Block
100
AcDbLine
 10
11.49999999999999
 20
0.25
 30
0.0
 11
11.49999999999999
 21
2.750000000000001
 31
0.0
  0
LINE
  5
BD
330
18
100
AcDbEntity
  8
Title Block
100
AcDbLine
 10
11.99999999999999
 20
0.25
 30
0.0
 11
11.99999999999999
 21
2.750000000000001
 31
0.0
  0
LINE
  5
C0
330
18
100
AcDbEntity
  8
Title Block
100
AcDbLine
 10
12.375
 20
0.25
 30
0.0
 11
12.375
 21
2.750000000000001
 31
0.0
  0
LINE
  5
C1
330
18
100
AcDbEntity
  8
Title Block
100
AcDbLine
 10
12.74999999999999
 20
0.25
 30
0.0
 11
12.74999999999999
 21
2.750000000000001
 31
0.0
  0
LINE
  5
C2
330
18
100
AcDbEntity
  8
Title Block
100
AcDbLine
 10
17.375
 20
2.75
 30
0.0
 11
17.375
 21
0.25
 31
0.0
  0
LINE
  5
C3
330
18
100
AcDbEntity
  8
Title Block
100
AcDbLine
 10
17.0
 20
2.75
 30
0.0
 11
17.0
 21
0.25
 31
0.0
  0
LINE
  5
C4
330
18
100
AcDbEntity
  8
Title Block
100
AcDbLine
 10
16.62499999999999
 20
2.75
 30
0.0
 11
16.62499999999999
 21
0.25
 31
0.0
  0
LINE
  5
C5
330
18
100
AcDbEntity
  8
Title Block
100
AcDbLine
 10
16.25
 20
2.75
 30
0.0
 11
16.25
 21
0.5000000000000002
 31
0.0
  0
LINE
  5
C6
330
18
100
AcDbEntity
  8
Title Block
100
AcDbLine
 10
15.5
 20
2.75
 30
0.0
 11
15.5
 21
0.25
 31
0.0
  0
LINE
  5
C7
330
18
100
AcDbEntity
  8
Title Block
100
AcDbLine
 10
20.25
 20
0.75
 30
0.0
 11
20.25
 21
1.499999999999999
 31
0.0
  0
LINE
  5
C8
330
18
100
AcDbEntity
  8
Title Block
100
AcDbLine
 10
20.25
 20
0.75
 30
0.0
 11
20.25
 21
0.25
 31
0.0
  0
LINE
  5
C9
330
18
100
AcDbEntity
  8
Title Block
100
AcDbLine
 10
20.25
 20
0.75
 30
0.0
 11
21.75
 21
0.75
 31
0.0
  0
LINE
  5
CA
330
18
100
AcDbEntity
  8
Title Block
100
AcDbLine
 10
18.49999999999999
 20
0.5
 30
0.0
 11
18.49999999999999
 21
0.25
 31
0.0
  0
LINE
  5
CB
330
18
100
AcDbEntity
  8
Title Block
100
AcDbLine
 10
18.49999999999999
 20
0.5
 30
0.0
 11
18.49999999999999
 21
1.0
 31
0.0
  0
LINE
  5
CD
330
18
100
AcDbEntity
  8
Title Block
100
AcDbLine
 10
21.25
 20
0.75
 30
0.0
 11
21.25
 21
0.25
 31
0.0
  0
LWPOLYLINE
  5
F8
330
18
100
AcDbEntity
  8
Title Block
100
AcDbPolyline
 90
        4
 70
     1
 43
0.01
 10
21.75
 20
16.75
 10
21.75
 20
0.25
 10
0.25
 20
0.25
 10
0.250000000000001
 20
16.75
  0
POINT
  5
FC
330
18
100
AcDbEntity
  8
Title Block
100
AcDbPoint
 10
22.0
 20
0.0
 30
0.0
  0
POINT
  5
FF
330
18
100
AcDbEntity
  8
Title Block
100
AcDbPoint
 10
22.0
 20
17.0
 30
0.0
  0
POINT
  5
102
330
18
100
AcDbEntity
  8
Title Block
100
AcDbPoint
 10
0.000000000000001
 20
17.0
 30
0.0
  0
POINT
  5
105
330
18
100
AcDbEntity
  8
Title Block
100
AcDbPoint
 10
0.0
 20
0.0
 30
0.0
  0
MTEXT
  5
12C
330
18
100
AcDbEntity
  8
Text
100
AcDbMText
 10
11.37324893148254
 20
0.6275685908585027
 30
0.0
 40
0.09
 41
0.25
 71
     5
 72
     5
  1
R
 73
     1
 44
1.0
1001
ACAD
1000
MTEXTBEGIN
1070
    73
1070
     1
1070
    44
1040
1.0
1070
    74
1070
     0
1000
MTEXTEND
  0
MTEXT
  5
12D
330
18
100
AcDbEntity
  8
Text
100
AcDbMText
 10
11.74824893148254
 20
0.6275685908585027
 30
0.0
 40
0.07
 41
0.5
 71
     5
 72
     5
  1
6-8-07
 73
     1
 44
1.0
1001
ACAD
1000
MTEXTBEGIN
1070
    73
1070
     1
1070
    44
1040
1.0
1070
    74
1070
     0
1000
MTEXTEND
  0
MTEXT
  5
12E
330
18
100
AcDbEntity
  8
Text
100
AcDbMText
 10
12.18574893148254
 20
0.6275685908585027
 30
0.0
 40
0.09
 41
0.375
 71
     5
 72
     5
  1
DTP
 73
     1
 44
1.0
1001
ACAD
1000
MTEXTBEGIN
1070
    73
1070
     1
1070
    44
1040
1.0
1070
    74
1070
     0
1000
MTEXTEND
  0
MTEXT
  5
130
330
18
100
AcDbEntity
  8
Text
100
AcDbMText
 10
14.12324893148254
 20
0.6275685908585023
 30
0.0
 40
0.09
 41
2.75
 71
     5
 72
     5
  1
DRAWING RELEASED
 73
     1
 44
1.0
1001
ACAD
1000
MTEXTBEGIN
1070
    73
1070
     1
1070
    44
1040
1.0
1070
    74
1070
     0
1000
MTEXTEND
  0
MTEXT
  5
133
330
18
100
AcDbEntity
  8
Text
100
AcDbMText
 10
18.47324893148254
 20
0.8525685908585018
 30
0.0
 40
0.09
 41
0.75
 71
     6
 72
     5
  1
DTP
 73
     1
 44
1.0
1001
ACAD
1000
MTEXTBEGIN
1070
    73
1070
     1
1070
    44
1040
1.0
1070
    74
1070
     0
1000
MTEXTEND
  0
MTEXT
  5
134
330
18
100
AcDbEntity
  8
Text
100
AcDbMText
 10
18.47324893148254
 20
0.6025685908585017
 30
0.0
 40
0.09
 41
0.75
 71
     6
 72
     5
  1
6-8-07
 73
     1
 44
1.0
1001
ACAD
1000
MTEXTBEGIN
1070
    73
1070
     1
1070
    44
1040
1.0
1070
    74
1070
     0
1000
MTEXTEND
  0
MTEXT
  5
135
330
18
100
AcDbEntity
  8
Text
100
AcDbMText
 10
18.47324893148254
 20
0.3525685908585019
 30
0.0
 40
0.09
 41
0.75
 71
     6
 72
     5
  1
DJWA
 73
     1
 44
1.0
1001
ACAD
1000
MTEXTBEGIN
1070
    73
1070
     1
1070
    44
1040
1.0
1070
    74
1070
     0
1000
MTEXTEND
  0
MTEXT
  5
136
330
18
100
AcDbEntity
  8
Text
100
AcDbMText
 10
19.74824893148254
 20
2.627568590858501
 30
0.0
 40
0.09
 41
4.0
 71
     5
 72
     5
  1
FRHC12.dwg
 73
     1
 44
1.0
1001
ACAD
1000
MTEXTBEGIN
1070
    73
1070
     1
1070
    44
1040
1.0
1070
    74
1070
     0
1000
MTEXTEND
  0
MTEXT
  5
137
330
18
100
AcDbEntity
  8
Text
100
AcDbMText
 10
19.74824893148254
 20
1.752568590858501
 30
0.0
 40
0.09
 41
4.0
 71
     5
 72
     5
  1
FIBERRUNNER 12x4 SNAP-ON HINGED COVER\P(FRHC12**2, FRHC12**6)\PMARKETING DRAWING
 73
     1
 44
1.0
1001
ACAD
1000
MTEXTBEGIN
1070
    73
1070
     1
1070
    44
1040
1.0
1070
    74
1070
     0
1000
MTEXTEND
  0
MTEXT
  5
138
330
18
100
AcDbEntity
  8
Text
100
AcDbMText
 10
20.99824893148254
 20
0.8775685908585016
 30
0.0
 40
0.12
 41
1.5
 71
     5
 72
     5
  1
FULL
 73
     1
 44
1.0
1001
ACAD
1000
MTEXTBEGIN
1070
    73
1070
     1
1070
    44
1040
1.0
1070
    74
1070
     0
1000
MTEXTEND
  0
MTEXT
  5
139
330
18
100
AcDbEntity
  8
Text
100
AcDbMText
 10
20.74824893148254
 20
0.5025685908585018
 30
0.0
 40
0.12
 41
1.0
 71
     5
 72
     5
  1
36897-1135
 73
     1
 44
1.0
1001
ACAD
1000
MTEXTBEGIN
1070
    73
1070
     1
1070
    44
1040
1.0
1070
    74
1070
     0
1000
MTEXTEND
  0
TEXT
  5
2AC
330
18
100
AcDbEntity
  8
Text
100
AcDbText
 10
10.0665658392289
 20
7.089343668226625
 30
0.0
 40
0.125
  1
FRONT VIEW
100
AcDbText
  0
MTEXT
  5
2BE
330
18
100
AcDbEntity
  8
Text
100
AcDbMText
 10
12.5604002814227
 20
0.626249074032665
 30
0.0
 40
0.07
 41
0.375
 71
     5
 72
     5
  1
DJWA
 73
     1
 44
1.0
1001
ACAD
1000
MTEXTBEGIN
1070
    73
1070
     1
1070
    44
1040
1.0
1070
    74
1070
     0
1000
MTEXTEND
  0
LINE
  5
2CD
330
18
100
AcDbEntity
  8
Object
100
AcDbLine
 10
3.838
 20
7.841
 30
0.0
 11
3.817999999999999
 21
7.844
 31
0.0
  0
LINE
  5
2CE
330
18
100
AcDbEntity
  8
Object
100
AcDbLine
 10
3.817999999999999
 20
7.844
 30
0.0
 11
3.801
 21
7.855
 31
0.0
  0
LINE
  5
2CF
330
18
100
AcDbEntity
  8
Object
100
AcDbLine
 10
3.801
 20
7.855
 30
0.0
 11
3.789
 21
7.871
 31
0.0
  0
LINE
  5
2D0
330
18
100
AcDbEntity
  8
Object
100
AcDbLine
 10
3.789
 20
7.871
 30
0.0
 11
3.784
 21
7.891
 31
0.0
  0
LINE
  5
2D1
330
18
100
AcDbEntity
  8
Object
100
AcDbLine
 10
11.775
 20
9.070999999999999
 30
0.0
 11
11.775
 21
8.983999999999999
 31
0.0
  0
LINE
  5
2D2
330
18
100
AcDbEntity
  8
Object
100
AcDbLine
 10
11.775
 20
8.983999999999999
 30
0.0
 11
11.774
 21
8.98
 31
0.0
  0
LINE
  5
2D3
330
18
100
AcDbEntity
  8
Object
100
AcDbLine
 10
11.774
 20
8.98
 30
0.0
 11
11.772
 21
8.977
 31
0.0
  0
LINE
  5
2D4
330
18
100
AcDbEntity
  8
Object
100
AcDbLine
 10
11.772
 20
8.977
 30
0.0
 11
11.768
 21
8.974999999999999
 31
0.0
  0
LINE
  5
2D5
330
18
100
AcDbEntity
  8
Object
100
AcDbLine
 10
11.768
 20
8.974999999999999
 30
0.0
 11
11.764
 21
8.974
 31
0.0
  0
LINE
  5
2D6
330
18
100
AcDbEntity
  8
Object
100
AcDbLine
 10
11.775
 20
9.070999999999999
 30
0.0
 11
11.771
 21
9.086
 31
0.0
  0
LINE
  5
2D7
330
18
100
AcDbEntity
  8
Object
100
AcDbLine
 10
11.748
 20
9.101
 30
0.0
 11
11.762
 21
9.096999999999999
 31
0.0
  0
LINE
  5
2D8
330
18
100
AcDbEntity
  8
Object
100
AcDbLine
 10
11.762
 20
9.096999999999999
 30
0.0
 11
11.771
 21
9.086
 31
0.0
  0
LINE
  5
2D9
330
18
100
AcDbEntity
  8
Object
100
AcDbLine
 10
10.986
 20
8.423999999999999
 30
0.0
 11
10.991
 21
8.394999999999999
 31
0.0
  0
LINE
  5
2DA
330
18
100
AcDbEntity
  8
Object
100
AcDbLine
 10
10.991
 20
8.394999999999999
 30
0.0
 11
10.99
 21
8.365
 31
0.0
  0
LINE
  5
2DB
330
18
100
AcDbEntity
  8
Object
100
AcDbLine
 10
10.99
 20
8.365
 30
0.0
 11
10.981
 21
8.336999999999999
 31
0.0
  0
LINE
  5
2DC
330
18
100
AcDbEntity
  8
Object
100
AcDbLine
 10
10.85
 20
8.371
 30
0.0
 11
10.85
 21
8.361
 31
0.0
  0
LINE
  5
2DD
330
18
100
AcDbEntity
  8
Object
100
AcDbLine
 10
10.981
 20
8.336999999999999
 30
0.0
 11
10.959
 21
8.295999999999999
 31
0.0
  0
LINE
  5
2DE
330
18
100
AcDbEntity
  8
Object
100
AcDbLine
 10
10.959
 20
8.295999999999999
 30
0.0
 11
10.932
 21
8.259999999999999
 31
0.0
  0
LINE
  5
2DF
330
18
100
AcDbEntity
  8
Object
100
AcDbLine
 10
10.85
 20
8.361
 30
0.0
 11
10.846
 21
8.351
 31
0.0
  0
LINE
  5
2E0
330
18
100
AcDbEntity
  8
Object
100
AcDbLine
 10
10.846
 20
8.381
 30
0.0
 11
10.85
 21
8.371
 31
0.0
  0
LINE
  5
2E1
330
18
100
AcDbEntity
  8
Object
100
AcDbLine
 10
10.956
 20
8.474
 30
0.0
 11
10.974
 21
8.451
 31
0.0
  0
LINE
  5
2E2
330
18
100
AcDbEntity
  8
Object
100
AcDbLine
 10
10.974
 20
8.451
 30
0.0
 11
10.986
 21
8.423999999999999
 31
0.0
  0
LINE
  5
2E3
330
18
100
AcDbEntity
  8
Object
100
AcDbLine
 10
10.878
 20
8.512
 30
0.0
 11
10.907
 21
8.506
 31
0.0
  0
LINE
  5
2E4
330
18
100
AcDbEntity
  8
Object
100
AcDbLine
 10
10.907
 20
8.506
 30
0.0
 11
10.933
 21
8.493
 31
0.0
  0
LINE
  5
2E5
330
18
100
AcDbEntity
  8
Object
100
AcDbLine
 10
10.933
 20
8.493
 30
0.0
 11
10.956
 21
8.474
 31
0.0
  0
LINE
  5
2E6
330
18
100
AcDbEntity
  8
Object
100
AcDbLine
 10
10.846
 20
8.381
 30
0.0
 11
10.838
 21
8.387999999999999
 31
0.0
  0
LINE
  5
2E7
330
18
100
AcDbEntity
  8
Object
100
AcDbLine
 10
10.838
 20
8.387999999999999
 30
0.0
 11
10.828
 21
8.391
 31
0.0
  0
LINE
  5
2E8
330
18
100
AcDbEntity
  8
Object
100
AcDbLine
 10
10.846
 20
8.351
 30
0.0
 11
10.822
 21
8.323999999999999
 31
0.0
  0
LINE
  5
2E9
330
18
100
AcDbEntity
  8
Object
100
AcDbLine
 10
10.932
 20
8.259999999999999
 30
0.0
 11
10.9
 21
8.227
 31
0.0
  0
LINE
  5
2EA
330
18
100
AcDbEntity
  8
Object
100
AcDbLine
 10
10.9
 20
8.227
 30
0.0
 11
10.864
 21
8.198999999999999
 31
0.0
  0
LINE
  5
2EB
330
18
100
AcDbEntity
  8
Object
100
AcDbLine
 10
10.822
 20
8.323999999999999
 30
0.0
 11
10.793
 21
8.303
 31
0.0
  0
LINE
  5
2EC
330
18
100
AcDbEntity
  8
Object
100
AcDbLine
 10
10.793
 20
8.303
 30
0.0
 11
10.761
 21
8.285999999999999
 31
0.0
  0
LINE
  5
2ED
330
18
100
AcDbEntity
  8
Object
100
AcDbLine
 10
10.864
 20
8.198999999999999
 30
0.0
 11
10.824
 21
8.176999999999999
 31
0.0
  0
LINE
  5
2EE
330
18
100
AcDbEntity
  8
Object
100
AcDbLine
 10
10.824
 20
8.176999999999999
 30
0.0
 11
10.781
 21
8.160999999999999
 31
0.0
  0
LINE
  5
2EF
330
18
100
AcDbEntity
  8
Object
100
AcDbLine
 10
10.781
 20
8.160999999999999
 30
0.0
 11
10.736
 21
8.150999999999999
 31
0.0
  0
LINE
  5
2F0
330
18
100
AcDbEntity
  8
Object
100
AcDbLine
 10
10.761
 20
8.285999999999999
 30
0.0
 11
10.727
 21
8.275999999999999
 31
0.0
  0
LINE
  5
2F1
330
18
100
AcDbEntity
  8
Object
100
AcDbLine
 10
10.878
 20
8.512
 30
0.0
 11
10.696
 21
8.528
 31
0.0
  0
LINE
  5
2F2
330
18
100
AcDbEntity
  8
Object
100
AcDbLine
 10
10.727
 20
8.275999999999999
 30
0.0
 11
10.691
 21
8.272999999999999
 31
0.0
  0
LINE
  5
2F3
330
18
100
AcDbEntity
  8
Object
100
AcDbLine
 10
10.691
 20
8.147999999999999
 30
0.0
 11
10.736
 21
8.150999999999999
 31
0.0
  0
LINE
  5
2F4
330
18
100
AcDbEntity
  8
Object
100
AcDbLine
 10
10.685
 20
8.403
 30
0.0
 11
10.828
 21
8.391
 31
0.0
  0
LINE
  5
2F5
330
18
100
AcDbEntity
  8
Object
100
AcDbLine
 10
10.691
 20
8.272999999999999
 30
0.0
 11
10.685
 21
8.272999999999999
 31
0.0
  0
LINE
  5
2F6
330
18
100
AcDbEntity
  8
Object
100
AcDbLine
 10
10.691
 20
8.147999999999999
 30
0.0
 11
10.682
 21
8.147999999999999
 31
0.0
  0
LINE
  5
2F7
330
18
100
AcDbEntity
  8
Object
100
AcDbLine
 10
10.682
 20
8.147999999999999
 30
0.0
 11
10.672
 21
8.149
 31
0.0
  0
LINE
  5
2F8
330
18
100
AcDbEntity
  8
Object
100
AcDbLine
 10
10.685
 20
8.272999999999999
 30
0.0
 11
10.68
 21
8.272999999999999
 31
0.0
  0
LINE
  5
2F9
330
18
100
AcDbEntity
  8
Object
100
AcDbLine
 10
10.664
 20
8.409
 30
0.0
 11
10.685
 21
8.403
 31
0.0
  0
LINE
  5
2FA
330
18
100
AcDbEntity
  8
Object
100
AcDbLine
 10
10.68
 20
8.272999999999999
 30
0.0
 11
10.674
 21
8.274
 31
0.0
  0
LINE
  5
2FB
330
18
100
AcDbEntity
  8
Object
100
AcDbLine
 10
10.663
 20
8.149
 30
0.0
 11
10.672
 21
8.149
 31
0.0
  0
LINE
  5
2FC
330
18
100
AcDbEntity
  8
Object
100
AcDbLine
 10
10.655
 20
8.516999999999999
 30
0.0
 11
10.675
 21
8.525999999999999
 31
0.0
  0
LINE
  5
2FD
330
18
100
AcDbEntity
  8
Object
100
AcDbLine
 10
10.675
 20
8.525999999999999
 30
0.0
 11
10.696
 21
8.528
 31
0.0
  0
LINE
  5
2FE
330
18
100
AcDbEntity
  8
Object
100
AcDbLine
 10
10.647
 20
8.420999999999999
 30
0.0
 11
10.664
 21
8.409
 31
0.0
  0
LINE
  5
2FF
330
18
100
AcDbEntity
  8
Object
100
AcDbLine
 10
10.655
 20
8.516999999999999
 30
0.0
 11
10.64
 21
8.500999999999999
 31
0.0
  0
LINE
  5
300
330
18
100
AcDbEntity
  8
Object
100
AcDbLine
 10
10.634
 20
8.439
 30
0.0
 11
10.647
 21
8.420999999999999
 31
0.0
  0
LINE
  5
301
330
18
100
AcDbEntity
  8
Object
100
AcDbLine
 10
10.64
 20
8.500999999999999
 30
0.0
 11
10.63
 21
8.481999999999999
 31
0.0
  0
LINE
  5
302
330
18
100
AcDbEntity
  8
Object
100
AcDbLine
 10
10.634
 20
8.439
 30
0.0
 11
10.629
 21
8.46
 31
0.0
  0
LINE
  5
303
330
18
100
AcDbEntity
  8
Object
100
AcDbLine
 10
10.629
 20
8.46
 30
0.0
 11
10.63
 21
8.481999999999999
 31
0.0
  0
LINE
  5
304
330
18
100
AcDbEntity
  8
Object
100
AcDbLine
 10
10.581
 20
9.077999999999999
 30
0.0
 11
11.764
 21
8.974
 31
0.0
  0
LINE
  5
305
330
18
100
AcDbEntity
  8
Object
100
AcDbLine
 10
10.674
 20
8.274
 30
0.0
 11
10.502
 21
8.288999999999999
 31
0.0
  0
LINE
  5
306
330
18
100
AcDbEntity
  8
Object
100
AcDbLine
 10
10.552
 20
9.061999999999999
 30
0.0
 11
10.549
 21
9.051
 31
0.0
  0
LINE
  5
307
330
18
100
AcDbEntity
  8
Object
100
AcDbLine
 10
10.549
 20
9.051
 30
0.0
 11
10.484
 21
8.31
 31
0.0
  0
LINE
  5
308
330
18
100
AcDbEntity
  8
Object
100
AcDbLine
 10
10.552
 20
9.061999999999999
 30
0.0
 11
10.559
 21
9.070999999999999
 31
0.0
  0
LINE
  5
309
330
18
100
AcDbEntity
  8
Object
100
AcDbLine
 10
10.424
 20
9.061999999999999
 30
0.0
 11
10.423
 21
9.073
 31
0.0
  0
LINE
  5
30A
330
18
100
AcDbEntity
  8
Object
100
AcDbLine
 10
10.423
 20
9.073
 30
0.0
 11
10.417
 21
9.083
 31
0.0
  0
LINE
  5
30B
330
18
100
AcDbEntity
  8
Object
100
AcDbLine
 10
10.502
 20
8.288999999999999
 30
0.0
 11
10.492
 21
8.291999999999999
 31
0.0
  0
LINE
  5
30C
330
18
100
AcDbEntity
  8
Object
100
AcDbLine
 10
10.412
 20
8.170999999999999
 30
0.0
 11
10.663
 21
8.149
 31
0.0
  0
LINE
  5
30D
330
18
100
AcDbEntity
  8
Object
100
AcDbLine
 10
10.581
 20
9.077999999999999
 30
0.0
 11
10.57
 21
9.076999999999999
 31
0.0
  0
LINE
  5
30E
330
18
100
AcDbEntity
  8
Object
100
AcDbLine
 10
10.57
 20
9.076999999999999
 30
0.0
 11
10.559
 21
9.070999999999999
 31
0.0
  0
LINE
  5
30F
330
18
100
AcDbEntity
  8
Object
100
AcDbLine
 10
10.417
 20
9.083
 30
0.0
 11
10.408
 21
9.090999999999999
 31
0.0
  0
LINE
  5
310
330
18
100
AcDbEntity
  8
Object
100
AcDbLine
 10
10.408
 20
9.090999999999999
 30
0.0
 11
10.397
 21
9.093999999999999
 31
0.0
  0
LINE
  5
311
330
18
100
AcDbEntity
  8
Object
100
AcDbLine
 10
10.397
 20
9.093999999999999
 30
0.0
 11
10.391
 21
9.095
 31
0.0
  0
LINE
  5
312
330
18
100
AcDbEntity
  8
Object
100
AcDbLine
 10
11.748
 20
9.101
 30
0.0
 11
10.391
 21
9.22
 31
0.0
  0
LINE
  5
313
330
18
100
AcDbEntity
  8
Object
100
AcDbLine
 10
10.412
 20
8.170999999999999
 30
0.0
 11
10.392
 21
8.176
 31
0.0
  0
LINE
  5
314
330
18
100
AcDbEntity
  8
Object
100
AcDbLine
 10
10.392
 20
8.176
 30
0.0
 11
10.375
 21
8.186999999999999
 31
0.0
  0
LINE
  5
315
330
18
100
AcDbEntity
  8
Object
100
AcDbLine
 10
10.375
 20
8.186999999999999
 30
0.0
 11
10.362
 21
8.202999999999999
 31
0.0
  0
LINE
  5
316
330
18
100
AcDbEntity
  8
Object
100
AcDbLine
 10
10.362
 20
8.202999999999999
 30
0.0
 11
10.354
 21
8.221
 31
0.0
  0
LINE
  5
317
330
18
100
AcDbEntity
  8
Object
100
AcDbLine
 10
10.484
 20
8.31
 30
0.0
 11
10.486
 21
8.3
 31
0.0
  0
LINE
  5
318
330
18
100
AcDbEntity
  8
Object
100
AcDbLine
 10
10.486
 20
8.3
 30
0.0
 11
10.492
 21
8.291999999999999
 31
0.0
  0
LINE
  5
319
330
18
100
AcDbEntity
  8
Object
100
AcDbLine
 10
10.354
 20
8.221
 30
0.0
 11
10.352
 21
8.242
 31
0.0
  0
LINE
  5
31A
330
18
100
AcDbEntity
  8
Object
100
AcDbLine
 10
10.352
 20
8.242
 30
0.0
 11
10.424
 21
9.061999999999999
 31
0.0
  0
LINE
  5
31B
330
18
100
AcDbEntity
  8
Object
100
AcDbLine
 10
9.159
 20
8.987
 30
0.0
 11
10.391
 21
9.095
 31
0.0
  0
LINE
  5
31C
330
18
100
AcDbEntity
  8
Object
100
AcDbLine
 10
9.131
 20
8.919
 30
0.0
 11
9.128
 21
8.904999999999999
 31
0.0
  0
LINE
  5
31D
330
18
100
AcDbEntity
  8
Object
100
AcDbLine
 10
9.128
 20
8.904999999999999
 30
0.0
 11
9.118
 21
8.894
 31
0.0
  0
LINE
  5
31E
330
18
100
AcDbEntity
  8
Object
100
AcDbLine
 10
9.118
 20
8.894
 30
0.0
 11
9.104
 21
8.888999999999999
 31
0.0
  0
LINE
  5
31F
330
18
100
AcDbEntity
  8
Object
100
AcDbLine
 10
9.144999999999999
 20
8.981999999999999
 30
0.0
 11
9.159
 21
8.987
 31
0.0
  0
LINE
  5
320
330
18
100
AcDbEntity
  8
Object
100
AcDbLine
 10
10.391
 20
9.22
 30
0.0
 11
9.034
 21
9.101
 31
0.0
  0
LINE
  5
321
330
18
100
AcDbEntity
  8
Object
100
AcDbLine
 10
9.009999999999999
 20
9.086
 30
0.0
 11
9.019999999999999
 21
9.096
 31
0.0
  0
LINE
  5
322
330
18
100
AcDbEntity
  8
Object
100
AcDbLine
 10
9.019999999999999
 20
9.096
 30
0.0
 11
9.034
 21
9.101
 31
0.0
  0
LINE
  5
323
330
18
100
AcDbEntity
  8
Object
100
AcDbLine
 10
9.006
 20
9.070999999999999
 30
0.0
 11
9.006
 21
9.003
 31
0.0
  0
LINE
  5
324
330
18
100
AcDbEntity
  8
Object
100
AcDbLine
 10
9.134999999999999
 20
8.971
 30
0.0
 11
9.144999999999999
 21
8.981999999999999
 31
0.0
  0
LINE
  5
325
330
18
100
AcDbEntity
  8
Object
100
AcDbLine
 10
9.009999999999999
 20
9.086
 30
0.0
 11
9.006
 21
9.070999999999999
 31
0.0
  0
LINE
  5
326
330
18
100
AcDbEntity
  8
Object
100
AcDbLine
 10
9.131
 20
8.957
 30
0.0
 11
9.134999999999999
 21
8.971
 31
0.0
  0
LINE
  5
327
330
18
100
AcDbEntity
  8
Object
100
AcDbLine
 10
9.006
 20
9.003
 30
0.0
 11
9.003
 21
8.989
 31
0.0
  0
LINE
  5
328
330
18
100
AcDbEntity
  8
Object
100
AcDbLine
 10
9.131
 20
8.919
 30
0.0
 11
9.131
 21
8.957
 31
0.0
  0
LINE
  5
329
330
18
100
AcDbEntity
  8
Object
100
AcDbLine
 10
9.003
 20
8.989
 30
0.0
 11
8.993
 21
8.977999999999999
 31
0.0
  0
LINE
  5
32A
330
18
100
AcDbEntity
  8
Object
100
AcDbLine
 10
8.993
 20
8.977999999999999
 30
0.0
 11
8.979
 21
8.973
 31
0.0
  0
LINE
  5
32B
330
18
100
AcDbEntity
  8
Object
100
AcDbLine
 10
4.322
 20
7.883
 30
0.0
 11
4.318999999999999
 21
7.895999999999999
 31
0.0
  0
LINE
  5
32C
330
18
100
AcDbEntity
  8
Object
100
AcDbLine
 10
4.298
 20
7.908999999999999
 30
0.0
 11
4.310999999999999
 21
7.905
 31
0.0
  0
LINE
  5
32D
330
18
100
AcDbEntity
  8
Object
100
AcDbLine
 10
4.310999999999999
 20
7.905
 30
0.0
 11
4.318999999999999
 21
7.895999999999999
 31
0.0
  0
LINE
  5
32E
330
18
100
AcDbEntity
  8
Object
100
AcDbLine
 10
4.322
 20
7.883
 30
0.0
 11
4.318999999999999
 21
7.871
 31
0.0
  0
LINE
  5
32F
330
18
100
AcDbEntity
  8
Object
100
AcDbLine
 10
4.318999999999999
 20
7.871
 30
0.0
 11
4.309
 21
7.862
 31
0.0
  0
LINE
  5
330
330
18
100
AcDbEntity
  8
Object
100
AcDbLine
 10
4.309
 20
7.862
 30
0.0
 11
4.296999999999999
 21
7.858999999999999
 31
0.0
  0
LINE
  5
331
330
18
100
AcDbEntity
  8
Object
100
AcDbLine
 10
4.296999999999999
 20
7.858999999999999
 30
0.0
 11
4.296
 21
7.858999999999999
 31
0.0
  0
LINE
  5
332
330
18
100
AcDbEntity
  8
Object
100
AcDbLine
 10
4.296
 20
7.858999999999999
 30
0.0
 11
4.259999999999999
 21
7.863999999999999
 31
0.0
  0
LINE
  5
333
330
18
100
AcDbEntity
  8
Object
100
AcDbLine
 10
4.298
 20
7.908999999999999
 30
0.0
 11
4.267999999999999
 21
7.914
 31
0.0
  0
LINE
  5
334
330
18
100
AcDbEntity
  8
Object
100
AcDbLine
 10
4.245
 20
8.464
 30
0.0
 11
9.104
 21
8.888999999999999
 31
0.0
  0
LINE
  5
335
330
18
100
AcDbEntity
  8
Object
100
AcDbLine
 10
4.267999999999999
 20
7.914
 30
0.0
 11
4.238
 21
7.924999999999999
 31
0.0
  0
LINE
  5
336
330
18
100
AcDbEntity
  8
Object
100
AcDbLine
 10
4.259999999999999
 20
7.863999999999999
 30
0.0
 11
4.225999999999999
 21
7.876
 31
0.0
  0
LINE
  5
337
330
18
100
AcDbEntity
  8
Object
100
AcDbLine
 10
4.225999999999999
 20
7.876
 30
0.0
 11
4.193999999999999
 21
7.892999999999999
 31
0.0
  0
LINE
  5
338
330
18
100
AcDbEntity
  8
Object
100
AcDbLine
 10
4.238
 20
7.924999999999999
 30
0.0
 11
4.211999999999999
 21
7.940999999999999
 31
0.0
  0
LINE
  5
339
330
18
100
AcDbEntity
  8
Object
100
AcDbLine
 10
4.179999999999999
 20
8.327999999999999
 30
0.0
 11
4.179999999999999
 21
8.293000000000001
 31
0.0
  0
LINE
  5
33A
330
18
100
AcDbEntity
  8
Object
100
AcDbLine
 10
4.232999999999999
 20
8.285
 30
0.0
 11
4.235
 21
8.326
 31
0.0
  0
LINE
  5
33B
330
18
100
AcDbEntity
  8
Object
100
AcDbLine
 10
4.235
 20
8.326
 30
0.0
 11
4.230999999999999
 21
8.448
 31
0.0
  0
LINE
  5
33C
330
18
100
AcDbEntity
  8
Object
100
AcDbLine
 10
4.224999999999999
 20
8.243999999999999
 30
0.0
 11
4.232999999999999
 21
8.285
 31
0.0
  0
LINE
  5
33D
330
18
100
AcDbEntity
  8
Object
100
AcDbLine
 10
4.179999999999999
 20
8.293000000000001
 30
0.0
 11
4.174
 21
8.259
 31
0.0
  0
LINE
  5
33E
330
18
100
AcDbEntity
  8
Object
100
AcDbLine
 10
4.169999999999999
 20
8.442
 30
0.0
 11
4.179999999999999
 21
8.327999999999999
 31
0.0
  0
LINE
  5
33F
330
18
100
AcDbEntity
  8
Object
100
AcDbLine
 10
4.230999999999999
 20
8.448
 30
0.0
 11
4.232999999999999
 21
8.455999999999999
 31
0.0
  0
LINE
  5
340
330
18
100
AcDbEntity
  8
Object
100
AcDbLine
 10
4.166999999999999
 20
8.448999999999999
 30
0.0
 11
4.169999999999999
 21
8.442
 31
0.0
  0
LINE
  5
341
330
18
100
AcDbEntity
  8
Object
100
AcDbLine
 10
4.211999999999999
 20
7.940999999999999
 30
0.0
 11
4.19
 21
7.963
 31
0.0
  0
LINE
  5
342
330
18
100
AcDbEntity
  8
Object
100
AcDbLine
 10
4.166
 20
7.916
 30
0.0
 11
4.193999999999999
 21
7.892999999999999
 31
0.0
  0
LINE
  5
343
330
18
100
AcDbEntity
  8
Object
100
AcDbLine
 10
4.174
 20
8.259
 30
0.0
 11
4.161999999999999
 21
8.227
 31
0.0
  0
LINE
  5
344
330
18
100
AcDbEntity
  8
Object
100
AcDbLine
 10
4.209
 20
8.205999999999999
 30
0.0
 11
4.224999999999999
 21
8.243999999999999
 31
0.0
  0
LINE
  5
345
330
18
100
AcDbEntity
  8
Object
100
AcDbLine
 10
4.161
 20
8.454
 30
0.0
 11
4.166999999999999
 21
8.448999999999999
 31
0.0
  0
LINE
  5
346
330
18
100
AcDbEntity
  8
Object
100
AcDbLine
 10
4.232999999999999
 20
8.455999999999999
 30
0.0
 11
4.238
 21
8.461
 31
0.0
  0
LINE
  5
347
330
18
100
AcDbEntity
  8
Object
100
AcDbLine
 10
4.238
 20
8.461
 30
0.0
 11
4.245
 21
8.464
 31
0.0
  0
LINE
  5
348
330
18
100
AcDbEntity
  8
Object
100
AcDbLine
 10
4.153999999999999
 20
8.455999999999999
 30
0.0
 11
4.161
 21
8.454
 31
0.0
  0
LINE
  5
349
330
18
100
AcDbEntity
  8
Object
100
AcDbLine
 10
4.187999999999999
 20
8.170999999999999
 30
0.0
 11
4.209
 21
8.205999999999999
 31
0.0
  0
LINE
  5
34A
330
18
100
AcDbEntity
  8
Object
100
AcDbLine
 10
4.161999999999999
 20
8.227
 30
0.0
 11
4.145
 21
8.197
 31
0.0
  0
LINE
  5
34B
330
18
100
AcDbEntity
  8
Object
100
AcDbLine
 10
4.142
 20
7.943
 30
0.0
 11
4.166
 21
7.916
 31
0.0
  0
LINE
  5
34C
330
18
100
AcDbEntity
  8
Object
100
AcDbLine
 10
4.19
 20
7.963
 30
0.0
 11
4.171999999999999
 21
7.988999999999999
 31
0.0
  0
LINE
  5
34D
330
18
100
AcDbEntity
  8
Object
100
AcDbLine
 10
4.145
 20
8.197
 30
0.0
 11
4.125
 21
8.162
 31
0.0
  0
LINE
  5
34E
330
18
100
AcDbEntity
  8
Object
100
AcDbLine
 10
4.171
 20
8.143
 30
0.0
 11
4.187999999999999
 21
8.170999999999999
 31
0.0
  0
LINE
  5
34F
330
18
100
AcDbEntity
  8
Object
100
AcDbLine
 10
4.171999999999999
 20
7.988999999999999
 30
0.0
 11
4.16
 21
8.018
 31
0.0
  0
LINE
  5
350
330
18
100
AcDbEntity
  8
Object
100
AcDbLine
 10
4.123
 20
7.974
 30
0.0
 11
4.142
 21
7.943
 31
0.0
  0
LINE
  5
351
330
18
100
AcDbEntity
  8
Object
100
AcDbLine
 10
4.125
 20
8.162
 30
0.0
 11
4.110999999999999
 21
8.124
 31
0.0
  0
LINE
  5
352
330
18
100
AcDbEntity
  8
Object
100
AcDbLine
 10
4.110999999999999
 20
8.008
 30
0.0
 11
4.123
 21
7.974
 31
0.0
  0
LINE
  5
353
330
18
100
AcDbEntity
  8
Object
100
AcDbLine
 10
4.16
 20
8.018
 30
0.0
 11
4.153999999999999
 21
8.048
 31
0.0
  0
LINE
  5
354
330
18
100
AcDbEntity
  8
Object
100
AcDbLine
 10
4.16
 20
8.112999999999999
 30
0.0
 11
4.171
 21
8.143
 31
0.0
  0
LINE
  5
355
330
18
100
AcDbEntity
  8
Object
100
AcDbLine
 10
4.110999999999999
 20
8.124
 30
0.0
 11
4.104
 21
8.083999999999999
 31
0.0
  0
LINE
  5
356
330
18
100
AcDbEntity
  8
Object
100
AcDbLine
 10
4.16
 20
8.112999999999999
 30
0.0
 11
4.153999999999999
 21
8.080999999999999
 31
0.0
  0
LINE
  5
357
330
18
100
AcDbEntity
  8
Object
100
AcDbLine
 10
4.153999999999999
 20
8.080999999999999
 30
0.0
 11
4.153999999999999
 21
8.048
 31
0.0
  0
LINE
  5
358
330
18
100
AcDbEntity
  8
Object
100
AcDbLine
 10
4.110999999999999
 20
8.008
 30
0.0
 11
4.104
 21
8.044
 31
0.0
  0
LINE
  5
359
330
18
100
AcDbEntity
  8
Object
100
AcDbLine
 10
4.104
 20
8.044
 30
0.0
 11
4.104
 21
8.083999999999999
 31
0.0
  0
LINE
  5
35A
330
18
100
AcDbEntity
  8
Object
100
AcDbLine
 10
8.979
 20
8.973
 30
0.0
 11
4.008
 21
8.538
 31
0.0
  0
LINE
  5
35B
330
18
100
AcDbEntity
  8
Object
100
AcDbLine
 10
4.153999999999999
 20
8.455999999999999
 30
0.0
 11
4.016
 21
8.444
 31
0.0
  0
LINE
  5
35C
330
18
100
AcDbEntity
  8
Object
100
AcDbLine
 10
4.016
 20
8.444
 30
0.0
 11
3.972999999999999
 21
8.436999999999999
 31
0.0
  0
LINE
  5
35D
330
18
100
AcDbEntity
  8
Object
100
AcDbLine
 10
4.008
 20
8.538
 30
0.0
 11
3.955
 21
8.529999999999999
 31
0.0
  0
LINE
  5
35E
330
18
100
AcDbEntity
  8
Object
100
AcDbLine
 10
3.955
 20
8.529999999999999
 30
0.0
 11
3.903999999999999
 21
8.513999999999999
 31
0.0
  0
LINE
  5
35F
330
18
100
AcDbEntity
  8
Object
100
AcDbLine
 10
3.931
 20
8.423
 30
0.0
 11
3.972999999999999
 21
8.436999999999999
 31
0.0
  0
LINE
  5
360
330
18
100
AcDbEntity
  8
Object
100
AcDbLine
 10
3.909
 20
7.842999999999999
 30
0.0
 11
3.925
 21
7.834
 31
0.0
  0
LINE
  5
361
330
18
100
AcDbEntity
  8
Object
100
AcDbLine
 10
3.925
 20
7.834
 30
0.0
 11
3.937
 21
7.82
 31
0.0
  0
LINE
  5
362
330
18
100
AcDbEntity
  8
Object
100
AcDbLine
 10
3.937
 20
7.82
 30
0.0
 11
3.942
 21
7.802
 31
0.0
  0
LINE
  5
363
330
18
100
AcDbEntity
  8
Object
100
AcDbLine
 10
3.942
 20
7.802
 30
0.0
 11
3.939999999999999
 21
7.783
 31
0.0
  0
LINE
  5
364
330
18
100
AcDbEntity
  8
Object
100
AcDbLine
 10
3.939999999999999
 20
7.783
 30
0.0
 11
3.931
 21
7.767
 31
0.0
  0
LINE
  5
365
330
18
100
AcDbEntity
  8
Object
100
AcDbLine
 10
3.931
 20
7.767
 30
0.0
 11
3.917
 21
7.756
 31
0.0
  0
LINE
  5
366
330
18
100
AcDbEntity
  8
Object
100
AcDbLine
 10
3.917
 20
7.756
 30
0.0
 11
3.899
 21
7.75
 31
0.0
  0
LINE
  5
367
330
18
100
AcDbEntity
  8
Object
100
AcDbLine
 10
3.909
 20
7.842999999999999
 30
0.0
 11
3.89
 21
7.844999999999999
 31
0.0
  0
LINE
  5
368
330
18
100
AcDbEntity
  8
Object
100
AcDbLine
 10
3.891999999999999
 20
8.402000000000001
 30
0.0
 11
3.931
 21
8.423
 31
0.0
  0
LINE
  5
369
330
18
100
AcDbEntity
  8
Object
100
AcDbLine
 10
3.903999999999999
 20
8.513999999999999
 30
0.0
 11
3.855999999999999
 21
8.490999999999999
 31
0.0
  0
LINE
  5
36A
330
18
100
AcDbEntity
  8
Object
100
AcDbLine
 10
3.89
 20
7.844999999999999
 30
0.0
 11
3.842999999999999
 21
7.841
 31
0.0
  0
LINE
  5
36B
330
18
100
AcDbEntity
  8
Object
100
AcDbLine
 10
3.899
 20
7.75
 30
0.0
 11
3.850999999999999
 21
7.746
 31
0.0
  0
LINE
  5
36C
330
18
100
AcDbEntity
  8
Object
100
AcDbLine
 10
3.850999999999999
 20
7.746
 30
0.0
 11
3.846999999999999
 21
7.746
 31
0.0
  0
LINE
  5
36D
330
18
100
AcDbEntity
  8
Object
100
AcDbLine
 10
3.842999999999999
 20
7.841
 30
0.0
 11
3.842
 21
7.841
 31
0.0
  0
LINE
  5
36E
330
18
100
AcDbEntity
  8
Object
100
AcDbLine
 10
3.842
 20
7.841
 30
0.0
 11
3.839999999999999
 21
7.841
 31
0.0
  0
LINE
  5
36F
330
18
100
AcDbEntity
  8
Object
100
AcDbLine
 10
3.846999999999999
 20
7.746
 30
0.0
 11
3.842999999999999
 21
7.746
 31
0.0
  0
LINE
  5
370
330
18
100
AcDbEntity
  8
Object
100
AcDbLine
 10
3.842999999999999
 20
7.746
 30
0.0
 11
3.838
 21
7.746
 31
0.0
  0
LINE
  5
371
330
18
100
AcDbEntity
  8
Object
100
AcDbLine
 10
3.839999999999999
 20
7.841
 30
0.0
 11
3.838
 21
7.841
 31
0.0
  0
LINE
  5
372
330
18
100
AcDbEntity
  8
Object
100
AcDbLine
 10
3.855999999999999
 20
8.490999999999999
 30
0.0
 11
3.810999999999999
 21
8.461
 31
0.0
  0
LINE
  5
373
330
18
100
AcDbEntity
  8
Object
100
AcDbLine
 10
3.857
 20
8.375999999999999
 30
0.0
 11
3.891999999999999
 21
8.402000000000001
 31
0.0
  0
LINE
  5
374
330
18
100
AcDbEntity
  8
Object
100
AcDbLine
 10
3.807
 20
7.749
 30
0.0
 11
3.838
 21
7.746
 31
0.0
  0
LINE
  5
375
330
18
100
AcDbEntity
  8
Object
100
AcDbLine
 10
3.838
 20
7.841
 30
0.0
 11
3.817999999999999
 21
7.844
 31
0.0
  0
LINE
  5
376
330
18
100
AcDbEntity
  8
Object
100
AcDbLine
 10
3.777
 20
7.759
 30
0.0
 11
3.807
 21
7.749
 31
0.0
  0
LINE
  5
377
330
18
100
AcDbEntity
  8
Object
100
AcDbLine
 10
3.826
 20
8.345
 30
0.0
 11
3.857
 21
8.375999999999999
 31
0.0
  0
LINE
  5
378
330
18
100
AcDbEntity
  8
Object
100
AcDbLine
 10
3.810999999999999
 20
8.461
 30
0.0
 11
3.770999999999999
 21
8.426
 31
0.0
  0
LINE
  5
379
330
18
100
AcDbEntity
  8
Object
100
AcDbLine
 10
3.817999999999999
 20
7.844
 30
0.0
 11
3.801
 21
7.855
 31
0.0
  0
LINE
  5
37A
330
18
100
AcDbEntity
  8
Object
100
AcDbLine
 10
3.749
 20
7.775
 30
0.0
 11
3.777
 21
7.759
 31
0.0
  0
LINE
  5
37B
330
18
100
AcDbEntity
  8
Object
100
AcDbLine
 10
3.770999999999999
 20
8.426
 30
0.0
 11
3.737
 21
8.384999999999999
 31
0.0
  0
LINE
  5
37C
330
18
100
AcDbEntity
  8
Object
100
AcDbLine
 10
3.801
 20
8.309000000000001
 30
0.0
 11
3.826
 21
8.345
 31
0.0
  0
LINE
  5
37D
330
18
100
AcDbEntity
  8
Object
100
AcDbLine
 10
3.725999999999999
 20
7.796
 30
0.0
 11
3.749
 21
7.775
 31
0.0
  0
LINE
  5
37E
330
18
100
AcDbEntity
  8
Object
100
AcDbLine
 10
3.781
 20
8.269999999999999
 30
0.0
 11
3.801
 21
8.309000000000001
 31
0.0
  0
LINE
  5
37F
330
18
100
AcDbEntity
  8
Object
100
AcDbLine
 10
3.737
 20
8.384999999999999
 30
0.0
 11
3.709
 21
8.339
 31
0.0
  0
LINE
  5
380
330
18
100
AcDbEntity
  8
Object
100
AcDbLine
 10
3.708
 20
7.822
 30
0.0
 11
3.725999999999999
 21
7.796
 31
0.0
  0
LINE
  5
381
330
18
100
AcDbEntity
  8
Object
100
AcDbLine
 10
3.801
 20
7.855
 30
0.0
 11
3.789
 21
7.871
 31
0.0
  0
LINE
  5
382
330
18
100
AcDbEntity
  8
Object
100
AcDbLine
 10
3.789
 20
7.871
 30
0.0
 11
3.784
 21
7.891
 31
0.0
  0
LINE
  5
383
330
18
100
AcDbEntity
  8
Object
100
AcDbLine
 10
3.708
 20
7.822
 30
0.0
 11
3.695
 21
7.850999999999999
 31
0.0
  0
LINE
  5
384
330
18
100
AcDbEntity
  8
Object
100
AcDbLine
 10
3.695
 20
7.850999999999999
 30
0.0
 11
3.689
 21
7.883
 31
0.0
  0
LINE
  5
385
330
18
100
AcDbEntity
  8
Object
100
AcDbLine
 10
3.709
 20
8.339
 30
0.0
 11
3.687
 21
8.29
 31
0.0
  0
LINE
  5
386
330
18
100
AcDbEntity
  8
Object
100
AcDbLine
 10
3.781
 20
8.269999999999999
 30
0.0
 11
3.768
 21
8.227999999999999
 31
0.0
  0
LINE
  5
387
330
18
100
AcDbEntity
  8
Object
100
AcDbLine
 10
3.768
 20
8.227999999999999
 30
0.0
 11
3.761
 21
8.184000000000001
 31
0.0
  0
LINE
  5
388
330
18
100
AcDbEntity
  8
Object
100
AcDbLine
 10
3.687
 20
8.29
 30
0.0
 11
3.673
 21
8.239
 31
0.0
  0
LINE
  5
389
330
18
100
AcDbEntity
  8
Object
100
AcDbLine
 10
3.667
 20
8.131999999999999
 30
0.0
 11
3.689
 21
7.883
 31
0.0
  0
LINE
  5
38A
330
18
100
AcDbEntity
  8
Object
100
AcDbLine
 10
3.784
 20
7.891
 30
0.0
 11
3.762
 21
8.14
 31
0.0
  0
LINE
  5
38B
330
18
100
AcDbEntity
  8
Object
100
AcDbLine
 10
3.673
 20
8.239
 30
0.0
 11
3.665999999999999
 21
8.185999999999999
 31
0.0
  0
LINE
  5
38C
330
18
100
AcDbEntity
  8
Object
100
AcDbLine
 10
3.762
 20
8.14
 30
0.0
 11
3.761
 21
8.184000000000001
 31
0.0
  0
LINE
  5
38D
330
18
100
AcDbEntity
  8
Object
100
AcDbLine
 10
3.665999999999999
 20
8.185999999999999
 30
0.0
 11
3.667
 21
8.131999999999999
 31
0.0
  0
LINE
  5
38E
330
18
100
AcDbEntity
  8
Object
100
AcDbLine
 10
3.842999999999999
 20
7.841
 30
0.0
 11
3.842
 21
7.841
 31
0.0
  0
LINE
  5
38F
330
18
100
AcDbEntity
  8
Object
100
AcDbLine
 10
3.842
 20
7.841
 30
0.0
 11
3.839999999999999
 21
7.841
 31
0.0
  0
LINE
  5
390
330
18
100
AcDbEntity
  8
Object
100
AcDbLine
 10
3.839999999999999
 20
7.841
 30
0.0
 11
3.838
 21
7.841
 31
0.0
  0
LINE
  5
391
330
18
100
AcDbEntity
  8
Object
100
AcDbLine
 10
3.784
 20
7.891
 30
0.0
 11
3.762
 21
8.14
 31
0.0
  0
LINE
  5
392
330
18
100
AcDbEntity
  8
Object
100
AcDbLine
 10
11.748
 20
9.101
 30
0.0
 11
10.391
 21
9.22
 31
0.0
  0
LINE
  5
393
330
18
100
AcDbEntity
  8
Object
100
AcDbLine
 10
9.006
 20
9.070999999999999
 30
0.0
 11
9.006
 21
9.003
 31
0.0
  0
LINE
  5
394
330
18
100
AcDbEntity
  8
Object
100
AcDbLine
 10
4.318999999999999
 20
7.871
 30
0.0
 11
4.322
 21
7.883
 31
0.0
  0
LINE
  5
395
330
18
100
AcDbEntity
  8
Object
100
AcDbLine
 10
4.322
 20
7.883
 30
0.0
 11
4.318999999999999
 21
7.895999999999999
 31
0.0
  0
LINE
  5
396
330
18
100
AcDbEntity
  8
Object
100
AcDbLine
 10
4.318999999999999
 20
7.895999999999999
 30
0.0
 11
4.310999999999999
 21
7.905
 31
0.0
  0
LINE
  5
397
330
18
100
AcDbEntity
  8
Object
100
AcDbLine
 10
4.309
 20
7.862
 30
0.0
 11
4.318999999999999
 21
7.871
 31
0.0
  0
LINE
  5
398
330
18
100
AcDbEntity
  8
Object
100
AcDbLine
 10
4.310999999999999
 20
7.905
 30
0.0
 11
4.298
 21
7.908999999999999
 31
0.0
  0
LINE
  5
399
330
18
100
AcDbEntity
  8
Object
100
AcDbLine
 10
4.296999999999999
 20
7.858999999999999
 30
0.0
 11
4.309
 21
7.862
 31
0.0
  0
LINE
  5
39A
330
18
100
AcDbEntity
  8
Object
100
AcDbLine
 10
9.131
 20
8.919
 30
0.0
 11
9.131
 21
8.957
 31
0.0
  0
LINE
  5
39B
330
18
100
AcDbEntity
  8
Object
100
AcDbLine
 10
10.85
 20
8.361
 30
0.0
 11
10.85
 21
8.371
 31
0.0
  0
LINE
  5
39C
330
18
100
AcDbEntity
  8
Object
100
AcDbLine
 10
10.85
 20
8.371
 30
0.0
 11
10.846
 21
8.381
 31
0.0
  0
LINE
  5
39D
330
18
100
AcDbEntity
  8
Object
100
AcDbLine
 10
10.85
 20
8.361
 30
0.0
 11
10.846
 21
8.351
 31
0.0
  0
LINE
  5
39E
330
18
100
AcDbEntity
  8
Object
100
AcDbLine
 10
10.846
 20
8.381
 30
0.0
 11
10.838
 21
8.387999999999999
 31
0.0
  0
LINE
  5
39F
330
18
100
AcDbEntity
  8
Object
100
AcDbLine
 10
10.838
 20
8.387999999999999
 30
0.0
 11
10.828
 21
8.391
 31
0.0
  0
LINE
  5
3A0
330
18
100
AcDbEntity
  8
Object
100
AcDbLine
 10
9.006
 20
9.003
 30
0.0
 11
9.003
 21
8.989
 31
0.0
  0
LINE
  5
3A1
330
18
100
AcDbEntity
  8
Object
100
AcDbLine
 10
9.003
 20
8.989
 30
0.0
 11
8.993
 21
8.977999999999999
 31
0.0
  0
LINE
  5
3A2
330
18
100
AcDbEntity
  8
Object
100
AcDbLine
 10
8.993
 20
8.977999999999999
 30
0.0
 11
8.979
 21
8.973
 31
0.0
  0
LINE
  5
3A3
330
18
100
AcDbEntity
  8
Object
100
AcDbLine
 10
4.008
 20
8.538
 30
0.0
 11
3.955
 21
8.529999999999999
 31
0.0
  0
LINE
  5
3A4
330
18
100
AcDbEntity
  8
Object
100
AcDbLine
 10
3.955
 20
8.529999999999999
 30
0.0
 11
3.903999999999999
 21
8.513999999999999
 31
0.0
  0
LINE
  5
3A5
330
18
100
AcDbEntity
  8
Object
100
AcDbLine
 10
3.903999999999999
 20
8.513999999999999
 30
0.0
 11
3.855999999999999
 21
8.490999999999999
 31
0.0
  0
LINE
  5
3A6
330
18
100
AcDbEntity
  8
Object
100
AcDbLine
 10
3.855999999999999
 20
8.490999999999999
 30
0.0
 11
3.810999999999999
 21
8.461
 31
0.0
  0
LINE
  5
3A7
330
18
100
AcDbEntity
  8
Object
100
AcDbLine
 10
3.810999999999999
 20
8.461
 30
0.0
 11
3.770999999999999
 21
8.426
 31
0.0
  0
LINE
  5
3A8
330
18
100
AcDbEntity
  8
Object
100
AcDbLine
 10
3.770999999999999
 20
8.426
 30
0.0
 11
3.737
 21
8.384999999999999
 31
0.0
  0
LINE
  5
3A9
330
18
100
AcDbEntity
  8
Object
100
AcDbLine
 10
3.737
 20
8.384999999999999
 30
0.0
 11
3.709
 21
8.339
 31
0.0
  0
LINE
  5
3AA
330
18
100
AcDbEntity
  8
Object
100
AcDbLine
 10
3.709
 20
8.339
 30
0.0
 11
3.687
 21
8.29
 31
0.0
  0
LINE
  5
3AB
330
18
100
AcDbEntity
  8
Object
100
AcDbLine
 10
3.687
 20
8.29
 30
0.0
 11
3.673
 21
8.239
 31
0.0
  0
LINE
  5
3AC
330
18
100
AcDbEntity
  8
Object
100
AcDbLine
 10
3.673
 20
8.239
 30
0.0
 11
3.665999999999999
 21
8.185999999999999
 31
0.0
  0
LINE
  5
3AD
330
18
100
AcDbEntity
  8
Object
100
AcDbLine
 10
3.665999999999999
 20
8.185999999999999
 30
0.0
 11
3.667
 21
8.131999999999999
 31
0.0
  0
LINE
  5
3AE
330
18
100
AcDbEntity
  8
Object
100
AcDbLine
 10
4.187999999999999
 20
8.170999999999999
 30
0.0
 11
4.171
 21
8.143
 31
0.0
  0
LINE
  5
3AF
330
18
100
AcDbEntity
  8
Object
100
AcDbLine
 10
4.171
 20
8.143
 30
0.0
 11
4.16
 21
8.112999999999999
 31
0.0
  0
LINE
  5
3B0
330
18
100
AcDbEntity
  8
Object
100
AcDbLine
 10
4.16
 20
8.112999999999999
 30
0.0
 11
4.153999999999999
 21
8.080999999999999
 31
0.0
  0
LINE
  5
3B1
330
18
100
AcDbEntity
  8
Object
100
AcDbLine
 10
4.153999999999999
 20
8.080999999999999
 30
0.0
 11
4.153999999999999
 21
8.048
 31
0.0
  0
LINE
  5
3B2
330
18
100
AcDbEntity
  8
Object
100
AcDbLine
 10
3.850999999999999
 20
7.746
 30
0.0
 11
3.846999999999999
 21
7.746
 31
0.0
  0
LINE
  5
3B3
330
18
100
AcDbEntity
  8
Object
100
AcDbLine
 10
3.846999999999999
 20
7.746
 30
0.0
 11
3.842999999999999
 21
7.746
 31
0.0
  0
LINE
  5
3B4
330
18
100
AcDbEntity
  8
Object
100
AcDbLine
 10
3.842999999999999
 20
7.746
 30
0.0
 11
3.838
 21
7.746
 31
0.0
  0
LINE
  5
3B5
330
18
100
AcDbEntity
  8
Object
100
AcDbLine
 10
4.296999999999999
 20
7.858999999999999
 30
0.0
 11
4.296999999999999
 21
7.858
 31
0.0
  0
LINE
  5
3B6
330
18
100
AcDbEntity
  8
Object
100
AcDbLine
 10
4.296999999999999
 20
7.858
 30
0.0
 11
4.296999999999999
 21
7.858999999999999
 31
0.0
  0
LINE
  5
3B7
330
18
100
AcDbEntity
  8
Object
100
AcDbLine
 10
4.296
 20
7.858
 30
0.0
 11
4.296
 21
7.858999999999999
 31
0.0
  0
LINE
  5
3B8
330
18
100
AcDbEntity
  8
Object
100
AcDbLine
 10
4.296
 20
7.858999999999999
 30
0.0
 11
4.296999999999999
 21
7.858999999999999
 31
0.0
  0
LINE
  5
3B9
330
18
100
AcDbEntity
  8
Object
100
AcDbLine
 10
4.296
 20
7.858999999999999
 30
0.0
 11
4.296
 21
7.858
 31
0.0
  0
LINE
  5
3BA
330
18
100
AcDbEntity
  8
Object
100
AcDbLine
 10
4.245
 20
8.464
 30
0.0
 11
4.238
 21
8.461
 31
0.0
  0
LINE
  5
3BB
330
18
100
AcDbEntity
  8
Object
100
AcDbLine
 10
4.238
 20
8.461
 30
0.0
 11
4.232999999999999
 21
8.455999999999999
 31
0.0
  0
LINE
  5
3BC
330
18
100
AcDbEntity
  8
Object
100
AcDbLine
 10
4.232999999999999
 20
8.455999999999999
 30
0.0
 11
4.230999999999999
 21
8.448
 31
0.0
  0
LINE
  5
3BD
330
18
100
AcDbEntity
  8
Object
100
AcDbLine
 10
4.245
 20
8.464
 30
0.0
 11
9.104
 21
8.888999999999999
 31
0.0
  0
LINE
  5
3BE
330
18
100
AcDbEntity
  8
Object
100
AcDbLine
 10
10.981
 20
8.336999999999999
 30
0.0
 11
10.959
 21
8.295999999999999
 31
0.0
  0
LINE
  5
3BF
330
18
100
AcDbEntity
  8
Object
100
AcDbLine
 10
10.959
 20
8.295999999999999
 30
0.0
 11
10.932
 21
8.259999999999999
 31
0.0
  0
LINE
  5
3C0
330
18
100
AcDbEntity
  8
Object
100
AcDbLine
 10
10.932
 20
8.259999999999999
 30
0.0
 11
10.9
 21
8.227
 31
0.0
  0
LINE
  5
3C1
330
18
100
AcDbEntity
  8
Object
100
AcDbLine
 10
10.9
 20
8.227
 30
0.0
 11
10.864
 21
8.198999999999999
 31
0.0
  0
LINE
  5
3C2
330
18
100
AcDbEntity
  8
Object
100
AcDbLine
 10
10.864
 20
8.198999999999999
 30
0.0
 11
10.824
 21
8.176999999999999
 31
0.0
  0
LINE
  5
3C3
330
18
100
AcDbEntity
  8
Object
100
AcDbLine
 10
10.824
 20
8.176999999999999
 30
0.0
 11
10.781
 21
8.160999999999999
 31
0.0
  0
LINE
  5
3C4
330
18
100
AcDbEntity
  8
Object
100
AcDbLine
 10
10.781
 20
8.160999999999999
 30
0.0
 11
10.736
 21
8.150999999999999
 31
0.0
  0
LINE
  5
3C5
330
18
100
AcDbEntity
  8
Object
100
AcDbLine
 10
10.736
 20
8.150999999999999
 30
0.0
 11
10.691
 21
8.147999999999999
 31
0.0
  0
LINE
  5
3C6
330
18
100
AcDbEntity
  8
Object
100
AcDbLine
 10
10.99
 20
8.365
 30
0.0
 11
10.991
 21
8.394999999999999
 31
0.0
  0
LINE
  5
3C7
330
18
100
AcDbEntity
  8
Object
100
AcDbLine
 10
10.991
 20
8.394999999999999
 30
0.0
 11
10.986
 21
8.423999999999999
 31
0.0
  0
LINE
  5
3C8
330
18
100
AcDbEntity
  8
Object
100
AcDbLine
 10
10.981
 20
8.336999999999999
 30
0.0
 11
10.99
 21
8.365
 31
0.0
  0
LINE
  5
3C9
330
18
100
AcDbEntity
  8
Object
100
AcDbLine
 10
10.986
 20
8.423999999999999
 30
0.0
 11
10.974
 21
8.451
 31
0.0
  0
LINE
  5
3CA
330
18
100
AcDbEntity
  8
Object
100
AcDbLine
 10
10.974
 20
8.451
 30
0.0
 11
10.956
 21
8.474
 31
0.0
  0
LINE
  5
3CB
330
18
100
AcDbEntity
  8
Object
100
AcDbLine
 10
10.956
 20
8.474
 30
0.0
 11
10.933
 21
8.493
 31
0.0
  0
LINE
  5
3CC
330
18
100
AcDbEntity
  8
Object
100
AcDbLine
 10
10.933
 20
8.493
 30
0.0
 11
10.907
 21
8.506
 31
0.0
  0
LINE
  5
3CD
330
18
100
AcDbEntity
  8
Object
100
AcDbLine
 10
10.907
 20
8.506
 30
0.0
 11
10.878
 21
8.512
 31
0.0
  0
LINE
  5
3CE
330
18
100
AcDbEntity
  8
Object
100
AcDbLine
 10
10.846
 20
8.351
 30
0.0
 11
10.822
 21
8.323999999999999
 31
0.0
  0
LINE
  5
3CF
330
18
100
AcDbEntity
  8
Object
100
AcDbLine
 10
10.822
 20
8.323999999999999
 30
0.0
 11
10.793
 21
8.303
 31
0.0
  0
LINE
  5
3D0
330
18
100
AcDbEntity
  8
Object
100
AcDbLine
 10
10.793
 20
8.303
 30
0.0
 11
10.761
 21
8.285999999999999
 31
0.0
  0
LINE
  5
3D1
330
18
100
AcDbEntity
  8
Object
100
AcDbLine
 10
10.761
 20
8.285999999999999
 30
0.0
 11
10.727
 21
8.275999999999999
 31
0.0
  0
LINE
  5
3D2
330
18
100
AcDbEntity
  8
Object
100
AcDbLine
 10
10.727
 20
8.275999999999999
 30
0.0
 11
10.691
 21
8.272999999999999
 31
0.0
  0
LINE
  5
3D3
330
18
100
AcDbEntity
  8
Object
100
AcDbLine
 10
10.674
 20
8.274
 30
0.0
 11
10.502
 21
8.288999999999999
 31
0.0
  0
LINE
  5
3D4
330
18
100
AcDbEntity
  8
Object
100
AcDbLine
 10
10.484
 20
8.31
 30
0.0
 11
10.549
 21
9.051
 31
0.0
  0
LINE
  5
3D5
330
18
100
AcDbEntity
  8
Object
100
AcDbLine
 10
4.235
 20
8.326
 30
0.0
 11
4.230999999999999
 21
8.448
 31
0.0
  0
LINE
  5
3D6
330
18
100
AcDbEntity
  8
Object
100
AcDbLine
 10
9.131
 20
8.919
 30
0.0
 11
9.128
 21
8.904999999999999
 31
0.0
  0
LINE
  5
3D7
330
18
100
AcDbEntity
  8
Object
100
AcDbLine
 10
9.128
 20
8.904999999999999
 30
0.0
 11
9.118
 21
8.894
 31
0.0
  0
LINE
  5
3D8
330
18
100
AcDbEntity
  8
Object
100
AcDbLine
 10
9.118
 20
8.894
 30
0.0
 11
9.104
 21
8.888999999999999
 31
0.0
  0
LINE
  5
3D9
330
18
100
AcDbEntity
  8
Object
100
AcDbLine
 10
3.667
 20
8.131999999999999
 30
0.0
 11
3.689
 21
7.883
 31
0.0
  0
LINE
  5
3DA
330
18
100
AcDbEntity
  8
Object
100
AcDbLine
 10
3.838
 20
7.746
 30
0.0
 11
3.807
 21
7.749
 31
0.0
  0
LINE
  5
3DB
330
18
100
AcDbEntity
  8
Object
100
AcDbLine
 10
3.807
 20
7.749
 30
0.0
 11
3.777
 21
7.759
 31
0.0
  0
LINE
  5
3DC
330
18
100
AcDbEntity
  8
Object
100
AcDbLine
 10
3.777
 20
7.759
 30
0.0
 11
3.749
 21
7.775
 31
0.0
  0
LINE
  5
3DD
330
18
100
AcDbEntity
  8
Object
100
AcDbLine
 10
3.749
 20
7.775
 30
0.0
 11
3.725999999999999
 21
7.796
 31
0.0
  0
LINE
  5
3DE
330
18
100
AcDbEntity
  8
Object
100
AcDbLine
 10
3.725999999999999
 20
7.796
 30
0.0
 11
3.708
 21
7.822
 31
0.0
  0
LINE
  5
3DF
330
18
100
AcDbEntity
  8
Object
100
AcDbLine
 10
3.708
 20
7.822
 30
0.0
 11
3.695
 21
7.850999999999999
 31
0.0
  0
LINE
  5
3E0
330
18
100
AcDbEntity
  8
Object
100
AcDbLine
 10
3.695
 20
7.850999999999999
 30
0.0
 11
3.689
 21
7.883
 31
0.0
  0
LINE
  5
3E1
330
18
100
AcDbEntity
  8
Object
100
AcDbLine
 10
4.016
 20
8.444
 30
0.0
 11
3.972999999999999
 21
8.436999999999999
 31
0.0
  0
LINE
  5
3E2
330
18
100
AcDbEntity
  8
Object
100
AcDbLine
 10
3.972999999999999
 20
8.436999999999999
 30
0.0
 11
3.931
 21
8.423
 31
0.0
  0
LINE
  5
3E3
330
18
100
AcDbEntity
  8
Object
100
AcDbLine
 10
3.931
 20
8.423
 30
0.0
 11
3.891999999999999
 21
8.402000000000001
 31
0.0
  0
LINE
  5
3E4
330
18
100
AcDbEntity
  8
Object
100
AcDbLine
 10
3.891999999999999
 20
8.402000000000001
 30
0.0
 11
3.857
 21
8.375999999999999
 31
0.0
  0
LINE
  5
3E5
330
18
100
AcDbEntity
  8
Object
100
AcDbLine
 10
3.857
 20
8.375999999999999
 30
0.0
 11
3.826
 21
8.345
 31
0.0
  0
LINE
  5
3E6
330
18
100
AcDbEntity
  8
Object
100
AcDbLine
 10
3.826
 20
8.345
 30
0.0
 11
3.801
 21
8.309000000000001
 31
0.0
  0
LINE
  5
3E7
330
18
100
AcDbEntity
  8
Object
100
AcDbLine
 10
3.801
 20
8.309000000000001
 30
0.0
 11
3.781
 21
8.269999999999999
 31
0.0
  0
LINE
  5
3E8
330
18
100
AcDbEntity
  8
Object
100
AcDbLine
 10
3.781
 20
8.269999999999999
 30
0.0
 11
3.768
 21
8.227999999999999
 31
0.0
  0
LINE
  5
3E9
330
18
100
AcDbEntity
  8
Object
100
AcDbLine
 10
3.768
 20
8.227999999999999
 30
0.0
 11
3.761
 21
8.184000000000001
 31
0.0
  0
LINE
  5
3EA
330
18
100
AcDbEntity
  8
Object
100
AcDbLine
 10
3.761
 20
8.184000000000001
 30
0.0
 11
3.762
 21
8.14
 31
0.0
  0
LINE
  5
3EB
330
18
100
AcDbEntity
  8
Object
100
AcDbLine
 10
10.502
 20
8.288999999999999
 30
0.0
 11
10.492
 21
8.291999999999999
 31
0.0
  0
LINE
  5
3EC
330
18
100
AcDbEntity
  8
Object
100
AcDbLine
 10
10.492
 20
8.291999999999999
 30
0.0
 11
10.486
 21
8.3
 31
0.0
  0
LINE
  5
3ED
330
18
100
AcDbEntity
  8
Object
100
AcDbLine
 10
10.486
 20
8.3
 30
0.0
 11
10.484
 21
8.31
 31
0.0
  0
LINE
  5
3EE
330
18
100
AcDbEntity
  8
Object
100
AcDbLine
 10
10.412
 20
8.170999999999999
 30
0.0
 11
10.663
 21
8.149
 31
0.0
  0
LINE
  5
3EF
330
18
100
AcDbEntity
  8
Object
100
AcDbLine
 10
9.034
 20
9.101
 30
0.0
 11
9.019999999999999
 21
9.096
 31
0.0
  0
LINE
  5
3F0
330
18
100
AcDbEntity
  8
Object
100
AcDbLine
 10
9.019999999999999
 20
9.096
 30
0.0
 11
9.009999999999999
 21
9.086
 31
0.0
  0
LINE
  5
3F1
330
18
100
AcDbEntity
  8
Object
100
AcDbLine
 10
9.009999999999999
 20
9.086
 30
0.0
 11
9.006
 21
9.070999999999999
 31
0.0
  0
LINE
  5
3F2
330
18
100
AcDbEntity
  8
Object
100
AcDbLine
 10
10.581
 20
9.077999999999999
 30
0.0
 11
10.57
 21
9.076999999999999
 31
0.0
  0
LINE
  5
3F3
330
18
100
AcDbEntity
  8
Object
100
AcDbLine
 10
10.57
 20
9.076999999999999
 30
0.0
 11
10.559
 21
9.070999999999999
 31
0.0
  0
LINE
  5
3F4
330
18
100
AcDbEntity
  8
Object
100
AcDbLine
 10
10.559
 20
9.070999999999999
 30
0.0
 11
10.552
 21
9.061999999999999
 31
0.0
  0
LINE
  5
3F5
330
18
100
AcDbEntity
  8
Object
100
AcDbLine
 10
10.552
 20
9.061999999999999
 30
0.0
 11
10.549
 21
9.051
 31
0.0
  0
LINE
  5
3F6
330
18
100
AcDbEntity
  8
Object
100
AcDbLine
 10
10.581
 20
9.077999999999999
 30
0.0
 11
11.764
 21
8.974
 31
0.0
  0
LINE
  5
3F7
330
18
100
AcDbEntity
  8
Object
100
AcDbLine
 10
11.775
 20
8.983999999999999
 30
0.0
 11
11.774
 21
8.98
 31
0.0
  0
LINE
  5
3F8
330
18
100
AcDbEntity
  8
Object
100
AcDbLine
 10
11.774
 20
8.98
 30
0.0
 11
11.772
 21
8.977
 31
0.0
  0
LINE
  5
3F9
330
18
100
AcDbEntity
  8
Object
100
AcDbLine
 10
11.772
 20
8.977
 30
0.0
 11
11.768
 21
8.974999999999999
 31
0.0
  0
LINE
  5
3FA
330
18
100
AcDbEntity
  8
Object
100
AcDbLine
 10
11.768
 20
8.974999999999999
 30
0.0
 11
11.764
 21
8.974
 31
0.0
  0
LINE
  5
3FB
330
18
100
AcDbEntity
  8
Object
100
AcDbLine
 10
3.939999999999999
 20
7.783
 30
0.0
 11
3.942
 21
7.802
 31
0.0
  0
LINE
  5
3FC
330
18
100
AcDbEntity
  8
Object
100
AcDbLine
 10
3.942
 20
7.802
 30
0.0
 11
3.937
 21
7.82
 31
0.0
  0
LINE
  5
3FD
330
18
100
AcDbEntity
  8
Object
100
AcDbLine
 10
3.931
 20
7.767
 30
0.0
 11
3.939999999999999
 21
7.783
 31
0.0
  0
LINE
  5
3FE
330
18
100
AcDbEntity
  8
Object
100
AcDbLine
 10
3.937
 20
7.82
 30
0.0
 11
3.925
 21
7.834
 31
0.0
  0
LINE
  5
3FF
330
18
100
AcDbEntity
  8
Object
100
AcDbLine
 10
3.917
 20
7.756
 30
0.0
 11
3.931
 21
7.767
 31
0.0
  0
LINE
  5
400
330
18
100
AcDbEntity
  8
Object
100
AcDbLine
 10
3.925
 20
7.834
 30
0.0
 11
3.909
 21
7.842999999999999
 31
0.0
  0
LINE
  5
401
330
18
100
AcDbEntity
  8
Object
100
AcDbLine
 10
3.899
 20
7.75
 30
0.0
 11
3.917
 21
7.756
 31
0.0
  0
LINE
  5
402
330
18
100
AcDbEntity
  8
Object
100
AcDbLine
 10
3.909
 20
7.842999999999999
 30
0.0
 11
3.89
 21
7.844999999999999
 31
0.0
  0
LINE
  5
403
330
18
100
AcDbEntity
  8
Object
100
AcDbLine
 10
4.169999999999999
 20
8.442
 30
0.0
 11
4.179999999999999
 21
8.327999999999999
 31
0.0
  0
LINE
  5
404
330
18
100
AcDbEntity
  8
Object
100
AcDbLine
 10
4.179999999999999
 20
8.327999999999999
 30
0.0
 11
4.179999999999999
 21
8.293000000000001
 31
0.0
  0
LINE
  5
405
330
18
100
AcDbEntity
  8
Object
100
AcDbLine
 10
4.179999999999999
 20
8.293000000000001
 30
0.0
 11
4.174
 21
8.259
 31
0.0
  0
LINE
  5
406
330
18
100
AcDbEntity
  8
Object
100
AcDbLine
 10
4.174
 20
8.259
 30
0.0
 11
4.161999999999999
 21
8.227
 31
0.0
  0
LINE
  5
407
330
18
100
AcDbEntity
  8
Object
100
AcDbLine
 10
4.161999999999999
 20
8.227
 30
0.0
 11
4.145
 21
8.197
 31
0.0
  0
LINE
  5
408
330
18
100
AcDbEntity
  8
Object
100
AcDbLine
 10
9.159
 20
8.987
 30
0.0
 11
10.391
 21
9.095
 31
0.0
  0
LINE
  5
409
330
18
100
AcDbEntity
  8
Object
100
AcDbLine
 10
10.391
 20
9.095
 30
0.0
 11
10.397
 21
9.093999999999999
 31
0.0
  0
LINE
  5
40A
330
18
100
AcDbEntity
  8
Object
100
AcDbLine
 10
10.691
 20
8.272999999999999
 30
0.0
 11
10.685
 21
8.272999999999999
 31
0.0
  0
LINE
  5
40B
330
18
100
AcDbEntity
  8
Object
100
AcDbLine
 10
10.685
 20
8.272999999999999
 30
0.0
 11
10.68
 21
8.272999999999999
 31
0.0
  0
LINE
  5
40C
330
18
100
AcDbEntity
  8
Object
100
AcDbLine
 10
10.68
 20
8.272999999999999
 30
0.0
 11
10.674
 21
8.274
 31
0.0
  0
LINE
  5
40D
330
18
100
AcDbEntity
  8
Object
100
AcDbLine
 10
8.979
 20
8.973
 30
0.0
 11
4.008
 21
8.538
 31
0.0
  0
LINE
  5
40E
330
18
100
AcDbEntity
  8
Object
100
AcDbLine
 10
4.235
 20
8.326
 30
0.0
 11
4.232999999999999
 21
8.285
 31
0.0
  0
LINE
  5
40F
330
18
100
AcDbEntity
  8
Object
100
AcDbLine
 10
4.232999999999999
 20
8.285
 30
0.0
 11
4.224999999999999
 21
8.243999999999999
 31
0.0
  0
LINE
  5
410
330
18
100
AcDbEntity
  8
Object
100
AcDbLine
 10
4.224999999999999
 20
8.243999999999999
 30
0.0
 11
4.209
 21
8.205999999999999
 31
0.0
  0
LINE
  5
411
330
18
100
AcDbEntity
  8
Object
100
AcDbLine
 10
4.209
 20
8.205999999999999
 30
0.0
 11
4.187999999999999
 21
8.170999999999999
 31
0.0
  0
LINE
  5
412
330
18
100
AcDbEntity
  8
Object
100
AcDbLine
 10
3.850999999999999
 20
7.746
 30
0.0
 11
3.899
 21
7.75
 31
0.0
  0
LINE
  5
413
330
18
100
AcDbEntity
  8
Object
100
AcDbLine
 10
9.159
 20
8.987
 30
0.0
 11
9.144999999999999
 21
8.981999999999999
 31
0.0
  0
LINE
  5
414
330
18
100
AcDbEntity
  8
Object
100
AcDbLine
 10
9.144999999999999
 20
8.981999999999999
 30
0.0
 11
9.134999999999999
 21
8.971
 31
0.0
  0
LINE
  5
415
330
18
100
AcDbEntity
  8
Object
100
AcDbLine
 10
9.134999999999999
 20
8.971
 30
0.0
 11
9.131
 21
8.957
 31
0.0
  0
LINE
  5
416
330
18
100
AcDbEntity
  8
Object
100
AcDbLine
 10
10.424
 20
9.061999999999999
 30
0.0
 11
10.423
 21
9.073
 31
0.0
  0
LINE
  5
417
330
18
100
AcDbEntity
  8
Object
100
AcDbLine
 10
10.423
 20
9.073
 30
0.0
 11
10.417
 21
9.083
 31
0.0
  0
LINE
  5
418
330
18
100
AcDbEntity
  8
Object
100
AcDbLine
 10
10.417
 20
9.083
 30
0.0
 11
10.408
 21
9.090999999999999
 31
0.0
  0
LINE
  5
419
330
18
100
AcDbEntity
  8
Object
100
AcDbLine
 10
10.408
 20
9.090999999999999
 30
0.0
 11
10.397
 21
9.093999999999999
 31
0.0
  0
LINE
  5
41A
330
18
100
AcDbEntity
  8
Object
100
AcDbLine
 10
11.775
 20
9.070999999999999
 30
0.0
 11
11.771
 21
9.086
 31
0.0
  0
LINE
  5
41B
330
18
100
AcDbEntity
  8
Object
100
AcDbLine
 10
11.771
 20
9.086
 30
0.0
 11
11.762
 21
9.096999999999999
 31
0.0
  0
LINE
  5
41C
330
18
100
AcDbEntity
  8
Object
100
AcDbLine
 10
11.762
 20
9.096999999999999
 30
0.0
 11
11.748
 21
9.101
 31
0.0
  0
LINE
  5
41D
330
18
100
AcDbEntity
  8
Object
100
AcDbLine
 10
4.296
 20
7.858999999999999
 30
0.0
 11
4.259999999999999
 21
7.863999999999999
 31
0.0
  0
LINE
  5
41E
330
18
100
AcDbEntity
  8
Object
100
AcDbLine
 10
4.259999999999999
 20
7.863999999999999
 30
0.0
 11
4.225999999999999
 21
7.876
 31
0.0
  0
LINE
  5
41F
330
18
100
AcDbEntity
  8
Object
100
AcDbLine
 10
4.225999999999999
 20
7.876
 30
0.0
 11
4.193999999999999
 21
7.892999999999999
 31
0.0
  0
LINE
  5
420
330
18
100
AcDbEntity
  8
Object
100
AcDbLine
 10
4.193999999999999
 20
7.892999999999999
 30
0.0
 11
4.166
 21
7.916
 31
0.0
  0
LINE
  5
421
330
18
100
AcDbEntity
  8
Object
100
AcDbLine
 10
4.166
 20
7.916
 30
0.0
 11
4.142
 21
7.943
 31
0.0
  0
LINE
  5
422
330
18
100
AcDbEntity
  8
Object
100
AcDbLine
 10
4.142
 20
7.943
 30
0.0
 11
4.123
 21
7.974
 31
0.0
  0
LINE
  5
423
330
18
100
AcDbEntity
  8
Object
100
AcDbLine
 10
4.123
 20
7.974
 30
0.0
 11
4.110999999999999
 21
8.008
 31
0.0
  0
LINE
  5
424
330
18
100
AcDbEntity
  8
Object
100
AcDbLine
 10
4.110999999999999
 20
8.008
 30
0.0
 11
4.104
 21
8.044
 31
0.0
  0
LINE
  5
425
330
18
100
AcDbEntity
  8
Object
100
AcDbLine
 10
10.691
 20
8.147999999999999
 30
0.0
 11
10.682
 21
8.147999999999999
 31
0.0
  0
LINE
  5
426
330
18
100
AcDbEntity
  8
Object
100
AcDbLine
 10
10.682
 20
8.147999999999999
 30
0.0
 11
10.672
 21
8.149
 31
0.0
  0
LINE
  5
427
330
18
100
AcDbEntity
  8
Object
100
AcDbLine
 10
10.672
 20
8.149
 30
0.0
 11
10.663
 21
8.149
 31
0.0
  0
LINE
  5
428
330
18
100
AcDbEntity
  8
Object
100
AcDbLine
 10
10.685
 20
8.403
 30
0.0
 11
10.828
 21
8.391
 31
0.0
  0
LINE
  5
429
330
18
100
AcDbEntity
  8
Object
100
AcDbLine
 10
10.391
 20
9.22
 30
0.0
 11
9.034
 21
9.101
 31
0.0
  0
LINE
  5
42A
330
18
100
AcDbEntity
  8
Object
100
AcDbLine
 10
4.016
 20
8.444
 30
0.0
 11
4.153999999999999
 21
8.455999999999999
 31
0.0
  0
LINE
  5
42B
330
18
100
AcDbEntity
  8
Object
100
AcDbLine
 10
4.298
 20
7.908999999999999
 30
0.0
 11
4.267999999999999
 21
7.914
 31
0.0
  0
LINE
  5
42C
330
18
100
AcDbEntity
  8
Object
100
AcDbLine
 10
4.267999999999999
 20
7.914
 30
0.0
 11
4.238
 21
7.924999999999999
 31
0.0
  0
LINE
  5
42D
330
18
100
AcDbEntity
  8
Object
100
AcDbLine
 10
4.238
 20
7.924999999999999
 30
0.0
 11
4.211999999999999
 21
7.940999999999999
 31
0.0
  0
LINE
  5
42E
330
18
100
AcDbEntity
  8
Object
100
AcDbLine
 10
4.211999999999999
 20
7.940999999999999
 30
0.0
 11
4.19
 21
7.963
 31
0.0
  0
LINE
  5
42F
330
18
100
AcDbEntity
  8
Object
100
AcDbLine
 10
4.19
 20
7.963
 30
0.0
 11
4.171999999999999
 21
7.988999999999999
 31
0.0
  0
LINE
  5
430
330
18
100
AcDbEntity
  8
Object
100
AcDbLine
 10
4.171999999999999
 20
7.988999999999999
 30
0.0
 11
4.16
 21
8.018
 31
0.0
  0
LINE
  5
431
330
18
100
AcDbEntity
  8
Object
100
AcDbLine
 10
4.16
 20
8.018
 30
0.0
 11
4.153999999999999
 21
8.048
 31
0.0
  0
LINE
  5
432
330
18
100
AcDbEntity
  8
Object
100
AcDbLine
 10
10.878
 20
8.512
 30
0.0
 11
10.696
 21
8.528
 31
0.0
  0
LINE
  5
433
330
18
100
AcDbEntity
  8
Object
100
AcDbLine
 10
3.89
 20
7.844999999999999
 30
0.0
 11
3.842999999999999
 21
7.841
 31
0.0
  0
LINE
  5
434
330
18
100
AcDbEntity
  8
Object
100
AcDbLine
 10
4.169999999999999
 20
8.442
 30
0.0
 11
4.166999999999999
 21
8.448999999999999
 31
0.0
  0
LINE
  5
435
330
18
100
AcDbEntity
  8
Object
100
AcDbLine
 10
4.166999999999999
 20
8.448999999999999
 30
0.0
 11
4.161
 21
8.454
 31
0.0
  0
LINE
  5
436
330
18
100
AcDbEntity
  8
Object
100
AcDbLine
 10
4.161
 20
8.454
 30
0.0
 11
4.153999999999999
 21
8.455999999999999
 31
0.0
  0
LINE
  5
437
330
18
100
AcDbEntity
  8
Object
100
AcDbLine
 10
4.145
 20
8.197
 30
0.0
 11
4.125
 21
8.162
 31
0.0
  0
LINE
  5
438
330
18
100
AcDbEntity
  8
Object
100
AcDbLine
 10
4.125
 20
8.162
 30
0.0
 11
4.110999999999999
 21
8.124
 31
0.0
  0
LINE
  5
439
330
18
100
AcDbEntity
  8
Object
100
AcDbLine
 10
4.110999999999999
 20
8.124
 30
0.0
 11
4.104
 21
8.083999999999999
 31
0.0
  0
LINE
  5
43A
330
18
100
AcDbEntity
  8
Object
100
AcDbLine
 10
4.104
 20
8.083999999999999
 30
0.0
 11
4.104
 21
8.044
 31
0.0
  0
LINE
  5
43B
330
18
100
AcDbEntity
  8
Object
100
AcDbLine
 10
10.696
 20
8.528
 30
0.0
 11
10.675
 21
8.525999999999999
 31
0.0
  0
LINE
  5
43C
330
18
100
AcDbEntity
  8
Object
100
AcDbLine
 10
10.664
 20
8.409
 30
0.0
 11
10.685
 21
8.403
 31
0.0
  0
LINE
  5
43D
330
18
100
AcDbEntity
  8
Object
100
AcDbLine
 10
10.675
 20
8.525999999999999
 30
0.0
 11
10.655
 21
8.516999999999999
 31
0.0
  0
LINE
  5
43E
330
18
100
AcDbEntity
  8
Object
100
AcDbLine
 10
10.647
 20
8.420999999999999
 30
0.0
 11
10.664
 21
8.409
 31
0.0
  0
LINE
  5
43F
330
18
100
AcDbEntity
  8
Object
100
AcDbLine
 10
10.655
 20
8.516999999999999
 30
0.0
 11
10.64
 21
8.500999999999999
 31
0.0
  0
LINE
  5
440
330
18
100
AcDbEntity
  8
Object
100
AcDbLine
 10
10.634
 20
8.439
 30
0.0
 11
10.647
 21
8.420999999999999
 31
0.0
  0
LINE
  5
441
330
18
100
AcDbEntity
  8
Object
100
AcDbLine
 10
10.64
 20
8.500999999999999
 30
0.0
 11
10.63
 21
8.481999999999999
 31
0.0
  0
LINE
  5
442
330
18
100
AcDbEntity
  8
Object
100
AcDbLine
 10
10.63
 20
8.481999999999999
 30
0.0
 11
10.629
 21
8.46
 31
0.0
  0
LINE
  5
443
330
18
100
AcDbEntity
  8
Object
100
AcDbLine
 10
10.629
 20
8.46
 30
0.0
 11
10.634
 21
8.439
 31
0.0
  0
LINE
  5
444
330
18
100
AcDbEntity
  8
Object
100
AcDbLine
 10
11.775
 20
8.983999999999999
 30
0.0
 11
11.775
 21
9.070999999999999
 31
0.0
  0
LINE
  5
445
330
18
100
AcDbEntity
  8
Object
100
AcDbLine
 10
10.424
 20
9.061999999999999
 30
0.0
 11
10.352
 21
8.242
 31
0.0
  0
LINE
  5
446
330
18
100
AcDbEntity
  8
Object
100
AcDbLine
 10
10.412
 20
8.170999999999999
 30
0.0
 11
10.392
 21
8.176
 31
0.0
  0
LINE
  5
447
330
18
100
AcDbEntity
  8
Object
100
AcDbLine
 10
10.392
 20
8.176
 30
0.0
 11
10.375
 21
8.186999999999999
 31
0.0
  0
LINE
  5
448
330
18
100
AcDbEntity
  8
Object
100
AcDbLine
 10
10.375
 20
8.186999999999999
 30
0.0
 11
10.362
 21
8.202999999999999
 31
0.0
  0
LINE
  5
449
330
18
100
AcDbEntity
  8
Object
100
AcDbLine
 10
10.362
 20
8.202999999999999
 30
0.0
 11
10.354
 21
8.221
 31
0.0
  0
LINE
  5
44A
330
18
100
AcDbEntity
  8
Object
100
AcDbLine
 10
10.354
 20
8.221
 30
0.0
 11
10.352
 21
8.242
 31
0.0
  0
LINE
  5
44B
330
18
100
AcDbEntity
  8
Object
100
AcDbLine
 10
11.129
 20
8.798
 30
0.0
 11
11.12
 21
8.756999999999999
 31
0.0
  0
LINE
  5
44C
330
18
100
AcDbEntity
  8
Object
100
AcDbLine
 10
11.12
 20
8.756999999999999
 30
0.0
 11
11.105
 21
8.718999999999999
 31
0.0
  0
LINE
  5
44D
330
18
100
AcDbEntity
  8
Object
100
AcDbLine
 10
11.105
 20
8.718999999999999
 30
0.0
 11
11.083
 21
8.684000000000001
 31
0.0
  0
LINE
  5
44E
330
18
100
AcDbEntity
  8
Object
100
AcDbLine
 10
11.083
 20
8.684000000000001
 30
0.0
 11
11.056
 21
8.653
 31
0.0
  0
LINE
  5
44F
330
18
100
AcDbEntity
  8
Object
100
AcDbLine
 10
11.145
 20
8.343999999999999
 30
0.0
 11
11.111
 21
8.355
 31
0.0
  0
LINE
  5
450
330
18
100
AcDbEntity
  8
Object
100
AcDbLine
 10
11.111
 20
8.355
 30
0.0
 11
11.08
 21
8.371999999999999
 31
0.0
  0
LINE
  5
451
330
18
100
AcDbEntity
  8
Object
100
AcDbLine
 10
11.08
 20
8.371999999999999
 30
0.0
 11
11.052
 21
8.394999999999999
 31
0.0
  0
LINE
  5
452
330
18
100
AcDbEntity
  8
Object
100
AcDbLine
 10
11.033
 20
8.625999999999999
 30
0.0
 11
11.056
 21
8.653
 31
0.0
  0
LINE
  5
453
330
18
100
AcDbEntity
  8
Object
100
AcDbLine
 10
11.052
 20
8.394999999999999
 30
0.0
 11
11.03
 21
8.423
 31
0.0
  0
LINE
  5
454
330
18
100
AcDbEntity
  8
Object
100
AcDbLine
 10
11.015
 20
8.593999999999999
 30
0.0
 11
11.033
 21
8.625999999999999
 31
0.0
  0
LINE
  5
455
330
18
100
AcDbEntity
  8
Object
100
AcDbLine
 10
11.03
 20
8.423
 30
0.0
 11
11.014
 21
8.455
 31
0.0
  0
LINE
  5
456
330
18
100
AcDbEntity
  8
Object
100
AcDbLine
 10
11.005
 20
8.56
 30
0.0
 11
11.015
 21
8.593999999999999
 31
0.0
  0
LINE
  5
457
330
18
100
AcDbEntity
  8
Object
100
AcDbLine
 10
11.014
 20
8.455
 30
0.0
 11
11.004
 21
8.489
 31
0.0
  0
LINE
  5
458
330
18
100
AcDbEntity
  8
Object
100
AcDbLine
 10
11.005
 20
8.56
 30
0.0
 11
11.001
 21
8.525
 31
0.0
  0
LINE
  5
459
330
18
100
AcDbEntity
  8
Object
100
AcDbLine
 10
11.001
 20
8.525
 30
0.0
 11
11.004
 21
8.489
 31
0.0
  0
LINE
  5
45A
330
18
100
AcDbEntity
  8
Object
100
AcDbLine
 10
11.129
 20
8.798
 30
0.0
 11
11.146
 21
8.919
 31
0.0
  0
LINE
  5
45B
330
18
100
AcDbEntity
  8
Object
100
AcDbLine
 10
17.259
 20
8.051999999999999
 30
0.0
 11
17.268
 21
8.044
 31
0.0
  0
LINE
  5
45C
330
18
100
AcDbEntity
  8
Object
100
AcDbLine
 10
17.268
 20
8.044
 30
0.0
 11
17.274
 21
8.034
 31
0.0
  0
LINE
  5
45D
330
18
100
AcDbEntity
  8
Object
100
AcDbLine
 10
17.274
 20
8.034
 30
0.0
 11
17.275
 21
8.022999999999999
 31
0.0
  0
LINE
  5
45E
330
18
100
AcDbEntity
  8
Object
100
AcDbLine
 10
17.259
 20
8.051999999999999
 30
0.0
 11
17.248
 21
8.054999999999999
 31
0.0
  0
LINE
  5
45F
330
18
100
AcDbEntity
  8
Object
100
AcDbLine
 10
17.275
 20
8.022999999999999
 30
0.0
 11
17.272
 21
7.988
 31
0.0
  0
LINE
  5
460
330
18
100
AcDbEntity
  8
Object
100
AcDbLine
 10
17.272
 20
7.988
 30
0.0
 11
17.269
 21
7.975999999999999
 31
0.0
  0
LINE
  5
461
330
18
100
AcDbEntity
  8
Object
100
AcDbLine
 10
17.269
 20
7.975999999999999
 30
0.0
 11
17.261
 21
7.967
 31
0.0
  0
LINE
  5
462
330
18
100
AcDbEntity
  8
Object
100
AcDbLine
 10
17.261
 20
7.967
 30
0.0
 11
17.251
 21
7.961999999999999
 31
0.0
  0
LINE
  5
463
330
18
100
AcDbEntity
  8
Object
100
AcDbLine
 10
17.251
 20
7.961999999999999
 30
0.0
 11
17.239
 21
7.959999999999999
 31
0.0
  0
LINE
  5
464
330
18
100
AcDbEntity
  8
Object
100
AcDbLine
 10
17.248
 20
8.054999999999999
 30
0.0
 11
17.15
 21
8.064
 31
0.0
  0
LINE
  5
465
330
18
100
AcDbEntity
  8
Object
100
AcDbLine
 10
17.116
 20
8.077999999999999
 30
0.0
 11
17.132
 21
8.067999999999999
 31
0.0
  0
LINE
  5
466
330
18
100
AcDbEntity
  8
Object
100
AcDbLine
 10
17.132
 20
8.067999999999999
 30
0.0
 11
17.15
 21
8.064
 31
0.0
  0
LINE
  5
467
330
18
100
AcDbEntity
  8
Object
100
AcDbLine
 10
17.102
 20
7.972
 30
0.0
 11
17.239
 21
7.959999999999999
 31
0.0
  0
LINE
  5
468
330
18
100
AcDbEntity
  8
Object
100
AcDbLine
 10
17.116
 20
8.077999999999999
 30
0.0
 11
17.104
 21
8.092
 31
0.0
  0
LINE
  5
469
330
18
100
AcDbEntity
  8
Object
100
AcDbLine
 10
17.102
 20
7.972
 30
0.0
 11
17.092
 21
7.971
 31
0.0
  0
LINE
  5
46A
330
18
100
AcDbEntity
  8
Object
100
AcDbLine
 10
17.092
 20
7.971
 30
0.0
 11
17.084
 21
7.964
 31
0.0
  0
LINE
  5
46B
330
18
100
AcDbEntity
  8
Object
100
AcDbLine
 10
17.002
 20
8.184000000000001
 30
0.0
 11
17.002
 21
8.14
 31
0.0
  0
LINE
  5
46C
330
18
100
AcDbEntity
  8
Object
100
AcDbLine
 10
17.097
 20
8.185
 30
0.0
 11
17.096
 21
8.131999999999999
 31
0.0
  0
LINE
  5
46D
330
18
100
AcDbEntity
  8
Object
100
AcDbLine
 10
17.096
 20
8.131999999999999
 30
0.0
 11
17.096
 21
8.128999999999999
 31
0.0
  0
LINE
  5
46E
330
18
100
AcDbEntity
  8
Object
100
AcDbLine
 10
17.097
 20
8.185
 30
0.0
 11
17.09
 21
8.237999999999999
 31
0.0
  0
LINE
  5
46F
330
18
100
AcDbEntity
  8
Object
100
AcDbLine
 10
17.096
 20
8.128999999999999
 30
0.0
 11
17.097
 21
8.109999999999999
 31
0.0
  0
LINE
  5
470
330
18
100
AcDbEntity
  8
Object
100
AcDbLine
 10
17.097
 20
8.109999999999999
 30
0.0
 11
17.104
 21
8.092
 31
0.0
  0
LINE
  5
471
330
18
100
AcDbEntity
  8
Object
100
AcDbLine
 10
17.09
 20
8.237999999999999
 30
0.0
 11
17.076
 21
8.29
 31
0.0
  0
LINE
  5
472
330
18
100
AcDbEntity
  8
Object
100
AcDbLine
 10
17.002
 20
8.184000000000001
 30
0.0
 11
16.995
 21
8.227
 31
0.0
  0
LINE
  5
473
330
18
100
AcDbEntity
  8
Object
100
AcDbLine
 10
16.995
 20
8.227
 30
0.0
 11
16.982
 21
8.269
 31
0.0
  0
LINE
  5
474
330
18
100
AcDbEntity
  8
Object
100
AcDbLine
 10
17.076
 20
8.29
 30
0.0
 11
17.055
 21
8.339
 31
0.0
  0
LINE
  5
475
330
18
100
AcDbEntity
  8
Object
100
AcDbLine
 10
17.084
 20
7.964
 30
0.0
 11
17.081
 21
7.953999999999999
 31
0.0
  0
LINE
  5
476
330
18
100
AcDbEntity
  8
Object
100
AcDbLine
 10
17.081
 20
7.953999999999999
 30
0.0
 11
17.077
 21
7.907
 31
0.0
  0
LINE
  5
477
330
18
100
AcDbEntity
  8
Object
100
AcDbLine
 10
17.077
 20
7.907
 30
0.0
 11
17.07
 21
7.873
 31
0.0
  0
LINE
  5
478
330
18
100
AcDbEntity
  8
Object
100
AcDbLine
 10
17.002
 20
8.14
 30
0.0
 11
16.982
 21
7.915
 31
0.0
  0
LINE
  5
479
330
18
100
AcDbEntity
  8
Object
100
AcDbLine
 10
17.057
 20
7.841
 30
0.0
 11
17.07
 21
7.873
 31
0.0
  0
LINE
  5
47A
330
18
100
AcDbEntity
  8
Object
100
AcDbLine
 10
16.982
 20
7.915
 30
0.0
 11
16.976
 21
7.891
 31
0.0
  0
LINE
  5
47B
330
18
100
AcDbEntity
  8
Object
100
AcDbLine
 10
17.055
 20
8.339
 30
0.0
 11
17.026
 21
8.384
 31
0.0
  0
LINE
  5
47C
330
18
100
AcDbEntity
  8
Object
100
AcDbLine
 10
16.963
 20
8.307999999999999
 30
0.0
 11
16.982
 21
8.269
 31
0.0
  0
LINE
  5
47D
330
18
100
AcDbEntity
  8
Object
100
AcDbLine
 10
16.976
 20
7.891
 30
0.0
 11
16.963
 21
7.87
 31
0.0
  0
LINE
  5
47E
330
18
100
AcDbEntity
  8
Object
100
AcDbLine
 10
17.057
 20
7.841
 30
0.0
 11
17.039
 21
7.812999999999999
 31
0.0
  0
LINE
  5
47F
330
18
100
AcDbEntity
  8
Object
100
AcDbLine
 10
17.039
 20
7.812999999999999
 30
0.0
 11
17.015
 21
7.788
 31
0.0
  0
LINE
  5
480
330
18
100
AcDbEntity
  8
Object
100
AcDbLine
 10
17.015
 20
7.788
 30
0.0
 11
16.986
 21
7.769
 31
0.0
  0
LINE
  5
481
330
18
100
AcDbEntity
  8
Object
100
AcDbLine
 10
16.986
 20
7.769
 30
0.0
 11
16.955
 21
7.754999999999999
 31
0.0
  0
LINE
  5
482
330
18
100
AcDbEntity
  8
Object
100
AcDbLine
 10
16.963
 20
7.87
 30
0.0
 11
16.943
 21
7.854
 31
0.0
  0
LINE
  5
483
330
18
100
AcDbEntity
  8
Object
100
AcDbLine
 10
16.937
 20
8.343999999999999
 30
0.0
 11
16.963
 21
8.307999999999999
 31
0.0
  0
LINE
  5
484
330
18
100
AcDbEntity
  8
Object
100
AcDbLine
 10
17.026
 20
8.384
 30
0.0
 11
16.992
 21
8.425
 31
0.0
  0
LINE
  5
485
330
18
100
AcDbEntity
  8
Object
100
AcDbLine
 10
16.921
 20
7.748
 30
0.0
 11
16.955
 21
7.754999999999999
 31
0.0
  0
LINE
  5
486
330
18
100
AcDbEntity
  8
Object
100
AcDbLine
 10
16.943
 20
7.854
 30
0.0
 11
16.92
 21
7.844
 31
0.0
  0
LINE
  5
487
330
18
100
AcDbEntity
  8
Object
100
AcDbLine
 10
16.992
 20
8.425
 30
0.0
 11
16.952
 21
8.461
 31
0.0
  0
LINE
  5
488
330
18
100
AcDbEntity
  8
Object
100
AcDbLine
 10
16.906
 20
8.375999999999999
 30
0.0
 11
16.937
 21
8.343999999999999
 31
0.0
  0
LINE
  5
489
330
18
100
AcDbEntity
  8
Object
100
AcDbLine
 10
16.92
 20
7.844
 30
0.0
 11
16.895
 21
7.842
 31
0.0
  0
LINE
  5
48A
330
18
100
AcDbEntity
  8
Object
100
AcDbLine
 10
16.887
 20
7.748
 30
0.0
 11
16.921
 21
7.748
 31
0.0
  0
LINE
  5
48B
330
18
100
AcDbEntity
  8
Object
100
AcDbLine
 10
16.871
 20
8.402000000000001
 30
0.0
 11
16.906
 21
8.375999999999999
 31
0.0
  0
LINE
  5
48C
330
18
100
AcDbEntity
  8
Object
100
AcDbLine
 10
16.952
 20
8.461
 30
0.0
 11
16.908
 21
8.49
 31
0.0
  0
LINE
  5
48D
330
18
100
AcDbEntity
  8
Object
100
AcDbLine
 10
16.908
 20
8.49
 30
0.0
 11
16.859
 21
8.512999999999999
 31
0.0
  0
LINE
  5
48E
330
18
100
AcDbEntity
  8
Object
100
AcDbLine
 10
16.832
 20
8.422
 30
0.0
 11
16.871
 21
8.402000000000001
 31
0.0
  0
LINE
  5
48F
330
18
100
AcDbEntity
  8
Object
100
AcDbLine
 10
16.895
 20
7.842
 30
0.0
 11
16.823
 21
7.849
 31
0.0
  0
LINE
  5
490
330
18
100
AcDbEntity
  8
Object
100
AcDbLine
 10
16.815
 20
7.754
 30
0.0
 11
16.887
 21
7.748
 31
0.0
  0
LINE
  5
491
330
18
100
AcDbEntity
  8
Object
100
AcDbLine
 10
16.823
 20
7.849
 30
0.0
 11
16.805
 21
7.847
 31
0.0
  0
LINE
  5
492
330
18
100
AcDbEntity
  8
Object
100
AcDbLine
 10
16.797
 20
7.759
 30
0.0
 11
16.815
 21
7.754
 31
0.0
  0
LINE
  5
493
330
18
100
AcDbEntity
  8
Object
100
AcDbLine
 10
16.79
 20
8.435999999999999
 30
0.0
 11
16.832
 21
8.422
 31
0.0
  0
LINE
  5
494
330
18
100
AcDbEntity
  8
Object
100
AcDbLine
 10
16.859
 20
8.512999999999999
 30
0.0
 11
16.808
 21
8.528999999999999
 31
0.0
  0
LINE
  5
495
330
18
100
AcDbEntity
  8
Object
100
AcDbLine
 10
16.797
 20
7.759
 30
0.0
 11
16.782
 21
7.770999999999999
 31
0.0
  0
LINE
  5
496
330
18
100
AcDbEntity
  8
Object
100
AcDbLine
 10
16.782
 20
7.770999999999999
 30
0.0
 11
16.774
 21
7.786999999999999
 31
0.0
  0
LINE
  5
497
330
18
100
AcDbEntity
  8
Object
100
AcDbLine
 10
16.777
 20
7.823
 30
0.0
 11
16.788
 21
7.838
 31
0.0
  0
LINE
  5
498
330
18
100
AcDbEntity
  8
Object
100
AcDbLine
 10
16.788
 20
7.838
 30
0.0
 11
16.805
 21
7.847
 31
0.0
  0
LINE
  5
499
330
18
100
AcDbEntity
  8
Object
100
AcDbLine
 10
16.774
 20
7.786999999999999
 30
0.0
 11
16.772
 21
7.806
 31
0.0
  0
LINE
  5
49A
330
18
100
AcDbEntity
  8
Object
100
AcDbLine
 10
16.772
 20
7.806
 30
0.0
 11
16.777
 21
7.823
 31
0.0
  0
LINE
  5
49B
330
18
100
AcDbEntity
  8
Object
100
AcDbLine
 10
16.808
 20
8.528999999999999
 30
0.0
 11
16.755
 21
8.538
 31
0.0
  0
LINE
  5
49C
330
18
100
AcDbEntity
  8
Object
100
AcDbLine
 10
16.79
 20
8.435999999999999
 30
0.0
 11
16.747
 21
8.442999999999999
 31
0.0
  0
LINE
  5
49D
330
18
100
AcDbEntity
  8
Object
100
AcDbLine
 10
16.747
 20
8.442999999999999
 30
0.0
 11
16.635
 21
8.452999999999999
 31
0.0
  0
LINE
  5
49E
330
18
100
AcDbEntity
  8
Object
100
AcDbLine
 10
16.622
 20
8.447
 30
0.0
 11
16.619
 21
8.439
 31
0.0
  0
LINE
  5
49F
330
18
100
AcDbEntity
  8
Object
100
AcDbLine
 10
16.619
 20
8.439
 30
0.0
 11
16.607
 21
8.298999999999999
 31
0.0
  0
LINE
  5
4A0
330
18
100
AcDbEntity
  8
Object
100
AcDbLine
 10
16.569
 20
8.444
 30
0.0
 11
16.568
 21
8.451
 31
0.0
  0
LINE
  5
4A1
330
18
100
AcDbEntity
  8
Object
100
AcDbLine
 10
16.568
 20
8.451
 30
0.0
 11
16.563
 21
8.457
 31
0.0
  0
LINE
  5
4A2
330
18
100
AcDbEntity
  8
Object
100
AcDbLine
 10
16.622
 20
8.447
 30
0.0
 11
16.628
 21
8.451999999999999
 31
0.0
  0
LINE
  5
4A3
330
18
100
AcDbEntity
  8
Object
100
AcDbLine
 10
16.628
 20
8.451999999999999
 30
0.0
 11
16.635
 21
8.452999999999999
 31
0.0
  0
LINE
  5
4A4
330
18
100
AcDbEntity
  8
Object
100
AcDbLine
 10
16.556
 20
8.46
 30
0.0
 11
16.563
 21
8.457
 31
0.0
  0
LINE
  5
4A5
330
18
100
AcDbEntity
  8
Object
100
AcDbLine
 10
16.6
 20
8.255
 30
0.0
 11
16.607
 21
8.298999999999999
 31
0.0
  0
LINE
  5
4A6
330
18
100
AcDbEntity
  8
Object
100
AcDbLine
 10
16.569
 20
8.444
 30
0.0
 11
16.554
 21
8.271
 31
0.0
  0
LINE
  5
4A7
330
18
100
AcDbEntity
  8
Object
100
AcDbLine
 10
16.554
 20
8.271
 30
0.0
 11
16.548
 21
8.230999999999999
 31
0.0
  0
LINE
  5
4A8
330
18
100
AcDbEntity
  8
Object
100
AcDbLine
 10
16.6
 20
8.255
 30
0.0
 11
16.586
 21
8.213
 31
0.0
  0
LINE
  5
4A9
330
18
100
AcDbEntity
  8
Object
100
AcDbLine
 10
16.586
 20
8.213
 30
0.0
 11
16.567
 21
8.173
 31
0.0
  0
LINE
  5
4AA
330
18
100
AcDbEntity
  8
Object
100
AcDbLine
 10
16.548
 20
8.230999999999999
 30
0.0
 11
16.535
 21
8.192999999999999
 31
0.0
  0
LINE
  5
4AB
330
18
100
AcDbEntity
  8
Object
100
AcDbLine
 10
16.535
 20
8.192999999999999
 30
0.0
 11
16.516
 21
8.157
 31
0.0
  0
LINE
  5
4AC
330
18
100
AcDbEntity
  8
Object
100
AcDbLine
 10
16.542
 20
8.137
 30
0.0
 11
16.567
 21
8.173
 31
0.0
  0
LINE
  5
4AD
330
18
100
AcDbEntity
  8
Object
100
AcDbLine
 10
16.516
 20
8.157
 30
0.0
 11
16.492
 21
8.124
 31
0.0
  0
LINE
  5
4AE
330
18
100
AcDbEntity
  8
Object
100
AcDbLine
 10
16.542
 20
8.137
 30
0.0
 11
16.512
 21
8.105
 31
0.0
  0
LINE
  5
4AF
330
18
100
AcDbEntity
  8
Object
100
AcDbLine
 10
16.512
 20
8.105
 30
0.0
 11
16.509
 21
8.102999999999999
 31
0.0
  0
LINE
  5
4B0
330
18
100
AcDbEntity
  8
Object
100
AcDbLine
 10
16.509
 20
8.102999999999999
 30
0.0
 11
16.505
 21
8.101
 31
0.0
  0
LINE
  5
4B1
330
18
100
AcDbEntity
  8
Object
100
AcDbLine
 10
16.505
 20
8.101
 30
0.0
 11
16.501
 21
8.101
 31
0.0
  0
LINE
  5
4B2
330
18
100
AcDbEntity
  8
Object
100
AcDbLine
 10
16.501
 20
8.101
 30
0.0
 11
16.495
 21
8.102999999999999
 31
0.0
  0
LINE
  5
4B3
330
18
100
AcDbEntity
  8
Object
100
AcDbLine
 10
16.495
 20
8.102999999999999
 30
0.0
 11
16.491
 21
8.106999999999999
 31
0.0
  0
LINE
  5
4B4
330
18
100
AcDbEntity
  8
Object
100
AcDbLine
 10
16.491
 20
8.106999999999999
 30
0.0
 11
16.489
 21
8.112999999999999
 31
0.0
  0
LINE
  5
4B5
330
18
100
AcDbEntity
  8
Object
100
AcDbLine
 10
16.489
 20
8.112999999999999
 30
0.0
 11
16.489
 21
8.118999999999999
 31
0.0
  0
LINE
  5
4B6
330
18
100
AcDbEntity
  8
Object
100
AcDbLine
 10
16.489
 20
8.118999999999999
 30
0.0
 11
16.492
 21
8.124
 31
0.0
  0
LINE
  5
4B7
330
18
100
AcDbEntity
  8
Object
100
AcDbLine
 10
11.162
 20
8.932
 30
0.0
 11
16.556
 21
8.46
 31
0.0
  0
LINE
  5
4B8
330
18
100
AcDbEntity
  8
Object
100
AcDbLine
 10
11.163
 20
8.329
 30
0.0
 11
11.164
 21
8.316
 31
0.0
  0
LINE
  5
4B9
330
18
100
AcDbEntity
  8
Object
100
AcDbLine
 10
11.164
 20
8.316
 30
0.0
 11
11.16
 21
8.304999999999999
 31
0.0
  0
LINE
  5
4BA
330
18
100
AcDbEntity
  8
Object
100
AcDbLine
 10
11.163
 20
8.329
 30
0.0
 11
11.156
 21
8.339
 31
0.0
  0
LINE
  5
4BB
330
18
100
AcDbEntity
  8
Object
100
AcDbLine
 10
11.156
 20
8.339
 30
0.0
 11
11.145
 21
8.343999999999999
 31
0.0
  0
LINE
  5
4BC
330
18
100
AcDbEntity
  8
Object
100
AcDbLine
 10
11.16
 20
8.304999999999999
 30
0.0
 11
11.15
 21
8.297
 31
0.0
  0
LINE
  5
4BD
330
18
100
AcDbEntity
  8
Object
100
AcDbLine
 10
11.15
 20
8.297
 30
0.0
 11
11.138
 21
8.294999999999999
 31
0.0
  0
LINE
  5
4BE
330
18
100
AcDbEntity
  8
Object
100
AcDbLine
 10
11.138
 20
8.294999999999999
 30
0.0
 11
11.137
 21
8.294999999999999
 31
0.0
  0
LINE
  5
4BF
330
18
100
AcDbEntity
  8
Object
100
AcDbLine
 10
11.137
 20
8.294999999999999
 30
0.0
 11
11.136
 21
8.294999999999999
 31
0.0
  0
LINE
  5
4C0
330
18
100
AcDbEntity
  8
Object
100
AcDbLine
 10
11.136
 20
8.294999999999999
 30
0.0
 11
11.135
 21
8.294999999999999
 31
0.0
  0
LINE
  5
4C1
330
18
100
AcDbEntity
  8
Object
100
AcDbLine
 10
11.145
 20
8.343999999999999
 30
0.0
 11
11.111
 21
8.355
 31
0.0
  0
LINE
  5
4C2
330
18
100
AcDbEntity
  8
Object
100
AcDbLine
 10
11.095
 20
8.307999999999999
 30
0.0
 11
11.135
 21
8.294999999999999
 31
0.0
  0
LINE
  5
4C3
330
18
100
AcDbEntity
  8
Object
100
AcDbLine
 10
11.146
 20
8.919
 30
0.0
 11
11.149
 21
8.926
 31
0.0
  0
LINE
  5
4C4
330
18
100
AcDbEntity
  8
Object
100
AcDbLine
 10
11.085
 20
8.923
 30
0.0
 11
11.084
 21
8.931
 31
0.0
  0
LINE
  5
4C5
330
18
100
AcDbEntity
  8
Object
100
AcDbLine
 10
11.084
 20
8.931
 30
0.0
 11
11.079
 21
8.936999999999999
 31
0.0
  0
LINE
  5
4C6
330
18
100
AcDbEntity
  8
Object
100
AcDbLine
 10
11.149
 20
8.926
 30
0.0
 11
11.155
 21
8.929999999999999
 31
0.0
  0
LINE
  5
4C7
330
18
100
AcDbEntity
  8
Object
100
AcDbLine
 10
11.129
 20
8.798
 30
0.0
 11
11.146
 21
8.919
 31
0.0
  0
LINE
  5
4C8
330
18
100
AcDbEntity
  8
Object
100
AcDbLine
 10
11.085
 20
8.923
 30
0.0
 11
11.075
 21
8.809000000000001
 31
0.0
  0
LINE
  5
4C9
330
18
100
AcDbEntity
  8
Object
100
AcDbLine
 10
11.155
 20
8.929999999999999
 30
0.0
 11
11.162
 21
8.932
 31
0.0
  0
LINE
  5
4CA
330
18
100
AcDbEntity
  8
Object
100
AcDbLine
 10
11.072
 20
8.939999999999999
 30
0.0
 11
11.079
 21
8.936999999999999
 31
0.0
  0
LINE
  5
4CB
330
18
100
AcDbEntity
  8
Object
100
AcDbLine
 10
11.075
 20
8.809000000000001
 30
0.0
 11
11.069
 21
8.775
 31
0.0
  0
LINE
  5
4CC
330
18
100
AcDbEntity
  8
Object
100
AcDbLine
 10
11.12
 20
8.756999999999999
 30
0.0
 11
11.129
 21
8.798
 31
0.0
  0
LINE
  5
4CD
330
18
100
AcDbEntity
  8
Object
100
AcDbLine
 10
11.058
 20
8.326999999999999
 30
0.0
 11
11.095
 21
8.307999999999999
 31
0.0
  0
LINE
  5
4CE
330
18
100
AcDbEntity
  8
Object
100
AcDbLine
 10
11.111
 20
8.355
 30
0.0
 11
11.08
 21
8.371999999999999
 31
0.0
  0
LINE
  5
4CF
330
18
100
AcDbEntity
  8
Object
100
AcDbLine
 10
11.12
 20
8.756999999999999
 30
0.0
 11
11.105
 21
8.718999999999999
 31
0.0
  0
LINE
  5
4D0
330
18
100
AcDbEntity
  8
Object
100
AcDbLine
 10
11.105
 20
8.718999999999999
 30
0.0
 11
11.083
 21
8.684000000000001
 31
0.0
  0
LINE
  5
4D1
330
18
100
AcDbEntity
  8
Object
100
AcDbLine
 10
11.069
 20
8.775
 30
0.0
 11
11.057
 21
8.743
 31
0.0
  0
LINE
  5
4D2
330
18
100
AcDbEntity
  8
Object
100
AcDbLine
 10
11.056
 20
8.653
 30
0.0
 11
11.083
 21
8.684000000000001
 31
0.0
  0
LINE
  5
4D3
330
18
100
AcDbEntity
  8
Object
100
AcDbLine
 10
11.057
 20
8.743
 30
0.0
 11
11.04
 21
8.711999999999999
 31
0.0
  0
LINE
  5
4D4
330
18
100
AcDbEntity
  8
Object
100
AcDbLine
 10
11.08
 20
8.371999999999999
 30
0.0
 11
11.052
 21
8.394999999999999
 31
0.0
  0
LINE
  5
4D5
330
18
100
AcDbEntity
  8
Object
100
AcDbLine
 10
11.025
 20
8.352
 30
0.0
 11
11.058
 21
8.326999999999999
 31
0.0
  0
LINE
  5
4D6
330
18
100
AcDbEntity
  8
Object
100
AcDbLine
 10
11.04
 20
8.711999999999999
 30
0.0
 11
11.018
 21
8.685999999999999
 31
0.0
  0
LINE
  5
4D7
330
18
100
AcDbEntity
  8
Object
100
AcDbLine
 10
11.033
 20
8.625999999999999
 30
0.0
 11
11.056
 21
8.653
 31
0.0
  0
LINE
  5
4D8
330
18
100
AcDbEntity
  8
Object
100
AcDbLine
 10
10.998
 20
8.381999999999999
 30
0.0
 11
11.025
 21
8.352
 31
0.0
  0
LINE
  5
4D9
330
18
100
AcDbEntity
  8
Object
100
AcDbLine
 10
11.052
 20
8.394999999999999
 30
0.0
 11
11.03
 21
8.423
 31
0.0
  0
LINE
  5
4DA
330
18
100
AcDbEntity
  8
Object
100
AcDbLine
 10
11.018
 20
8.685999999999999
 30
0.0
 11
10.991
 21
8.653999999999999
 31
0.0
  0
LINE
  5
4DB
330
18
100
AcDbEntity
  8
Object
100
AcDbLine
 10
11.03
 20
8.423
 30
0.0
 11
11.014
 21
8.455
 31
0.0
  0
LINE
  5
4DC
330
18
100
AcDbEntity
  8
Object
100
AcDbLine
 10
10.976
 20
8.418000000000001
 30
0.0
 11
10.998
 21
8.381999999999999
 31
0.0
  0
LINE
  5
4DD
330
18
100
AcDbEntity
  8
Object
100
AcDbLine
 10
11.015
 20
8.593999999999999
 30
0.0
 11
11.033
 21
8.625999999999999
 31
0.0
  0
LINE
  5
4DE
330
18
100
AcDbEntity
  8
Object
100
AcDbLine
 10
10.991
 20
8.653999999999999
 30
0.0
 11
10.971
 21
8.618
 31
0.0
  0
LINE
  5
4DF
330
18
100
AcDbEntity
  8
Object
100
AcDbLine
 10
10.96
 20
8.455999999999999
 30
0.0
 11
10.976
 21
8.418000000000001
 31
0.0
  0
LINE
  5
4E0
330
18
100
AcDbEntity
  8
Object
100
AcDbLine
 10
11.014
 20
8.455
 30
0.0
 11
11.004
 21
8.489
 31
0.0
  0
LINE
  5
4E1
330
18
100
AcDbEntity
  8
Object
100
AcDbLine
 10
10.971
 20
8.618
 30
0.0
 11
10.958
 21
8.579
 31
0.0
  0
LINE
  5
4E2
330
18
100
AcDbEntity
  8
Object
100
AcDbLine
 10
11.005
 20
8.56
 30
0.0
 11
11.015
 21
8.593999999999999
 31
0.0
  0
LINE
  5
4E3
330
18
100
AcDbEntity
  8
Object
100
AcDbLine
 10
11.004
 20
8.489
 30
0.0
 11
11.001
 21
8.525
 31
0.0
  0
LINE
  5
4E4
330
18
100
AcDbEntity
  8
Object
100
AcDbLine
 10
10.96
 20
8.455999999999999
 30
0.0
 11
10.952
 21
8.496999999999999
 31
0.0
  0
LINE
  5
4E5
330
18
100
AcDbEntity
  8
Object
100
AcDbLine
 10
10.952
 20
8.496999999999999
 30
0.0
 11
10.951
 21
8.538
 31
0.0
  0
LINE
  5
4E6
330
18
100
AcDbEntity
  8
Object
100
AcDbLine
 10
11.001
 20
8.525
 30
0.0
 11
11.005
 21
8.56
 31
0.0
  0
LINE
  5
4E7
330
18
100
AcDbEntity
  8
Object
100
AcDbLine
 10
10.958
 20
8.579
 30
0.0
 11
10.951
 21
8.538
 31
0.0
  0
LINE
  5
4E8
330
18
100
AcDbEntity
  8
Object
100
AcDbLine
 10
16.755
 20
8.538
 30
0.0
 11
10.942
 21
9.045999999999999
 31
0.0
  0
LINE
  5
4E9
330
18
100
AcDbEntity
  8
Object
100
AcDbLine
 10
11.072
 20
8.939999999999999
 30
0.0
 11
10.934
 21
8.951999999999999
 31
0.0
  0
LINE
  5
4EA
330
18
100
AcDbEntity
  8
Object
100
AcDbLine
 10
10.934
 20
8.951999999999999
 30
0.0
 11
10.89
 21
8.951999999999999
 31
0.0
  0
LINE
  5
4EB
330
18
100
AcDbEntity
  8
Object
100
AcDbLine
 10
10.942
 20
9.045999999999999
 30
0.0
 11
10.889
 21
9.047
 31
0.0
  0
LINE
  5
4EC
330
18
100
AcDbEntity
  8
Object
100
AcDbLine
 10
10.889
 20
9.047
 30
0.0
 11
10.836
 21
9.04
 31
0.0
  0
LINE
  5
4ED
330
18
100
AcDbEntity
  8
Object
100
AcDbLine
 10
10.847
 20
8.945999999999999
 30
0.0
 11
10.89
 21
8.951999999999999
 31
0.0
  0
LINE
  5
4EE
330
18
100
AcDbEntity
  8
Object
100
AcDbLine
 10
10.836
 20
9.04
 30
0.0
 11
10.784
 21
9.025999999999999
 31
0.0
  0
LINE
  5
4EF
330
18
100
AcDbEntity
  8
Object
100
AcDbLine
 10
10.805
 20
8.932
 30
0.0
 11
10.847
 21
8.945999999999999
 31
0.0
  0
LINE
  5
4F0
330
18
100
AcDbEntity
  8
Object
100
AcDbLine
 10
10.784
 20
9.025999999999999
 30
0.0
 11
10.735
 21
9.005
 31
0.0
  0
LINE
  5
4F1
330
18
100
AcDbEntity
  8
Object
100
AcDbLine
 10
10.765
 20
8.913
 30
0.0
 11
10.805
 21
8.932
 31
0.0
  0
LINE
  5
4F2
330
18
100
AcDbEntity
  8
Object
100
AcDbLine
 10
10.724
 20
8.378999999999999
 30
0.0
 11
10.738
 21
8.367
 31
0.0
  0
LINE
  5
4F3
330
18
100
AcDbEntity
  8
Object
100
AcDbLine
 10
10.738
 20
8.367
 30
0.0
 11
10.747
 21
8.351
 31
0.0
  0
LINE
  5
4F4
330
18
100
AcDbEntity
  8
Object
100
AcDbLine
 10
10.747
 20
8.351
 30
0.0
 11
10.749
 21
8.332
 31
0.0
  0
LINE
  5
4F5
330
18
100
AcDbEntity
  8
Object
100
AcDbLine
 10
10.749
 20
8.332
 30
0.0
 11
10.744
 21
8.314999999999999
 31
0.0
  0
LINE
  5
4F6
330
18
100
AcDbEntity
  8
Object
100
AcDbLine
 10
10.744
 20
8.314999999999999
 30
0.0
 11
10.733
 21
8.3
 31
0.0
  0
LINE
  5
4F7
330
18
100
AcDbEntity
  8
Object
100
AcDbLine
 10
10.733
 20
8.3
 30
0.0
 11
10.716
 21
8.291
 31
0.0
  0
LINE
  5
4F8
330
18
100
AcDbEntity
  8
Object
100
AcDbLine
 10
10.724
 20
8.378999999999999
 30
0.0
 11
10.706
 21
8.384
 31
0.0
  0
LINE
  5
4F9
330
18
100
AcDbEntity
  8
Object
100
AcDbLine
 10
10.698
 20
8.288999999999999
 30
0.0
 11
10.716
 21
8.291
 31
0.0
  0
LINE
  5
4FA
330
18
100
AcDbEntity
  8
Object
100
AcDbLine
 10
10.73
 20
8.887
 30
0.0
 11
10.765
 21
8.913
 31
0.0
  0
LINE
  5
4FB
330
18
100
AcDbEntity
  8
Object
100
AcDbLine
 10
10.735
 20
9.005
 30
0.0
 11
10.69
 21
8.977
 31
0.0
  0
LINE
  5
4FC
330
18
100
AcDbEntity
  8
Object
100
AcDbLine
 10
10.676
 20
8.291
 30
0.0
 11
10.698
 21
8.288999999999999
 31
0.0
  0
LINE
  5
4FD
330
18
100
AcDbEntity
  8
Object
100
AcDbLine
 10
10.706
 20
8.384
 30
0.0
 11
10.684
 21
8.386000000000001
 31
0.0
  0
LINE
  5
4FE
330
18
100
AcDbEntity
  8
Object
100
AcDbLine
 10
10.69
 20
8.977
 30
0.0
 11
10.649
 21
8.942
 31
0.0
  0
LINE
  5
4FF
330
18
100
AcDbEntity
  8
Object
100
AcDbLine
 10
10.698
 20
8.855999999999999
 30
0.0
 11
10.73
 21
8.887
 31
0.0
  0
LINE
  5
500
330
18
100
AcDbEntity
  8
Object
100
AcDbLine
 10
10.684
 20
8.386000000000001
 30
0.0
 11
10.66
 21
8.391999999999999
 31
0.0
  0
LINE
  5
501
330
18
100
AcDbEntity
  8
Object
100
AcDbLine
 10
10.642
 20
8.298
 30
0.0
 11
10.676
 21
8.291
 31
0.0
  0
LINE
  5
502
330
18
100
AcDbEntity
  8
Object
100
AcDbLine
 10
10.672
 20
8.820999999999999
 30
0.0
 11
10.698
 21
8.855999999999999
 31
0.0
  0
LINE
  5
503
330
18
100
AcDbEntity
  8
Object
100
AcDbLine
 10
10.649
 20
8.942
 30
0.0
 11
10.613
 21
8.902000000000001
 31
0.0
  0
LINE
  5
504
330
18
100
AcDbEntity
  8
Object
100
AcDbLine
 10
10.61
 20
8.31
 30
0.0
 11
10.642
 21
8.298
 31
0.0
  0
LINE
  5
505
330
18
100
AcDbEntity
  8
Object
100
AcDbLine
 10
10.66
 20
8.391999999999999
 30
0.0
 11
10.638
 21
8.404999999999999
 31
0.0
  0
LINE
  5
506
330
18
100
AcDbEntity
  8
Object
100
AcDbLine
 10
10.613
 20
8.902000000000001
 30
0.0
 11
10.583
 21
8.858
 31
0.0
  0
LINE
  5
507
330
18
100
AcDbEntity
  8
Object
100
AcDbLine
 10
10.652
 20
8.782
 30
0.0
 11
10.672
 21
8.820999999999999
 31
0.0
  0
LINE
  5
508
330
18
100
AcDbEntity
  8
Object
100
AcDbLine
 10
10.581
 20
8.329
 30
0.0
 11
10.61
 21
8.31
 31
0.0
  0
LINE
  5
509
330
18
100
AcDbEntity
  8
Object
100
AcDbLine
 10
10.638
 20
8.740999999999999
 30
0.0
 11
10.652
 21
8.782
 31
0.0
  0
LINE
  5
50A
330
18
100
AcDbEntity
  8
Object
100
AcDbLine
 10
10.583
 20
8.858
 30
0.0
 11
10.56
 21
8.809000000000001
 31
0.0
  0
LINE
  5
50B
330
18
100
AcDbEntity
  8
Object
100
AcDbLine
 10
10.638
 20
8.404999999999999
 30
0.0
 11
10.622
 21
8.423999999999999
 31
0.0
  0
LINE
  5
50C
330
18
100
AcDbEntity
  8
Object
100
AcDbLine
 10
10.557
 20
8.352999999999999
 30
0.0
 11
10.581
 21
8.329
 31
0.0
  0
LINE
  5
50D
330
18
100
AcDbEntity
  8
Object
100
AcDbLine
 10
10.56
 20
8.809000000000001
 30
0.0
 11
10.545
 21
8.758
 31
0.0
  0
LINE
  5
50E
330
18
100
AcDbEntity
  8
Object
100
AcDbLine
 10
10.631
 20
8.697
 30
0.0
 11
10.638
 21
8.740999999999999
 31
0.0
  0
LINE
  5
50F
330
18
100
AcDbEntity
  8
Object
100
AcDbLine
 10
10.537
 20
8.381
 30
0.0
 11
10.557
 21
8.352999999999999
 31
0.0
  0
LINE
  5
510
330
18
100
AcDbEntity
  8
Object
100
AcDbLine
 10
10.611
 20
8.473
 30
0.0
 11
10.631
 21
8.697
 31
0.0
  0
LINE
  5
511
330
18
100
AcDbEntity
  8
Object
100
AcDbLine
 10
10.545
 20
8.758
 30
0.0
 11
10.536
 21
8.705
 31
0.0
  0
LINE
  5
512
330
18
100
AcDbEntity
  8
Object
100
AcDbLine
 10
10.524
 20
8.413
 30
0.0
 11
10.537
 21
8.381
 31
0.0
  0
LINE
  5
513
330
18
100
AcDbEntity
  8
Object
100
AcDbLine
 10
10.622
 20
8.423999999999999
 30
0.0
 11
10.613
 21
8.448
 31
0.0
  0
LINE
  5
514
330
18
100
AcDbEntity
  8
Object
100
AcDbLine
 10
10.613
 20
8.448
 30
0.0
 11
10.611
 21
8.473
 31
0.0
  0
LINE
  5
515
330
18
100
AcDbEntity
  8
Object
100
AcDbLine
 10
10.524
 20
8.413
 30
0.0
 11
10.517
 21
8.447
 31
0.0
  0
LINE
  5
516
330
18
100
AcDbEntity
  8
Object
100
AcDbLine
 10
10.517
 20
8.447
 30
0.0
 11
10.516
 21
8.480999999999999
 31
0.0
  0
LINE
  5
517
330
18
100
AcDbEntity
  8
Object
100
AcDbLine
 10
10.516
 20
8.480999999999999
 30
0.0
 11
10.536
 21
8.705
 31
0.0
  0
LINE
  5
518
330
18
100
AcDbEntity
  8
Object
100
AcDbLine
 10
11.163
 20
8.329
 30
0.0
 11
11.164
 21
8.316
 31
0.0
  0
LINE
  5
519
330
18
100
AcDbEntity
  8
Object
100
AcDbLine
 10
11.164
 20
8.316
 30
0.0
 11
11.16
 21
8.304999999999999
 31
0.0
  0
LINE
  5
51A
330
18
100
AcDbEntity
  8
Object
100
AcDbLine
 10
11.163
 20
8.329
 30
0.0
 11
11.156
 21
8.339
 31
0.0
  0
LINE
  5
51B
330
18
100
AcDbEntity
  8
Object
100
AcDbLine
 10
11.15
 20
8.297
 30
0.0
 11
11.16
 21
8.304999999999999
 31
0.0
  0
LINE
  5
51C
330
18
100
AcDbEntity
  8
Object
100
AcDbLine
 10
11.156
 20
8.339
 30
0.0
 11
11.145
 21
8.343999999999999
 31
0.0
  0
LINE
  5
51D
330
18
100
AcDbEntity
  8
Object
100
AcDbLine
 10
11.138
 20
8.294999999999999
 30
0.0
 11
11.15
 21
8.297
 31
0.0
  0
LINE
  5
51E
330
18
100
AcDbEntity
  8
Object
100
AcDbLine
 10
10.706
 20
8.384
 30
0.0
 11
10.684
 21
8.386000000000001
 31
0.0
  0
LINE
  5
51F
330
18
100
AcDbEntity
  8
Object
100
AcDbLine
 10
10.747
 20
8.351
 30
0.0
 11
10.749
 21
8.332
 31
0.0
  0
LINE
  5
520
330
18
100
AcDbEntity
  8
Object
100
AcDbLine
 10
10.749
 20
8.332
 30
0.0
 11
10.744
 21
8.314999999999999
 31
0.0
  0
LINE
  5
521
330
18
100
AcDbEntity
  8
Object
100
AcDbLine
 10
10.747
 20
8.351
 30
0.0
 11
10.738
 21
8.367
 31
0.0
  0
LINE
  5
522
330
18
100
AcDbEntity
  8
Object
100
AcDbLine
 10
10.733
 20
8.3
 30
0.0
 11
10.744
 21
8.314999999999999
 31
0.0
  0
LINE
  5
523
330
18
100
AcDbEntity
  8
Object
100
AcDbLine
 10
10.738
 20
8.367
 30
0.0
 11
10.724
 21
8.378999999999999
 31
0.0
  0
LINE
  5
524
330
18
100
AcDbEntity
  8
Object
100
AcDbLine
 10
10.716
 20
8.291
 30
0.0
 11
10.733
 21
8.3
 31
0.0
  0
LINE
  5
525
330
18
100
AcDbEntity
  8
Object
100
AcDbLine
 10
10.724
 20
8.378999999999999
 30
0.0
 11
10.706
 21
8.384
 31
0.0
  0
LINE
  5
526
330
18
100
AcDbEntity
  8
Object
100
AcDbLine
 10
10.698
 20
8.288999999999999
 30
0.0
 11
10.716
 21
8.291
 31
0.0
  0
LINE
  5
527
330
18
100
AcDbEntity
  8
Object
100
AcDbLine
 10
17.077
 20
7.907
 30
0.0
 11
17.07
 21
7.873
 31
0.0
  0
LINE
  5
528
330
18
100
AcDbEntity
  8
Object
100
AcDbLine
 10
17.07
 20
7.873
 30
0.0
 11
17.057
 21
7.841
 31
0.0
  0
LINE
  5
529
330
18
100
AcDbEntity
  8
Object
100
AcDbLine
 10
17.057
 20
7.841
 30
0.0
 11
17.039
 21
7.812999999999999
 31
0.0
  0
LINE
  5
52A
330
18
100
AcDbEntity
  8
Object
100
AcDbLine
 10
17.039
 20
7.812999999999999
 30
0.0
 11
17.015
 21
7.788
 31
0.0
  0
LINE
  5
52B
330
18
100
AcDbEntity
  8
Object
100
AcDbLine
 10
17.015
 20
7.788
 30
0.0
 11
16.986
 21
7.769
 31
0.0
  0
LINE
  5
52C
330
18
100
AcDbEntity
  8
Object
100
AcDbLine
 10
16.986
 20
7.769
 30
0.0
 11
16.955
 21
7.754999999999999
 31
0.0
  0
LINE
  5
52D
330
18
100
AcDbEntity
  8
Object
100
AcDbLine
 10
16.955
 20
7.754999999999999
 30
0.0
 11
16.921
 21
7.748
 31
0.0
  0
LINE
  5
52E
330
18
100
AcDbEntity
  8
Object
100
AcDbLine
 10
16.921
 20
7.748
 30
0.0
 11
16.887
 21
7.748
 31
0.0
  0
LINE
  5
52F
330
18
100
AcDbEntity
  8
Object
100
AcDbLine
 10
17.102
 20
7.972
 30
0.0
 11
17.092
 21
7.971
 31
0.0
  0
LINE
  5
530
330
18
100
AcDbEntity
  8
Object
100
AcDbLine
 10
17.092
 20
7.971
 30
0.0
 11
17.084
 21
7.964
 31
0.0
  0
LINE
  5
531
330
18
100
AcDbEntity
  8
Object
100
AcDbLine
 10
17.084
 20
7.964
 30
0.0
 11
17.081
 21
7.953999999999999
 31
0.0
  0
LINE
  5
532
330
18
100
AcDbEntity
  8
Object
100
AcDbLine
 10
17.272
 20
7.988
 30
0.0
 11
17.269
 21
7.975999999999999
 31
0.0
  0
LINE
  5
533
330
18
100
AcDbEntity
  8
Object
100
AcDbLine
 10
17.269
 20
7.975999999999999
 30
0.0
 11
17.261
 21
7.967
 31
0.0
  0
LINE
  5
534
330
18
100
AcDbEntity
  8
Object
100
AcDbLine
 10
17.261
 20
7.967
 30
0.0
 11
17.251
 21
7.961999999999999
 31
0.0
  0
LINE
  5
535
330
18
100
AcDbEntity
  8
Object
100
AcDbLine
 10
17.251
 20
7.961999999999999
 30
0.0
 11
17.239
 21
7.959999999999999
 31
0.0
  0
LINE
  5
536
330
18
100
AcDbEntity
  8
Object
100
AcDbLine
 10
11.138
 20
8.294999999999999
 30
0.0
 11
11.137
 21
8.294999999999999
 31
0.0
  0
LINE
  5
537
330
18
100
AcDbEntity
  8
Object
100
AcDbLine
 10
11.137
 20
8.294999999999999
 30
0.0
 11
11.136
 21
8.294999999999999
 31
0.0
  0
LINE
  5
538
330
18
100
AcDbEntity
  8
Object
100
AcDbLine
 10
11.136
 20
8.294999999999999
 30
0.0
 11
11.135
 21
8.294999999999999
 31
0.0
  0
LINE
  5
539
330
18
100
AcDbEntity
  8
Object
100
AcDbLine
 10
17.002
 20
8.14
 30
0.0
 11
17.002
 21
8.184000000000001
 31
0.0
  0
LINE
  5
53A
330
18
100
AcDbEntity
  8
Object
100
AcDbLine
 10
17.002
 20
8.184000000000001
 30
0.0
 11
16.995
 21
8.227
 31
0.0
  0
LINE
  5
53B
330
18
100
AcDbEntity
  8
Object
100
AcDbLine
 10
16.995
 20
8.227
 30
0.0
 11
16.982
 21
8.269
 31
0.0
  0
LINE
  5
53C
330
18
100
AcDbEntity
  8
Object
100
AcDbLine
 10
16.982
 20
8.269
 30
0.0
 11
16.963
 21
8.307999999999999
 31
0.0
  0
LINE
  5
53D
330
18
100
AcDbEntity
  8
Object
100
AcDbLine
 10
16.963
 20
8.307999999999999
 30
0.0
 11
16.937
 21
8.343999999999999
 31
0.0
  0
LINE
  5
53E
330
18
100
AcDbEntity
  8
Object
100
AcDbLine
 10
16.937
 20
8.343999999999999
 30
0.0
 11
16.906
 21
8.375999999999999
 31
0.0
  0
LINE
  5
53F
330
18
100
AcDbEntity
  8
Object
100
AcDbLine
 10
16.906
 20
8.375999999999999
 30
0.0
 11
16.871
 21
8.402000000000001
 31
0.0
  0
LINE
  5
540
330
18
100
AcDbEntity
  8
Object
100
AcDbLine
 10
16.871
 20
8.402000000000001
 30
0.0
 11
16.832
 21
8.422
 31
0.0
  0
LINE
  5
541
330
18
100
AcDbEntity
  8
Object
100
AcDbLine
 10
16.832
 20
8.422
 30
0.0
 11
16.79
 21
8.435999999999999
 31
0.0
  0
LINE
  5
542
330
18
100
AcDbEntity
  8
Object
100
AcDbLine
 10
16.79
 20
8.435999999999999
 30
0.0
 11
16.747
 21
8.442999999999999
 31
0.0
  0
LINE
  5
543
330
18
100
AcDbEntity
  8
Object
100
AcDbLine
 10
16.823
 20
7.849
 30
0.0
 11
16.805
 21
7.847
 31
0.0
  0
LINE
  5
544
330
18
100
AcDbEntity
  8
Object
100
AcDbLine
 10
16.797
 20
7.759
 30
0.0
 11
16.815
 21
7.754
 31
0.0
  0
LINE
  5
545
330
18
100
AcDbEntity
  8
Object
100
AcDbLine
 10
16.805
 20
7.847
 30
0.0
 11
16.788
 21
7.838
 31
0.0
  0
LINE
  5
546
330
18
100
AcDbEntity
  8
Object
100
AcDbLine
 10
16.782
 20
7.770999999999999
 30
0.0
 11
16.797
 21
7.759
 31
0.0
  0
LINE
  5
547
330
18
100
AcDbEntity
  8
Object
100
AcDbLine
 10
16.788
 20
7.838
 30
0.0
 11
16.777
 21
7.823
 31
0.0
  0
LINE
  5
548
330
18
100
AcDbEntity
  8
Object
100
AcDbLine
 10
16.774
 20
7.786999999999999
 30
0.0
 11
16.782
 21
7.770999999999999
 31
0.0
  0
LINE
  5
549
330
18
100
AcDbEntity
  8
Object
100
AcDbLine
 10
16.777
 20
7.823
 30
0.0
 11
16.772
 21
7.806
 31
0.0
  0
LINE
  5
54A
330
18
100
AcDbEntity
  8
Object
100
AcDbLine
 10
16.772
 20
7.806
 30
0.0
 11
16.774
 21
7.786999999999999
 31
0.0
  0
LINE
  5
54B
330
18
100
AcDbEntity
  8
Object
100
AcDbLine
 10
10.676
 20
8.291
 30
0.0
 11
10.642
 21
8.298
 31
0.0
  0
LINE
  5
54C
330
18
100
AcDbEntity
  8
Object
100
AcDbLine
 10
10.642
 20
8.298
 30
0.0
 11
10.61
 21
8.31
 31
0.0
  0
LINE
  5
54D
330
18
100
AcDbEntity
  8
Object
100
AcDbLine
 10
10.61
 20
8.31
 30
0.0
 11
10.581
 21
8.329
 31
0.0
  0
LINE
  5
54E
330
18
100
AcDbEntity
  8
Object
100
AcDbLine
 10
10.581
 20
8.329
 30
0.0
 11
10.557
 21
8.352999999999999
 31
0.0
  0
LINE
  5
54F
330
18
100
AcDbEntity
  8
Object
100
AcDbLine
 10
10.557
 20
8.352999999999999
 30
0.0
 11
10.537
 21
8.381
 31
0.0
  0
LINE
  5
550
330
18
100
AcDbEntity
  8
Object
100
AcDbLine
 10
10.537
 20
8.381
 30
0.0
 11
10.524
 21
8.413
 31
0.0
  0
LINE
  5
551
330
18
100
AcDbEntity
  8
Object
100
AcDbLine
 10
10.524
 20
8.413
 30
0.0
 11
10.517
 21
8.447
 31
0.0
  0
LINE
  5
552
330
18
100
AcDbEntity
  8
Object
100
AcDbLine
 10
10.517
 20
8.447
 30
0.0
 11
10.516
 21
8.480999999999999
 31
0.0
  0
LINE
  5
553
330
18
100
AcDbEntity
  8
Object
100
AcDbLine
 10
11.085
 20
8.923
 30
0.0
 11
11.075
 21
8.809000000000001
 31
0.0
  0
LINE
  5
554
330
18
100
AcDbEntity
  8
Object
100
AcDbLine
 10
17.096
 20
8.128999999999999
 30
0.0
 11
17.096
 21
8.131999999999999
 31
0.0
  0
LINE
  5
555
330
18
100
AcDbEntity
  8
Object
100
AcDbLine
 10
16.755
 20
8.538
 30
0.0
 11
10.942
 21
9.045999999999999
 31
0.0
  0
LINE
  5
556
330
18
100
AcDbEntity
  8
Object
100
AcDbLine
 10
17.002
 20
8.14
 30
0.0
 11
16.982
 21
7.915
 31
0.0
  0
LINE
  5
557
330
18
100
AcDbEntity
  8
Object
100
AcDbLine
 10
10.536
 20
8.705
 30
0.0
 11
10.516
 21
8.480999999999999
 31
0.0
  0
LINE
  5
558
330
18
100
AcDbEntity
  8
Object
100
AcDbLine
 10
11.075
 20
8.809000000000001
 30
0.0
 11
11.069
 21
8.775
 31
0.0
  0
LINE
  5
559
330
18
100
AcDbEntity
  8
Object
100
AcDbLine
 10
11.069
 20
8.775
 30
0.0
 11
11.057
 21
8.743
 31
0.0
  0
LINE
  5
55A
330
18
100
AcDbEntity
  8
Object
100
AcDbLine
 10
11.057
 20
8.743
 30
0.0
 11
11.04
 21
8.711999999999999
 31
0.0
  0
LINE
  5
55B
330
18
100
AcDbEntity
  8
Object
100
AcDbLine
 10
11.04
 20
8.711999999999999
 30
0.0
 11
11.018
 21
8.685999999999999
 31
0.0
  0
LINE
  5
55C
330
18
100
AcDbEntity
  8
Object
100
AcDbLine
 10
11.162
 20
8.932
 30
0.0
 11
11.155
 21
8.929999999999999
 31
0.0
  0
LINE
  5
55D
330
18
100
AcDbEntity
  8
Object
100
AcDbLine
 10
11.155
 20
8.929999999999999
 30
0.0
 11
11.149
 21
8.926
 31
0.0
  0
LINE
  5
55E
330
18
100
AcDbEntity
  8
Object
100
AcDbLine
 10
11.149
 20
8.926
 30
0.0
 11
11.146
 21
8.919
 31
0.0
  0
LINE
  5
55F
330
18
100
AcDbEntity
  8
Object
100
AcDbLine
 10
17.275
 20
8.022999999999999
 30
0.0
 11
17.274
 21
8.034
 31
0.0
  0
LINE
  5
560
330
18
100
AcDbEntity
  8
Object
100
AcDbLine
 10
17.274
 20
8.034
 30
0.0
 11
17.268
 21
8.044
 31
0.0
  0
LINE
  5
561
330
18
100
AcDbEntity
  8
Object
100
AcDbLine
 10
17.268
 20
8.044
 30
0.0
 11
17.259
 21
8.051999999999999
 31
0.0
  0
LINE
  5
562
330
18
100
AcDbEntity
  8
Object
100
AcDbLine
 10
17.259
 20
8.051999999999999
 30
0.0
 11
17.248
 21
8.054999999999999
 31
0.0
  0
LINE
  5
563
330
18
100
AcDbEntity
  8
Object
100
AcDbLine
 10
10.934
 20
8.951999999999999
 30
0.0
 11
10.89
 21
8.951999999999999
 31
0.0
  0
LINE
  5
564
330
18
100
AcDbEntity
  8
Object
100
AcDbLine
 10
10.89
 20
8.951999999999999
 30
0.0
 11
10.847
 21
8.945999999999999
 31
0.0
  0
LINE
  5
565
330
18
100
AcDbEntity
  8
Object
100
AcDbLine
 10
10.847
 20
8.945999999999999
 30
0.0
 11
10.805
 21
8.932
 31
0.0
  0
LINE
  5
566
330
18
100
AcDbEntity
  8
Object
100
AcDbLine
 10
10.805
 20
8.932
 30
0.0
 11
10.765
 21
8.913
 31
0.0
  0
LINE
  5
567
330
18
100
AcDbEntity
  8
Object
100
AcDbLine
 10
10.765
 20
8.913
 30
0.0
 11
10.73
 21
8.887
 31
0.0
  0
LINE
  5
568
330
18
100
AcDbEntity
  8
Object
100
AcDbLine
 10
10.73
 20
8.887
 30
0.0
 11
10.698
 21
8.855999999999999
 31
0.0
  0
LINE
  5
569
330
18
100
AcDbEntity
  8
Object
100
AcDbLine
 10
10.698
 20
8.855999999999999
 30
0.0
 11
10.672
 21
8.820999999999999
 31
0.0
  0
LINE
  5
56A
330
18
100
AcDbEntity
  8
Object
100
AcDbLine
 10
10.672
 20
8.820999999999999
 30
0.0
 11
10.652
 21
8.782
 31
0.0
  0
LINE
  5
56B
330
18
100
AcDbEntity
  8
Object
100
AcDbLine
 10
10.652
 20
8.782
 30
0.0
 11
10.638
 21
8.740999999999999
 31
0.0
  0
LINE
  5
56C
330
18
100
AcDbEntity
  8
Object
100
AcDbLine
 10
10.638
 20
8.740999999999999
 30
0.0
 11
10.631
 21
8.697
 31
0.0
  0
LINE
  5
56D
330
18
100
AcDbEntity
  8
Object
100
AcDbLine
 10
10.934
 20
8.951999999999999
 30
0.0
 11
11.072
 21
8.939999999999999
 31
0.0
  0
LINE
  5
56E
330
18
100
AcDbEntity
  8
Object
100
AcDbLine
 10
16.501
 20
8.101
 30
0.0
 11
16.495
 21
8.102999999999999
 31
0.0
  0
LINE
  5
56F
330
18
100
AcDbEntity
  8
Object
100
AcDbLine
 10
16.495
 20
8.102999999999999
 30
0.0
 11
16.491
 21
8.106999999999999
 31
0.0
  0
LINE
  5
570
330
18
100
AcDbEntity
  8
Object
100
AcDbLine
 10
16.489
 20
8.118999999999999
 30
0.0
 11
16.489
 21
8.112999999999999
 31
0.0
  0
LINE
  5
571
330
18
100
AcDbEntity
  8
Object
100
AcDbLine
 10
16.489
 20
8.112999999999999
 30
0.0
 11
16.491
 21
8.106999999999999
 31
0.0
  0
LINE
  5
572
330
18
100
AcDbEntity
  8
Object
100
AcDbLine
 10
16.492
 20
8.124
 30
0.0
 11
16.489
 21
8.118999999999999
 31
0.0
  0
LINE
  5
573
330
18
100
AcDbEntity
  8
Object
100
AcDbLine
 10
16.635
 20
8.452999999999999
 30
0.0
 11
16.747
 21
8.442999999999999
 31
0.0
  0
LINE
  5
574
330
18
100
AcDbEntity
  8
Object
100
AcDbLine
 10
16.895
 20
7.842
 30
0.0
 11
16.823
 21
7.849
 31
0.0
  0
LINE
  5
575
330
18
100
AcDbEntity
  8
Object
100
AcDbLine
 10
17.096
 20
8.131999999999999
 30
0.0
 11
17.097
 21
8.185
 31
0.0
  0
LINE
  5
576
330
18
100
AcDbEntity
  8
Object
100
AcDbLine
 10
17.097
 20
8.185
 30
0.0
 11
17.09
 21
8.237999999999999
 31
0.0
  0
LINE
  5
577
330
18
100
AcDbEntity
  8
Object
100
AcDbLine
 10
17.09
 20
8.237999999999999
 30
0.0
 11
17.076
 21
8.29
 31
0.0
  0
LINE
  5
578
330
18
100
AcDbEntity
  8
Object
100
AcDbLine
 10
17.076
 20
8.29
 30
0.0
 11
17.055
 21
8.339
 31
0.0
  0
LINE
  5
579
330
18
100
AcDbEntity
  8
Object
100
AcDbLine
 10
17.055
 20
8.339
 30
0.0
 11
17.026
 21
8.384
 31
0.0
  0
LINE
  5
57A
330
18
100
AcDbEntity
  8
Object
100
AcDbLine
 10
17.026
 20
8.384
 30
0.0
 11
16.992
 21
8.425
 31
0.0
  0
LINE
  5
57B
330
18
100
AcDbEntity
  8
Object
100
AcDbLine
 10
16.992
 20
8.425
 30
0.0
 11
16.952
 21
8.461
 31
0.0
  0
LINE
  5
57C
330
18
100
AcDbEntity
  8
Object
100
AcDbLine
 10
16.952
 20
8.461
 30
0.0
 11
16.908
 21
8.49
 31
0.0
  0
LINE
  5
57D
330
18
100
AcDbEntity
  8
Object
100
AcDbLine
 10
16.908
 20
8.49
 30
0.0
 11
16.859
 21
8.512999999999999
 31
0.0
  0
LINE
  5
57E
330
18
100
AcDbEntity
  8
Object
100
AcDbLine
 10
16.859
 20
8.512999999999999
 30
0.0
 11
16.808
 21
8.528999999999999
 31
0.0
  0
LINE
  5
57F
330
18
100
AcDbEntity
  8
Object
100
AcDbLine
 10
16.808
 20
8.528999999999999
 30
0.0
 11
16.755
 21
8.538
 31
0.0
  0
LINE
  5
580
330
18
100
AcDbEntity
  8
Object
100
AcDbLine
 10
16.512
 20
8.105
 30
0.0
 11
16.509
 21
8.102999999999999
 31
0.0
  0
LINE
  5
581
330
18
100
AcDbEntity
  8
Object
100
AcDbLine
 10
16.509
 20
8.102999999999999
 30
0.0
 11
16.505
 21
8.101
 31
0.0
  0
LINE
  5
582
330
18
100
AcDbEntity
  8
Object
100
AcDbLine
 10
16.505
 20
8.101
 30
0.0
 11
16.501
 21
8.101
 31
0.0
  0
LINE
  5
583
330
18
100
AcDbEntity
  8
Object
100
AcDbLine
 10
16.607
 20
8.298999999999999
 30
0.0
 11
16.619
 21
8.439
 31
0.0
  0
LINE
  5
584
330
18
100
AcDbEntity
  8
Object
100
AcDbLine
 10
17.15
 20
8.064
 30
0.0
 11
17.132
 21
8.067999999999999
 31
0.0
  0
LINE
  5
585
330
18
100
AcDbEntity
  8
Object
100
AcDbLine
 10
17.132
 20
8.067999999999999
 30
0.0
 11
17.116
 21
8.077999999999999
 31
0.0
  0
LINE
  5
586
330
18
100
AcDbEntity
  8
Object
100
AcDbLine
 10
17.116
 20
8.077999999999999
 30
0.0
 11
17.104
 21
8.092
 31
0.0
  0
LINE
  5
587
330
18
100
AcDbEntity
  8
Object
100
AcDbLine
 10
17.104
 20
8.092
 30
0.0
 11
17.097
 21
8.109999999999999
 31
0.0
  0
LINE
  5
588
330
18
100
AcDbEntity
  8
Object
100
AcDbLine
 10
17.097
 20
8.109999999999999
 30
0.0
 11
17.096
 21
8.128999999999999
 31
0.0
  0
LINE
  5
589
330
18
100
AcDbEntity
  8
Object
100
AcDbLine
 10
11.162
 20
8.932
 30
0.0
 11
16.556
 21
8.46
 31
0.0
  0
LINE
  5
58A
330
18
100
AcDbEntity
  8
Object
100
AcDbLine
 10
17.272
 20
7.988
 30
0.0
 11
17.275
 21
8.022999999999999
 31
0.0
  0
LINE
  5
58B
330
18
100
AcDbEntity
  8
Object
100
AcDbLine
 10
10.611
 20
8.473
 30
0.0
 11
10.631
 21
8.697
 31
0.0
  0
LINE
  5
58C
330
18
100
AcDbEntity
  8
Object
100
AcDbLine
 10
16.635
 20
8.452999999999999
 30
0.0
 11
16.628
 21
8.451999999999999
 31
0.0
  0
LINE
  5
58D
330
18
100
AcDbEntity
  8
Object
100
AcDbLine
 10
16.628
 20
8.451999999999999
 30
0.0
 11
16.622
 21
8.447
 31
0.0
  0
LINE
  5
58E
330
18
100
AcDbEntity
  8
Object
100
AcDbLine
 10
16.622
 20
8.447
 30
0.0
 11
16.619
 21
8.439
 31
0.0
  0
LINE
  5
58F
330
18
100
AcDbEntity
  8
Object
100
AcDbLine
 10
16.607
 20
8.298999999999999
 30
0.0
 11
16.6
 21
8.255
 31
0.0
  0
LINE
  5
590
330
18
100
AcDbEntity
  8
Object
100
AcDbLine
 10
16.6
 20
8.255
 30
0.0
 11
16.586
 21
8.213
 31
0.0
  0
LINE
  5
591
330
18
100
AcDbEntity
  8
Object
100
AcDbLine
 10
16.586
 20
8.213
 30
0.0
 11
16.567
 21
8.173
 31
0.0
  0
LINE
  5
592
330
18
100
AcDbEntity
  8
Object
100
AcDbLine
 10
16.567
 20
8.173
 30
0.0
 11
16.542
 21
8.137
 31
0.0
  0
LINE
  5
593
330
18
100
AcDbEntity
  8
Object
100
AcDbLine
 10
16.542
 20
8.137
 30
0.0
 11
16.512
 21
8.105
 31
0.0
  0
LINE
  5
594
330
18
100
AcDbEntity
  8
Object
100
AcDbLine
 10
10.942
 20
9.045999999999999
 30
0.0
 11
10.889
 21
9.047
 31
0.0
  0
LINE
  5
595
330
18
100
AcDbEntity
  8
Object
100
AcDbLine
 10
10.889
 20
9.047
 30
0.0
 11
10.836
 21
9.04
 31
0.0
  0
LINE
  5
596
330
18
100
AcDbEntity
  8
Object
100
AcDbLine
 10
10.836
 20
9.04
 30
0.0
 11
10.784
 21
9.025999999999999
 31
0.0
  0
LINE
  5
597
330
18
100
AcDbEntity
  8
Object
100
AcDbLine
 10
10.784
 20
9.025999999999999
 30
0.0
 11
10.735
 21
9.005
 31
0.0
  0
LINE
  5
598
330
18
100
AcDbEntity
  8
Object
100
AcDbLine
 10
10.735
 20
9.005
 30
0.0
 11
10.69
 21
8.977
 31
0.0
  0
LINE
  5
599
330
18
100
AcDbEntity
  8
Object
100
AcDbLine
 10
10.69
 20
8.977
 30
0.0
 11
10.649
 21
8.942
 31
0.0
  0
LINE
  5
59A
330
18
100
AcDbEntity
  8
Object
100
AcDbLine
 10
10.649
 20
8.942
 30
0.0
 11
10.613
 21
8.902000000000001
 31
0.0
  0
LINE
  5
59B
330
18
100
AcDbEntity
  8
Object
100
AcDbLine
 10
10.613
 20
8.902000000000001
 30
0.0
 11
10.583
 21
8.858
 31
0.0
  0
LINE
  5
59C
330
18
100
AcDbEntity
  8
Object
100
AcDbLine
 10
10.583
 20
8.858
 30
0.0
 11
10.56
 21
8.809000000000001
 31
0.0
  0
LINE
  5
59D
330
18
100
AcDbEntity
  8
Object
100
AcDbLine
 10
10.56
 20
8.809000000000001
 30
0.0
 11
10.545
 21
8.758
 31
0.0
  0
LINE
  5
59E
330
18
100
AcDbEntity
  8
Object
100
AcDbLine
 10
10.545
 20
8.758
 30
0.0
 11
10.536
 21
8.705
 31
0.0
  0
LINE
  5
59F
330
18
100
AcDbEntity
  8
Object
100
AcDbLine
 10
16.554
 20
8.271
 30
0.0
 11
16.548
 21
8.230999999999999
 31
0.0
  0
LINE
  5
5A0
330
18
100
AcDbEntity
  8
Object
100
AcDbLine
 10
16.548
 20
8.230999999999999
 30
0.0
 11
16.535
 21
8.192999999999999
 31
0.0
  0
LINE
  5
5A1
330
18
100
AcDbEntity
  8
Object
100
AcDbLine
 10
16.535
 20
8.192999999999999
 30
0.0
 11
16.516
 21
8.157
 31
0.0
  0
LINE
  5
5A2
330
18
100
AcDbEntity
  8
Object
100
AcDbLine
 10
16.516
 20
8.157
 30
0.0
 11
16.492
 21
8.124
 31
0.0
  0
LINE
  5
5A3
330
18
100
AcDbEntity
  8
Object
100
AcDbLine
 10
17.102
 20
7.972
 30
0.0
 11
17.239
 21
7.959999999999999
 31
0.0
  0
LINE
  5
5A4
330
18
100
AcDbEntity
  8
Object
100
AcDbLine
 10
17.077
 20
7.907
 30
0.0
 11
17.081
 21
7.953999999999999
 31
0.0
  0
LINE
  5
5A5
330
18
100
AcDbEntity
  8
Object
100
AcDbLine
 10
17.248
 20
8.054999999999999
 30
0.0
 11
17.15
 21
8.064
 31
0.0
  0
LINE
  5
5A6
330
18
100
AcDbEntity
  8
Object
100
AcDbLine
 10
10.676
 20
8.291
 30
0.0
 11
10.698
 21
8.288999999999999
 31
0.0
  0
LINE
  5
5A7
330
18
100
AcDbEntity
  8
Object
100
AcDbLine
 10
10.684
 20
8.386000000000001
 30
0.0
 11
10.66
 21
8.391999999999999
 31
0.0
  0
LINE
  5
5A8
330
18
100
AcDbEntity
  8
Object
100
AcDbLine
 10
10.66
 20
8.391999999999999
 30
0.0
 11
10.638
 21
8.404999999999999
 31
0.0
  0
LINE
  5
5A9
330
18
100
AcDbEntity
  8
Object
100
AcDbLine
 10
10.638
 20
8.404999999999999
 30
0.0
 11
10.622
 21
8.423999999999999
 31
0.0
  0
LINE
  5
5AA
330
18
100
AcDbEntity
  8
Object
100
AcDbLine
 10
10.622
 20
8.423999999999999
 30
0.0
 11
10.613
 21
8.448
 31
0.0
  0
LINE
  5
5AB
330
18
100
AcDbEntity
  8
Object
100
AcDbLine
 10
10.613
 20
8.448
 30
0.0
 11
10.611
 21
8.473
 31
0.0
  0
LINE
  5
5AC
330
18
100
AcDbEntity
  8
Object
100
AcDbLine
 10
11.135
 20
8.294999999999999
 30
0.0
 11
11.095
 21
8.307999999999999
 31
0.0
  0
LINE
  5
5AD
330
18
100
AcDbEntity
  8
Object
100
AcDbLine
 10
11.095
 20
8.307999999999999
 30
0.0
 11
11.058
 21
8.326999999999999
 31
0.0
  0
LINE
  5
5AE
330
18
100
AcDbEntity
  8
Object
100
AcDbLine
 10
11.058
 20
8.326999999999999
 30
0.0
 11
11.025
 21
8.352
 31
0.0
  0
LINE
  5
5AF
330
18
100
AcDbEntity
  8
Object
100
AcDbLine
 10
11.025
 20
8.352
 30
0.0
 11
10.998
 21
8.381999999999999
 31
0.0
  0
LINE
  5
5B0
330
18
100
AcDbEntity
  8
Object
100
AcDbLine
 10
11.018
 20
8.685999999999999
 30
0.0
 11
10.991
 21
8.653999999999999
 31
0.0
  0
LINE
  5
5B1
330
18
100
AcDbEntity
  8
Object
100
AcDbLine
 10
10.976
 20
8.418000000000001
 30
0.0
 11
10.998
 21
8.381999999999999
 31
0.0
  0
LINE
  5
5B2
330
18
100
AcDbEntity
  8
Object
100
AcDbLine
 10
10.991
 20
8.653999999999999
 30
0.0
 11
10.971
 21
8.618
 31
0.0
  0
LINE
  5
5B3
330
18
100
AcDbEntity
  8
Object
100
AcDbLine
 10
10.96
 20
8.455999999999999
 30
0.0
 11
10.976
 21
8.418000000000001
 31
0.0
  0
LINE
  5
5B4
330
18
100
AcDbEntity
  8
Object
100
AcDbLine
 10
10.971
 20
8.618
 30
0.0
 11
10.958
 21
8.579
 31
0.0
  0
LINE
  5
5B5
330
18
100
AcDbEntity
  8
Object
100
AcDbLine
 10
10.96
 20
8.455999999999999
 30
0.0
 11
10.952
 21
8.496999999999999
 31
0.0
  0
LINE
  5
5B6
330
18
100
AcDbEntity
  8
Object
100
AcDbLine
 10
10.952
 20
8.496999999999999
 30
0.0
 11
10.951
 21
8.538
 31
0.0
  0
LINE
  5
5B7
330
18
100
AcDbEntity
  8
Object
100
AcDbLine
 10
10.951
 20
8.538
 30
0.0
 11
10.958
 21
8.579
 31
0.0
  0
LINE
  5
5B8
330
18
100
AcDbEntity
  8
Object
100
AcDbLine
 10
16.569
 20
8.444
 30
0.0
 11
16.568
 21
8.451
 31
0.0
  0
LINE
  5
5B9
330
18
100
AcDbEntity
  8
Object
100
AcDbLine
 10
16.568
 20
8.451
 30
0.0
 11
16.563
 21
8.457
 31
0.0
  0
LINE
  5
5BA
330
18
100
AcDbEntity
  8
Object
100
AcDbLine
 10
16.563
 20
8.457
 30
0.0
 11
16.556
 21
8.46
 31
0.0
  0
LINE
  5
5BB
330
18
100
AcDbEntity
  8
Object
100
AcDbLine
 10
16.569
 20
8.444
 30
0.0
 11
16.554
 21
8.271
 31
0.0
  0
LINE
  5
5BC
330
18
100
AcDbEntity
  8
Object
100
AcDbLine
 10
16.815
 20
7.754
 30
0.0
 11
16.887
 21
7.748
 31
0.0
  0
LINE
  5
5BD
330
18
100
AcDbEntity
  8
Object
100
AcDbLine
 10
11.085
 20
8.923
 30
0.0
 11
11.084
 21
8.931
 31
0.0
  0
LINE
  5
5BE
330
18
100
AcDbEntity
  8
Object
100
AcDbLine
 10
11.084
 20
8.931
 30
0.0
 11
11.079
 21
8.936999999999999
 31
0.0
  0
LINE
  5
5BF
330
18
100
AcDbEntity
  8
Object
100
AcDbLine
 10
11.079
 20
8.936999999999999
 30
0.0
 11
11.072
 21
8.939999999999999
 31
0.0
  0
LINE
  5
5C0
330
18
100
AcDbEntity
  8
Object
100
AcDbLine
 10
16.982
 20
7.915
 30
0.0
 11
16.976
 21
7.891
 31
0.0
  0
LINE
  5
5C1
330
18
100
AcDbEntity
  8
Object
100
AcDbLine
 10
16.976
 20
7.891
 30
0.0
 11
16.963
 21
7.87
 31
0.0
  0
LINE
  5
5C2
330
18
100
AcDbEntity
  8
Object
100
AcDbLine
 10
16.963
 20
7.87
 30
0.0
 11
16.943
 21
7.854
 31
0.0
  0
LINE
  5
5C3
330
18
100
AcDbEntity
  8
Object
100
AcDbLine
 10
16.943
 20
7.854
 30
0.0
 11
16.92
 21
7.844
 31
0.0
  0
LINE
  5
5C4
330
18
100
AcDbEntity
  8
Object
100
AcDbLine
 10
16.92
 20
7.844
 30
0.0
 11
16.895
 21
7.842
 31
0.0
  0
DIMENSION
  5
5C5
330
18
100
AcDbEntity
  8
Dimension
100
AcDbDimension
  2
*D0
 10
17.275
 20
10.47870983512949
 30
0.0
 11
10.4705
 21
10.47870983512949
 31
0.0
 70
    32
  1
13.63 [346.1mm]
 71
     5
 42
13.609
  3
STANDARD
100
AcDbAlignedDimension
 13
3.665999999999999
 23
8.185999999999999
 33
0.0
 14
17.275
 24
8.022999999999999
 34
0.0
100
AcDbRotatedDimension
  0
DIMENSION
  5
5DE
330
18
100
AcDbEntity
  8
Dimension
100
AcDbDimension
  2
*D1
 10
18.75606794987464
 20
7.747999999999999
 30
0.0
 11
18.75606794987464
 21
8.484000000000001
 31
0.0
 70
    32
 71
     5
 42
1.471999999999998
  3
STANDARD
100
AcDbAlignedDimension
 13
10.391
 23
9.22
 33
0.0
 14
16.921
 24
7.748
 34
0.0
 50
90.0
100
AcDbRotatedDimension
  0
DIMENSION
  5
5EC
330
18
100
AcDbEntity
  8
Dimension
100
AcDbDimension
  2
*D2
 10
13.7516659861152
 20
8.696918798665183
 30
0.0
 11
13.18192914400993
 21
8.052843642199
 31
0.0
 70
   160
 71
     5
 42
0.0950812013348159
  3
STANDARD
100
AcDbAlignedDimension
 13
13.8485
 23
8.791999999999999
 33
0.0
 14
13.8485
 24
8.696918798665183
 34
0.0
 50
90.0
100
AcDbRotatedDimension
1001
ACAD
1000
DSTYLE
1002
{
1070
    76
1070
     1
1070
    75
1070
     1
1002
}
  0
DIMENSION
  5
619
330
18
100
AcDbEntity
  8
Dimension
100
AcDbDimension
  2
*D3
 10
6.476873002670153
 20
8.660668553200247
 30
0.0
 11
5.907136160564888
 21
8.06372967967831
 31
0.0
 70
   160
  1
0.10 [2.4mm]
 71
     5
 42
0.0948314467997538
  3
STANDARD
100
AcDbAlignedDimension
 13
6.4935
 23
8.755500000000001
 33
0.0
 14
6.4935
 24
8.660668553200247
 34
0.0
 50
90.0
100
AcDbRotatedDimension
1001
ACAD
1000
DSTYLE
1002
{
1070
    76
1070
     1
1070
    75
1070
     1
1002
}
  0
ENDSEC
  0
SECTION
  2
OBJECTS
  0
DICTIONARY
  5
C
330
0
100
AcDbDictionary
281
     1
  3
ACAD_COLOR
350
10D
  3
ACAD_GROUP
350
D
  3
ACAD_LAYOUT
350
110
  3
ACAD_MATERIAL
350
10C
  3
ACAD_MLINESTYLE
350
1B
  3
ACAD_PLOTSETTINGS
350
111
  3
ACAD_PLOTSTYLENAME
350
10A
  3
ACAD_TABLESTYLE
350
10E
  3
ACDBHEADERROUNDTRIPXREC
350
688
  3
AcDbVariableDictionary
350
13E
  3
ASE_INDEX_DICTIONARY
350
148
  0
DICTIONARY
  5
154
330
2
100
AcDbDictionary
280
     1
281
     1
  3
ACAD_LAYERFILTERS
360
158
  3
ACLYDICTIONARY
360
157
  0
DICTIONARY
  5
10D
102
{ACAD_REACTORS
330
C
102
}
330
C
100
AcDbDictionary
281
     1
  0
DICTIONARY
  5
D
102
{ACAD_REACTORS
330
C
102
}
330
C
100
AcDbDictionary
281
     1
  0
DICTIONARY
  5
110
102
{ACAD_REACTORS
330
C
102
}
330
C
100
AcDbDictionary
281
     1
  3
Layout1
350
113
  3
Model
350
112
  0
DICTIONARY
  5
10C
102
{ACAD_REACTORS
330
C
102
}
330
C
100
AcDbDictionary
281
     1
  0
DICTIONARY
  5
1B
102
{ACAD_REACTORS
330
C
102
}
330
C
100
AcDbDictionary
281
     1
  3
STANDARD
350
1C
  0
DICTIONARY
  5
111
102
{ACAD_REACTORS
330
C
102
}
330
C
100
AcDbDictionary
281
     1
  0
ACDBDICTIONARYWDFLT
  5
10A
102
{ACAD_REACTORS
330
C
102
}
330
C
100
AcDbDictionary
281
     1
  3
Normal
350
10B
100
AcDbDictionaryWithDefault
340
10B
  0
DICTIONARY
  5
10E
102
{ACAD_REACTORS
330
C
102
}
330
C
100
AcDbDictionary
281
     1
  3
Standard
350
10F
  0
DICTIONARY
  5
688
102
{ACAD_REACTORS
330
C
102
}
330
C
100
AcDbDictionary
281
     1
  0
DICTIONARY
  5
13E
102
{ACAD_REACTORS
330
C
102
}
330
C
100
AcDbDictionary
281
     1
  3
CTABLESTYLE
350
13F
  3
DIMASSOC
350
685
  3
PROJECTNAME
350
686
  0
DICTIONARY
  5
148
102
{ACAD_REACTORS
330
C
102
}
330
C
100
AcDbDictionary
281
     1
  3
ASEBlockHierarchyIndexRecord
350
14A
1001
DCO15
1040
1529148047.148
  0
DICTIONARY
  5
158
102
{ACAD_REACTORS
330
154
102
}
330
154
100
AcDbDictionary
281
     1
  0
DICTIONARY
  5
157
102
{ACAD_REACTORS
330
154
102
}
330
154
100
AcDbDictionary
281
     1
1001
ACAD
1000
<All
  0
LAYOUT
  5
113
102
{ACAD_XDICTIONARY
360
68B
102
}
102
{ACAD_REACTORS
330
110
102
}
330
110
100
AcDbPlotSettings
  1

  2
\\RSENG\RSplotter4NT
  4

  6

 40
0.0
 41
0.0
 42
0.0
 43
0.0
 44
0.0
 45
0.0
 46
0.0
 47
0.0
 48
0.0
 49
0.0
140
0.0
141
0.0
142
1.0
143
1.0
 70
   688
 72
     0
 73
     0
 74
     5
  7
Symantec Fax Starter Edition
 75
    16
147
1.0
148
0.0
149
0.0
100
AcDbLayout
  1
Layout1
 70
     1
 71
     1
 10
0.0
 20
0.0
 11
12.0
 21
9.0
 12
0.0
 22
0.0
 32
0.0
 14
1.000000000000000E+20
 24
1.000000000000000E+20
 34
1.000000000000000E+20
 15
-1.000000000000000E+20
 25
-1.000000000000000E+20
 35
-1.000000000000000E+20
146
0.0
 13
0.0
 23
0.0
 33
0.0
 16
1.0
 26
0.0
 36
0.0
 17
0.0
 27
1.0
 37
0.0
 76
     0
330
15
  0
LAYOUT
  5
112
102
{ACAD_XDICTIONARY
360
689
102
}
102
{ACAD_REACTORS
330
110
102
}
330
110
100
AcDbPlotSettings
  1

  2
\\RSENG\RSplotter4NT
  4

  6

 40
0.0
 41
0.0
 42
0.0
 43
0.0
 44
0.0
 45
0.0
 46
0.0
 47
0.0
 48
0.0
 49
0.0
140
0.0
141
0.0
142
1.0
143
1.0
 70
  1712
 72
     0
 73
     0
 74
     0
  7
Symantec Fax Starter Edition
 75
     0
147
1.0
148
0.0
149
0.0
100
AcDbLayout
  1
Model
 70
     1
 71
     0
 10
0.0
 20
0.0
 11
12.0
 21
9.0
 12
0.0
 22
0.0
 32
0.0
 14
0.0
 24
0.0
 34
0.0
 15
0.0
 25
0.0
 35
0.0
146
0.0
 13
0.0
 23
0.0
 33
0.0
 16
1.0
 26
0.0
 36
0.0
 17
0.0
 27
1.0
 37
0.0
 76
     0
330
18
  0
MLINESTYLE
  5
1C
102
{ACAD_REACTORS
330
1B
102
}
330
1B
100
AcDbMlineStyle
  2
STANDARD
 70
     0
  3

 62
   256
 51
90.0
 52
90.0
 71
     2
 49
0.5
 62
   256
  6
BYLAYER
 49
-0.5
 62
   256
  6
BYLAYER
  0
ACDBPLACEHOLDER
  5
10B
102
{ACAD_REACTORS
330
10A
102
}
330
10A
  0
TABLESTYLE
  5
10F
102
{ACAD_REACTORS
330
10E
102
}
330
10E
100
AcDbTableStyle
  3
Standard
 70
     0
 71
     0
 40
0.06
 41
0.06
280
     0
281
     0
  7
STANDARD
140
0.18
170
     2
 62
     0
 63
     7
283
     0
274
    -2
284
     1
 64
     0
275
    -2
285
     1
 65
     0
276
    -2
286
     1
 66
     0
277
    -2
287
     1
 67
     0
278
    -2
288
     1
 68
     0
279
    -2
289
     1
 69
     0
  7
STANDARD
140
0.25
170
     5
 62
     0
 63
     7
283
     0
274
    -2
284
     1
 64
     0
275
    -2
285
     1
 65
     0
276
    -2
286
     1
 66
     0
277
    -2
287
     1
 67
     0
278
    -2
288
     1
 68
     0
279
    -2
289
     1
 69
     0
  7
STANDARD
140
0.18
170
     5
 62
     0
 63
     7
283
     0
274
    -2
284
     1
 64
     0
275
    -2
285
     1
 65
     0
276
    -2
286
     1
 66
     0
277
    -2
287
     1
 67
     0
278
    -2
288
     1
 68
     0
279
    -2
289
     1
 69
     0
  0
DICTIONARYVAR
  5
13F
102
{ACAD_REACTORS
330
13E
102
}
330
13E
100
DictionaryVariables
280
     0
  1
STANDARD
  0
DICTIONARYVAR
  5
685
102
{ACAD_REACTORS
330
13E
102
}
330
13E
100
DictionaryVariables
280
     0
  1
1
  0
DICTIONARYVAR
  5
686
102
{ACAD_REACTORS
330
13E
102
}
330
13E
100
DictionaryVariables
280
     0
  1

  0
XRECORD
  5
14A
102
{ACAD_REACTORS
330
148
102
}
330
148
100
AcDbXrecord
280
     1
  0
DICTIONARY
  5
68B
330
113
100
AcDbDictionary
280
     1
281
     1
  3
ACAD_XREC_ROUNDTRIP
360
68C
  0
DICTIONARY
  5
689
330
112
100
AcDbDictionary
280
     1
281
     1
  3
ACAD_XREC_ROUNDTRIP
360
68A
  0
XRECORD
  5
68C
102
{ACAD_REACTORS
330
68B
102
}
330
68B
100
AcDbXrecord
280
     1
102
SHADEPLOT
 70
     0
102
SHADEPLOTRESLEVEL
 70
     2
102
SHADEPLOTCUSTOMDPI
 70
   300
  0
XRECORD
  5
68A
102
{ACAD_REACTORS
330
689
102
}
330
689
100
AcDbXrecord
280
     1
102
SHADEPLOT
 70
     0
102
SHADEPLOTRESLEVEL
 70
     2
102
SHADEPLOTCUSTOMDPI
 70
   300
  0
ENDSEC
  0
EOF
