  0
SECTION
  2
HEADER
  9
$ACADVER
  1
AC1009
  9
$INSBASE
 10
402.590624
 20
-1.041018
 30
0.0
  9
$EXTMIN
 10
76.628759
 20
0.378963
 30
0.0
  9
$EXTMAX
 10
119.630187
 20
133.378963
 30
0.0
  9
$LIMMIN
 10
-407.970438
 20
-367.832444
  9
$LIMMAX
 10
429.804077
 20
234.370848
  9
$ORTHOMODE
 70
     0
  9
$REGENMODE
 70
     1
  9
$FILLMODE
 70
     1
  9
$QTEXTMODE
 70
     0
  9
$MIRRTEXT
 70
     1
  9
$DRAGMODE
 70
     2
  9
$LTSCALE
 40
10.0
  9
$OSMODE
 70
    35
  9
$ATTMODE
 70
     1
  9
$TEXTSIZE
 40
6.0
  9
$TRACEWID
 40
1.0
  9
$TEXTSTYLE
  7
ROMANS
  9
$CLAYER
  8
ALPHA
  9
$CELTYPE
  6
BYLAYER
  9
$CECOLOR
 62
   256
  9
$DIMSCALE
 40
1.0
  9
$DIMASZ
 40
5.0
  9
$DIMEXO
 40
2.0
  9
$DIMDLI
 40
0.38
  9
$DIMRND
 40
0.0
  9
$DIMDLE
 40
0.0
  9
$DIMEXE
 40
2.5
  9
$DIMTP
 40
0.0
  9
$DIMTM
 40
0.0
  9
$DIMTXT
 40
2.5
  9
$DIMCEN
 40
0.0
  9
$DIMTSZ
 40
0.0
  9
$DIMTOL
 70
     0
  9
$DIMLIM
 70
     0
  9
$DIMTIH
 70
     1
  9
$DIMTOH
 70
     1
  9
$DIMSE1
 70
     0
  9
$DIMSE2
 70
     0
  9
$DIMTAD
 70
     1
  9
$DIMZIN
 70
    12
  9
$DIMBLK
  1
OPEN30
  9
$DIMASO
 70
     1
  9
$DIMSHO
 70
     1
  9
$DIMPOST
  1

  9
$DIMAPOST
  1

  9
$DIMALT
 70
     0
  9
$DIMALTD
 70
     2
  9
$DIMALTF
 40
25.4
  9
$DIMLFAC
 40
1.0
  9
$DIMTOFL
 70
     0
  9
$DIMTVP
 40
0.0
  9
$DIMTIX
 70
     0
  9
$DIMSOXD
 70
     0
  9
$DIMSAH
 70
     0
  9
$DIMBLK1
  1

  9
$DIMBLK2
  1

  9
$DIMSTYLE
  2
SC_DEFAUT
  9
$DIMCLRD
 70
     0
  9
$DIMCLRE
 70
     0
  9
$DIMCLRT
 70
     0
  9
$DIMTFAC
 40
1.0
  9
$DIMGAP
 40
2.0
  9
$LUNITS
 70
     2
  9
$LUPREC
 70
     1
  9
$SKETCHINC
 40
0.1
  9
$FILLETRAD
 40
0.0
  9
$AUNITS
 70
     0
  9
$AUPREC
 70
     0
  9
$MENU
  1
acad
  9
$ELEVATION
 40
0.0
  9
$PELEVATION
 40
0.0
  9
$THICKNESS
 40
0.0
  9
$LIMCHECK
 70
     0
  9
$BLIPMODE
 70
     0
  9
$CHAMFERA
 40
0.0
  9
$CHAMFERB
 40
0.0
  9
$SKPOLY
 70
     0
  9
$TDCREATE
 40
2450373.687919
  9
$TDUPDATE
 40
2453032.652307
  9
$TDINDWG
 40
1.105229
  9
$TDUSRTIMER
 40
1.105229
  9
$USRTIMER
 70
     1
  9
$ANGBASE
 50
0.0
  9
$ANGDIR
 70
     0
  9
$PDMODE
 70
    32
  9
$PDSIZE
 40
0.0
  9
$PLINEWID
 40
0.0
  9
$COORDS
 70
     1
  9
$SPLFRAME
 70
     0
  9
$SPLINETYPE
 70
     6
  9
$SPLINESEGS
 70
     8
  9
$ATTDIA
 70
     0
  9
$ATTREQ
 70
     1
  9
$HANDLING
 70
     1
  9
$HANDSEED
  5
C445
  9
$SURFTAB1
 70
     6
  9
$SURFTAB2
 70
     6
  9
$SURFTYPE
 70
     6
  9
$SURFU
 70
     6
  9
$SURFV
 70
     6
  9
$UCSNAME
  2

  9
$UCSORG
 10
0.0
 20
0.0
 30
0.0
  9
$UCSXDIR
 10
1.0
 20
0.0
 30
0.0
  9
$UCSYDIR
 10
0.0
 20
1.0
 30
0.0
  9
$PUCSNAME
  2

  9
$PUCSORG
 10
0.0
 20
0.0
 30
0.0
  9
$PUCSXDIR
 10
1.0
 20
0.0
 30
0.0
  9
$PUCSYDIR
 10
0.0
 20
1.0
 30
0.0
  9
$USERI1
 70
     0
  9
$USERI2
 70
     0
  9
$USERI3
 70
     0
  9
$USERI4
 70
     0
  9
$USERI5
 70
     0
  9
$USERR1
 40
0.0
  9
$USERR2
 40
0.0
  9
$USERR3
 40
0.0
  9
$USERR4
 40
0.0
  9
$USERR5
 40
0.0
  9
$WORLDVIEW
 70
     1
  9
$SHADEDGE
 70
     3
  9
$SHADEDIF
 70
    70
  9
$TILEMODE
 70
     1
  9
$MAXACTVP
 70
    16
  9
$PLIMCHECK
 70
     0
  9
$PEXTMIN
 10
-1.452248
 20
-0.437698
 30
0.0
  9
$PEXTMAX
 10
12.749749
 20
8.310198
 30
0.0
  9
$PLIMMIN
 10
0.0
 20
0.0
  9
$PLIMMAX
 10
12.0
 20
9.0
  9
$UNITMODE
 70
     0
  9
$VISRETAIN
 70
     0
  9
$PLINEGEN
 70
     0
  9
$PSLTSCALE
 70
     0
  0
ENDSEC
  0
SECTION
  2
TABLES
  0
TABLE
  2
VPORT
 70
     2
  0
VPORT
  2
*ACTIVE
 70
     0
 10
0.0
 20
0.0
 11
1.0
 21
1.0
 12
98.131736
 22
66.875708
 13
0.0
 23
0.0
 14
1.0
 24
1.0
 15
10.0
 25
10.0
 16
0.0
 26
0.0
 36
1.0
 17
0.0
 27
0.0
 37
0.0
 40
134.013551
 41
1.466346
 42
50.0
 43
0.0
 44
0.0
 50
0.0
 51
0.0
 71
     0
 72
   100
 73
     1
 74
     0
 75
     0
 76
     0
 77
     0
 78
     0
  0
ENDTAB
  0
TABLE
  2
LTYPE
 70
     2
  0
LTYPE
  2
CONTINUOUS
 70
     0
  3
Solid line
 72
    65
 73
     0
 40
0.0
  0
LTYPE
  2
AXES2
 70
     0
  3
___ _ ___ _ ___ _ ___ _ ___ _ ___ _ ___ _ ___ _
 72
    65
 73
     4
 40
1.125
 49
0.75
 49
-0.125
 49
0.125
 49
-0.125
  0
ENDTAB
  0
TABLE
  2
LAYER
 70
     5
  0
LAYER
  2
0
 70
     0
 62
   255
  6
CONTINUOUS
  0
LAYER
  2
COTATION1
 70
     0
 62
     2
  6
CONTINUOUS
  0
LAYER
  2
AXE
 70
     0
 62
    80
  6
AXES2
  0
LAYER
  2
DEFPOINTS
 70
     0
 62
     7
  6
CONTINUOUS
  0
LAYER
  2
ALPHA
 70
     0
 62
   254
  6
CONTINUOUS
  0
ENDTAB
  0
TABLE
  2
STYLE
 70
     2
  0
STYLE
  2
ROMANS
 70
     0
 40
0.0
 41
1.0
 50
0.0
 71
     0
 42
6.0
  3
romans
  4

  0
STYLE
  2
STANDARD
 70
     0
 40
0.0
 41
1.0
 50
0.0
 71
     0
 42
0.2
  3
txt
  4

  0
ENDTAB
  0
TABLE
  2
VIEW
 70
     0
  0
ENDTAB
  0
TABLE
  2
UCS
 70
     0
  0
ENDTAB
  0
TABLE
  2
APPID
 70
     1
  0
APPID
  2
ACAD
 70
     0
  0
ENDTAB
  0
TABLE
  2
DIMSTYLE
 70
     2
  0
DIMSTYLE
  2
SC_DEFAUT
 70
     0
  3

  4

  5
OPEN30
  6

  7

 40
1.0
 41
5.0
 42
2.0
 43
0.38
 44
2.5
 45
0.0
 46
0.0
 47
0.0
 48
0.0
140
2.5
141
0.0
142
0.0
143
25.4
144
1.0
145
0.0
146
1.0
147
2.0
 71
     0
 72
     0
 73
     1
 74
     1
 75
     0
 76
     0
 77
     1
 78
    12
170
     0
171
     2
172
     0
173
     0
174
     0
175
     0
176
     0
177
     0
178
     0
  0
DIMSTYLE
  2
STANDARD
 70
     0
  3

  4

  5

  6

  7

 40
1.0
 41
0.18
 42
0.0625
 43
0.38
 44
0.18
 45
0.0
 46
0.0
 47
0.0
 48
0.0
140
0.18
141
0.09
142
0.0
143
25.4
144
1.0
145
0.0
146
1.0
147
0.09
 71
     0
 72
     0
 73
     1
 74
     1
 75
     0
 76
     0
 77
     0
 78
     0
170
     0
171
     2
172
     0
173
     0
174
     0
175
     0
176
     0
177
     0
178
     0
  0
ENDTAB
  0
ENDSEC
  0
SECTION
  2
BLOCKS
  0
BLOCK
  8
0
  2
$MODEL_SPACE
 70
     0
 10
0.0
 20
0.0
 30
0.0
  3
$MODEL_SPACE
  1

  0
ENDBLK
  5
C43E
  8
0
  0
BLOCK
 67
     1
  8
0
  2
$PAPER_SPACE
 70
     0
 10
0.0
 20
0.0
 30
0.0
  3
$PAPER_SPACE
  1

  0
ENDBLK
  5
C43C
 67
     1
  8
0
  0
BLOCK
  8
0
  2
COTE
 70
     0
 10
0.0
 20
0.0
 30
0.0
  3
COTE
  1

  0
ENDBLK
  5
F
  8
0
  0
BLOCK
  8
0
  2
FOND
 70
     0
 10
0.0
 20
0.0
 30
0.0
  3
FOND
  1

  0
ENDBLK
  5
75
  8
0
  0
BLOCK
  8
0
  2
_OPEN30
 70
     0
 10
0.0
 20
0.0
 30
0.0
  3
_OPEN30
  1

  0
LINE
  5
4B05
  8
COTATION1
 62
     0
 10
-1.0
 20
0.267949
 30
0.0
 11
0.0
 21
0.0
 31
0.0
1001
ACAD
1000
RTLwPs
1070
   158
  0
LINE
  5
4B06
  8
COTATION1
 62
     0
 10
0.0
 20
0.0
 30
0.0
 11
-1.0
 21
-0.267949
 31
0.0
1001
ACAD
1000
RTLwPs
1070
   158
  0
LINE
  5
4B07
  8
COTATION1
 62
     0
 10
0.0
 20
0.0
 30
0.0
 11
-1.0
 21
0.0
 31
0.0
1001
ACAD
1000
RTLwPs
1070
   158
  0
ENDBLK
  5
4B09
  8
0
  0
BLOCK
  8
0
  2
*D3
 70
     1
 10
0.0
 20
0.0
 30
0.0
  3
*D3
  1

  0
LINE
  5
C354
  8
COTATION1
 62
     0
 10
81.628759
 20
107.878963
 30
0.0
 11
81.628759
 21
131.378963
 31
0.0
1001
ACAD
1000
RTLwPs
1070
   158
  0
LINE
  5
C355
  8
COTATION1
 62
     0
 10
97.628759
 20
107.878963
 30
0.0
 11
97.628759
 21
131.378963
 31
0.0
1001
ACAD
1000
RTLwPs
1070
   158
  0
LINE
  5
C356
  8
COTATION1
 62
     0
 10
86.628759
 20
128.878963
 30
0.0
 11
92.628759
 21
128.878963
 31
0.0
1001
ACAD
1000
RTLwPs
1070
   158
  0
INSERT
  5
C357
  8
COTATION1
 62
     0
  2
_OPEN30
 10
81.628759
 20
128.878963
 30
0.0
 41
5.0
 42
5.0
 43
5.0
 50
180.0
1001
ACAD
1000
RTLwPs
1070
   158
  0
INSERT
  5
C358
  8
COTATION1
 62
     0
  2
_OPEN30
 10
97.628759
 20
128.878963
 30
0.0
 41
5.0
 42
5.0
 43
5.0
1001
ACAD
1000
RTLwPs
1070
   158
  0
TEXT
  5
C359
  8
COTATION1
 62
     0
 10
86.235902
 20
130.878963
 30
0.0
 40
2.5
  1
%%c
1001
ACAD
1000
MTEXTBEGIN
1070
    73
1070
     1
1070
    44
1040
1.0
1070
    74
1070
     0
1000
MTEXTEND
  0
TEXT
  5
C40F
  8
COTATION1
 62
     0
 10
88.497806
 20
130.878963
 30
0.0
 40
2.5
  1
16
1001
ACAD
1000
R13OBJECT
1002
{
1005
C359
1002
}
  0
POINT
  5
C35A
  8
DEFPOINTS
 62
     0
 10
81.628759
 20
105.878963
 30
0.0
  0
POINT
  5
C35B
  8
DEFPOINTS
 62
     0
 10
97.628759
 20
105.878963
 30
0.0
  0
POINT
  5
C35C
  8
DEFPOINTS
 62
     0
 10
97.628759
 20
128.878963
 30
0.0
  0
ENDBLK
  5
B44E
  8
0
  0
BLOCK
  8
0
  2
*D4
 70
     1
 10
0.0
 20
0.0
 30
0.0
  3
*D4
  1

  0
LINE
  5
C340
  8
COTATION1
 62
     0
 10
91.628759
 20
113.878963
 30
0.0
 11
117.308759
 21
113.878963
 31
0.0
1001
ACAD
1000
RTLwPs
1070
   158
  0
LINE
  5
C341
  8
COTATION1
 62
     0
 10
94.128759
 20
10.378963
 30
0.0
 11
117.308759
 21
10.378963
 31
0.0
1001
ACAD
1000
RTLwPs
1070
   158
  0
LINE
  5
C342
  8
COTATION1
 62
     0
 10
114.808759
 20
108.878963
 30
0.0
 11
114.808759
 21
65.378963
 31
0.0
1001
ACAD
1000
RTLwPs
1070
   158
  0
LINE
  5
C343
  8
COTATION1
 62
     0
 10
114.808759
 20
15.378963
 30
0.0
 11
114.808759
 21
58.878963
 31
0.0
1001
ACAD
1000
RTLwPs
1070
   158
  0
INSERT
  5
C344
  8
COTATION1
 62
     0
  2
_OPEN30
 10
114.808759
 20
113.878963
 30
0.0
 41
5.0
 42
5.0
 43
5.0
 50
90.0
1001
ACAD
1000
RTLwPs
1070
   158
  0
INSERT
  5
C345
  8
COTATION1
 62
     0
  2
_OPEN30
 10
114.808759
 20
10.378963
 30
0.0
 41
5.0
 42
5.0
 43
5.0
 50
270.0
1001
ACAD
1000
RTLwPs
1070
   158
  0
TEXT
  5
C346
  8
COTATION1
 62
     0
 10
109.273044
 20
60.878963
 30
0.0
 40
2.5
  1
103.5
1001
ACAD
1000
MTEXTBEGIN
1070
    73
1070
     1
1070
    44
1040
1.0
1070
    74
1070
     0
1000
MTEXTEND
  0
POINT
  5
C347
  8
DEFPOINTS
 62
     0
 10
89.628759
 20
113.878963
 30
0.0
  0
POINT
  5
C348
  8
DEFPOINTS
 62
     0
 10
92.128759
 20
10.378963
 30
0.0
  0
POINT
  5
C349
  8
DEFPOINTS
 62
     0
 10
114.808759
 20
10.378963
 30
0.0
  0
ENDBLK
  5
B45B
  8
0
  0
ENDSEC
  0
SECTION
  2
ENTITIES
  0
INSERT
  5
A
  8
0
  2
COTE
 10
0.0
 20
0.0
 30
0.0
  0
INSERT
  5
17
  8
0
  2
COTE
 10
284.010391
 20
6.373258
 30
0.0
  0
INSERT
  5
72
  8
0
  2
FOND
 10
0.0
 20
0.0
 30
0.0
  0
ARC
  5
B076
  8
ALPHA
 10
86.437337
 20
79.378963
 30
0.0
 40
0.091421
 50
315.0
 51
45.0
  0
ARC
  5
B077
  8
ALPHA
 10
92.82018
 20
79.378963
 30
0.0
 40
0.091421
 50
135.0
 51
225.0
  0
LINE
  5
B07B
  8
ALPHA
 10
92.737337
 20
79.42541
 30
0.0
 11
92.531271
 21
79.631476
 31
0.0
  0
LINE
  5
B07C
  8
ALPHA
 10
97.128759
 20
15.378963
 30
0.0
 11
97.128759
 21
80.457781
 31
0.0
  0
LINE
  5
B07D
  8
ALPHA
 10
89.978759
 20
77.378963
 30
0.0
 11
89.978759
 21
79.578963
 31
0.0
  0
LINE
  5
B07E
  8
ALPHA
 10
89.278759
 20
79.578963
 30
0.0
 11
89.278759
 21
77.378963
 31
0.0
  0
LINE
  5
B07F
  8
ALPHA
 10
82.128759
 20
80.457781
 30
0.0
 11
82.128759
 21
15.378963
 31
0.0
  0
LINE
  5
B080
  8
ALPHA
 10
86.52018
 20
79.42541
 30
0.0
 11
86.726246
 21
79.631476
 31
0.0
  0
LINE
  5
B08C
  8
ALPHA
 10
86.172693
 20
32.985029
 30
0.0
 11
86.501982
 21
33.314319
 31
0.0
  0
LINE
  5
B08D
  8
ALPHA
 10
92.755535
 20
33.314319
 30
0.0
 11
93.084825
 21
32.985029
 31
0.0
  0
ARC
  5
B08E
  8
ALPHA
 10
89.628759
 20
22.378963
 30
0.0
 40
3.5
 50
186.842628
 51
353.157372
  0
LINE
  5
B08F
  8
ALPHA
 10
87.128759
 20
10.378963
 30
0.0
 11
92.128759
 21
10.378963
 31
0.0
  0
ARC
  5
B090
  8
ALPHA
 10
87.128759
 20
15.378963
 30
0.0
 40
5.0
 50
180.0
 51
270.0
  0
LINE
  5
B091
  8
ALPHA
 10
86.172693
 20
26.985029
 30
0.0
 11
86.501982
 21
27.314319
 31
0.0
  0
ARC
  5
B092
  8
ALPHA
 10
86.278759
 20
26.878963
 30
0.0
 40
0.15
 50
135.0
 51
225.0
  0
ARC
  5
B093
  8
ALPHA
 10
86.437337
 20
23.378963
 30
0.0
 40
0.091421
 50
315.0
 51
45.0
  0
ARC
  5
B094
  8
ALPHA
 10
86.437337
 20
24.378963
 30
0.0
 40
0.091421
 50
315.0
 51
45.0
  0
ARC
  5
B095
  8
ALPHA
 10
86.437337
 20
25.378963
 30
0.0
 40
0.091421
 50
315.0
 51
45.0
  0
ARC
  5
B096
  8
ALPHA
 10
86.437337
 20
26.378963
 30
0.0
 40
0.091421
 50
315.0
 51
45.0
  0
ARC
  5
B097
  8
ALPHA
 10
86.278759
 20
21.878963
 30
0.0
 40
0.15
 50
135.0
 51
146.392657
  0
ARC
  5
B098
  8
ALPHA
 10
86.437337
 20
22.378963
 30
0.0
 40
0.091421
 50
315.0
 51
45.0
  0
ARC
  5
B099
  8
ALPHA
 10
86.278759
 20
25.878963
 30
0.0
 40
0.15
 50
135.0
 51
225.0
  0
ARC
  5
B09A
  8
ALPHA
 10
86.278759
 20
24.878963
 30
0.0
 40
0.15
 50
135.0
 51
225.0
  0
ARC
  5
B09B
  8
ALPHA
 10
86.278759
 20
23.878963
 30
0.0
 40
0.15
 50
135.0
 51
225.0
  0
ARC
  5
B09C
  8
ALPHA
 10
86.278759
 20
22.878963
 30
0.0
 40
0.15
 50
135.0
 51
225.0
  0
LINE
  5
B09D
  8
ALPHA
 10
86.172693
 20
21.985029
 30
0.0
 11
86.501982
 21
22.314319
 31
0.0
  0
LINE
  5
B09E
  8
ALPHA
 10
86.172693
 20
22.985029
 30
0.0
 11
86.501982
 21
23.314319
 31
0.0
  0
LINE
  5
B09F
  8
ALPHA
 10
86.172693
 20
23.985029
 30
0.0
 11
86.501982
 21
24.314319
 31
0.0
  0
LINE
  5
B0A0
  8
ALPHA
 10
86.172693
 20
24.985029
 30
0.0
 11
86.501982
 21
25.314319
 31
0.0
  0
LINE
  5
B0A1
  8
ALPHA
 10
86.172693
 20
25.985029
 30
0.0
 11
86.501982
 21
26.314319
 31
0.0
  0
LINE
  5
B0A2
  8
ALPHA
 10
86.501982
 20
26.443608
 30
0.0
 11
86.172693
 21
26.772897
 31
0.0
  0
LINE
  5
B0A3
  8
ALPHA
 10
86.501982
 20
25.443608
 30
0.0
 11
86.172693
 21
25.772897
 31
0.0
  0
LINE
  5
B0A4
  8
ALPHA
 10
86.501982
 20
24.443608
 30
0.0
 11
86.172693
 21
24.772897
 31
0.0
  0
LINE
  5
B0A5
  8
ALPHA
 10
86.501982
 20
23.443608
 30
0.0
 11
86.172693
 21
23.772897
 31
0.0
  0
LINE
  5
B0A6
  8
ALPHA
 10
86.501982
 20
22.443608
 30
0.0
 11
86.172693
 21
22.772897
 31
0.0
  0
ARC
  5
B0A7
  8
ALPHA
 10
86.278759
 20
32.878963
 30
0.0
 40
0.15
 50
135.0
 51
225.0
  0
ARC
  5
B0A8
  8
ALPHA
 10
86.278759
 20
31.878963
 30
0.0
 40
0.15
 50
135.0
 51
225.0
  0
ARC
  5
B0A9
  8
ALPHA
 10
86.278759
 20
30.878963
 30
0.0
 40
0.15
 50
135.0
 51
225.0
  0
ARC
  5
B0AA
  8
ALPHA
 10
86.278759
 20
29.878963
 30
0.0
 40
0.15
 50
135.0
 51
225.0
  0
ARC
  5
B0AB
  8
ALPHA
 10
86.278759
 20
28.878963
 30
0.0
 40
0.15
 50
135.0
 51
225.0
  0
ARC
  5
B0AC
  8
ALPHA
 10
86.278759
 20
27.878963
 30
0.0
 40
0.15
 50
135.0
 51
225.0
  0
ARC
  5
B0AD
  8
ALPHA
 10
86.437337
 20
27.378963
 30
0.0
 40
0.091421
 50
315.0
 51
45.0
  0
ARC
  5
B0AE
  8
ALPHA
 10
86.437337
 20
28.378963
 30
0.0
 40
0.091421
 50
315.0
 51
45.0
  0
ARC
  5
B0AF
  8
ALPHA
 10
86.437337
 20
29.378963
 30
0.0
 40
0.091421
 50
315.0
 51
45.0
  0
ARC
  5
B0B0
  8
ALPHA
 10
86.437337
 20
30.378963
 30
0.0
 40
0.091421
 50
315.0
 51
45.0
  0
ARC
  5
B0B1
  8
ALPHA
 10
86.437337
 20
31.378963
 30
0.0
 40
0.091421
 50
315.0
 51
45.0
  0
ARC
  5
B0B2
  8
ALPHA
 10
86.437337
 20
32.378963
 30
0.0
 40
0.091421
 50
315.0
 51
45.0
  0
LINE
  5
B0B3
  8
ALPHA
 10
86.172693
 20
27.985029
 30
0.0
 11
86.501982
 21
28.314319
 31
0.0
  0
LINE
  5
B0B4
  8
ALPHA
 10
86.172693
 20
28.985029
 30
0.0
 11
86.501982
 21
29.314319
 31
0.0
  0
LINE
  5
B0B5
  8
ALPHA
 10
86.172693
 20
29.985029
 30
0.0
 11
86.501982
 21
30.314319
 31
0.0
  0
LINE
  5
B0B6
  8
ALPHA
 10
86.172693
 20
30.985029
 30
0.0
 11
86.501982
 21
31.314319
 31
0.0
  0
LINE
  5
B0B7
  8
ALPHA
 10
86.172693
 20
31.985029
 30
0.0
 11
86.501982
 21
32.314319
 31
0.0
  0
LINE
  5
B0B8
  8
ALPHA
 10
86.501982
 20
32.443608
 30
0.0
 11
86.172693
 21
32.772897
 31
0.0
  0
LINE
  5
B0B9
  8
ALPHA
 10
86.501982
 20
31.443608
 30
0.0
 11
86.172693
 21
31.772897
 31
0.0
  0
LINE
  5
B0BA
  8
ALPHA
 10
86.501982
 20
30.443608
 30
0.0
 11
86.172693
 21
30.772897
 31
0.0
  0
LINE
  5
B0BB
  8
ALPHA
 10
86.501982
 20
29.443608
 30
0.0
 11
86.172693
 21
29.772897
 31
0.0
  0
LINE
  5
B0BC
  8
ALPHA
 10
86.501982
 20
28.443608
 30
0.0
 11
86.172693
 21
28.772897
 31
0.0
  0
LINE
  5
B0BD
  8
ALPHA
 10
86.501982
 20
27.443608
 30
0.0
 11
86.172693
 21
27.772897
 31
0.0
  0
ARC
  5
B0BE
  8
ALPHA
 10
92.128759
 20
15.378963
 30
0.0
 40
5.0
 50
270.0
 51
0.0
  0
LINE
  5
B0BF
  8
ALPHA
 10
92.755535
 20
27.314319
 30
0.0
 11
93.084825
 21
26.985029
 31
0.0
  0
ARC
  5
B0C0
  8
ALPHA
 10
92.978759
 20
26.878963
 30
0.0
 40
0.15
 50
315.0
 51
45.0
  0
ARC
  5
B0C1
  8
ALPHA
 10
92.82018
 20
26.378963
 30
0.0
 40
0.091421
 50
135.0
 51
225.0
  0
ARC
  5
B0C2
  8
ALPHA
 10
92.82018
 20
25.378963
 30
0.0
 40
0.091421
 50
135.0
 51
225.0
  0
ARC
  5
B0C3
  8
ALPHA
 10
92.82018
 20
24.378963
 30
0.0
 40
0.091421
 50
135.0
 51
225.0
  0
ARC
  5
B0C4
  8
ALPHA
 10
92.82018
 20
23.378963
 30
0.0
 40
0.091421
 50
135.0
 51
225.0
  0
ARC
  5
B0C5
  8
ALPHA
 10
92.82018
 20
22.378963
 30
0.0
 40
0.091421
 50
135.0
 51
225.0
  0
ARC
  5
B0C6
  8
ALPHA
 10
92.978759
 20
21.878963
 30
0.0
 40
0.15
 50
33.607343
 51
45.0
  0
ARC
  5
B0C7
  8
ALPHA
 10
92.978759
 20
25.878963
 30
0.0
 40
0.15
 50
315.0
 51
45.0
  0
ARC
  5
B0C8
  8
ALPHA
 10
92.978759
 20
24.878963
 30
0.0
 40
0.15
 50
315.0
 51
45.0
  0
ARC
  5
B0C9
  8
ALPHA
 10
92.978759
 20
23.878963
 30
0.0
 40
0.15
 50
315.0
 51
45.0
  0
ARC
  5
B0CA
  8
ALPHA
 10
92.978759
 20
22.878963
 30
0.0
 40
0.15
 50
315.0
 51
45.0
  0
LINE
  5
B0CB
  8
ALPHA
 10
93.084825
 20
22.772897
 30
0.0
 11
92.755535
 21
22.443608
 31
0.0
  0
LINE
  5
B0CC
  8
ALPHA
 10
93.084825
 20
23.772897
 30
0.0
 11
92.755535
 21
23.443608
 31
0.0
  0
LINE
  5
B0CD
  8
ALPHA
 10
93.084825
 20
24.772897
 30
0.0
 11
92.755535
 21
24.443608
 31
0.0
  0
LINE
  5
B0CE
  8
ALPHA
 10
93.084825
 20
25.772897
 30
0.0
 11
92.755535
 21
25.443608
 31
0.0
  0
LINE
  5
B0CF
  8
ALPHA
 10
93.084825
 20
26.772897
 30
0.0
 11
92.755535
 21
26.443608
 31
0.0
  0
LINE
  5
B0D0
  8
ALPHA
 10
92.755535
 20
26.314319
 30
0.0
 11
93.084825
 21
25.985029
 31
0.0
  0
LINE
  5
B0D1
  8
ALPHA
 10
92.755535
 20
25.314319
 30
0.0
 11
93.084825
 21
24.985029
 31
0.0
  0
LINE
  5
B0D2
  8
ALPHA
 10
92.755535
 20
24.314319
 30
0.0
 11
93.084825
 21
23.985029
 31
0.0
  0
LINE
  5
B0D3
  8
ALPHA
 10
92.755535
 20
23.314319
 30
0.0
 11
93.084825
 21
22.985029
 31
0.0
  0
LINE
  5
B0D4
  8
ALPHA
 10
92.755535
 20
22.314319
 30
0.0
 11
93.084825
 21
21.985029
 31
0.0
  0
ARC
  5
B0D5
  8
ALPHA
 10
92.978759
 20
32.878963
 30
0.0
 40
0.15
 50
315.0
 51
45.0
  0
ARC
  5
B0D6
  8
ALPHA
 10
92.978759
 20
31.878963
 30
0.0
 40
0.15
 50
315.0
 51
45.0
  0
ARC
  5
B0D7
  8
ALPHA
 10
92.978759
 20
30.878963
 30
0.0
 40
0.15
 50
315.0
 51
45.0
  0
ARC
  5
B0D8
  8
ALPHA
 10
92.978759
 20
29.878963
 30
0.0
 40
0.15
 50
315.0
 51
45.0
  0
ARC
  5
B0D9
  8
ALPHA
 10
92.978759
 20
28.878963
 30
0.0
 40
0.15
 50
315.0
 51
45.0
  0
ARC
  5
B0DA
  8
ALPHA
 10
92.978759
 20
27.878963
 30
0.0
 40
0.15
 50
315.0
 51
45.0
  0
ARC
  5
B0DB
  8
ALPHA
 10
92.82018
 20
32.378963
 30
0.0
 40
0.091421
 50
135.0
 51
225.0
  0
ARC
  5
B0DC
  8
ALPHA
 10
92.82018
 20
31.378963
 30
0.0
 40
0.091421
 50
135.0
 51
225.0
  0
ARC
  5
B0DD
  8
ALPHA
 10
92.82018
 20
30.378963
 30
0.0
 40
0.091421
 50
135.0
 51
225.0
  0
ARC
  5
B0DE
  8
ALPHA
 10
92.82018
 20
29.378963
 30
0.0
 40
0.091421
 50
135.0
 51
225.0
  0
ARC
  5
B0DF
  8
ALPHA
 10
92.82018
 20
28.378963
 30
0.0
 40
0.091421
 50
135.0
 51
225.0
  0
ARC
  5
B0E0
  8
ALPHA
 10
92.82018
 20
27.378963
 30
0.0
 40
0.091421
 50
135.0
 51
225.0
  0
LINE
  5
B0E1
  8
ALPHA
 10
93.084825
 20
27.772897
 30
0.0
 11
92.755535
 21
27.443608
 31
0.0
  0
LINE
  5
B0E2
  8
ALPHA
 10
93.084825
 20
28.772897
 30
0.0
 11
92.755535
 21
28.443608
 31
0.0
  0
LINE
  5
B0E3
  8
ALPHA
 10
93.084825
 20
29.772897
 30
0.0
 11
92.755535
 21
29.443608
 31
0.0
  0
LINE
  5
B0E4
  8
ALPHA
 10
93.084825
 20
30.772897
 30
0.0
 11
92.755535
 21
30.443608
 31
0.0
  0
LINE
  5
B0E5
  8
ALPHA
 10
93.084825
 20
31.772897
 30
0.0
 11
92.755535
 21
31.443608
 31
0.0
  0
LINE
  5
B0E6
  8
ALPHA
 10
93.084825
 20
32.772897
 30
0.0
 11
92.755535
 21
32.443608
 31
0.0
  0
LINE
  5
B0E7
  8
ALPHA
 10
92.755535
 20
32.314319
 30
0.0
 11
93.084825
 21
31.985029
 31
0.0
  0
LINE
  5
B0E8
  8
ALPHA
 10
92.755535
 20
31.314319
 30
0.0
 11
93.084825
 21
30.985029
 31
0.0
  0
LINE
  5
B0E9
  8
ALPHA
 10
92.755535
 20
30.314319
 30
0.0
 11
93.084825
 21
29.985029
 31
0.0
  0
LINE
  5
B0EA
  8
ALPHA
 10
92.755535
 20
29.314319
 30
0.0
 11
93.084825
 21
28.985029
 31
0.0
  0
LINE
  5
B0EB
  8
ALPHA
 10
92.755535
 20
28.314319
 30
0.0
 11
93.084825
 21
27.985029
 31
0.0
  0
ARC
  5
B0EC
  8
ALPHA
 10
89.628759
 20
62.778963
 30
0.0
 40
3.2
 50
200.364135
 51
339.635865
  0
ARC
  5
B0ED
  8
ALPHA
 10
89.628759
 20
70.878963
 30
0.0
 40
5.5
 50
245.380023
 51
294.619977
  0
ARC
  5
B0EE
  8
ALPHA
 10
89.628759
 20
70.878963
 30
0.0
 40
5.5
 50
65.380023
 51
114.619977
  0
LINE
  5
B0EF
  8
ALPHA
 10
90.91505
 20
66.692141
 30
0.0
 11
91.201024
 21
66.154302
 31
0.0
  0
LINE
  5
B0F0
  8
ALPHA
 10
91.201024
 20
75.603625
 30
0.0
 11
90.91505
 21
75.065786
 31
0.0
  0
LINE
  5
B0F1
  8
ALPHA
 10
86.172693
 20
55.985029
 30
0.0
 11
86.501982
 21
56.314319
 31
0.0
  0
LINE
  5
B0F2
  8
ALPHA
 10
86.501982
 20
44.443608
 30
0.0
 11
86.172693
 21
44.772897
 31
0.0
  0
ARC
  5
B0F3
  8
ALPHA
 10
86.278759
 20
38.878963
 30
0.0
 40
0.15
 50
135.0
 51
225.0
  0
ARC
  5
B0F4
  8
ALPHA
 10
86.278759
 20
37.878963
 30
0.0
 40
0.15
 50
135.0
 51
225.0
  0
ARC
  5
B0F5
  8
ALPHA
 10
86.278759
 20
36.878963
 30
0.0
 40
0.15
 50
135.0
 51
225.0
  0
ARC
  5
B0F6
  8
ALPHA
 10
86.278759
 20
35.878963
 30
0.0
 40
0.15
 50
135.0
 51
225.0
  0
ARC
  5
B0F7
  8
ALPHA
 10
86.278759
 20
34.878963
 30
0.0
 40
0.15
 50
135.0
 51
225.0
  0
ARC
  5
B0F8
  8
ALPHA
 10
86.278759
 20
33.878963
 30
0.0
 40
0.15
 50
135.0
 51
225.0
  0
ARC
  5
B0F9
  8
ALPHA
 10
86.437337
 20
33.378963
 30
0.0
 40
0.091421
 50
315.0
 51
45.0
  0
ARC
  5
B0FA
  8
ALPHA
 10
86.437337
 20
34.378963
 30
0.0
 40
0.091421
 50
315.0
 51
45.0
  0
ARC
  5
B0FB
  8
ALPHA
 10
86.437337
 20
35.378963
 30
0.0
 40
0.091421
 50
315.0
 51
45.0
  0
ARC
  5
B0FC
  8
ALPHA
 10
86.437337
 20
36.378963
 30
0.0
 40
0.091421
 50
315.0
 51
45.0
  0
ARC
  5
B0FD
  8
ALPHA
 10
86.437337
 20
37.378963
 30
0.0
 40
0.091421
 50
315.0
 51
45.0
  0
ARC
  5
B0FE
  8
ALPHA
 10
86.437337
 20
38.378963
 30
0.0
 40
0.091421
 50
315.0
 51
45.0
  0
LINE
  5
B0FF
  8
ALPHA
 10
86.172693
 20
33.985029
 30
0.0
 11
86.501982
 21
34.314319
 31
0.0
  0
LINE
  5
B100
  8
ALPHA
 10
86.172693
 20
34.985029
 30
0.0
 11
86.501982
 21
35.314319
 31
0.0
  0
LINE
  5
B101
  8
ALPHA
 10
86.172693
 20
35.985029
 30
0.0
 11
86.501982
 21
36.314319
 31
0.0
  0
LINE
  5
B102
  8
ALPHA
 10
86.172693
 20
36.985029
 30
0.0
 11
86.501982
 21
37.314319
 31
0.0
  0
LINE
  5
B103
  8
ALPHA
 10
86.172693
 20
37.985029
 30
0.0
 11
86.501982
 21
38.314319
 31
0.0
  0
LINE
  5
B104
  8
ALPHA
 10
86.501982
 20
38.443608
 30
0.0
 11
86.172693
 21
38.772897
 31
0.0
  0
LINE
  5
B105
  8
ALPHA
 10
86.501982
 20
37.443608
 30
0.0
 11
86.172693
 21
37.772897
 31
0.0
  0
LINE
  5
B106
  8
ALPHA
 10
86.501982
 20
36.443608
 30
0.0
 11
86.172693
 21
36.772897
 31
0.0
  0
LINE
  5
B107
  8
ALPHA
 10
86.501982
 20
35.443608
 30
0.0
 11
86.172693
 21
35.772897
 31
0.0
  0
LINE
  5
B108
  8
ALPHA
 10
86.501982
 20
34.443608
 30
0.0
 11
86.172693
 21
34.772897
 31
0.0
  0
LINE
  5
B109
  8
ALPHA
 10
86.501982
 20
33.443608
 30
0.0
 11
86.172693
 21
33.772897
 31
0.0
  0
ARC
  5
B10A
  8
ALPHA
 10
86.278759
 20
43.878963
 30
0.0
 40
0.15
 50
135.0
 51
225.0
  0
ARC
  5
B10B
  8
ALPHA
 10
86.278759
 20
42.878963
 30
0.0
 40
0.15
 50
135.0
 51
225.0
  0
ARC
  5
B10C
  8
ALPHA
 10
86.278759
 20
41.878963
 30
0.0
 40
0.15
 50
135.0
 51
225.0
  0
ARC
  5
B10D
  8
ALPHA
 10
86.278759
 20
40.878963
 30
0.0
 40
0.15
 50
135.0
 51
225.0
  0
ARC
  5
B10E
  8
ALPHA
 10
86.278759
 20
39.878963
 30
0.0
 40
0.15
 50
135.0
 51
225.0
  0
ARC
  5
B10F
  8
ALPHA
 10
86.437337
 20
39.378963
 30
0.0
 40
0.091421
 50
315.0
 51
45.0
  0
ARC
  5
B110
  8
ALPHA
 10
86.437337
 20
40.378963
 30
0.0
 40
0.091421
 50
315.0
 51
45.0
  0
ARC
  5
B111
  8
ALPHA
 10
86.437337
 20
41.378963
 30
0.0
 40
0.091421
 50
315.0
 51
45.0
  0
ARC
  5
B112
  8
ALPHA
 10
86.437337
 20
42.378963
 30
0.0
 40
0.091421
 50
315.0
 51
45.0
  0
ARC
  5
B113
  8
ALPHA
 10
86.437337
 20
43.378963
 30
0.0
 40
0.091421
 50
315.0
 51
45.0
  0
ARC
  5
B114
  8
ALPHA
 10
86.437337
 20
44.378963
 30
0.0
 40
0.091421
 50
315.0
 51
45.0
  0
LINE
  5
B115
  8
ALPHA
 10
86.172693
 20
38.985029
 30
0.0
 11
86.501982
 21
39.314319
 31
0.0
  0
LINE
  5
B116
  8
ALPHA
 10
86.172693
 20
39.985029
 30
0.0
 11
86.501982
 21
40.314319
 31
0.0
  0
LINE
  5
B117
  8
ALPHA
 10
86.172693
 20
40.985029
 30
0.0
 11
86.501982
 21
41.314319
 31
0.0
  0
LINE
  5
B118
  8
ALPHA
 10
86.172693
 20
41.985029
 30
0.0
 11
86.501982
 21
42.314319
 31
0.0
  0
LINE
  5
B119
  8
ALPHA
 10
86.172693
 20
42.985029
 30
0.0
 11
86.501982
 21
43.314319
 31
0.0
  0
LINE
  5
B11A
  8
ALPHA
 10
86.172693
 20
43.985029
 30
0.0
 11
86.501982
 21
44.314319
 31
0.0
  0
LINE
  5
B11B
  8
ALPHA
 10
86.501982
 20
43.443608
 30
0.0
 11
86.172693
 21
43.772897
 31
0.0
  0
LINE
  5
B11C
  8
ALPHA
 10
86.501982
 20
42.443608
 30
0.0
 11
86.172693
 21
42.772897
 31
0.0
  0
LINE
  5
B11D
  8
ALPHA
 10
86.501982
 20
41.443608
 30
0.0
 11
86.172693
 21
41.772897
 31
0.0
  0
LINE
  5
B11E
  8
ALPHA
 10
86.501982
 20
40.443608
 30
0.0
 11
86.172693
 21
40.772897
 31
0.0
  0
LINE
  5
B11F
  8
ALPHA
 10
86.501982
 20
39.443608
 30
0.0
 11
86.172693
 21
39.772897
 31
0.0
  0
ARC
  5
B120
  8
ALPHA
 10
86.437337
 20
50.378963
 30
0.0
 40
0.091421
 50
315.0
 51
45.0
  0
ARC
  5
B121
  8
ALPHA
 10
86.278759
 20
49.878963
 30
0.0
 40
0.15
 50
135.0
 51
225.0
  0
ARC
  5
B122
  8
ALPHA
 10
86.278759
 20
48.878963
 30
0.0
 40
0.15
 50
135.0
 51
225.0
  0
ARC
  5
B123
  8
ALPHA
 10
86.278759
 20
47.878963
 30
0.0
 40
0.15
 50
135.0
 51
225.0
  0
ARC
  5
B124
  8
ALPHA
 10
86.278759
 20
46.878963
 30
0.0
 40
0.15
 50
135.0
 51
225.0
  0
ARC
  5
B125
  8
ALPHA
 10
86.278759
 20
45.878963
 30
0.0
 40
0.15
 50
135.0
 51
225.0
  0
ARC
  5
B126
  8
ALPHA
 10
86.278759
 20
44.878963
 30
0.0
 40
0.15
 50
135.0
 51
225.0
  0
ARC
  5
B127
  8
ALPHA
 10
86.437337
 20
45.378963
 30
0.0
 40
0.091421
 50
315.0
 51
45.0
  0
ARC
  5
B128
  8
ALPHA
 10
86.437337
 20
46.378963
 30
0.0
 40
0.091421
 50
315.0
 51
45.0
  0
ARC
  5
B129
  8
ALPHA
 10
86.437337
 20
47.378963
 30
0.0
 40
0.091421
 50
315.0
 51
45.0
  0
ARC
  5
B12A
  8
ALPHA
 10
86.437337
 20
48.378963
 30
0.0
 40
0.091421
 50
315.0
 51
45.0
  0
ARC
  5
B12B
  8
ALPHA
 10
86.437337
 20
49.378963
 30
0.0
 40
0.091421
 50
315.0
 51
45.0
  0
LINE
  5
B12C
  8
ALPHA
 10
86.172693
 20
44.985029
 30
0.0
 11
86.501982
 21
45.314319
 31
0.0
  0
LINE
  5
B12D
  8
ALPHA
 10
86.172693
 20
45.985029
 30
0.0
 11
86.501982
 21
46.314319
 31
0.0
  0
LINE
  5
B12E
  8
ALPHA
 10
86.172693
 20
46.985029
 30
0.0
 11
86.501982
 21
47.314319
 31
0.0
  0
LINE
  5
B12F
  8
ALPHA
 10
86.172693
 20
47.985029
 30
0.0
 11
86.501982
 21
48.314319
 31
0.0
  0
LINE
  5
B130
  8
ALPHA
 10
86.172693
 20
48.985029
 30
0.0
 11
86.501982
 21
49.314319
 31
0.0
  0
LINE
  5
B131
  8
ALPHA
 10
86.172693
 20
49.985029
 30
0.0
 11
86.501982
 21
50.314319
 31
0.0
  0
LINE
  5
B132
  8
ALPHA
 10
86.501982
 20
49.443608
 30
0.0
 11
86.172693
 21
49.772897
 31
0.0
  0
LINE
  5
B133
  8
ALPHA
 10
86.501982
 20
48.443608
 30
0.0
 11
86.172693
 21
48.772897
 31
0.0
  0
LINE
  5
B134
  8
ALPHA
 10
86.501982
 20
47.443608
 30
0.0
 11
86.172693
 21
47.772897
 31
0.0
  0
LINE
  5
B135
  8
ALPHA
 10
86.501982
 20
46.443608
 30
0.0
 11
86.172693
 21
46.772897
 31
0.0
  0
LINE
  5
B136
  8
ALPHA
 10
86.501982
 20
45.443608
 30
0.0
 11
86.172693
 21
45.772897
 31
0.0
  0
ARC
  5
B137
  8
ALPHA
 10
86.278759
 20
55.878963
 30
0.0
 40
0.15
 50
135.0
 51
225.0
  0
ARC
  5
B138
  8
ALPHA
 10
86.278759
 20
54.878963
 30
0.0
 40
0.15
 50
135.0
 51
225.0
  0
ARC
  5
B139
  8
ALPHA
 10
86.278759
 20
53.878963
 30
0.0
 40
0.15
 50
135.0
 51
225.0
  0
ARC
  5
B13A
  8
ALPHA
 10
86.278759
 20
52.878963
 30
0.0
 40
0.15
 50
135.0
 51
225.0
  0
ARC
  5
B13B
  8
ALPHA
 10
86.278759
 20
51.878963
 30
0.0
 40
0.15
 50
135.0
 51
225.0
  0
ARC
  5
B13C
  8
ALPHA
 10
86.278759
 20
50.878963
 30
0.0
 40
0.15
 50
135.0
 51
225.0
  0
ARC
  5
B13D
  8
ALPHA
 10
86.437337
 20
51.378963
 30
0.0
 40
0.091421
 50
315.0
 51
45.0
  0
ARC
  5
B13E
  8
ALPHA
 10
86.437337
 20
52.378963
 30
0.0
 40
0.091421
 50
315.0
 51
45.0
  0
ARC
  5
B13F
  8
ALPHA
 10
86.437337
 20
53.378963
 30
0.0
 40
0.091421
 50
315.0
 51
45.0
  0
ARC
  5
B140
  8
ALPHA
 10
86.437337
 20
54.378963
 30
0.0
 40
0.091421
 50
315.0
 51
45.0
  0
ARC
  5
B141
  8
ALPHA
 10
86.437337
 20
55.378963
 30
0.0
 40
0.091421
 50
315.0
 51
45.0
  0
LINE
  5
B142
  8
ALPHA
 10
86.172693
 20
50.985029
 30
0.0
 11
86.501982
 21
51.314319
 31
0.0
  0
LINE
  5
B143
  8
ALPHA
 10
86.172693
 20
51.985029
 30
0.0
 11
86.501982
 21
52.314319
 31
0.0
  0
LINE
  5
B144
  8
ALPHA
 10
86.172693
 20
52.985029
 30
0.0
 11
86.501982
 21
53.314319
 31
0.0
  0
LINE
  5
B145
  8
ALPHA
 10
86.172693
 20
53.985029
 30
0.0
 11
86.501982
 21
54.314319
 31
0.0
  0
LINE
  5
B146
  8
ALPHA
 10
86.172693
 20
54.985029
 30
0.0
 11
86.501982
 21
55.314319
 31
0.0
  0
LINE
  5
B147
  8
ALPHA
 10
86.501982
 20
55.443608
 30
0.0
 11
86.172693
 21
55.772897
 31
0.0
  0
LINE
  5
B148
  8
ALPHA
 10
86.501982
 20
54.443608
 30
0.0
 11
86.172693
 21
54.772897
 31
0.0
  0
LINE
  5
B149
  8
ALPHA
 10
86.501982
 20
53.443608
 30
0.0
 11
86.172693
 21
53.772897
 31
0.0
  0
LINE
  5
B14A
  8
ALPHA
 10
86.501982
 20
52.443608
 30
0.0
 11
86.172693
 21
52.772897
 31
0.0
  0
LINE
  5
B14B
  8
ALPHA
 10
86.501982
 20
51.443608
 30
0.0
 11
86.172693
 21
51.772897
 31
0.0
  0
LINE
  5
B14C
  8
ALPHA
 10
86.501982
 20
50.443608
 30
0.0
 11
86.172693
 21
50.772897
 31
0.0
  0
ARC
  5
B14D
  8
ALPHA
 10
86.278759
 20
67.878963
 30
0.0
 40
0.15
 50
135.0
 51
225.0
  0
ARC
  5
B14E
  8
ALPHA
 10
89.628759
 20
70.878963
 30
0.0
 40
4.3
 50
224.200498
 51
225.799502
  0
LINE
  5
B14F
  8
ALPHA
 10
86.192439
 20
67.753152
 30
0.0
 11
86.421387
 21
67.896214
 31
0.0
  0
LINE
  5
B150
  8
ALPHA
 10
86.628759
 20
65.878963
 30
0.0
 11
87.337471
 21
65.878963
 31
0.0
  0
LINE
  5
B151
  8
ALPHA
 10
86.887235
 20
66.722223
 30
0.0
 11
87.302668
 21
67.16772
 31
0.0
  0
ARC
  5
B152
  8
ALPHA
 10
86.478759
 20
61.878963
 30
0.0
 40
0.35
 50
0.0
 51
45.0
  0
LINE
  5
B153
  8
ALPHA
 10
86.378759
 20
62.191095
 30
0.0
 11
86.584825
 21
61.985029
 31
0.0
  0
LINE
  5
B154
  8
ALPHA
 10
86.726246
 20
62.126451
 30
0.0
 11
86.584825
 21
61.985029
 31
0.0
  0
LINE
  5
B155
  8
ALPHA
 10
86.172693
 20
61.985029
 30
0.0
 11
86.501982
 21
62.314319
 31
0.0
  0
ARC
  5
B156
  8
ALPHA
 10
86.278759
 20
61.878963
 30
0.0
 40
0.15
 50
135.0
 51
225.0
  0
ARC
  5
B157
  8
ALPHA
 10
86.278759
 20
60.878963
 30
0.0
 40
0.15
 50
135.0
 51
225.0
  0
ARC
  5
B158
  8
ALPHA
 10
86.278759
 20
59.878963
 30
0.0
 40
0.15
 50
135.0
 51
225.0
  0
ARC
  5
B159
  8
ALPHA
 10
86.278759
 20
58.878963
 30
0.0
 40
0.15
 50
135.0
 51
225.0
  0
ARC
  5
B15A
  8
ALPHA
 10
86.278759
 20
57.878963
 30
0.0
 40
0.15
 50
135.0
 51
225.0
  0
ARC
  5
B15B
  8
ALPHA
 10
86.278759
 20
56.878963
 30
0.0
 40
0.15
 50
135.0
 51
225.0
  0
ARC
  5
B15C
  8
ALPHA
 10
86.437337
 20
56.378963
 30
0.0
 40
0.091421
 50
315.0
 51
45.0
  0
ARC
  5
B15D
  8
ALPHA
 10
86.437337
 20
57.378963
 30
0.0
 40
0.091421
 50
315.0
 51
45.0
  0
ARC
  5
B15E
  8
ALPHA
 10
86.437337
 20
58.378963
 30
0.0
 40
0.091421
 50
315.0
 51
45.0
  0
ARC
  5
B15F
  8
ALPHA
 10
86.437337
 20
59.378963
 30
0.0
 40
0.091421
 50
315.0
 51
45.0
  0
ARC
  5
B160
  8
ALPHA
 10
86.437337
 20
60.378963
 30
0.0
 40
0.091421
 50
315.0
 51
45.0
  0
ARC
  5
B161
  8
ALPHA
 10
86.437337
 20
61.378963
 30
0.0
 40
0.091421
 50
315.0
 51
45.0
  0
ARC
  5
B162
  8
ALPHA
 10
86.478759
 20
61.878963
 30
0.0
 40
0.15
 50
0.0
 51
45.0
  0
ARC
  5
B163
  8
ALPHA
 10
89.628759
 20
70.878963
 30
0.0
 40
10.0
 50
251.901635
 51
253.551387
  0
LINE
  5
B164
  8
ALPHA
 10
86.172693
 20
56.985029
 30
0.0
 11
86.501982
 21
57.314319
 31
0.0
  0
LINE
  5
B165
  8
ALPHA
 10
86.172693
 20
57.985029
 30
0.0
 11
86.501982
 21
58.314319
 31
0.0
  0
LINE
  5
B166
  8
ALPHA
 10
86.501982
 20
61.443608
 30
0.0
 11
86.172693
 21
61.772897
 31
0.0
  0
LINE
  5
B167
  8
ALPHA
 10
86.828759
 20
61.878963
 30
0.0
 11
86.628759
 21
61.878963
 31
0.0
  0
LINE
  5
B168
  8
ALPHA
 10
86.172693
 20
58.985029
 30
0.0
 11
86.501982
 21
59.314319
 31
0.0
  0
LINE
  5
B169
  8
ALPHA
 10
86.172693
 20
59.985029
 30
0.0
 11
86.501982
 21
60.314319
 31
0.0
  0
LINE
  5
B16A
  8
ALPHA
 10
86.172693
 20
60.985029
 30
0.0
 11
86.501982
 21
61.314319
 31
0.0
  0
LINE
  5
B16B
  8
ALPHA
 10
86.828759
 20
61.878963
 30
0.0
 11
86.828759
 21
61.22977
 31
0.0
  0
LINE
  5
B16C
  8
ALPHA
 10
86.628759
 20
61.878963
 30
0.0
 11
86.628759
 21
61.665411
 31
0.0
  0
LINE
  5
B16D
  8
ALPHA
 10
86.501982
 20
60.443608
 30
0.0
 11
86.172693
 21
60.772897
 31
0.0
  0
LINE
  5
B16E
  8
ALPHA
 10
86.501982
 20
59.443608
 30
0.0
 11
86.172693
 21
59.772897
 31
0.0
  0
LINE
  5
B16F
  8
ALPHA
 10
86.501982
 20
58.443608
 30
0.0
 11
86.172693
 21
58.772897
 31
0.0
  0
LINE
  5
B170
  8
ALPHA
 10
86.501982
 20
57.443608
 30
0.0
 11
86.172693
 21
57.772897
 31
0.0
  0
LINE
  5
B171
  8
ALPHA
 10
86.501982
 20
56.443608
 30
0.0
 11
86.172693
 21
56.772897
 31
0.0
  0
ARC
  5
B172
  8
ALPHA
 10
86.278759
 20
66.878963
 30
0.0
 40
0.15
 50
135.0
 51
225.0
  0
ARC
  5
B173
  8
ALPHA
 10
86.278759
 20
65.878963
 30
0.0
 40
0.15
 50
135.0
 51
225.0
  0
ARC
  5
B174
  8
ALPHA
 10
86.278759
 20
64.878963
 30
0.0
 40
0.15
 50
135.0
 51
225.0
  0
ARC
  5
B175
  8
ALPHA
 10
86.278759
 20
63.878963
 30
0.0
 40
0.15
 50
135.0
 51
225.0
  0
ARC
  5
B176
  8
ALPHA
 10
86.278759
 20
62.878963
 30
0.0
 40
0.15
 50
135.0
 51
225.0
  0
ARC
  5
B177
  8
ALPHA
 10
86.437337
 20
62.378963
 30
0.0
 40
0.091421
 50
315.0
 51
45.0
  0
ARC
  5
B178
  8
ALPHA
 10
86.437337
 20
63.378963
 30
0.0
 40
0.091421
 50
315.0
 51
45.0
  0
ARC
  5
B179
  8
ALPHA
 10
86.437337
 20
64.378963
 30
0.0
 40
0.091421
 50
315.0
 51
45.0
  0
ARC
  5
B17A
  8
ALPHA
 10
86.437337
 20
65.378963
 30
0.0
 40
0.091421
 50
315.0
 51
45.0
  0
ARC
  5
B17B
  8
ALPHA
 10
86.437337
 20
66.378963
 30
0.0
 40
0.091421
 50
315.0
 51
45.0
  0
ARC
  5
B17C
  8
ALPHA
 10
86.437337
 20
67.378963
 30
0.0
 40
0.091421
 50
315.0
 51
45.0
  0
ARC
  5
B17D
  8
ALPHA
 10
86.478759
 20
62.878963
 30
0.0
 40
0.35
 50
315.0
 51
45.0
  0
ARC
  5
B17E
  8
ALPHA
 10
86.478759
 20
63.878963
 30
0.0
 40
0.35
 50
315.0
 51
45.0
  0
ARC
  5
B17F
  8
ALPHA
 10
86.478759
 20
64.878963
 30
0.0
 40
0.35
 50
315.0
 51
45.0
  0
ARC
  5
B180
  8
ALPHA
 10
86.478759
 20
65.878963
 30
0.0
 40
0.35
 50
315.0
 51
0.0
  0
ARC
  5
B181
  8
ALPHA
 10
86.478759
 20
62.878963
 30
0.0
 40
0.15
 50
315.0
 51
45.0
  0
ARC
  5
B182
  8
ALPHA
 10
86.478759
 20
63.878963
 30
0.0
 40
0.15
 50
315.0
 51
45.0
  0
ARC
  5
B183
  8
ALPHA
 10
86.478759
 20
64.878963
 30
0.0
 40
0.15
 50
315.0
 51
45.0
  0
ARC
  5
B184
  8
ALPHA
 10
86.478759
 20
65.878963
 30
0.0
 40
0.15
 50
315.0
 51
0.0
  0
ARC
  5
B185
  8
ALPHA
 10
86.740964
 20
66.858623
 30
0.0
 40
0.2
 50
234.310082
 51
317.0
  0
ARC
  5
B186
  8
ALPHA
 10
89.628759
 20
70.878963
 30
0.0
 40
5.15
 50
230.689536
 51
234.310449
  0
ARC
  5
B187
  8
ALPHA
 10
86.492824
 20
67.049027
 30
0.0
 40
0.2
 50
157.206228
 51
230.689536
  0
ARC
  5
B188
  8
ALPHA
 10
86.561205
 20
67.724583
 30
0.0
 40
0.1
 50
328.0
 51
45.799502
  0
LINE
  5
B189
  8
ALPHA
 10
86.501982
 20
67.443608
 30
0.0
 11
86.172693
 21
67.772897
 31
0.0
  0
LINE
  5
B18A
  8
ALPHA
 10
86.501982
 20
66.443608
 30
0.0
 11
86.172693
 21
66.772897
 31
0.0
  0
LINE
  5
B18B
  8
ALPHA
 10
86.584825
 20
65.772897
 30
0.0
 11
86.726246
 21
65.631476
 31
0.0
  0
LINE
  5
B18C
  8
ALPHA
 10
86.501982
 20
65.443608
 30
0.0
 11
86.172693
 21
65.772897
 31
0.0
  0
LINE
  5
B18D
  8
ALPHA
 10
86.52018
 20
65.332517
 30
0.0
 11
86.726246
 21
65.126451
 31
0.0
  0
LINE
  5
B18E
  8
ALPHA
 10
86.378759
 20
65.191095
 30
0.0
 11
86.584825
 21
64.985029
 31
0.0
  0
LINE
  5
B18F
  8
ALPHA
 10
86.726246
 20
64.631476
 30
0.0
 11
86.584825
 21
64.772897
 31
0.0
  0
LINE
  5
B190
  8
ALPHA
 10
86.501982
 20
64.443608
 30
0.0
 11
86.172693
 21
64.772897
 31
0.0
  0
LINE
  5
B191
  8
ALPHA
 10
86.52018
 20
64.332517
 30
0.0
 11
86.726246
 21
64.126451
 31
0.0
  0
LINE
  5
B192
  8
ALPHA
 10
86.378759
 20
64.191095
 30
0.0
 11
86.584825
 21
63.985029
 31
0.0
  0
LINE
  5
B193
  8
ALPHA
 10
86.726246
 20
63.631476
 30
0.0
 11
86.584825
 21
63.772897
 31
0.0
  0
LINE
  5
B194
  8
ALPHA
 10
86.501982
 20
63.443608
 30
0.0
 11
86.172693
 21
63.772897
 31
0.0
  0
LINE
  5
B195
  8
ALPHA
 10
86.52018
 20
63.332517
 30
0.0
 11
86.726246
 21
63.126451
 31
0.0
  0
LINE
  5
B196
  8
ALPHA
 10
86.378759
 20
63.191095
 30
0.0
 11
86.584825
 21
62.985029
 31
0.0
  0
LINE
  5
B197
  8
ALPHA
 10
86.726246
 20
62.631476
 30
0.0
 11
86.584825
 21
62.772897
 31
0.0
  0
LINE
  5
B198
  8
ALPHA
 10
86.501982
 20
62.443608
 30
0.0
 11
86.172693
 21
62.772897
 31
0.0
  0
LINE
  5
B199
  8
ALPHA
 10
86.52018
 20
62.332517
 30
0.0
 11
86.726246
 21
62.126451
 31
0.0
  0
LINE
  5
B19A
  8
ALPHA
 10
86.726246
 20
62.631476
 30
0.0
 11
86.52018
 21
62.42541
 31
0.0
  0
LINE
  5
B19B
  8
ALPHA
 10
86.584825
 20
62.772897
 30
0.0
 11
86.378759
 21
62.566831
 31
0.0
  0
LINE
  5
B19C
  8
ALPHA
 10
86.726246
 20
63.126451
 30
0.0
 11
86.584825
 21
62.985029
 31
0.0
  0
LINE
  5
B19D
  8
ALPHA
 10
86.172693
 20
62.985029
 30
0.0
 11
86.501982
 21
63.314319
 31
0.0
  0
LINE
  5
B19E
  8
ALPHA
 10
86.726246
 20
63.631476
 30
0.0
 11
86.52018
 21
63.42541
 31
0.0
  0
LINE
  5
B19F
  8
ALPHA
 10
86.584825
 20
63.772897
 30
0.0
 11
86.378759
 21
63.566831
 31
0.0
  0
LINE
  5
B1A0
  8
ALPHA
 10
86.726246
 20
64.126451
 30
0.0
 11
86.584825
 21
63.985029
 31
0.0
  0
LINE
  5
B1A1
  8
ALPHA
 10
86.172693
 20
63.985029
 30
0.0
 11
86.501982
 21
64.314319
 31
0.0
  0
LINE
  5
B1A2
  8
ALPHA
 10
86.726246
 20
64.631476
 30
0.0
 11
86.52018
 21
64.42541
 31
0.0
  0
LINE
  5
B1A3
  8
ALPHA
 10
86.584825
 20
64.772897
 30
0.0
 11
86.378759
 21
64.566831
 31
0.0
  0
LINE
  5
B1A4
  8
ALPHA
 10
86.726246
 20
65.126451
 30
0.0
 11
86.584825
 21
64.985029
 31
0.0
  0
LINE
  5
B1A5
  8
ALPHA
 10
86.172693
 20
64.985029
 30
0.0
 11
86.501982
 21
65.314319
 31
0.0
  0
LINE
  5
B1A6
  8
ALPHA
 10
86.52018
 20
65.42541
 30
0.0
 11
86.726246
 21
65.631476
 31
0.0
  0
LINE
  5
B1A7
  8
ALPHA
 10
86.378759
 20
65.566831
 30
0.0
 11
86.584825
 21
65.772897
 31
0.0
  0
LINE
  5
B1A8
  8
ALPHA
 10
86.172693
 20
65.985029
 30
0.0
 11
86.501982
 21
66.314319
 31
0.0
  0
LINE
  5
B1A9
  8
ALPHA
 10
86.172693
 20
66.985029
 30
0.0
 11
86.501982
 21
67.314319
 31
0.0
  0
LINE
  5
B1AA
  8
ALPHA
 10
86.64601
 20
67.671592
 30
0.0
 11
86.50311
 21
67.442904
 31
0.0
  0
LINE
  5
B1AB
  8
ALPHA
 10
89.278759
 20
62.178963
 30
0.0
 11
89.386902
 21
61.765678
 31
0.0
  0
LINE
  5
B1AC
  8
ALPHA
 10
89.870616
 20
61.765678
 30
0.0
 11
89.978759
 21
62.178963
 31
0.0
  0
ARC
  5
B1AD
  8
ALPHA
 10
89.628759
 20
61.828963
 30
0.0
 40
0.25
 50
194.663584
 51
345.336416
  0
ARC
  5
B1AE
  8
ALPHA
 10
89.628759
 20
70.878963
 30
0.0
 40
5.15
 50
260.689469
 51
264.31071
  0
ARC
  5
B1AF
  8
ALPHA
 10
88.827928
 20
65.994174
 30
0.0
 40
0.2
 50
178.0
 51
260.687808
  0
ARC
  5
B1B0
  8
ALPHA
 10
88.549369
 20
66.613413
 30
0.0
 40
0.1
 50
358.0
 51
75.799502
  0
ARC
  5
B1B1
  8
ALPHA
 10
89.628759
 20
70.878963
 30
0.0
 40
4.3
 50
254.200498
 51
255.799502
  0
ARC
  5
B1B2
  8
ALPHA
 10
88.430762
 20
66.645194
 30
0.0
 40
0.1
 50
74.200498
 51
152.0
  0
ARC
  5
B1B3
  8
ALPHA
 10
87.879904
 20
66.248196
 30
0.0
 40
0.2
 50
249.303621
 51
332.0
  0
ARC
  5
B1B4
  8
ALPHA
 10
89.628759
 20
70.878963
 30
0.0
 40
5.15
 50
245.689807
 51
249.310198
  0
ARC
  5
B1B5
  8
ALPHA
 10
87.590939
 20
66.367889
 30
0.0
 40
0.2
 50
163.0
 51
245.696522
  0
ARC
  5
B1B6
  8
ALPHA
 10
87.482143
 20
67.038125
 30
0.0
 40
0.1
 50
343.0
 51
60.799502
  0
ARC
  5
B1B7
  8
ALPHA
 10
89.628759
 20
70.878963
 30
0.0
 40
4.3
 50
239.200498
 51
240.799502
  0
ARC
  5
B1B8
  8
ALPHA
 10
87.375803
 20
67.09952
 30
0.0
 40
0.1
 50
59.200498
 51
137.0
  0
LINE
  5
B1B9
  8
ALPHA
 10
88.649308
 20
66.609923
 30
0.0
 11
88.62805
 21
66.001154
 31
0.0
  0
LINE
  5
B1BA
  8
ALPHA
 10
88.056493
 20
66.154302
 30
0.0
 11
88.342468
 21
66.692141
 31
0.0
  0
LINE
  5
B1BB
  8
ALPHA
 10
87.577773
 20
67.008888
 30
0.0
 11
87.399678
 21
66.426364
 31
0.0
  0
ARC
  5
B1BC
  8
ALPHA
 10
90.826755
 20
66.645194
 30
0.0
 40
0.1
 50
28.0
 51
105.799502
  0
ARC
  5
B1BD
  8
ALPHA
 10
89.628759
 20
70.878963
 30
0.0
 40
4.3
 50
284.200498
 51
285.799502
  0
ARC
  5
B1BE
  8
ALPHA
 10
90.708148
 20
66.613413
 30
0.0
 40
0.1
 50
104.200498
 51
182.0
  0
ARC
  5
B1BF
  8
ALPHA
 10
90.42959
 20
65.994174
 30
0.0
 40
0.2
 50
279.312192
 51
2.0
  0
ARC
  5
B1C0
  8
ALPHA
 10
89.628759
 20
70.878963
 30
0.0
 40
5.15
 50
275.68929
 51
279.310531
  0
ARC
  5
B1C1
  8
ALPHA
 10
90.119492
 20
65.953349
 30
0.0
 40
0.2
 50
193.0
 51
275.683193
  0
ARC
  5
B1C2
  8
ALPHA
 10
89.690154
 20
66.479392
 30
0.0
 40
0.1
 50
13.0
 51
90.799502
  0
ARC
  5
B1C3
  8
ALPHA
 10
89.628759
 20
70.878963
 30
0.0
 40
4.3
 50
269.200498
 51
270.799502
  0
ARC
  5
B1C4
  8
ALPHA
 10
89.567363
 20
66.479392
 30
0.0
 40
0.1
 50
89.200498
 51
167.0
  0
ARC
  5
B1C5
  8
ALPHA
 10
89.138026
 20
65.953349
 30
0.0
 40
0.2
 50
264.316807
 51
347.0
  0
LINE
  5
B1C6
  8
ALPHA
 10
89.787591
 20
66.501887
 30
0.0
 11
89.924618
 21
65.908358
 31
0.0
  0
LINE
  5
B1C7
  8
ALPHA
 10
89.978759
 20
64.378963
 30
0.0
 11
89.278759
 21
64.378963
 31
0.0
  0
LINE
  5
B1C8
  8
ALPHA
 10
90.629468
 20
66.001154
 30
0.0
 11
90.608209
 21
66.609923
 31
0.0
  0
LINE
  5
B1C9
  8
ALPHA
 10
89.3329
 20
65.908358
 30
0.0
 11
89.469926
 21
66.501887
 31
0.0
  0
LINE
  5
B1CA
  8
ALPHA
 10
89.978759
 20
62.178963
 30
0.0
 11
89.978759
 21
64.378963
 31
0.0
  0
LINE
  5
B1CB
  8
ALPHA
 10
89.278759
 20
64.378963
 30
0.0
 11
89.278759
 21
62.178963
 31
0.0
  0
LINE
  5
B1CC
  8
ALPHA
 10
86.628759
 20
75.878963
 30
0.0
 11
87.337471
 21
75.878963
 31
0.0
  0
LINE
  5
B1CD
  8
ALPHA
 10
87.302668
 20
74.590207
 30
0.0
 11
86.887235
 21
75.035704
 31
0.0
  0
LINE
  5
B1CE
  8
ALPHA
 10
86.501982
 20
73.443608
 30
0.0
 11
86.172693
 21
73.772897
 31
0.0
  0
ARC
  5
B1CF
  8
ALPHA
 10
86.278759
 20
72.878963
 30
0.0
 40
0.15
 50
135.0
 51
225.0
  0
ARC
  5
B1D0
  8
ALPHA
 10
86.278759
 20
71.878963
 30
0.0
 40
0.15
 50
135.0
 51
225.0
  0
ARC
  5
B1D1
  8
ALPHA
 10
86.278759
 20
70.878963
 30
0.0
 40
0.15
 50
135.0
 51
225.0
  0
ARC
  5
B1D2
  8
ALPHA
 10
86.278759
 20
69.878963
 30
0.0
 40
0.15
 50
135.0
 51
225.0
  0
ARC
  5
B1D3
  8
ALPHA
 10
86.278759
 20
68.878963
 30
0.0
 40
0.15
 50
135.0
 51
225.0
  0
ARC
  5
B1D4
  8
ALPHA
 10
86.437337
 20
68.378963
 30
0.0
 40
0.091421
 50
315.0
 51
45.0
  0
ARC
  5
B1D5
  8
ALPHA
 10
86.437337
 20
69.378963
 30
0.0
 40
0.091421
 50
315.0
 51
45.0
  0
ARC
  5
B1D6
  8
ALPHA
 10
86.437337
 20
70.378963
 30
0.0
 40
0.091421
 50
315.0
 51
45.0
  0
ARC
  5
B1D7
  8
ALPHA
 10
86.437337
 20
71.378963
 30
0.0
 40
0.091421
 50
315.0
 51
45.0
  0
ARC
  5
B1D8
  8
ALPHA
 10
86.437337
 20
72.378963
 30
0.0
 40
0.091421
 50
315.0
 51
45.0
  0
ARC
  5
B1D9
  8
ALPHA
 10
86.437337
 20
73.378963
 30
0.0
 40
0.091421
 50
315.0
 51
45.0
  0
ARC
  5
B1DA
  8
ALPHA
 10
86.474379
 20
67.81141
 30
0.0
 40
0.1
 50
44.200498
 51
122.0
  0
LINE
  5
B1DB
  8
ALPHA
 10
86.501982
 20
72.443608
 30
0.0
 11
86.172693
 21
72.772897
 31
0.0
  0
LINE
  5
B1DC
  8
ALPHA
 10
86.501982
 20
71.443608
 30
0.0
 11
86.172693
 21
71.772897
 31
0.0
  0
LINE
  5
B1DD
  8
ALPHA
 10
86.501982
 20
70.443608
 30
0.0
 11
86.172693
 21
70.772897
 31
0.0
  0
LINE
  5
B1DE
  8
ALPHA
 10
86.501982
 20
69.443608
 30
0.0
 11
86.172693
 21
69.772897
 31
0.0
  0
LINE
  5
B1DF
  8
ALPHA
 10
86.501982
 20
68.443608
 30
0.0
 11
86.172693
 21
68.772897
 31
0.0
  0
LINE
  5
B1E0
  8
ALPHA
 10
86.172693
 20
67.985029
 30
0.0
 11
86.501982
 21
68.314319
 31
0.0
  0
LINE
  5
B1E1
  8
ALPHA
 10
86.172693
 20
68.985029
 30
0.0
 11
86.501982
 21
69.314319
 31
0.0
  0
LINE
  5
B1E2
  8
ALPHA
 10
86.172693
 20
69.985029
 30
0.0
 11
86.501982
 21
70.314319
 31
0.0
  0
LINE
  5
B1E3
  8
ALPHA
 10
86.172693
 20
70.985029
 30
0.0
 11
86.501982
 21
71.314319
 31
0.0
  0
LINE
  5
B1E4
  8
ALPHA
 10
86.172693
 20
71.985029
 30
0.0
 11
86.501982
 21
72.314319
 31
0.0
  0
LINE
  5
B1E5
  8
ALPHA
 10
86.172693
 20
72.985029
 30
0.0
 11
86.501982
 21
73.314319
 31
0.0
  0
ARC
  5
B1E6
  8
ALPHA
 10
86.278759
 20
78.878963
 30
0.0
 40
0.15
 50
135.0
 51
225.0
  0
ARC
  5
B1E7
  8
ALPHA
 10
86.278759
 20
77.878963
 30
0.0
 40
0.15
 50
135.0
 51
225.0
  0
ARC
  5
B1E8
  8
ALPHA
 10
86.278759
 20
76.878963
 30
0.0
 40
0.15
 50
135.0
 51
225.0
  0
ARC
  5
B1E9
  8
ALPHA
 10
86.278759
 20
75.878963
 30
0.0
 40
0.15
 50
135.0
 51
225.0
  0
ARC
  5
B1EA
  8
ALPHA
 10
86.278759
 20
74.878963
 30
0.0
 40
0.15
 50
135.0
 51
225.0
  0
ARC
  5
B1EB
  8
ALPHA
 10
86.278759
 20
73.878963
 30
0.0
 40
0.15
 50
135.0
 51
225.0
  0
ARC
  5
B1EC
  8
ALPHA
 10
86.437337
 20
74.378963
 30
0.0
 40
0.091421
 50
315.0
 51
45.0
  0
ARC
  5
B1ED
  8
ALPHA
 10
86.437337
 20
75.378963
 30
0.0
 40
0.091421
 50
315.0
 51
45.0
  0
ARC
  5
B1EE
  8
ALPHA
 10
86.437337
 20
76.378963
 30
0.0
 40
0.091421
 50
315.0
 51
45.0
  0
ARC
  5
B1EF
  8
ALPHA
 10
86.437337
 20
77.378963
 30
0.0
 40
0.091421
 50
315.0
 51
45.0
  0
ARC
  5
B1F0
  8
ALPHA
 10
86.437337
 20
78.378963
 30
0.0
 40
0.091421
 50
315.0
 51
45.0
  0
ARC
  5
B1F1
  8
ALPHA
 10
86.478759
 20
76.878963
 30
0.0
 40
0.35
 50
315.0
 51
45.0
  0
ARC
  5
B1F2
  8
ALPHA
 10
86.478759
 20
75.878963
 30
0.0
 40
0.35
 50
0.0
 51
45.0
  0
ARC
  5
B1F3
  8
ALPHA
 10
86.478759
 20
78.878963
 30
0.0
 40
0.35
 50
315.0
 51
45.0
  0
ARC
  5
B1F4
  8
ALPHA
 10
86.478759
 20
77.878963
 30
0.0
 40
0.35
 50
315.0
 51
45.0
  0
ARC
  5
B1F5
  8
ALPHA
 10
86.478759
 20
78.878963
 30
0.0
 40
0.15
 50
315.0
 51
45.0
  0
ARC
  5
B1F6
  8
ALPHA
 10
86.478759
 20
77.878963
 30
0.0
 40
0.15
 50
315.0
 51
45.0
  0
ARC
  5
B1F7
  8
ALPHA
 10
86.478759
 20
76.878963
 30
0.0
 40
0.15
 50
315.0
 51
45.0
  0
ARC
  5
B1F8
  8
ALPHA
 10
86.478759
 20
75.878963
 30
0.0
 40
0.15
 50
0.0
 51
45.0
  0
ARC
  5
B1F9
  8
ALPHA
 10
86.474379
 20
73.946517
 30
0.0
 40
0.1
 50
238.0
 51
315.799502
  0
ARC
  5
B1FA
  8
ALPHA
 10
89.628759
 20
70.878963
 30
0.0
 40
4.3
 50
134.200498
 51
135.799502
  0
ARC
  5
B1FB
  8
ALPHA
 10
86.561205
 20
74.033343
 30
0.0
 40
0.1
 50
314.200498
 51
32.0
  0
ARC
  5
B1FC
  8
ALPHA
 10
86.492824
 20
74.7089
 30
0.0
 40
0.2
 50
129.310464
 51
202.793772
  0
ARC
  5
B1FD
  8
ALPHA
 10
89.628759
 20
70.878963
 30
0.0
 40
5.15
 50
125.689551
 51
129.310464
  0
ARC
  5
B1FE
  8
ALPHA
 10
86.740964
 20
74.899304
 30
0.0
 40
0.2
 50
43.0
 51
125.689918
  0
LINE
  5
B1FF
  8
ALPHA
 10
86.52018
 20
79.332517
 30
0.0
 11
86.726246
 21
79.126451
 31
0.0
  0
LINE
  5
B200
  8
ALPHA
 10
86.378759
 20
79.191095
 30
0.0
 11
86.584825
 21
78.985029
 31
0.0
  0
LINE
  5
B201
  8
ALPHA
 10
86.726246
 20
78.631476
 30
0.0
 11
86.584825
 21
78.772897
 31
0.0
  0
LINE
  5
B202
  8
ALPHA
 10
86.501982
 20
78.443608
 30
0.0
 11
86.172693
 21
78.772897
 31
0.0
  0
LINE
  5
B203
  8
ALPHA
 10
86.52018
 20
78.332517
 30
0.0
 11
86.726246
 21
78.126451
 31
0.0
  0
LINE
  5
B204
  8
ALPHA
 10
86.378759
 20
78.191095
 30
0.0
 11
86.584825
 21
77.985029
 31
0.0
  0
LINE
  5
B205
  8
ALPHA
 10
86.726246
 20
77.631476
 30
0.0
 11
86.584825
 21
77.772897
 31
0.0
  0
LINE
  5
B206
  8
ALPHA
 10
86.501982
 20
77.443608
 30
0.0
 11
86.172693
 21
77.772897
 31
0.0
  0
LINE
  5
B207
  8
ALPHA
 10
86.52018
 20
77.332517
 30
0.0
 11
86.726246
 21
77.126451
 31
0.0
  0
LINE
  5
B208
  8
ALPHA
 10
86.378759
 20
77.191095
 30
0.0
 11
86.584825
 21
76.985029
 31
0.0
  0
LINE
  5
B209
  8
ALPHA
 10
86.726246
 20
76.631476
 30
0.0
 11
86.584825
 21
76.772897
 31
0.0
  0
LINE
  5
B20A
  8
ALPHA
 10
86.501982
 20
76.443608
 30
0.0
 11
86.172693
 21
76.772897
 31
0.0
  0
LINE
  5
B20B
  8
ALPHA
 10
86.52018
 20
76.332517
 30
0.0
 11
86.726246
 21
76.126451
 31
0.0
  0
LINE
  5
B20C
  8
ALPHA
 10
86.378759
 20
76.191095
 30
0.0
 11
86.584825
 21
75.985029
 31
0.0
  0
LINE
  5
B20D
  8
ALPHA
 10
86.421387
 20
73.861713
 30
0.0
 11
86.192439
 21
74.004775
 31
0.0
  0
LINE
  5
B20E
  8
ALPHA
 10
86.501982
 20
75.443608
 30
0.0
 11
86.172693
 21
75.772897
 31
0.0
  0
LINE
  5
B20F
  8
ALPHA
 10
86.501982
 20
74.443608
 30
0.0
 11
86.172693
 21
74.772897
 31
0.0
  0
LINE
  5
B210
  8
ALPHA
 10
86.50311
 20
74.315023
 30
0.0
 11
86.64601
 21
74.086335
 31
0.0
  0
LINE
  5
B211
  8
ALPHA
 10
86.172693
 20
73.985029
 30
0.0
 11
86.501982
 21
74.314319
 31
0.0
  0
LINE
  5
B212
  8
ALPHA
 10
86.172693
 20
74.985029
 30
0.0
 11
86.501982
 21
75.314319
 31
0.0
  0
LINE
  5
B213
  8
ALPHA
 10
86.726246
 20
76.126451
 30
0.0
 11
86.584825
 21
75.985029
 31
0.0
  0
LINE
  5
B214
  8
ALPHA
 10
86.172693
 20
75.985029
 30
0.0
 11
86.501982
 21
76.314319
 31
0.0
  0
LINE
  5
B215
  8
ALPHA
 10
86.726246
 20
76.631476
 30
0.0
 11
86.52018
 21
76.42541
 31
0.0
  0
LINE
  5
B216
  8
ALPHA
 10
86.584825
 20
76.772897
 30
0.0
 11
86.378759
 21
76.566831
 31
0.0
  0
LINE
  5
B217
  8
ALPHA
 10
86.726246
 20
77.126451
 30
0.0
 11
86.584825
 21
76.985029
 31
0.0
  0
LINE
  5
B218
  8
ALPHA
 10
86.172693
 20
76.985029
 30
0.0
 11
86.501982
 21
77.314319
 31
0.0
  0
LINE
  5
B219
  8
ALPHA
 10
86.726246
 20
77.631476
 30
0.0
 11
86.52018
 21
77.42541
 31
0.0
  0
LINE
  5
B21A
  8
ALPHA
 10
86.584825
 20
77.772897
 30
0.0
 11
86.378759
 21
77.566831
 31
0.0
  0
LINE
  5
B21B
  8
ALPHA
 10
86.726246
 20
78.126451
 30
0.0
 11
86.584825
 21
77.985029
 31
0.0
  0
LINE
  5
B21C
  8
ALPHA
 10
86.172693
 20
77.985029
 30
0.0
 11
86.501982
 21
78.314319
 31
0.0
  0
LINE
  5
B21D
  8
ALPHA
 10
86.726246
 20
78.631476
 30
0.0
 11
86.52018
 21
78.42541
 31
0.0
  0
LINE
  5
B21E
  8
ALPHA
 10
86.584825
 20
78.772897
 30
0.0
 11
86.378759
 21
78.566831
 31
0.0
  0
LINE
  5
B21F
  8
ALPHA
 10
86.726246
 20
79.126451
 30
0.0
 11
86.584825
 21
78.985029
 31
0.0
  0
LINE
  5
B220
  8
ALPHA
 10
86.172693
 20
78.985029
 30
0.0
 11
86.501982
 21
79.314319
 31
0.0
  0
ARC
  5
B221
  8
ALPHA
 10
89.628759
 20
70.878963
 30
0.0
 40
5.15
 50
95.68929
 51
99.310531
  0
ARC
  5
B222
  8
ALPHA
 10
87.375803
 20
74.658407
 30
0.0
 40
0.1
 50
223.0
 51
300.799502
  0
ARC
  5
B223
  8
ALPHA
 10
89.628759
 20
70.878963
 30
0.0
 40
4.3
 50
119.200498
 51
120.799502
  0
ARC
  5
B224
  8
ALPHA
 10
87.482143
 20
74.719802
 30
0.0
 40
0.1
 50
299.200498
 51
17.0
  0
ARC
  5
B225
  8
ALPHA
 10
87.590939
 20
75.390038
 30
0.0
 40
0.2
 50
114.303478
 51
197.0
  0
ARC
  5
B226
  8
ALPHA
 10
89.628759
 20
70.878963
 30
0.0
 40
5.15
 50
110.689802
 51
114.310193
  0
ARC
  5
B227
  8
ALPHA
 10
87.879904
 20
75.509731
 30
0.0
 40
0.2
 50
28.0
 51
110.696379
  0
ARC
  5
B228
  8
ALPHA
 10
88.430762
 20
75.112733
 30
0.0
 40
0.1
 50
208.0
 51
285.799502
  0
ARC
  5
B229
  8
ALPHA
 10
89.628759
 20
70.878963
 30
0.0
 40
4.3
 50
104.200498
 51
105.799502
  0
ARC
  5
B22A
  8
ALPHA
 10
88.549369
 20
75.144514
 30
0.0
 40
0.1
 50
284.200498
 51
2.0
  0
ARC
  5
B22B
  8
ALPHA
 10
88.827928
 20
75.763753
 30
0.0
 40
0.2
 50
99.312192
 51
182.0
  0
LINE
  5
B22C
  8
ALPHA
 10
88.342468
 20
75.065786
 30
0.0
 11
88.056493
 21
75.603625
 31
0.0
  0
LINE
  5
B22D
  8
ALPHA
 10
87.399678
 20
75.331563
 30
0.0
 11
87.577773
 21
74.749039
 31
0.0
  0
LINE
  5
B22E
  8
ALPHA
 10
88.62805
 20
75.756773
 30
0.0
 11
88.649308
 21
75.148004
 31
0.0
  0
ARC
  5
B22F
  8
ALPHA
 10
89.138026
 20
75.804578
 30
0.0
 40
0.2
 50
13.0
 51
95.683193
  0
ARC
  5
B230
  8
ALPHA
 10
89.567363
 20
75.278535
 30
0.0
 40
0.1
 50
193.0
 51
270.799502
  0
ARC
  5
B231
  8
ALPHA
 10
89.628759
 20
70.878963
 30
0.0
 40
4.3
 50
89.200498
 51
90.799502
  0
ARC
  5
B232
  8
ALPHA
 10
89.690154
 20
75.278535
 30
0.0
 40
0.1
 50
269.200498
 51
347.0
  0
ARC
  5
B233
  8
ALPHA
 10
90.119492
 20
75.804578
 30
0.0
 40
0.2
 50
84.316807
 51
167.0
  0
ARC
  5
B234
  8
ALPHA
 10
89.628759
 20
70.878963
 30
0.0
 40
5.15
 50
80.689469
 51
84.31071
  0
ARC
  5
B235
  8
ALPHA
 10
90.42959
 20
75.763753
 30
0.0
 40
0.2
 50
358.0
 51
80.687808
  0
ARC
  5
B236
  8
ALPHA
 10
90.708148
 20
75.144514
 30
0.0
 40
0.1
 50
178.0
 51
255.799502
  0
ARC
  5
B237
  8
ALPHA
 10
89.628759
 20
70.878963
 30
0.0
 40
4.3
 50
74.200498
 51
75.799502
  0
ARC
  5
B238
  8
ALPHA
 10
90.826755
 20
75.112733
 30
0.0
 40
0.1
 50
254.200498
 51
332.0
  0
LINE
  5
B239
  8
ALPHA
 10
89.278759
 20
77.378963
 30
0.0
 11
89.978759
 21
77.378963
 31
0.0
  0
LINE
  5
B23A
  8
ALPHA
 10
89.469926
 20
75.25604
 30
0.0
 11
89.3329
 21
75.849568
 31
0.0
  0
LINE
  5
B23B
  8
ALPHA
 10
90.608209
 20
75.148004
 30
0.0
 11
90.629468
 21
75.756773
 31
0.0
  0
LINE
  5
B23C
  8
ALPHA
 10
89.924618
 20
75.849568
 30
0.0
 11
89.787591
 21
75.25604
 31
0.0
  0
LINE
  5
B23D
  8
ALPHA
 10
92.755535
 20
56.314319
 30
0.0
 11
93.084825
 21
55.985029
 31
0.0
  0
LINE
  5
B23E
  8
ALPHA
 10
93.084825
 20
44.772897
 30
0.0
 11
92.755535
 21
44.443608
 31
0.0
  0
ARC
  5
B23F
  8
ALPHA
 10
92.978759
 20
38.878963
 30
0.0
 40
0.15
 50
315.0
 51
45.0
  0
ARC
  5
B240
  8
ALPHA
 10
92.978759
 20
37.878963
 30
0.0
 40
0.15
 50
315.0
 51
45.0
  0
ARC
  5
B241
  8
ALPHA
 10
92.978759
 20
36.878963
 30
0.0
 40
0.15
 50
315.0
 51
45.0
  0
ARC
  5
B242
  8
ALPHA
 10
92.978759
 20
35.878963
 30
0.0
 40
0.15
 50
315.0
 51
45.0
  0
ARC
  5
B243
  8
ALPHA
 10
92.978759
 20
34.878963
 30
0.0
 40
0.15
 50
315.0
 51
45.0
  0
ARC
  5
B244
  8
ALPHA
 10
92.978759
 20
33.878963
 30
0.0
 40
0.15
 50
315.0
 51
45.0
  0
ARC
  5
B245
  8
ALPHA
 10
92.82018
 20
38.378963
 30
0.0
 40
0.091421
 50
135.0
 51
225.0
  0
ARC
  5
B246
  8
ALPHA
 10
92.82018
 20
37.378963
 30
0.0
 40
0.091421
 50
135.0
 51
225.0
  0
ARC
  5
B247
  8
ALPHA
 10
92.82018
 20
36.378963
 30
0.0
 40
0.091421
 50
135.0
 51
225.0
  0
ARC
  5
B248
  8
ALPHA
 10
92.82018
 20
35.378963
 30
0.0
 40
0.091421
 50
135.0
 51
225.0
  0
ARC
  5
B249
  8
ALPHA
 10
92.82018
 20
34.378963
 30
0.0
 40
0.091421
 50
135.0
 51
225.0
  0
ARC
  5
B24A
  8
ALPHA
 10
92.82018
 20
33.378963
 30
0.0
 40
0.091421
 50
135.0
 51
225.0
  0
LINE
  5
B24B
  8
ALPHA
 10
93.084825
 20
33.772897
 30
0.0
 11
92.755535
 21
33.443608
 31
0.0
  0
LINE
  5
B24C
  8
ALPHA
 10
93.084825
 20
34.772897
 30
0.0
 11
92.755535
 21
34.443608
 31
0.0
  0
LINE
  5
B24D
  8
ALPHA
 10
93.084825
 20
35.772897
 30
0.0
 11
92.755535
 21
35.443608
 31
0.0
  0
LINE
  5
B24E
  8
ALPHA
 10
93.084825
 20
36.772897
 30
0.0
 11
92.755535
 21
36.443608
 31
0.0
  0
LINE
  5
B24F
  8
ALPHA
 10
93.084825
 20
37.772897
 30
0.0
 11
92.755535
 21
37.443608
 31
0.0
  0
LINE
  5
B250
  8
ALPHA
 10
93.084825
 20
38.772897
 30
0.0
 11
92.755535
 21
38.443608
 31
0.0
  0
LINE
  5
B251
  8
ALPHA
 10
92.755535
 20
38.314319
 30
0.0
 11
93.084825
 21
37.985029
 31
0.0
  0
LINE
  5
B252
  8
ALPHA
 10
92.755535
 20
37.314319
 30
0.0
 11
93.084825
 21
36.985029
 31
0.0
  0
LINE
  5
B253
  8
ALPHA
 10
92.755535
 20
36.314319
 30
0.0
 11
93.084825
 21
35.985029
 31
0.0
  0
LINE
  5
B254
  8
ALPHA
 10
92.755535
 20
35.314319
 30
0.0
 11
93.084825
 21
34.985029
 31
0.0
  0
LINE
  5
B255
  8
ALPHA
 10
92.755535
 20
34.314319
 30
0.0
 11
93.084825
 21
33.985029
 31
0.0
  0
ARC
  5
B256
  8
ALPHA
 10
92.978759
 20
43.878963
 30
0.0
 40
0.15
 50
315.0
 51
45.0
  0
ARC
  5
B257
  8
ALPHA
 10
92.978759
 20
42.878963
 30
0.0
 40
0.15
 50
315.0
 51
45.0
  0
ARC
  5
B258
  8
ALPHA
 10
92.978759
 20
41.878963
 30
0.0
 40
0.15
 50
315.0
 51
45.0
  0
ARC
  5
B259
  8
ALPHA
 10
92.978759
 20
40.878963
 30
0.0
 40
0.15
 50
315.0
 51
45.0
  0
ARC
  5
B25A
  8
ALPHA
 10
92.978759
 20
39.878963
 30
0.0
 40
0.15
 50
315.0
 51
45.0
  0
ARC
  5
B25B
  8
ALPHA
 10
92.82018
 20
44.378963
 30
0.0
 40
0.091421
 50
135.0
 51
225.0
  0
ARC
  5
B25C
  8
ALPHA
 10
92.82018
 20
43.378963
 30
0.0
 40
0.091421
 50
135.0
 51
225.0
  0
ARC
  5
B25D
  8
ALPHA
 10
92.82018
 20
42.378963
 30
0.0
 40
0.091421
 50
135.0
 51
225.0
  0
ARC
  5
B25E
  8
ALPHA
 10
92.82018
 20
41.378963
 30
0.0
 40
0.091421
 50
135.0
 51
225.0
  0
ARC
  5
B25F
  8
ALPHA
 10
92.82018
 20
40.378963
 30
0.0
 40
0.091421
 50
135.0
 51
225.0
  0
ARC
  5
B260
  8
ALPHA
 10
92.82018
 20
39.378963
 30
0.0
 40
0.091421
 50
135.0
 51
225.0
  0
LINE
  5
B261
  8
ALPHA
 10
93.084825
 20
39.772897
 30
0.0
 11
92.755535
 21
39.443608
 31
0.0
  0
LINE
  5
B262
  8
ALPHA
 10
93.084825
 20
40.772897
 30
0.0
 11
92.755535
 21
40.443608
 31
0.0
  0
LINE
  5
B263
  8
ALPHA
 10
93.084825
 20
41.772897
 30
0.0
 11
92.755535
 21
41.443608
 31
0.0
  0
LINE
  5
B264
  8
ALPHA
 10
93.084825
 20
42.772897
 30
0.0
 11
92.755535
 21
42.443608
 31
0.0
  0
LINE
  5
B265
  8
ALPHA
 10
93.084825
 20
43.772897
 30
0.0
 11
92.755535
 21
43.443608
 31
0.0
  0
LINE
  5
B266
  8
ALPHA
 10
92.755535
 20
44.314319
 30
0.0
 11
93.084825
 21
43.985029
 31
0.0
  0
LINE
  5
B267
  8
ALPHA
 10
92.755535
 20
43.314319
 30
0.0
 11
93.084825
 21
42.985029
 31
0.0
  0
LINE
  5
B268
  8
ALPHA
 10
92.755535
 20
42.314319
 30
0.0
 11
93.084825
 21
41.985029
 31
0.0
  0
LINE
  5
B269
  8
ALPHA
 10
92.755535
 20
41.314319
 30
0.0
 11
93.084825
 21
40.985029
 31
0.0
  0
LINE
  5
B26A
  8
ALPHA
 10
92.755535
 20
40.314319
 30
0.0
 11
93.084825
 21
39.985029
 31
0.0
  0
LINE
  5
B26B
  8
ALPHA
 10
92.755535
 20
39.314319
 30
0.0
 11
93.084825
 21
38.985029
 31
0.0
  0
ARC
  5
B26C
  8
ALPHA
 10
92.82018
 20
50.378963
 30
0.0
 40
0.091421
 50
135.0
 51
225.0
  0
ARC
  5
B26D
  8
ALPHA
 10
92.978759
 20
49.878963
 30
0.0
 40
0.15
 50
315.0
 51
45.0
  0
ARC
  5
B26E
  8
ALPHA
 10
92.978759
 20
48.878963
 30
0.0
 40
0.15
 50
315.0
 51
45.0
  0
ARC
  5
B26F
  8
ALPHA
 10
92.978759
 20
47.878963
 30
0.0
 40
0.15
 50
315.0
 51
45.0
  0
ARC
  5
B270
  8
ALPHA
 10
92.978759
 20
46.878963
 30
0.0
 40
0.15
 50
315.0
 51
45.0
  0
ARC
  5
B271
  8
ALPHA
 10
92.978759
 20
45.878963
 30
0.0
 40
0.15
 50
315.0
 51
45.0
  0
ARC
  5
B272
  8
ALPHA
 10
92.978759
 20
44.878963
 30
0.0
 40
0.15
 50
315.0
 51
45.0
  0
ARC
  5
B273
  8
ALPHA
 10
92.82018
 20
49.378963
 30
0.0
 40
0.091421
 50
135.0
 51
225.0
  0
ARC
  5
B274
  8
ALPHA
 10
92.82018
 20
48.378963
 30
0.0
 40
0.091421
 50
135.0
 51
225.0
  0
ARC
  5
B275
  8
ALPHA
 10
92.82018
 20
47.378963
 30
0.0
 40
0.091421
 50
135.0
 51
225.0
  0
ARC
  5
B276
  8
ALPHA
 10
92.82018
 20
46.378963
 30
0.0
 40
0.091421
 50
135.0
 51
225.0
  0
ARC
  5
B277
  8
ALPHA
 10
92.82018
 20
45.378963
 30
0.0
 40
0.091421
 50
135.0
 51
225.0
  0
LINE
  5
B278
  8
ALPHA
 10
93.084825
 20
45.772897
 30
0.0
 11
92.755535
 21
45.443608
 31
0.0
  0
LINE
  5
B279
  8
ALPHA
 10
93.084825
 20
46.772897
 30
0.0
 11
92.755535
 21
46.443608
 31
0.0
  0
LINE
  5
B27A
  8
ALPHA
 10
93.084825
 20
47.772897
 30
0.0
 11
92.755535
 21
47.443608
 31
0.0
  0
LINE
  5
B27B
  8
ALPHA
 10
93.084825
 20
48.772897
 30
0.0
 11
92.755535
 21
48.443608
 31
0.0
  0
LINE
  5
B27C
  8
ALPHA
 10
93.084825
 20
49.772897
 30
0.0
 11
92.755535
 21
49.443608
 31
0.0
  0
LINE
  5
B27D
  8
ALPHA
 10
92.755535
 20
50.314319
 30
0.0
 11
93.084825
 21
49.985029
 31
0.0
  0
LINE
  5
B27E
  8
ALPHA
 10
92.755535
 20
49.314319
 30
0.0
 11
93.084825
 21
48.985029
 31
0.0
  0
LINE
  5
B27F
  8
ALPHA
 10
92.755535
 20
48.314319
 30
0.0
 11
93.084825
 21
47.985029
 31
0.0
  0
LINE
  5
B280
  8
ALPHA
 10
92.755535
 20
47.314319
 30
0.0
 11
93.084825
 21
46.985029
 31
0.0
  0
LINE
  5
B281
  8
ALPHA
 10
92.755535
 20
46.314319
 30
0.0
 11
93.084825
 21
45.985029
 31
0.0
  0
LINE
  5
B282
  8
ALPHA
 10
92.755535
 20
45.314319
 30
0.0
 11
93.084825
 21
44.985029
 31
0.0
  0
ARC
  5
B283
  8
ALPHA
 10
92.978759
 20
55.878963
 30
0.0
 40
0.15
 50
315.0
 51
45.0
  0
ARC
  5
B284
  8
ALPHA
 10
92.978759
 20
54.878963
 30
0.0
 40
0.15
 50
315.0
 51
45.0
  0
ARC
  5
B285
  8
ALPHA
 10
92.978759
 20
53.878963
 30
0.0
 40
0.15
 50
315.0
 51
45.0
  0
ARC
  5
B286
  8
ALPHA
 10
92.978759
 20
52.878963
 30
0.0
 40
0.15
 50
315.0
 51
45.0
  0
ARC
  5
B287
  8
ALPHA
 10
92.978759
 20
51.878963
 30
0.0
 40
0.15
 50
315.0
 51
45.0
  0
ARC
  5
B288
  8
ALPHA
 10
92.978759
 20
50.878963
 30
0.0
 40
0.15
 50
315.0
 51
45.0
  0
ARC
  5
B289
  8
ALPHA
 10
92.82018
 20
55.378963
 30
0.0
 40
0.091421
 50
135.0
 51
225.0
  0
ARC
  5
B28A
  8
ALPHA
 10
92.82018
 20
54.378963
 30
0.0
 40
0.091421
 50
135.0
 51
225.0
  0
ARC
  5
B28B
  8
ALPHA
 10
92.82018
 20
53.378963
 30
0.0
 40
0.091421
 50
135.0
 51
225.0
  0
ARC
  5
B28C
  8
ALPHA
 10
92.82018
 20
52.378963
 30
0.0
 40
0.091421
 50
135.0
 51
225.0
  0
ARC
  5
B28D
  8
ALPHA
 10
92.82018
 20
51.378963
 30
0.0
 40
0.091421
 50
135.0
 51
225.0
  0
LINE
  5
B28E
  8
ALPHA
 10
93.084825
 20
50.772897
 30
0.0
 11
92.755535
 21
50.443608
 31
0.0
  0
LINE
  5
B28F
  8
ALPHA
 10
93.084825
 20
51.772897
 30
0.0
 11
92.755535
 21
51.443608
 31
0.0
  0
LINE
  5
B290
  8
ALPHA
 10
93.084825
 20
52.772897
 30
0.0
 11
92.755535
 21
52.443608
 31
0.0
  0
LINE
  5
B291
  8
ALPHA
 10
93.084825
 20
53.772897
 30
0.0
 11
92.755535
 21
53.443608
 31
0.0
  0
LINE
  5
B292
  8
ALPHA
 10
93.084825
 20
54.772897
 30
0.0
 11
92.755535
 21
54.443608
 31
0.0
  0
LINE
  5
B293
  8
ALPHA
 10
93.084825
 20
55.772897
 30
0.0
 11
92.755535
 21
55.443608
 31
0.0
  0
LINE
  5
B294
  8
ALPHA
 10
92.755535
 20
55.314319
 30
0.0
 11
93.084825
 21
54.985029
 31
0.0
  0
LINE
  5
B295
  8
ALPHA
 10
92.755535
 20
54.314319
 30
0.0
 11
93.084825
 21
53.985029
 31
0.0
  0
LINE
  5
B296
  8
ALPHA
 10
92.755535
 20
53.314319
 30
0.0
 11
93.084825
 21
52.985029
 31
0.0
  0
LINE
  5
B297
  8
ALPHA
 10
92.755535
 20
52.314319
 30
0.0
 11
93.084825
 21
51.985029
 31
0.0
  0
LINE
  5
B298
  8
ALPHA
 10
92.755535
 20
51.314319
 30
0.0
 11
93.084825
 21
50.985029
 31
0.0
  0
ARC
  5
B299
  8
ALPHA
 10
92.978759
 20
67.878963
 30
0.0
 40
0.15
 50
315.0
 51
45.0
  0
ARC
  5
B29A
  8
ALPHA
 10
89.628759
 20
70.878963
 30
0.0
 40
4.3
 50
314.200498
 51
315.799502
  0
LINE
  5
B29B
  8
ALPHA
 10
92.836131
 20
67.896214
 30
0.0
 11
93.065079
 21
67.753152
 31
0.0
  0
ARC
  5
B29C
  8
ALPHA
 10
92.778759
 20
61.878963
 30
0.0
 40
0.349999
 50
135.0
 51
180.0
  0
LINE
  5
B29D
  8
ALPHA
 10
92.755535
 20
62.314319
 30
0.0
 11
93.084825
 21
61.985029
 31
0.0
  0
LINE
  5
B29E
  8
ALPHA
 10
92.672693
 20
61.985029
 30
0.0
 11
92.531271
 21
62.126451
 31
0.0
  0
LINE
  5
B29F
  8
ALPHA
 10
92.878759
 20
62.191095
 30
0.0
 11
92.672693
 21
61.985029
 31
0.0
  0
ARC
  5
B2A0
  8
ALPHA
 10
92.978759
 20
61.878963
 30
0.0
 40
0.15
 50
315.0
 51
45.0
  0
ARC
  5
B2A1
  8
ALPHA
 10
92.978759
 20
60.878963
 30
0.0
 40
0.15
 50
315.0
 51
45.0
  0
ARC
  5
B2A2
  8
ALPHA
 10
92.978759
 20
59.878963
 30
0.0
 40
0.15
 50
315.0
 51
45.0
  0
ARC
  5
B2A3
  8
ALPHA
 10
92.978759
 20
58.878963
 30
0.0
 40
0.15
 50
315.0
 51
45.0
  0
ARC
  5
B2A4
  8
ALPHA
 10
92.978759
 20
57.878963
 30
0.0
 40
0.15
 50
315.0
 51
45.0
  0
ARC
  5
B2A5
  8
ALPHA
 10
92.978759
 20
56.878963
 30
0.0
 40
0.15
 50
315.0
 51
45.0
  0
ARC
  5
B2A6
  8
ALPHA
 10
92.82018
 20
61.378963
 30
0.0
 40
0.091421
 50
135.0
 51
225.0
  0
ARC
  5
B2A7
  8
ALPHA
 10
92.82018
 20
60.378963
 30
0.0
 40
0.091421
 50
135.0
 51
225.0
  0
ARC
  5
B2A8
  8
ALPHA
 10
92.82018
 20
59.378963
 30
0.0
 40
0.091421
 50
135.0
 51
225.0
  0
ARC
  5
B2A9
  8
ALPHA
 10
92.82018
 20
58.378963
 30
0.0
 40
0.091421
 50
135.0
 51
225.0
  0
ARC
  5
B2AA
  8
ALPHA
 10
92.82018
 20
57.378963
 30
0.0
 40
0.091421
 50
135.0
 51
225.0
  0
ARC
  5
B2AB
  8
ALPHA
 10
92.82018
 20
56.378963
 30
0.0
 40
0.091421
 50
135.0
 51
225.0
  0
ARC
  5
B2AC
  8
ALPHA
 10
92.778759
 20
61.878963
 30
0.0
 40
0.15
 50
135.0
 51
180.0
  0
ARC
  5
B2AD
  8
ALPHA
 10
89.628759
 20
70.878963
 30
0.0
 40
10.0
 50
286.448613
 51
288.098365
  0
LINE
  5
B2AE
  8
ALPHA
 10
93.084825
 20
56.772897
 30
0.0
 11
92.755535
 21
56.443608
 31
0.0
  0
LINE
  5
B2AF
  8
ALPHA
 10
93.084825
 20
57.772897
 30
0.0
 11
92.755535
 21
57.443608
 31
0.0
  0
LINE
  5
B2B0
  8
ALPHA
 10
93.084825
 20
58.772897
 30
0.0
 11
92.755535
 21
58.443608
 31
0.0
  0
LINE
  5
B2B1
  8
ALPHA
 10
93.084825
 20
59.772897
 30
0.0
 11
92.755535
 21
59.443608
 31
0.0
  0
LINE
  5
B2B2
  8
ALPHA
 10
92.755535
 20
61.314319
 30
0.0
 11
93.084825
 21
60.985029
 31
0.0
  0
LINE
  5
B2B3
  8
ALPHA
 10
92.755535
 20
60.314319
 30
0.0
 11
93.084825
 21
59.985029
 31
0.0
  0
LINE
  5
B2B4
  8
ALPHA
 10
93.084825
 20
60.772897
 30
0.0
 11
92.755535
 21
60.443608
 31
0.0
  0
LINE
  5
B2B5
  8
ALPHA
 10
93.084825
 20
61.772897
 30
0.0
 11
92.755535
 21
61.443608
 31
0.0
  0
LINE
  5
B2B6
  8
ALPHA
 10
92.628759
 20
61.878963
 30
0.0
 11
92.628759
 21
61.665411
 31
0.0
  0
LINE
  5
B2B7
  8
ALPHA
 10
92.428759
 20
61.878963
 30
0.0
 11
92.428759
 21
61.22977
 31
0.0
  0
LINE
  5
B2B8
  8
ALPHA
 10
92.755535
 20
59.314319
 30
0.0
 11
93.084825
 21
58.985029
 31
0.0
  0
LINE
  5
B2B9
  8
ALPHA
 10
92.755535
 20
58.314319
 30
0.0
 11
93.084825
 21
57.985029
 31
0.0
  0
LINE
  5
B2BA
  8
ALPHA
 10
92.755535
 20
57.314319
 30
0.0
 11
93.084825
 21
56.985029
 31
0.0
  0
LINE
  5
B2BB
  8
ALPHA
 10
92.628759
 20
61.878963
 30
0.0
 11
92.428759
 21
61.878963
 31
0.0
  0
ARC
  5
B2BC
  8
ALPHA
 10
92.978759
 20
66.878963
 30
0.0
 40
0.15
 50
315.0
 51
45.0
  0
ARC
  5
B2BD
  8
ALPHA
 10
92.978759
 20
65.878963
 30
0.0
 40
0.15
 50
315.0
 51
45.0
  0
ARC
  5
B2BE
  8
ALPHA
 10
92.978759
 20
64.878963
 30
0.0
 40
0.15
 50
315.0
 51
45.0
  0
ARC
  5
B2BF
  8
ALPHA
 10
92.978759
 20
63.878963
 30
0.0
 40
0.15
 50
315.0
 51
45.0
  0
ARC
  5
B2C0
  8
ALPHA
 10
92.978759
 20
62.878963
 30
0.0
 40
0.15
 50
315.0
 51
45.0
  0
ARC
  5
B2C1
  8
ALPHA
 10
92.82018
 20
67.378963
 30
0.0
 40
0.091421
 50
135.0
 51
225.0
  0
ARC
  5
B2C2
  8
ALPHA
 10
92.82018
 20
66.378963
 30
0.0
 40
0.091421
 50
135.0
 51
225.0
  0
ARC
  5
B2C3
  8
ALPHA
 10
92.82018
 20
65.378963
 30
0.0
 40
0.091421
 50
135.0
 51
225.0
  0
ARC
  5
B2C4
  8
ALPHA
 10
92.82018
 20
64.378963
 30
0.0
 40
0.091421
 50
135.0
 51
225.0
  0
ARC
  5
B2C5
  8
ALPHA
 10
92.82018
 20
63.378963
 30
0.0
 40
0.091421
 50
135.0
 51
225.0
  0
ARC
  5
B2C6
  8
ALPHA
 10
92.82018
 20
62.378963
 30
0.0
 40
0.091421
 50
135.0
 51
225.0
  0
ARC
  5
B2C7
  8
ALPHA
 10
92.778759
 20
64.878963
 30
0.0
 40
0.35
 50
135.0
 51
225.0
  0
ARC
  5
B2C8
  8
ALPHA
 10
92.778759
 20
62.878963
 30
0.0
 40
0.35
 50
135.0
 51
225.0
  0
ARC
  5
B2C9
  8
ALPHA
 10
92.778759
 20
65.878963
 30
0.0
 40
0.35
 50
180.0
 51
225.0
  0
ARC
  5
B2CA
  8
ALPHA
 10
92.778759
 20
63.878963
 30
0.0
 40
0.35
 50
135.0
 51
225.0
  0
ARC
  5
B2CB
  8
ALPHA
 10
92.778759
 20
62.878963
 30
0.0
 40
0.15
 50
135.0
 51
225.0
  0
ARC
  5
B2CC
  8
ALPHA
 10
92.778759
 20
63.878963
 30
0.0
 40
0.15
 50
135.0
 51
225.0
  0
ARC
  5
B2CD
  8
ALPHA
 10
92.778759
 20
64.878963
 30
0.0
 40
0.15
 50
135.0
 51
225.0
  0
ARC
  5
B2CE
  8
ALPHA
 10
92.778759
 20
65.878963
 30
0.0
 40
0.15
 50
180.0
 51
225.0
  0
ARC
  5
B2CF
  8
ALPHA
 10
92.696313
 20
67.724583
 30
0.0
 40
0.1
 50
134.200498
 51
212.0
  0
ARC
  5
B2D0
  8
ALPHA
 10
92.764694
 20
67.049027
 30
0.0
 40
0.2
 50
309.310464
 51
22.793772
  0
ARC
  5
B2D1
  8
ALPHA
 10
89.628759
 20
70.878963
 30
0.0
 40
5.15
 50
305.689551
 51
309.310464
  0
ARC
  5
B2D2
  8
ALPHA
 10
92.516554
 20
66.858623
 30
0.0
 40
0.2
 50
223.0
 51
305.689918
  0
ARC
  5
B2D3
  8
ALPHA
 10
91.881714
 20
67.09952
 30
0.0
 40
0.1
 50
43.0
 51
120.799502
  0
ARC
  5
B2D4
  8
ALPHA
 10
89.628759
 20
70.878963
 30
0.0
 40
4.3
 50
299.200498
 51
300.799502
  0
ARC
  5
B2D5
  8
ALPHA
 10
91.775375
 20
67.038125
 30
0.0
 40
0.1
 50
119.200498
 51
197.0
  0
ARC
  5
B2D6
  8
ALPHA
 10
91.666579
 20
66.367889
 30
0.0
 40
0.2
 50
294.303478
 51
17.0
  0
ARC
  5
B2D7
  8
ALPHA
 10
89.628759
 20
70.878963
 30
0.0
 40
5.15
 50
290.689802
 51
294.310193
  0
ARC
  5
B2D8
  8
ALPHA
 10
91.377614
 20
66.248196
 30
0.0
 40
0.2
 50
208.0
 51
290.696379
  0
LINE
  5
B2D9
  8
ALPHA
 10
92.754408
 20
67.442904
 30
0.0
 11
92.611508
 21
67.671592
 31
0.0
  0
LINE
  5
B2DA
  8
ALPHA
 10
91.95485
 20
67.16772
 30
0.0
 11
92.370283
 21
66.722223
 31
0.0
  0
LINE
  5
B2DB
  8
ALPHA
 10
92.755535
 20
67.314319
 30
0.0
 11
93.084825
 21
66.985029
 31
0.0
  0
LINE
  5
B2DC
  8
ALPHA
 10
92.755535
 20
66.314319
 30
0.0
 11
93.084825
 21
65.985029
 31
0.0
  0
LINE
  5
B2DD
  8
ALPHA
 10
92.878759
 20
65.566831
 30
0.0
 11
92.672693
 21
65.772897
 31
0.0
  0
LINE
  5
B2DE
  8
ALPHA
 10
92.737337
 20
65.42541
 30
0.0
 11
92.531271
 21
65.631476
 31
0.0
  0
LINE
  5
B2DF
  8
ALPHA
 10
92.755535
 20
65.314319
 30
0.0
 11
93.084825
 21
64.985029
 31
0.0
  0
LINE
  5
B2E0
  8
ALPHA
 10
92.531271
 20
65.126451
 30
0.0
 11
92.672693
 21
64.985029
 31
0.0
  0
LINE
  5
B2E1
  8
ALPHA
 10
92.878759
 20
64.566831
 30
0.0
 11
92.672693
 21
64.772897
 31
0.0
  0
LINE
  5
B2E2
  8
ALPHA
 10
91.85784
 20
66.426364
 30
0.0
 11
91.679744
 21
67.008888
 31
0.0
  0
LINE
  5
B2E3
  8
ALPHA
 10
92.737337
 20
64.42541
 30
0.0
 11
92.531271
 21
64.631476
 31
0.0
  0
LINE
  5
B2E4
  8
ALPHA
 10
92.755535
 20
64.314319
 30
0.0
 11
93.084825
 21
63.985029
 31
0.0
  0
LINE
  5
B2E5
  8
ALPHA
 10
92.531271
 20
64.126451
 30
0.0
 11
92.672693
 21
63.985029
 31
0.0
  0
LINE
  5
B2E6
  8
ALPHA
 10
92.878759
 20
63.566831
 30
0.0
 11
92.672693
 21
63.772897
 31
0.0
  0
LINE
  5
B2E7
  8
ALPHA
 10
92.737337
 20
63.42541
 30
0.0
 11
92.531271
 21
63.631476
 31
0.0
  0
LINE
  5
B2E8
  8
ALPHA
 10
92.755535
 20
63.314319
 30
0.0
 11
93.084825
 21
62.985029
 31
0.0
  0
LINE
  5
B2E9
  8
ALPHA
 10
92.531271
 20
63.126451
 30
0.0
 11
92.672693
 21
62.985029
 31
0.0
  0
LINE
  5
B2EA
  8
ALPHA
 10
92.878759
 20
62.566831
 30
0.0
 11
92.672693
 21
62.772897
 31
0.0
  0
LINE
  5
B2EB
  8
ALPHA
 10
92.737337
 20
62.42541
 30
0.0
 11
92.531271
 21
62.631476
 31
0.0
  0
LINE
  5
B2EC
  8
ALPHA
 10
91.920047
 20
65.878963
 30
0.0
 11
92.628759
 21
65.878963
 31
0.0
  0
LINE
  5
B2ED
  8
ALPHA
 10
92.737337
 20
62.332517
 30
0.0
 11
92.531271
 21
62.126451
 31
0.0
  0
LINE
  5
B2EE
  8
ALPHA
 10
93.084825
 20
62.772897
 30
0.0
 11
92.755535
 21
62.443608
 31
0.0
  0
LINE
  5
B2EF
  8
ALPHA
 10
92.531271
 20
62.631476
 30
0.0
 11
92.672693
 21
62.772897
 31
0.0
  0
LINE
  5
B2F0
  8
ALPHA
 10
92.672693
 20
62.985029
 30
0.0
 11
92.878759
 21
63.191095
 31
0.0
  0
LINE
  5
B2F1
  8
ALPHA
 10
92.531271
 20
63.126451
 30
0.0
 11
92.737337
 21
63.332517
 31
0.0
  0
LINE
  5
B2F2
  8
ALPHA
 10
93.084825
 20
63.772897
 30
0.0
 11
92.755535
 21
63.443608
 31
0.0
  0
LINE
  5
B2F3
  8
ALPHA
 10
92.531271
 20
63.631476
 30
0.0
 11
92.672693
 21
63.772897
 31
0.0
  0
LINE
  5
B2F4
  8
ALPHA
 10
92.672693
 20
63.985029
 30
0.0
 11
92.878759
 21
64.191095
 31
0.0
  0
LINE
  5
B2F5
  8
ALPHA
 10
92.531271
 20
64.126451
 30
0.0
 11
92.737337
 21
64.332517
 31
0.0
  0
LINE
  5
B2F6
  8
ALPHA
 10
93.084825
 20
64.772897
 30
0.0
 11
92.755535
 21
64.443608
 31
0.0
  0
LINE
  5
B2F7
  8
ALPHA
 10
92.531271
 20
64.631476
 30
0.0
 11
92.672693
 21
64.772897
 31
0.0
  0
LINE
  5
B2F8
  8
ALPHA
 10
92.672693
 20
64.985029
 30
0.0
 11
92.878759
 21
65.191095
 31
0.0
  0
LINE
  5
B2F9
  8
ALPHA
 10
92.531271
 20
65.126451
 30
0.0
 11
92.737337
 21
65.332517
 31
0.0
  0
LINE
  5
B2FA
  8
ALPHA
 10
93.084825
 20
65.772897
 30
0.0
 11
92.755535
 21
65.443608
 31
0.0
  0
LINE
  5
B2FB
  8
ALPHA
 10
92.531271
 20
65.631476
 30
0.0
 11
92.672693
 21
65.772897
 31
0.0
  0
LINE
  5
B2FC
  8
ALPHA
 10
93.084825
 20
66.772897
 30
0.0
 11
92.755535
 21
66.443608
 31
0.0
  0
LINE
  5
B2FD
  8
ALPHA
 10
93.084825
 20
67.772897
 30
0.0
 11
92.755535
 21
67.443608
 31
0.0
  0
LINE
  5
B2FE
  8
ALPHA
 10
93.084825
 20
73.772897
 30
0.0
 11
92.755535
 21
73.443608
 31
0.0
  0
ARC
  5
B2FF
  8
ALPHA
 10
92.978759
 20
72.878963
 30
0.0
 40
0.15
 50
315.0
 51
45.0
  0
ARC
  5
B300
  8
ALPHA
 10
92.978759
 20
71.878963
 30
0.0
 40
0.15
 50
315.0
 51
45.0
  0
ARC
  5
B301
  8
ALPHA
 10
92.978759
 20
70.878963
 30
0.0
 40
0.15
 50
315.0
 51
45.0
  0
ARC
  5
B302
  8
ALPHA
 10
92.978759
 20
69.878963
 30
0.0
 40
0.15
 50
315.0
 51
45.0
  0
ARC
  5
B303
  8
ALPHA
 10
92.978759
 20
68.878963
 30
0.0
 40
0.15
 50
315.0
 51
45.0
  0
ARC
  5
B304
  8
ALPHA
 10
92.82018
 20
73.378963
 30
0.0
 40
0.091421
 50
135.0
 51
225.0
  0
ARC
  5
B305
  8
ALPHA
 10
92.82018
 20
72.378963
 30
0.0
 40
0.091421
 50
135.0
 51
225.0
  0
ARC
  5
B306
  8
ALPHA
 10
92.82018
 20
71.378963
 30
0.0
 40
0.091421
 50
135.0
 51
225.0
  0
ARC
  5
B307
  8
ALPHA
 10
92.82018
 20
70.378963
 30
0.0
 40
0.091421
 50
135.0
 51
225.0
  0
ARC
  5
B308
  8
ALPHA
 10
92.82018
 20
69.378963
 30
0.0
 40
0.091421
 50
135.0
 51
225.0
  0
ARC
  5
B309
  8
ALPHA
 10
92.82018
 20
68.378963
 30
0.0
 40
0.091421
 50
135.0
 51
225.0
  0
ARC
  5
B30A
  8
ALPHA
 10
92.783139
 20
67.81141
 30
0.0
 40
0.1
 50
58.0
 51
135.799502
  0
LINE
  5
B30B
  8
ALPHA
 10
92.755535
 20
73.314319
 30
0.0
 11
93.084825
 21
72.985029
 31
0.0
  0
LINE
  5
B30C
  8
ALPHA
 10
92.755535
 20
72.314319
 30
0.0
 11
93.084825
 21
71.985029
 31
0.0
  0
LINE
  5
B30D
  8
ALPHA
 10
92.755535
 20
71.314319
 30
0.0
 11
93.084825
 21
70.985029
 31
0.0
  0
LINE
  5
B30E
  8
ALPHA
 10
92.755535
 20
70.314319
 30
0.0
 11
93.084825
 21
69.985029
 31
0.0
  0
LINE
  5
B30F
  8
ALPHA
 10
92.755535
 20
69.314319
 30
0.0
 11
93.084825
 21
68.985029
 31
0.0
  0
LINE
  5
B310
  8
ALPHA
 10
92.755535
 20
68.314319
 30
0.0
 11
93.084825
 21
67.985029
 31
0.0
  0
LINE
  5
B311
  8
ALPHA
 10
93.084825
 20
68.772897
 30
0.0
 11
92.755535
 21
68.443608
 31
0.0
  0
LINE
  5
B312
  8
ALPHA
 10
93.084825
 20
69.772897
 30
0.0
 11
92.755535
 21
69.443608
 31
0.0
  0
LINE
  5
B313
  8
ALPHA
 10
93.084825
 20
70.772897
 30
0.0
 11
92.755535
 21
70.443608
 31
0.0
  0
LINE
  5
B314
  8
ALPHA
 10
93.084825
 20
71.772897
 30
0.0
 11
92.755535
 21
71.443608
 31
0.0
  0
LINE
  5
B315
  8
ALPHA
 10
93.084825
 20
72.772897
 30
0.0
 11
92.755535
 21
72.443608
 31
0.0
  0
ARC
  5
B316
  8
ALPHA
 10
92.978759
 20
78.878963
 30
0.0
 40
0.15
 50
315.0
 51
45.0
  0
ARC
  5
B317
  8
ALPHA
 10
92.978759
 20
77.878963
 30
0.0
 40
0.15
 50
315.0
 51
45.0
  0
ARC
  5
B318
  8
ALPHA
 10
92.978759
 20
76.878963
 30
0.0
 40
0.15
 50
315.0
 51
45.0
  0
ARC
  5
B319
  8
ALPHA
 10
92.978759
 20
75.878963
 30
0.0
 40
0.15
 50
315.0
 51
45.0
  0
ARC
  5
B31A
  8
ALPHA
 10
92.978759
 20
74.878963
 30
0.0
 40
0.15
 50
315.0
 51
45.0
  0
ARC
  5
B31B
  8
ALPHA
 10
92.978759
 20
73.878963
 30
0.0
 40
0.15
 50
315.0
 51
45.0
  0
ARC
  5
B31C
  8
ALPHA
 10
92.82018
 20
78.378963
 30
0.0
 40
0.091421
 50
135.0
 51
225.0
  0
ARC
  5
B31D
  8
ALPHA
 10
92.82018
 20
77.378963
 30
0.0
 40
0.091421
 50
135.0
 51
225.0
  0
ARC
  5
B31E
  8
ALPHA
 10
92.82018
 20
76.378963
 30
0.0
 40
0.091421
 50
135.0
 51
225.0
  0
ARC
  5
B31F
  8
ALPHA
 10
92.82018
 20
75.378963
 30
0.0
 40
0.091421
 50
135.0
 51
225.0
  0
ARC
  5
B320
  8
ALPHA
 10
92.82018
 20
74.378963
 30
0.0
 40
0.091421
 50
135.0
 51
225.0
  0
ARC
  5
B321
  8
ALPHA
 10
92.778759
 20
75.878963
 30
0.0
 40
0.35
 50
135.0
 51
180.0
  0
ARC
  5
B322
  8
ALPHA
 10
92.778759
 20
76.878963
 30
0.0
 40
0.35
 50
135.0
 51
225.0
  0
ARC
  5
B323
  8
ALPHA
 10
92.778759
 20
77.878963
 30
0.0
 40
0.35
 50
135.0
 51
225.0
  0
ARC
  5
B324
  8
ALPHA
 10
92.778759
 20
78.878963
 30
0.0
 40
0.35
 50
135.0
 51
225.0
  0
ARC
  5
B325
  8
ALPHA
 10
92.778759
 20
75.878963
 30
0.0
 40
0.15
 50
135.0
 51
180.0
  0
ARC
  5
B326
  8
ALPHA
 10
92.778759
 20
76.878963
 30
0.0
 40
0.15
 50
135.0
 51
225.0
  0
ARC
  5
B327
  8
ALPHA
 10
92.778759
 20
77.878963
 30
0.0
 40
0.15
 50
135.0
 51
225.0
  0
ARC
  5
B328
  8
ALPHA
 10
92.778759
 20
78.878963
 30
0.0
 40
0.15
 50
135.0
 51
225.0
  0
ARC
  5
B329
  8
ALPHA
 10
92.783139
 20
73.946517
 30
0.0
 40
0.1
 50
224.200498
 51
302.0
  0
ARC
  5
B32A
  8
ALPHA
 10
91.377614
 20
75.509731
 30
0.0
 40
0.2
 50
69.303621
 51
152.0
  0
ARC
  5
B32B
  8
ALPHA
 10
89.628759
 20
70.878963
 30
0.0
 40
5.15
 50
65.689807
 51
69.310198
  0
ARC
  5
B32C
  8
ALPHA
 10
91.666579
 20
75.390038
 30
0.0
 40
0.2
 50
343.0
 51
65.696522
  0
ARC
  5
B32D
  8
ALPHA
 10
91.775375
 20
74.719802
 30
0.0
 40
0.1
 50
163.0
 51
240.799502
  0
ARC
  5
B32E
  8
ALPHA
 10
89.628759
 20
70.878963
 30
0.0
 40
4.3
 50
59.200498
 51
60.799502
  0
ARC
  5
B32F
  8
ALPHA
 10
91.881714
 20
74.658407
 30
0.0
 40
0.1
 50
239.200498
 51
317.0
  0
ARC
  5
B330
  8
ALPHA
 10
92.516554
 20
74.899304
 30
0.0
 40
0.2
 50
54.310082
 51
137.0
  0
ARC
  5
B331
  8
ALPHA
 10
89.628759
 20
70.878963
 30
0.0
 40
5.15
 50
50.689536
 51
54.310449
  0
ARC
  5
B332
  8
ALPHA
 10
92.764694
 20
74.7089
 30
0.0
 40
0.2
 50
337.206228
 51
50.689536
  0
ARC
  5
B333
  8
ALPHA
 10
92.696313
 20
74.033343
 30
0.0
 40
0.1
 50
148.0
 51
225.799502
  0
ARC
  5
B334
  8
ALPHA
 10
89.628759
 20
70.878963
 30
0.0
 40
4.3
 50
44.200498
 51
45.799502
  0
LINE
  5
B335
  8
ALPHA
 10
92.755535
 20
79.314319
 30
0.0
 11
93.084825
 21
78.985029
 31
0.0
  0
LINE
  5
B336
  8
ALPHA
 10
92.531271
 20
79.126451
 30
0.0
 11
92.672693
 21
78.985029
 31
0.0
  0
LINE
  5
B337
  8
ALPHA
 10
92.878759
 20
78.566831
 30
0.0
 11
92.672693
 21
78.772897
 31
0.0
  0
LINE
  5
B338
  8
ALPHA
 10
92.737337
 20
78.42541
 30
0.0
 11
92.531271
 21
78.631476
 31
0.0
  0
LINE
  5
B339
  8
ALPHA
 10
92.755535
 20
78.314319
 30
0.0
 11
93.084825
 21
77.985029
 31
0.0
  0
LINE
  5
B33A
  8
ALPHA
 10
92.531271
 20
78.126451
 30
0.0
 11
92.672693
 21
77.985029
 31
0.0
  0
LINE
  5
B33B
  8
ALPHA
 10
92.878759
 20
77.566831
 30
0.0
 11
92.672693
 21
77.772897
 31
0.0
  0
LINE
  5
B33C
  8
ALPHA
 10
92.737337
 20
77.42541
 30
0.0
 11
92.531271
 21
77.631476
 31
0.0
  0
LINE
  5
B33D
  8
ALPHA
 10
92.755535
 20
77.314319
 30
0.0
 11
93.084825
 21
76.985029
 31
0.0
  0
LINE
  5
B33E
  8
ALPHA
 10
92.531271
 20
77.126451
 30
0.0
 11
92.672693
 21
76.985029
 31
0.0
  0
LINE
  5
B33F
  8
ALPHA
 10
92.878759
 20
76.566831
 30
0.0
 11
92.672693
 21
76.772897
 31
0.0
  0
LINE
  5
B340
  8
ALPHA
 10
92.737337
 20
76.42541
 30
0.0
 11
92.531271
 21
76.631476
 31
0.0
  0
LINE
  5
B341
  8
ALPHA
 10
92.755535
 20
76.314319
 30
0.0
 11
93.084825
 21
75.985029
 31
0.0
  0
LINE
  5
B342
  8
ALPHA
 10
92.672693
 20
75.985029
 30
0.0
 11
92.531271
 21
76.126451
 31
0.0
  0
LINE
  5
B343
  8
ALPHA
 10
92.755535
 20
75.314319
 30
0.0
 11
93.084825
 21
74.985029
 31
0.0
  0
LINE
  5
B344
  8
ALPHA
 10
92.628759
 20
75.878963
 30
0.0
 11
91.920047
 21
75.878963
 31
0.0
  0
LINE
  5
B345
  8
ALPHA
 10
92.755535
 20
74.314319
 30
0.0
 11
93.084825
 21
73.985029
 31
0.0
  0
LINE
  5
B346
  8
ALPHA
 10
91.679744
 20
74.749039
 30
0.0
 11
91.85784
 21
75.331563
 31
0.0
  0
LINE
  5
B347
  8
ALPHA
 10
93.084825
 20
74.772897
 30
0.0
 11
92.755535
 21
74.443608
 31
0.0
  0
LINE
  5
B348
  8
ALPHA
 10
92.611508
 20
74.086335
 30
0.0
 11
92.754408
 21
74.315023
 31
0.0
  0
LINE
  5
B349
  8
ALPHA
 10
93.065079
 20
74.004775
 30
0.0
 11
92.836131
 21
73.861713
 31
0.0
  0
LINE
  5
B34A
  8
ALPHA
 10
93.084825
 20
75.772897
 30
0.0
 11
92.755535
 21
75.443608
 31
0.0
  0
LINE
  5
B34B
  8
ALPHA
 10
92.878759
 20
76.191095
 30
0.0
 11
92.672693
 21
75.985029
 31
0.0
  0
LINE
  5
B34C
  8
ALPHA
 10
92.737337
 20
76.332517
 30
0.0
 11
92.531271
 21
76.126451
 31
0.0
  0
LINE
  5
B34D
  8
ALPHA
 10
93.084825
 20
76.772897
 30
0.0
 11
92.755535
 21
76.443608
 31
0.0
  0
LINE
  5
B34E
  8
ALPHA
 10
92.531271
 20
76.631476
 30
0.0
 11
92.672693
 21
76.772897
 31
0.0
  0
LINE
  5
B34F
  8
ALPHA
 10
92.672693
 20
76.985029
 30
0.0
 11
92.878759
 21
77.191095
 31
0.0
  0
LINE
  5
B350
  8
ALPHA
 10
92.531271
 20
77.126451
 30
0.0
 11
92.737337
 21
77.332517
 31
0.0
  0
LINE
  5
B351
  8
ALPHA
 10
93.084825
 20
77.772897
 30
0.0
 11
92.755535
 21
77.443608
 31
0.0
  0
LINE
  5
B352
  8
ALPHA
 10
92.531271
 20
77.631476
 30
0.0
 11
92.672693
 21
77.772897
 31
0.0
  0
LINE
  5
B353
  8
ALPHA
 10
92.672693
 20
77.985029
 30
0.0
 11
92.878759
 21
78.191095
 31
0.0
  0
LINE
  5
B354
  8
ALPHA
 10
92.531271
 20
78.126451
 30
0.0
 11
92.737337
 21
78.332517
 31
0.0
  0
LINE
  5
B355
  8
ALPHA
 10
93.084825
 20
78.772897
 30
0.0
 11
92.755535
 21
78.443608
 31
0.0
  0
LINE
  5
B356
  8
ALPHA
 10
92.531271
 20
78.631476
 30
0.0
 11
92.672693
 21
78.772897
 31
0.0
  0
LINE
  5
B357
  8
ALPHA
 10
92.672693
 20
78.985029
 30
0.0
 11
92.878759
 21
79.191095
 31
0.0
  0
LINE
  5
B358
  8
ALPHA
 10
92.531271
 20
79.126451
 30
0.0
 11
92.737337
 21
79.332517
 31
0.0
  0
LINE
  5
B359
  8
ALPHA
 10
92.370283
 20
75.035704
 30
0.0
 11
91.95485
 21
74.590207
 31
0.0
  0
ARC
  5
B375
  8
ALPHA
 10
89.628759
 20
88.378963
 30
0.0
 40
3.5
 50
6.842628
 51
173.157372
  0
CIRCLE
  5
B376
  8
ALPHA
 10
89.628759
 20
105.878963
 30
0.0
 40
4.25
  0
CIRCLE
  5
B377
  8
ALPHA
 10
89.628759
 20
105.878963
 30
0.0
 40
8.0
  0
ARC
  5
B378
  8
ALPHA
 10
89.628759
 20
78.978963
 30
0.0
 40
3.2
 50
20.364135
 51
159.635865
  0
CIRCLE
  5
B379
  8
ALPHA
 10
89.628759
 20
105.878963
 30
0.0
 40
4.15
  0
LINE
  5
B37A
  8
ALPHA
 10
82.277333
 20
82.891074
 30
0.0
 11
84.359973
 21
99.881781
 31
0.0
  0
ARC
  5
B37B
  8
ALPHA
 10
102.128759
 20
80.457781
 30
0.0
 40
20.0
 50
173.011816
 51
180.0
  0
LINE
  5
B37C
  8
ALPHA
 10
86.172693
 20
84.985029
 30
0.0
 11
86.501982
 21
85.314319
 31
0.0
  0
ARC
  5
B37D
  8
ALPHA
 10
86.278759
 20
84.878963
 30
0.0
 40
0.15
 50
135.0
 51
225.0
  0
ARC
  5
B37E
  8
ALPHA
 10
86.278759
 20
83.878963
 30
0.0
 40
0.15
 50
135.0
 51
225.0
  0
ARC
  5
B37F
  8
ALPHA
 10
86.278759
 20
82.878963
 30
0.0
 40
0.15
 50
135.0
 51
225.0
  0
ARC
  5
B380
  8
ALPHA
 10
86.278759
 20
81.878963
 30
0.0
 40
0.15
 50
135.0
 51
225.0
  0
ARC
  5
B381
  8
ALPHA
 10
86.278759
 20
80.878963
 30
0.0
 40
0.15
 50
135.0
 51
225.0
  0
ARC
  5
B382
  8
ALPHA
 10
86.278759
 20
79.878963
 30
0.0
 40
0.15
 50
135.0
 51
225.0
  0
ARC
  5
B383
  8
ALPHA
 10
86.437337
 20
80.378963
 30
0.0
 40
0.091421
 50
315.0
 51
45.0
  0
ARC
  5
B384
  8
ALPHA
 10
86.437337
 20
81.378963
 30
0.0
 40
0.091421
 50
315.0
 51
45.0
  0
ARC
  5
B385
  8
ALPHA
 10
86.437337
 20
82.378963
 30
0.0
 40
0.091421
 50
315.0
 51
45.0
  0
ARC
  5
B386
  8
ALPHA
 10
86.437337
 20
83.378963
 30
0.0
 40
0.091421
 50
315.0
 51
45.0
  0
ARC
  5
B387
  8
ALPHA
 10
86.437337
 20
84.378963
 30
0.0
 40
0.091421
 50
315.0
 51
45.0
  0
ARC
  5
B388
  8
ALPHA
 10
86.478759
 20
79.878963
 30
0.0
 40
0.349999
 50
315.0
 51
0.0
  0
ARC
  5
B389
  8
ALPHA
 10
86.478759
 20
79.878963
 30
0.0
 40
0.15
 50
315.0
 51
0.0
  0
ARC
  5
B38A
  8
ALPHA
 10
89.628759
 20
70.878963
 30
0.0
 40
10.0
 50
106.448613
 51
108.098365
  0
LINE
  5
B38B
  8
ALPHA
 10
86.628759
 20
79.878963
 30
0.0
 11
86.828759
 21
79.878963
 31
0.0
  0
LINE
  5
B38C
  8
ALPHA
 10
86.501982
 20
84.443608
 30
0.0
 11
86.172693
 21
84.772897
 31
0.0
  0
LINE
  5
B38D
  8
ALPHA
 10
86.501982
 20
83.443608
 30
0.0
 11
86.172693
 21
83.772897
 31
0.0
  0
LINE
  5
B38E
  8
ALPHA
 10
86.501982
 20
82.443608
 30
0.0
 11
86.172693
 21
82.772897
 31
0.0
  0
LINE
  5
B38F
  8
ALPHA
 10
86.501982
 20
81.443608
 30
0.0
 11
86.172693
 21
81.772897
 31
0.0
  0
LINE
  5
B390
  8
ALPHA
 10
86.501982
 20
80.443608
 30
0.0
 11
86.172693
 21
80.772897
 31
0.0
  0
LINE
  5
B391
  8
ALPHA
 10
86.584825
 20
79.772897
 30
0.0
 11
86.726246
 21
79.631476
 31
0.0
  0
LINE
  5
B392
  8
ALPHA
 10
86.501982
 20
79.443608
 30
0.0
 11
86.172693
 21
79.772897
 31
0.0
  0
LINE
  5
B393
  8
ALPHA
 10
86.828759
 20
79.878963
 30
0.0
 11
86.828759
 21
80.528157
 31
0.0
  0
LINE
  5
B394
  8
ALPHA
 10
86.628759
 20
79.878963
 30
0.0
 11
86.628759
 21
80.092516
 31
0.0
  0
LINE
  5
B395
  8
ALPHA
 10
86.378759
 20
79.566831
 30
0.0
 11
86.584825
 21
79.772897
 31
0.0
  0
LINE
  5
B396
  8
ALPHA
 10
86.172693
 20
79.985029
 30
0.0
 11
86.501982
 21
80.314319
 31
0.0
  0
LINE
  5
B397
  8
ALPHA
 10
86.172693
 20
80.985029
 30
0.0
 11
86.501982
 21
81.314319
 31
0.0
  0
LINE
  5
B398
  8
ALPHA
 10
86.172693
 20
81.985029
 30
0.0
 11
86.501982
 21
82.314319
 31
0.0
  0
LINE
  5
B399
  8
ALPHA
 10
86.172693
 20
82.985029
 30
0.0
 11
86.501982
 21
83.314319
 31
0.0
  0
LINE
  5
B39A
  8
ALPHA
 10
86.172693
 20
83.985029
 30
0.0
 11
86.501982
 21
84.314319
 31
0.0
  0
ARC
  5
B39B
  8
ALPHA
 10
86.278759
 20
87.878963
 30
0.0
 40
0.15
 50
135.0
 51
225.0
  0
ARC
  5
B39C
  8
ALPHA
 10
86.278759
 20
86.878963
 30
0.0
 40
0.15
 50
135.0
 51
225.0
  0
ARC
  5
B39D
  8
ALPHA
 10
86.278759
 20
85.878963
 30
0.0
 40
0.15
 50
135.0
 51
225.0
  0
ARC
  5
B39E
  8
ALPHA
 10
86.437337
 20
85.378963
 30
0.0
 40
0.091421
 50
315.0
 51
45.0
  0
ARC
  5
B39F
  8
ALPHA
 10
86.437337
 20
86.378963
 30
0.0
 40
0.091421
 50
315.0
 51
45.0
  0
ARC
  5
B3A0
  8
ALPHA
 10
86.437337
 20
87.378963
 30
0.0
 40
0.091421
 50
315.0
 51
45.0
  0
ARC
  5
B3A1
  8
ALPHA
 10
86.437337
 20
88.378963
 30
0.0
 40
0.091421
 50
315.0
 51
45.0
  0
ARC
  5
B3A2
  8
ALPHA
 10
86.278759
 20
88.878963
 30
0.0
 40
0.15
 50
213.607343
 51
225.0
  0
LINE
  5
B3A3
  8
ALPHA
 10
86.501982
 20
88.443608
 30
0.0
 11
86.172693
 21
88.772897
 31
0.0
  0
LINE
  5
B3A4
  8
ALPHA
 10
86.501982
 20
87.443608
 30
0.0
 11
86.172693
 21
87.772897
 31
0.0
  0
LINE
  5
B3A5
  8
ALPHA
 10
86.501982
 20
86.443608
 30
0.0
 11
86.172693
 21
86.772897
 31
0.0
  0
LINE
  5
B3A6
  8
ALPHA
 10
86.501982
 20
85.443608
 30
0.0
 11
86.172693
 21
85.772897
 31
0.0
  0
LINE
  5
B3A7
  8
ALPHA
 10
86.172693
 20
85.985029
 30
0.0
 11
86.501982
 21
86.314319
 31
0.0
  0
LINE
  5
B3A8
  8
ALPHA
 10
86.172693
 20
86.985029
 30
0.0
 11
86.501982
 21
87.314319
 31
0.0
  0
LINE
  5
B3A9
  8
ALPHA
 10
86.172693
 20
87.985029
 30
0.0
 11
86.501982
 21
88.314319
 31
0.0
  0
ARC
  5
B3AA
  8
ALPHA
 10
89.628759
 20
79.928963
 30
0.0
 40
0.25
 50
14.663584
 51
165.336416
  0
LINE
  5
B3AB
  8
ALPHA
 10
89.978759
 20
79.578963
 30
0.0
 11
89.870616
 21
79.992249
 31
0.0
  0
LINE
  5
B3AC
  8
ALPHA
 10
89.386902
 20
79.992249
 30
0.0
 11
89.278759
 21
79.578963
 31
0.0
  0
LINE
  5
B3AD
  8
ALPHA
 10
85.625846
 20
104.806386
 30
0.0
 11
85.534826
 21
104.781997
 31
0.0
  0
LINE
  5
B3AE
  8
ALPHA
 10
86.623555
 20
102.87376
 30
0.0
 11
86.701742
 21
102.951947
 31
0.0
  0
CIRCLE
  5
B3AF
  8
ALPHA
 10
89.628759
 20
105.878963
 30
0.0
 40
1.0
  0
LINE
  5
B3B0
  8
ALPHA
 10
88.528778
 20
109.984148
 30
0.0
 11
88.556182
 21
109.881876
 31
0.0
  0
LINE
  5
B3B1
  8
ALPHA
 10
90.701336
 20
109.881876
 30
0.0
 11
90.725725
 21
109.972896
 31
0.0
  0
LINE
  5
B3B2
  8
ALPHA
 10
94.897544
 20
99.881781
 30
0.0
 11
96.980184
 21
82.891074
 31
0.0
  0
LINE
  5
B3B3
  8
ALPHA
 10
92.755535
 20
85.314319
 30
0.0
 11
93.084825
 21
84.985029
 31
0.0
  0
ARC
  5
B3B4
  8
ALPHA
 10
92.978759
 20
84.878963
 30
0.0
 40
0.15
 50
315.0
 51
45.0
  0
ARC
  5
B3B5
  8
ALPHA
 10
92.978759
 20
83.878963
 30
0.0
 40
0.15
 50
315.0
 51
45.0
  0
ARC
  5
B3B6
  8
ALPHA
 10
92.978759
 20
82.878963
 30
0.0
 40
0.15
 50
315.0
 51
45.0
  0
ARC
  5
B3B7
  8
ALPHA
 10
92.978759
 20
81.878963
 30
0.0
 40
0.15
 50
315.0
 51
45.0
  0
ARC
  5
B3B8
  8
ALPHA
 10
92.978759
 20
80.878963
 30
0.0
 40
0.15
 50
315.0
 51
45.0
  0
ARC
  5
B3B9
  8
ALPHA
 10
92.978759
 20
79.878963
 30
0.0
 40
0.15
 50
315.0
 51
45.0
  0
ARC
  5
B3BA
  8
ALPHA
 10
92.82018
 20
84.378963
 30
0.0
 40
0.091421
 50
135.0
 51
225.0
  0
ARC
  5
B3BB
  8
ALPHA
 10
92.82018
 20
83.378963
 30
0.0
 40
0.091421
 50
135.0
 51
225.0
  0
ARC
  5
B3BC
  8
ALPHA
 10
92.82018
 20
82.378963
 30
0.0
 40
0.091421
 50
135.0
 51
225.0
  0
ARC
  5
B3BD
  8
ALPHA
 10
92.82018
 20
81.378963
 30
0.0
 40
0.091421
 50
135.0
 51
225.0
  0
ARC
  5
B3BE
  8
ALPHA
 10
92.82018
 20
80.378963
 30
0.0
 40
0.091421
 50
135.0
 51
225.0
  0
ARC
  5
B3BF
  8
ALPHA
 10
92.778759
 20
79.878963
 30
0.0
 40
0.35
 50
180.0
 51
225.0
  0
ARC
  5
B3C0
  8
ALPHA
 10
92.778759
 20
79.878963
 30
0.0
 40
0.15
 50
180.0
 51
225.0
  0
ARC
  5
B3C1
  8
ALPHA
 10
89.628759
 20
70.878963
 30
0.0
 40
10.0
 50
71.901635
 51
73.551387
  0
LINE
  5
B3C2
  8
ALPHA
 10
92.755535
 20
84.314319
 30
0.0
 11
93.084825
 21
83.985029
 31
0.0
  0
LINE
  5
B3C3
  8
ALPHA
 10
92.755535
 20
83.314319
 30
0.0
 11
93.084825
 21
82.985029
 31
0.0
  0
LINE
  5
B3C4
  8
ALPHA
 10
92.755535
 20
82.314319
 30
0.0
 11
93.084825
 21
81.985029
 31
0.0
  0
LINE
  5
B3C5
  8
ALPHA
 10
92.755535
 20
81.314319
 30
0.0
 11
93.084825
 21
80.985029
 31
0.0
  0
LINE
  5
B3C6
  8
ALPHA
 10
92.755535
 20
80.314319
 30
0.0
 11
93.084825
 21
79.985029
 31
0.0
  0
LINE
  5
B3C7
  8
ALPHA
 10
92.878759
 20
79.566831
 30
0.0
 11
92.672693
 21
79.772897
 31
0.0
  0
LINE
  5
B3C8
  8
ALPHA
 10
92.428759
 20
79.878963
 30
0.0
 11
92.628759
 21
79.878963
 31
0.0
  0
LINE
  5
B3C9
  8
ALPHA
 10
92.628759
 20
79.878963
 30
0.0
 11
92.628759
 21
80.092516
 31
0.0
  0
LINE
  5
B3CA
  8
ALPHA
 10
92.428759
 20
79.878963
 30
0.0
 11
92.428759
 21
80.528157
 31
0.0
  0
LINE
  5
B3CB
  8
ALPHA
 10
93.084825
 20
79.772897
 30
0.0
 11
92.755535
 21
79.443608
 31
0.0
  0
LINE
  5
B3CC
  8
ALPHA
 10
92.531271
 20
79.631476
 30
0.0
 11
92.672693
 21
79.772897
 31
0.0
  0
LINE
  5
B3CD
  8
ALPHA
 10
93.084825
 20
80.772897
 30
0.0
 11
92.755535
 21
80.443608
 31
0.0
  0
LINE
  5
B3CE
  8
ALPHA
 10
93.084825
 20
81.772897
 30
0.0
 11
92.755535
 21
81.443608
 31
0.0
  0
LINE
  5
B3CF
  8
ALPHA
 10
93.084825
 20
82.772897
 30
0.0
 11
92.755535
 21
82.443608
 31
0.0
  0
LINE
  5
B3D0
  8
ALPHA
 10
93.084825
 20
83.772897
 30
0.0
 11
92.755535
 21
83.443608
 31
0.0
  0
LINE
  5
B3D1
  8
ALPHA
 10
93.084825
 20
84.772897
 30
0.0
 11
92.755535
 21
84.443608
 31
0.0
  0
ARC
  5
B3D2
  8
ALPHA
 10
92.978759
 20
87.878963
 30
0.0
 40
0.15
 50
315.0
 51
45.0
  0
ARC
  5
B3D3
  8
ALPHA
 10
92.978759
 20
86.878963
 30
0.0
 40
0.15
 50
315.0
 51
45.0
  0
ARC
  5
B3D4
  8
ALPHA
 10
92.978759
 20
85.878963
 30
0.0
 40
0.15
 50
315.0
 51
45.0
  0
ARC
  5
B3D5
  8
ALPHA
 10
92.978759
 20
88.878963
 30
0.0
 40
0.15
 50
315.0
 51
326.392657
  0
ARC
  5
B3D6
  8
ALPHA
 10
92.82018
 20
88.378963
 30
0.0
 40
0.091421
 50
135.0
 51
225.0
  0
ARC
  5
B3D7
  8
ALPHA
 10
92.82018
 20
87.378963
 30
0.0
 40
0.091421
 50
135.0
 51
225.0
  0
ARC
  5
B3D8
  8
ALPHA
 10
92.82018
 20
86.378963
 30
0.0
 40
0.091421
 50
135.0
 51
225.0
  0
ARC
  5
B3D9
  8
ALPHA
 10
92.82018
 20
85.378963
 30
0.0
 40
0.091421
 50
135.0
 51
225.0
  0
LINE
  5
B3DA
  8
ALPHA
 10
92.755535
 20
88.314319
 30
0.0
 11
93.084825
 21
87.985029
 31
0.0
  0
LINE
  5
B3DB
  8
ALPHA
 10
92.755535
 20
87.314319
 30
0.0
 11
93.084825
 21
86.985029
 31
0.0
  0
LINE
  5
B3DC
  8
ALPHA
 10
92.755535
 20
86.314319
 30
0.0
 11
93.084825
 21
85.985029
 31
0.0
  0
LINE
  5
B3DD
  8
ALPHA
 10
93.084825
 20
85.772897
 30
0.0
 11
92.755535
 21
85.443608
 31
0.0
  0
LINE
  5
B3DE
  8
ALPHA
 10
93.084825
 20
86.772897
 30
0.0
 11
92.755535
 21
86.443608
 31
0.0
  0
LINE
  5
B3DF
  8
ALPHA
 10
93.084825
 20
87.772897
 30
0.0
 11
92.755535
 21
87.443608
 31
0.0
  0
LINE
  5
B3E0
  8
ALPHA
 10
93.084825
 20
88.772897
 30
0.0
 11
92.755535
 21
88.443608
 31
0.0
  0
ARC
  5
B3E1
  8
ALPHA
 10
77.128759
 20
80.457781
 30
0.0
 40
20.0
 50
0.0
 51
6.988184
  0
LINE
  5
B3E2
  8
ALPHA
 10
92.555775
 20
102.951947
 30
0.0
 11
92.633963
 21
102.87376
 31
0.0
  0
LINE
  5
B3E3
  8
ALPHA
 10
93.733944
 20
104.778983
 30
0.0
 11
93.631671
 21
104.806386
 31
0.0
  0
LINE
  5
B43D
  8
AXE
 10
76.628759
 20
105.878963
 30
0.0
 11
107.628759
 21
105.878963
 31
0.0
  0
TEXT
  5
B43E
  8
AXE
 10
103.58114
 20
106.878963
 30
0.0
 40
5.0
  1
X
 72
     2
 11
107.628759
 21
106.878963
 31
0.0
  0
LINE
  5
B43F
  8
AXE
 10
89.628759
 20
0.378963
 30
0.0
 11
89.628759
 21
118.878963
 31
0.0
  0
DIMENSION
  5
B440
  8
COTATION1
  2
*D3
 10
97.628759
 20
128.878963
 30
0.0
 11
89.628759
 21
132.128963
 31
0.0
  1
%%c<>
 13
81.628759
 23
105.878963
 33
0.0
 14
97.628759
 24
105.878963
 34
0.0
  0
DIMENSION
  5
B441
  8
COTATION1
  2
*D4
 10
114.808759
 20
10.378963
 30
0.0
 11
114.808759
 21
62.128963
 31
0.0
 13
89.628759
 23
113.878963
 33
0.0
 14
92.128759
 24
10.378963
 34
0.0
 50
90.0
  0
LINE
  5
B442
  8
AXE
 10
79.452869
 20
70.878963
 30
0.0
 11
99.804648
 21
70.878963
 31
0.0
  0
TEXT
  5
B483
  8
AXE
 10
84.58114
 20
0.378963
 30
0.0
 40
5.0
  1
Y
 72
     2
 11
88.628759
 21
0.378963
 31
0.0
  0
VIEWPORT
  5
494D
 67
     1
  8
0
 10
4.995325
 20
6.556512
 30
0.0
 40
22.70986
 41
13.988421
 68
    -1
 69
     1
1001
ACAD
1000
MVIEW
1002
{
1070
    16
1010
0.0
1020
0.0
1030
0.0
1010
0.0
1020
0.0
1030
1.0
1040
0.0
1040
13.988421
1040
4.995325
1040
6.556512
1040
50.0
1040
0.0
1040
0.0
1070
     0
1070
   100
1070
     1
1070
     1
1070
     0
1070
     0
1070
     0
1070
     0
1040
0.0
1040
0.0
1040
0.0
1040
10.0
1040
10.0
1040
10.0
1040
10.0
1070
     0
1002
{
1002
}
1002
}
  0
ENDSEC
  0
EOF
