  0
SECTION
  2
HEADER
  9
$ACADVER
  1
AC1009
  9
$INSBASE
 10
402.590624
 20
-1.041018
 30
0.0
  9
$EXTMIN
 10
-5.54003
 20
8.830734
 30
0.0
  9
$EXTMAX
 10
173.359307
 20
98.772513
 30
0.0
  9
$LIMMIN
 10
-407.970438
 20
-367.832444
  9
$LIMMAX
 10
429.804077
 20
234.370848
  9
$ORTHOMODE
 70
     1
  9
$REGENMODE
 70
     1
  9
$FILLMODE
 70
     1
  9
$QTEXTMODE
 70
     0
  9
$MIRRTEXT
 70
     1
  9
$DRAGMODE
 70
     2
  9
$LTSCALE
 40
10.0
  9
$OSMODE
 70
    39
  9
$ATTMODE
 70
     1
  9
$TEXTSIZE
 40
6.0
  9
$TRACEWID
 40
1.0
  9
$TEXTSTYLE
  7
ROMANS
  9
$CLAYER
  8
ALPHA
  9
$CELTYPE
  6
BYLAYER
  9
$CECOLOR
 62
   256
  9
$DIMSCALE
 40
1.0
  9
$DIMASZ
 40
5.0
  9
$DIMEXO
 40
2.0
  9
$DIMDLI
 40
0.38
  9
$DIMRND
 40
0.0
  9
$DIMDLE
 40
0.0
  9
$DIMEXE
 40
2.5
  9
$DIMTP
 40
0.0
  9
$DIMTM
 40
0.0
  9
$DIMTXT
 40
2.5
  9
$DIMCEN
 40
0.0
  9
$DIMTSZ
 40
0.0
  9
$DIMTOL
 70
     0
  9
$DIMLIM
 70
     0
  9
$DIMTIH
 70
     1
  9
$DIMTOH
 70
     1
  9
$DIMSE1
 70
     0
  9
$DIMSE2
 70
     0
  9
$DIMTAD
 70
     1
  9
$DIMZIN
 70
    12
  9
$DIMBLK
  1
OPEN30
  9
$DIMASO
 70
     1
  9
$DIMSHO
 70
     1
  9
$DIMPOST
  1

  9
$DIMAPOST
  1

  9
$DIMALT
 70
     0
  9
$DIMALTD
 70
     2
  9
$DIMALTF
 40
25.4
  9
$DIMLFAC
 40
1.0
  9
$DIMTOFL
 70
     0
  9
$DIMTVP
 40
0.0
  9
$DIMTIX
 70
     0
  9
$DIMSOXD
 70
     0
  9
$DIMSAH
 70
     0
  9
$DIMBLK1
  1

  9
$DIMBLK2
  1

  9
$DIMSTYLE
  2
SC_DEFAUT
  9
$DIMCLRD
 70
     0
  9
$DIMCLRE
 70
     0
  9
$DIMCLRT
 70
     0
  9
$DIMTFAC
 40
1.0
  9
$DIMGAP
 40
2.0
  9
$LUNITS
 70
     2
  9
$LUPREC
 70
     1
  9
$SKETCHINC
 40
0.1
  9
$FILLETRAD
 40
0.0
  9
$AUNITS
 70
     0
  9
$AUPREC
 70
     0
  9
$MENU
  1
acad
  9
$ELEVATION
 40
0.0
  9
$PELEVATION
 40
0.0
  9
$THICKNESS
 40
0.0
  9
$LIMCHECK
 70
     0
  9
$BLIPMODE
 70
     0
  9
$CHAMFERA
 40
0.0
  9
$CHAMFERB
 40
0.0
  9
$SKPOLY
 70
     0
  9
$TDCREATE
 40
2450373.687919
  9
$TDUPDATE
 40
2453228.666501
  9
$TDINDWG
 40
1.235608
  9
$TDUSRTIMER
 40
1.235608
  9
$USRTIMER
 70
     1
  9
$ANGBASE
 50
0.0
  9
$ANGDIR
 70
     0
  9
$PDMODE
 70
    32
  9
$PDSIZE
 40
0.0
  9
$PLINEWID
 40
0.0
  9
$COORDS
 70
     0
  9
$SPLFRAME
 70
     0
  9
$SPLINETYPE
 70
     6
  9
$SPLINESEGS
 70
     8
  9
$ATTDIA
 70
     0
  9
$ATTREQ
 70
     1
  9
$HANDLING
 70
     1
  9
$HANDSEED
  5
BAF4
  9
$SURFTAB1
 70
     6
  9
$SURFTAB2
 70
     6
  9
$SURFTYPE
 70
     6
  9
$SURFU
 70
     6
  9
$SURFV
 70
     6
  9
$UCSNAME
  2

  9
$UCSORG
 10
0.0
 20
0.0
 30
0.0
  9
$UCSXDIR
 10
1.0
 20
0.0
 30
0.0
  9
$UCSYDIR
 10
0.0
 20
1.0
 30
0.0
  9
$PUCSNAME
  2

  9
$PUCSORG
 10
0.0
 20
0.0
 30
0.0
  9
$PUCSXDIR
 10
1.0
 20
0.0
 30
0.0
  9
$PUCSYDIR
 10
0.0
 20
1.0
 30
0.0
  9
$USERI1
 70
     0
  9
$USERI2
 70
     0
  9
$USERI3
 70
     0
  9
$USERI4
 70
     0
  9
$USERI5
 70
     0
  9
$USERR1
 40
0.0
  9
$USERR2
 40
0.0
  9
$USERR3
 40
0.0
  9
$USERR4
 40
0.0
  9
$USERR5
 40
0.0
  9
$WORLDVIEW
 70
     1
  9
$SHADEDGE
 70
     3
  9
$SHADEDIF
 70
    70
  9
$TILEMODE
 70
     1
  9
$MAXACTVP
 70
    16
  9
$PLIMCHECK
 70
     0
  9
$PEXTMIN
 10
-1.452248
 20
-0.437698
 30
0.0
  9
$PEXTMAX
 10
12.749749
 20
8.310198
 30
0.0
  9
$PLIMMIN
 10
0.0
 20
0.0
  9
$PLIMMAX
 10
12.0
 20
9.0
  9
$UNITMODE
 70
     0
  9
$VISRETAIN
 70
     0
  9
$PLINEGEN
 70
     0
  9
$PSLTSCALE
 70
     0
  0
ENDSEC
  0
SECTION
  2
TABLES
  0
TABLE
  2
VPORT
 70
     2
  0
VPORT
  2
*ACTIVE
 70
     0
 10
0.0
 20
0.0
 11
1.0
 21
1.0
 12
83.910176
 22
53.804508
 13
0.0
 23
0.0
 14
1.0
 24
1.0
 15
10.0
 25
10.0
 16
0.0
 26
0.0
 36
1.0
 17
0.0
 27
0.0
 37
0.0
 40
122.649796
 41
1.466346
 42
50.0
 43
0.0
 44
0.0
 50
0.0
 51
0.0
 71
     0
 72
   100
 73
     1
 74
     0
 75
     0
 76
     0
 77
     0
 78
     0
  0
ENDTAB
  0
TABLE
  2
LTYPE
 70
     2
  0
LTYPE
  2
CONTINUOUS
 70
     0
  3
Solid line
 72
    65
 73
     0
 40
0.0
  0
LTYPE
  2
AXES2
 70
     0
  3
___ _ ___ _ ___ _ ___ _ ___ _ ___ _ ___ _ ___ _
 72
    65
 73
     4
 40
1.125
 49
0.75
 49
-0.125
 49
0.125
 49
-0.125
  0
ENDTAB
  0
TABLE
  2
LAYER
 70
     5
  0
LAYER
  2
0
 70
     0
 62
   255
  6
CONTINUOUS
  0
LAYER
  2
COTATION1
 70
     0
 62
     2
  6
CONTINUOUS
  0
LAYER
  2
AXE
 70
     0
 62
    80
  6
AXES2
  0
LAYER
  2
DEFPOINTS
 70
     0
 62
     7
  6
CONTINUOUS
  0
LAYER
  2
ALPHA
 70
     0
 62
   254
  6
CONTINUOUS
  0
ENDTAB
  0
TABLE
  2
STYLE
 70
     2
  0
STYLE
  2
ROMANS
 70
     0
 40
0.0
 41
1.0
 50
0.0
 71
     0
 42
6.0
  3
romans
  4

  0
STYLE
  2
STANDARD
 70
     0
 40
0.0
 41
1.0
 50
0.0
 71
     0
 42
0.2
  3
txt
  4

  0
ENDTAB
  0
TABLE
  2
VIEW
 70
     0
  0
ENDTAB
  0
TABLE
  2
UCS
 70
     0
  0
ENDTAB
  0
TABLE
  2
APPID
 70
     1
  0
APPID
  2
ACAD
 70
     0
  0
ENDTAB
  0
TABLE
  2
DIMSTYLE
 70
     2
  0
DIMSTYLE
  2
SC_DEFAUT
 70
     0
  3

  4

  5
OPEN30
  6

  7

 40
1.0
 41
5.0
 42
2.0
 43
0.38
 44
2.5
 45
0.0
 46
0.0
 47
0.0
 48
0.0
140
2.5
141
0.0
142
0.0
143
25.4
144
1.0
145
0.0
146
1.0
147
2.0
 71
     0
 72
     0
 73
     1
 74
     1
 75
     0
 76
     0
 77
     1
 78
    12
170
     0
171
     2
172
     0
173
     0
174
     0
175
     0
176
     0
177
     0
178
     0
  0
DIMSTYLE
  2
STANDARD
 70
     0
  3

  4

  5

  6

  7

 40
1.0
 41
0.18
 42
0.0625
 43
0.38
 44
0.18
 45
0.0
 46
0.0
 47
0.0
 48
0.0
140
0.18
141
0.09
142
0.0
143
25.4
144
1.0
145
0.0
146
1.0
147
0.09
 71
     0
 72
     0
 73
     1
 74
     1
 75
     0
 76
     0
 77
     0
 78
     0
170
     0
171
     2
172
     0
173
     0
174
     0
175
     0
176
     0
177
     0
178
     0
  0
ENDTAB
  0
ENDSEC
  0
SECTION
  2
BLOCKS
  0
BLOCK
  8
0
  2
$MODEL_SPACE
 70
     0
 10
0.0
 20
0.0
 30
0.0
  3
$MODEL_SPACE
  1

  0
ENDBLK
  5
BAE5
  8
0
  0
BLOCK
 67
     1
  8
0
  2
$PAPER_SPACE
 70
     0
 10
0.0
 20
0.0
 30
0.0
  3
$PAPER_SPACE
  1

  0
ENDBLK
  5
BAE3
 67
     1
  8
0
  0
BLOCK
  8
0
  2
COTE
 70
     0
 10
0.0
 20
0.0
 30
0.0
  3
COTE
  1

  0
ENDBLK
  5
F
  8
0
  0
BLOCK
  8
0
  2
FOND
 70
     0
 10
0.0
 20
0.0
 30
0.0
  3
FOND
  1

  0
ENDBLK
  5
75
  8
0
  0
BLOCK
  8
0
  2
_OPEN30
 70
     0
 10
0.0
 20
0.0
 30
0.0
  3
_OPEN30
  1

  0
LINE
  5
4B05
  8
COTATION1
 62
     0
 10
-1.0
 20
0.267949
 30
0.0
 11
0.0
 21
0.0
 31
0.0
1001
ACAD
1000
RTLwPs
1070
   158
  0
LINE
  5
4B06
  8
COTATION1
 62
     0
 10
0.0
 20
0.0
 30
0.0
 11
-1.0
 21
-0.267949
 31
0.0
1001
ACAD
1000
RTLwPs
1070
   158
  0
LINE
  5
4B07
  8
COTATION1
 62
     0
 10
0.0
 20
0.0
 30
0.0
 11
-1.0
 21
0.0
 31
0.0
1001
ACAD
1000
RTLwPs
1070
   158
  0
ENDBLK
  5
4B09
  8
0
  0
BLOCK
  8
0
  2
*D3
 70
     1
 10
0.0
 20
0.0
 30
0.0
  3
*D3
  1

  0
LINE
  5
BA60
  8
COTATION1
 62
     0
 10
144.727666
 20
69.272513
 30
0.0
 11
170.799783
 21
69.272513
 31
0.0
1001
ACAD
1000
RTLwPs
1070
   158
  0
LINE
  5
BA61
  8
COTATION1
 62
     0
 10
144.727666
 20
26.092513
 30
0.0
 11
170.799783
 21
26.092513
 31
0.0
1001
ACAD
1000
RTLwPs
1070
   158
  0
LINE
  5
BA62
  8
COTATION1
 62
     0
 10
168.299783
 20
64.272513
 30
0.0
 11
168.299783
 21
50.619163
 31
0.0
1001
ACAD
1000
RTLwPs
1070
   158
  0
LINE
  5
BA63
  8
COTATION1
 62
     0
 10
168.299783
 20
31.092513
 30
0.0
 11
168.299783
 21
44.119163
 31
0.0
1001
ACAD
1000
RTLwPs
1070
   158
  0
TEXT
  5
BA64
  8
COTATION1
 62
     0
 10
163.121211
 20
46.119163
 30
0.0
 40
2.5
  1
%%c
1001
ACAD
1000
MTEXTBEGIN
1070
    73
1070
     1
1070
    44
1040
1.0
1070
    74
1070
     0
1000
MTEXTEND
  0
TEXT
  5
BAB2
  8
COTATION1
 62
     0
 10
165.383116
 20
46.119163
 30
0.0
 40
2.5
  1
43.2
1001
ACAD
1000
R13OBJECT
1002
{
1005
BA64
1002
}
  0
INSERT
  5
BA65
  8
COTATION1
 62
     0
  2
_OPEN30
 10
168.299783
 20
69.272513
 30
0.0
 41
5.0
 42
5.0
 43
5.0
 50
90.0
1001
ACAD
1000
RTLwPs
1070
   158
  0
INSERT
  5
BA66
  8
COTATION1
 62
     0
  2
_OPEN30
 10
168.299783
 20
26.092513
 30
0.0
 41
5.0
 42
5.0
 43
5.0
 50
270.0
1001
ACAD
1000
RTLwPs
1070
   158
  0
POINT
  5
BA67
  8
DEFPOINTS
 62
     0
 10
142.727666
 20
69.272513
 30
0.0
  0
POINT
  5
BA68
  8
DEFPOINTS
 62
     0
 10
142.727666
 20
26.092513
 30
0.0
  0
POINT
  5
BA69
  8
DEFPOINTS
 62
     0
 10
168.299783
 20
26.092513
 30
0.0
  0
ENDBLK
  5
B2A0
  8
0
  0
BLOCK
  8
0
  2
*D4
 70
     1
 10
0.0
 20
0.0
 30
0.0
  3
*D4
  1

  0
LINE
  5
BA4D
  8
COTATION1
 62
     0
 10
100.637666
 20
71.272513
 30
0.0
 11
100.637666
 21
86.772513
 31
0.0
1001
ACAD
1000
RTLwPs
1070
   158
  0
LINE
  5
BA4E
  8
COTATION1
 62
     0
 10
142.727666
 20
71.272513
 30
0.0
 11
142.727666
 21
86.772513
 31
0.0
1001
ACAD
1000
RTLwPs
1070
   158
  0
LINE
  5
BA4F
  8
COTATION1
 62
     0
 10
105.637666
 20
84.272513
 30
0.0
 11
137.727666
 21
84.272513
 31
0.0
1001
ACAD
1000
RTLwPs
1070
   158
  0
INSERT
  5
BA50
  8
COTATION1
 62
     0
  2
_OPEN30
 10
100.637666
 20
84.272513
 30
0.0
 41
5.0
 42
5.0
 43
5.0
 50
180.0
1001
ACAD
1000
RTLwPs
1070
   158
  0
INSERT
  5
BA51
  8
COTATION1
 62
     0
  2
_OPEN30
 10
142.727666
 20
84.272513
 30
0.0
 41
5.0
 42
5.0
 43
5.0
1001
ACAD
1000
RTLwPs
1070
   158
  0
TEXT
  5
BA52
  8
COTATION1
 62
     0
 10
117.873142
 20
86.272513
 30
0.0
 40
2.5
  1
42.1
1001
ACAD
1000
MTEXTBEGIN
1070
    73
1070
     1
1070
    44
1040
1.0
1070
    74
1070
     0
1000
MTEXTEND
  0
POINT
  5
BA53
  8
DEFPOINTS
 62
     0
 10
100.637666
 20
69.272513
 30
0.0
  0
POINT
  5
BA54
  8
DEFPOINTS
 62
     0
 10
142.727666
 20
69.272513
 30
0.0
  0
POINT
  5
BA55
  8
DEFPOINTS
 62
     0
 10
142.727666
 20
84.272513
 30
0.0
  0
ENDBLK
  5
B32E
  8
0
  0
BLOCK
  8
0
  2
*D5
 70
     1
 10
0.0
 20
0.0
 30
0.0
  3
*D5
  1

  0
LINE
  5
BA44
  8
COTATION1
 62
     0
 10
25.277666
 20
51.147513
 30
0.0
 11
25.277666
 21
96.772513
 31
0.0
1001
ACAD
1000
RTLwPs
1070
   158
  0
LINE
  5
BA45
  8
COTATION1
 62
     0
 10
142.727666
 20
71.272513
 30
0.0
 11
142.727666
 21
96.772513
 31
0.0
1001
ACAD
1000
RTLwPs
1070
   158
  0
LINE
  5
BA46
  8
COTATION1
 62
     0
 10
30.277666
 20
94.272513
 30
0.0
 11
137.727666
 21
94.272513
 31
0.0
1001
ACAD
1000
RTLwPs
1070
   158
  0
INSERT
  5
BA47
  8
COTATION1
 62
     0
  2
_OPEN30
 10
25.277666
 20
94.272513
 30
0.0
 41
5.0
 42
5.0
 43
5.0
 50
180.0
1001
ACAD
1000
RTLwPs
1070
   158
  0
INSERT
  5
BA48
  8
COTATION1
 62
     0
  2
_OPEN30
 10
142.727666
 20
94.272513
 30
0.0
 41
5.0
 42
5.0
 43
5.0
1001
ACAD
1000
RTLwPs
1070
   158
  0
TEXT
  5
BA49
  8
COTATION1
 62
     0
 10
78.466952
 20
96.272513
 30
0.0
 40
2.5
  1
117.5
1001
ACAD
1000
MTEXTBEGIN
1070
    73
1070
     1
1070
    44
1040
1.0
1070
    74
1070
     0
1000
MTEXTEND
  0
POINT
  5
BA4A
  8
DEFPOINTS
 62
     0
 10
25.277666
 20
49.147513
 30
0.0
  0
POINT
  5
BA4B
  8
DEFPOINTS
 62
     0
 10
142.727666
 20
69.272513
 30
0.0
  0
POINT
  5
BA4C
  8
DEFPOINTS
 62
     0
 10
142.727666
 20
94.272513
 30
0.0
  0
ENDBLK
  5
B376
  8
0
  0
BLOCK
  8
0
  2
*D6
 70
     1
 10
0.0
 20
0.0
 30
0.0
  3
*D6
  1

  0
LINE
  5
BA56
  8
COTATION1
 62
     0
 10
99.307666
 20
63.832513
 30
0.0
 11
99.307666
 21
86.772513
 31
0.0
1001
ACAD
1000
RTLwPs
1070
   158
  0
LINE
  5
BA57
  8
COTATION1
 62
     0
 10
100.637666
 20
71.272513
 30
0.0
 11
100.637666
 21
86.772513
 31
0.0
1001
ACAD
1000
RTLwPs
1070
   158
  0
LINE
  5
BA58
  8
COTATION1
 62
     0
 10
94.307666
 20
84.272513
 30
0.0
 11
89.307666
 21
84.272513
 31
0.0
1001
ACAD
1000
RTLwPs
1070
   158
  0
LINE
  5
BA59
  8
COTATION1
 62
     0
 10
105.637666
 20
84.272513
 30
0.0
 11
110.637666
 21
84.272513
 31
0.0
1001
ACAD
1000
RTLwPs
1070
   158
  0
TEXT
  5
BA5A
  8
COTATION1
 62
     0
 10
87.318373
 20
86.220073
 30
0.0
 40
2.5
  1
1.3
1001
ACAD
1000
MTEXTBEGIN
1070
    73
1070
     1
1070
    44
1040
1.0
1070
    74
1070
     0
1000
MTEXTEND
  0
INSERT
  5
BA5B
  8
COTATION1
 62
     0
  2
_OPEN30
 10
99.307666
 20
84.272513
 30
0.0
 41
5.0
 42
5.0
 43
5.0
1001
ACAD
1000
RTLwPs
1070
   158
  0
INSERT
  5
BA5C
  8
COTATION1
 62
     0
  2
_OPEN30
 10
100.637666
 20
84.272513
 30
0.0
 41
5.0
 42
5.0
 43
5.0
 50
180.0
1001
ACAD
1000
RTLwPs
1070
   158
  0
POINT
  5
BA5D
  8
DEFPOINTS
 62
     0
 10
99.307666
 20
61.832513
 30
0.0
  0
POINT
  5
BA5E
  8
DEFPOINTS
 62
     0
 10
100.637666
 20
69.272513
 30
0.0
  0
POINT
  5
BA5F
  8
DEFPOINTS
 62
     0
 10
100.637666
 20
84.272513
 30
0.0
  0
ENDBLK
  5
B395
  8
0
  0
BLOCK
  8
0
  2
*D7
 70
     1
 10
0.0
 20
0.0
 30
0.0
  3
*D7
  1

  0
LINE
  5
BA0B
  8
COTATION1
 62
     0
 10
25.277666
 20
51.147513
 30
0.0
 11
25.277666
 21
86.772513
 31
0.0
1001
ACAD
1000
RTLwPs
1070
   158
  0
LINE
  5
BA0C
  8
COTATION1
 62
     0
 10
36.007666
 20
62.287513
 30
0.0
 11
36.007666
 21
86.772513
 31
0.0
1001
ACAD
1000
RTLwPs
1070
   158
  0
LINE
  5
BA0D
  8
COTATION1
 62
     0
 10
20.277666
 20
84.272513
 30
0.0
 11
15.277666
 21
84.272513
 31
0.0
1001
ACAD
1000
RTLwPs
1070
   158
  0
LINE
  5
BA0E
  8
COTATION1
 62
     0
 10
41.007666
 20
84.272513
 30
0.0
 11
46.007666
 21
84.272513
 31
0.0
1001
ACAD
1000
RTLwPs
1070
   158
  0
TEXT
  5
BA0F
  8
COTATION1
 62
     0
 10
26.484312
 20
86.220073
 30
0.0
 40
2.5
  1
10.7
1001
ACAD
1000
MTEXTBEGIN
1070
    73
1070
     1
1070
    44
1040
1.0
1070
    74
1070
     0
1000
MTEXTEND
  0
INSERT
  5
BA10
  8
COTATION1
 62
     0
  2
_OPEN30
 10
25.277666
 20
84.272513
 30
0.0
 41
5.0
 42
5.0
 43
5.0
1001
ACAD
1000
RTLwPs
1070
   158
  0
INSERT
  5
BA11
  8
COTATION1
 62
     0
  2
_OPEN30
 10
36.007666
 20
84.272513
 30
0.0
 41
5.0
 42
5.0
 43
5.0
 50
180.0
1001
ACAD
1000
RTLwPs
1070
   158
  0
POINT
  5
BA12
  8
DEFPOINTS
 62
     0
 10
25.277666
 20
49.147513
 30
0.0
  0
POINT
  5
BA13
  8
DEFPOINTS
 62
     0
 10
36.007666
 20
60.287513
 30
0.0
  0
POINT
  5
BA14
  8
DEFPOINTS
 62
     0
 10
36.007666
 20
84.272513
 30
0.0
  0
ENDBLK
  5
B49C
  8
0
  0
BLOCK
  8
0
  2
*D8
 70
     1
 10
0.0
 20
0.0
 30
0.0
  3
*D8
  1

  0
LINE
  5
BA15
  8
COTATION1
 62
     0
 10
36.007666
 20
62.287513
 30
0.0
 11
36.007666
 21
86.772513
 31
0.0
1001
ACAD
1000
RTLwPs
1070
   158
  0
LINE
  5
BA16
  8
COTATION1
 62
     0
 10
55.727666
 20
63.852513
 30
0.0
 11
55.727666
 21
86.772513
 31
0.0
1001
ACAD
1000
RTLwPs
1070
   158
  0
LINE
  5
BA17
  8
COTATION1
 62
     0
 10
41.007666
 20
84.272513
 30
0.0
 11
50.727666
 21
84.272513
 31
0.0
1001
ACAD
1000
RTLwPs
1070
   158
  0
INSERT
  5
BA18
  8
COTATION1
 62
     0
  2
_OPEN30
 10
36.007666
 20
84.272513
 30
0.0
 41
5.0
 42
5.0
 43
5.0
 50
180.0
1001
ACAD
1000
RTLwPs
1070
   158
  0
INSERT
  5
BA19
  8
COTATION1
 62
     0
  2
_OPEN30
 10
55.727666
 20
84.272513
 30
0.0
 41
5.0
 42
5.0
 43
5.0
1001
ACAD
1000
RTLwPs
1070
   158
  0
TEXT
  5
BA1A
  8
COTATION1
 62
     0
 10
41.522428
 20
86.272513
 30
0.0
 40
2.5
  1
19.7
1001
ACAD
1000
MTEXTBEGIN
1070
    73
1070
     1
1070
    44
1040
1.0
1070
    74
1070
     0
1000
MTEXTEND
  0
POINT
  5
BA1B
  8
DEFPOINTS
 62
     0
 10
36.007666
 20
60.287513
 30
0.0
  0
POINT
  5
BA1C
  8
DEFPOINTS
 62
     0
 10
55.727666
 20
61.852513
 30
0.0
  0
POINT
  5
BA1D
  8
DEFPOINTS
 62
     0
 10
55.727666
 20
84.272513
 30
0.0
  0
ENDBLK
  5
B50E
  8
0
  0
ENDSEC
  0
SECTION
  2
ENTITIES
  0
INSERT
  5
A
  8
0
  2
COTE
 10
0.0
 20
0.0
 30
0.0
  0
INSERT
  5
17
  8
0
  2
COTE
 10
284.010391
 20
6.373258
 30
0.0
  0
INSERT
  5
72
  8
0
  2
FOND
 10
0.0
 20
0.0
 30
0.0
  0
LINE
  5
AF91
  8
ALPHA
 10
36.007666
 20
60.287513
 30
0.0
 11
36.007666
 21
35.077513
 31
0.0
  0
LINE
  5
AF92
  8
ALPHA
 10
99.307666
 20
33.512513
 30
0.0
 11
99.307666
 21
61.852513
 31
0.0
  0
LINE
  5
B004
  8
ALPHA
 10
55.727666
 20
61.852513
 30
0.0
 11
55.727666
 21
33.512513
 31
0.0
  0
LINE
  5
B005
  8
ALPHA
 10
100.637666
 20
26.092513
 30
0.0
 11
100.637666
 21
69.272513
 31
0.0
  0
LINE
  5
B006
  8
ALPHA
 10
42.527666
 20
61.557513
 30
0.0
 11
42.527666
 21
33.807513
 31
0.0
  0
LINE
  5
B007
  8
ALPHA
 10
142.727666
 20
26.092513
 30
0.0
 11
142.727666
 21
69.272513
 31
0.0
  0
LINE
  5
B00C
  8
ALPHA
 10
100.637666
 20
26.092513
 30
0.0
 11
142.727666
 21
26.092513
 31
0.0
  0
ARC
  5
B012
  8
ALPHA
 10
37.527666
 20
35.077513
 30
0.0
 40
1.52
 50
180.0
 51
270.0
  0
LINE
  5
B017
  8
ALPHA
 10
42.277666
 20
33.557513
 30
0.0
 11
37.527666
 21
33.557513
 31
0.0
  0
LINE
  5
B019
  8
ALPHA
 10
42.277666
 20
33.557513
 30
0.0
 11
42.527666
 21
33.807513
 31
0.0
  0
LINE
  5
B01A
  8
ALPHA
 10
42.907666
 20
33.532513
 30
0.0
 11
42.527666
 21
33.912513
 31
0.0
  0
LINE
  5
B027
  8
ALPHA
 10
25.277666
 20
39.097513
 30
0.0
 11
25.277666
 21
49.147513
 31
0.0
  0
LINE
  5
B049
  8
ALPHA
 10
34.607666
 20
49.507513
 30
0.0
 11
34.607666
 21
38.737513
 31
0.0
  0
LINE
  5
B04A
  8
ALPHA
 10
26.277666
 20
49.417513
 30
0.0
 11
26.277666
 21
44.122513
 31
0.0
  0
LINE
  5
B04D
  8
ALPHA
 10
25.277666
 20
39.097513
 30
0.0
 11
26.277666
 21
39.097513
 31
0.0
  0
LINE
  5
B06F
  8
ALPHA
 10
36.007666
 20
38.737513
 30
0.0
 11
34.607666
 21
38.737513
 31
0.0
  0
LINE
  5
B071
  8
ALPHA
 10
25.277666
 20
49.147513
 30
0.0
 11
26.277666
 21
49.147513
 31
0.0
  0
LINE
  5
B073
  8
ALPHA
 10
26.277666
 20
49.417513
 30
0.0
 11
26.652666
 21
50.122513
 31
0.0
  0
LINE
  5
B075
  8
ALPHA
 10
33.299666
 20
56.322513
 30
0.0
 11
33.299666
 21
51.242513
 31
0.0
  0
LINE
  5
B076
  8
ALPHA
 10
35.382666
 20
53.702513
 30
0.0
 11
35.382666
 21
49.782513
 31
0.0
  0
ARC
  5
B08C
  8
ALPHA
 10
33.426666
 20
51.242513
 30
0.0
 40
0.127
 50
180.0
 51
270.0
  0
LINE
  5
B08D
  8
ALPHA
 10
33.426666
 20
51.115513
 30
0.0
 11
35.382666
 21
51.115513
 31
0.0
  0
ARC
  5
B08E
  8
ALPHA
 10
35.632666
 20
49.782513
 30
0.0
 40
0.25
 50
180.0
 51
270.0
  0
LINE
  5
B08F
  8
ALPHA
 10
35.632666
 20
49.532513
 30
0.0
 11
36.007666
 21
49.532513
 31
0.0
  0
LINE
  5
B098
  8
ALPHA
 10
36.007666
 20
49.507513
 30
0.0
 11
34.607666
 21
49.507513
 31
0.0
  0
ARC
  5
B099
  8
ALPHA
 10
33.426666
 20
56.322513
 30
0.0
 40
0.127
 50
90.0
 51
180.0
  0
LINE
  5
B09A
  8
ALPHA
 10
33.426666
 20
56.449513
 30
0.0
 11
36.007666
 21
56.449513
 31
0.0
  0
ARC
  5
B09B
  8
ALPHA
 10
35.632666
 20
53.702513
 30
0.0
 40
0.25
 50
90.0
 51
180.0
  0
LINE
  5
B09C
  8
ALPHA
 10
35.632666
 20
53.952513
 30
0.0
 11
36.007666
 21
53.952513
 31
0.0
  0
LINE
  5
B10E
  8
ALPHA
 10
142.727666
 20
69.272513
 30
0.0
 11
100.637666
 21
69.272513
 31
0.0
  0
LINE
  5
B110
  8
ALPHA
 10
42.277666
 20
61.807513
 30
0.0
 11
37.527666
 21
61.807513
 31
0.0
  0
ARC
  5
B111
  8
ALPHA
 10
37.527666
 20
60.287513
 30
0.0
 40
1.52
 50
90.0
 51
180.0
  0
LINE
  5
B112
  8
ALPHA
 10
55.727666
 20
61.832513
 30
0.0
 11
42.907666
 21
61.832513
 31
0.0
  0
LINE
  5
B113
  8
ALPHA
 10
42.527666
 20
61.557513
 30
0.0
 11
42.277666
 21
61.807513
 31
0.0
  0
LINE
  5
B114
  8
ALPHA
 10
42.527666
 20
61.452513
 30
0.0
 11
42.907666
 21
61.832513
 31
0.0
  0
LINE
  5
B18B
  8
ALPHA
 10
99.307666
 20
61.832513
 30
0.0
 11
100.637666
 21
61.832513
 31
0.0
  0
LINE
  5
B291
  8
AXE
 10
19.382789
 20
47.682513
 30
0.0
 11
158.292686
 21
47.682513
 31
0.0
  0
DIMENSION
  5
B292
  8
COTATION1
  2
*D3
 10
168.299783
 20
26.092513
 30
0.0
 11
168.299783
 21
47.369163
 31
0.0
 70
   128
  1
%%c<>
 13
142.727666
 23
69.272513
 33
0.0
 14
142.727666
 24
26.092513
 34
0.0
 50
90.0
  0
TEXT
  5
B293
  8
AXE
 10
151.816495
 20
48.682513
 30
0.0
 40
8.0
  1
Z
 72
     2
 11
158.292686
 21
48.682513
 31
0.0
  0
LINE
  5
B31A
  8
ALPHA
 10
55.727666
 20
33.532513
 30
0.0
 11
42.907666
 21
33.532513
 31
0.0
  0
LINE
  5
B31C
  8
ALPHA
 10
56.262329
 20
32.682513
 30
0.0
 11
98.768004
 21
32.682513
 31
0.0
  0
LINE
  5
B31D
  8
ALPHA
 10
55.727666
 20
33.512513
 30
0.0
 11
56.262329
 21
32.682513
 31
0.0
  0
LINE
  5
B31F
  8
ALPHA
 10
99.307666
 20
33.532513
 30
0.0
 11
100.637666
 21
33.532513
 31
0.0
  0
LINE
  5
B320
  8
ALPHA
 10
98.768004
 20
32.682513
 30
0.0
 11
99.302666
 21
33.512513
 31
0.0
  0
DIMENSION
  5
B321
  8
COTATION1
  2
*D4
 10
142.727666
 20
84.272513
 30
0.0
 11
121.682666
 21
87.522513
 31
0.0
 13
100.637666
 23
69.272513
 33
0.0
 14
142.727666
 24
69.272513
 34
0.0
  0
LINE
  5
B322
  8
AXE
 10
121.682666
 20
11.092513
 30
0.0
 11
121.682676
 21
74.272513
 31
0.0
  0
TEXT
  5
B338
  8
AXE
 10
114.206476
 20
11.092513
 30
0.0
 40
8.0
  1
Y
 72
     2
 11
120.682666
 21
11.092513
 31
0.0
  0
DIMENSION
  5
B36A
  8
COTATION1
  2
*D5
 10
142.727666
 20
94.272513
 30
0.0
 11
84.002666
 21
97.522513
 31
0.0
 13
25.277666
 23
49.147513
 33
0.0
 14
142.727666
 24
69.272513
 34
0.0
  0
DIMENSION
  5
B389
  8
COTATION1
  2
*D6
 10
100.637666
 20
84.272513
 30
0.0
 11
90.473135
 21
87.470073
 31
0.0
 70
   128
 13
99.307666
 23
61.832513
 33
0.0
 14
100.637666
 24
69.272513
 34
0.0
  0
LINE
  5
B47F
  8
ALPHA
 10
26.652666
 20
50.122513
 30
0.0
 11
34.280538
 21
50.122513
 31
0.0
  0
LINE
  5
B480
  8
ALPHA
 10
34.607666
 20
49.507513
 30
0.0
 11
34.280538
 21
50.122513
 31
0.0
  0
LINE
  5
B482
  8
ALPHA
 10
34.607666
 20
38.737513
 30
0.0
 11
34.280538
 21
38.122513
 31
0.0
  0
LINE
  5
B483
  8
ALPHA
 10
26.277666
 20
38.827513
 30
0.0
 11
26.277666
 21
44.122513
 31
0.0
  0
LINE
  5
B484
  8
ALPHA
 10
26.652666
 20
38.122513
 30
0.0
 11
34.280538
 21
38.122513
 31
0.0
  0
LINE
  5
B485
  8
ALPHA
 10
26.277666
 20
38.827513
 30
0.0
 11
26.652666
 21
38.122513
 31
0.0
  0
DIMENSION
  5
B48F
  8
COTATION1
  2
*D7
 10
36.007666
 20
84.272513
 30
0.0
 11
30.82955
 21
87.470073
 31
0.0
 70
   128
 13
25.277666
 23
49.147513
 33
0.0
 14
36.007666
 24
60.287513
 34
0.0
  0
DIMENSION
  5
B502
  8
COTATION1
  2
*D8
 10
55.727666
 20
84.272513
 30
0.0
 11
45.867666
 21
87.522513
 31
0.0
 13
36.007666
 23
60.287513
 33
0.0
 14
55.727666
 24
61.852513
 34
0.0
  0
LINE
  5
B533
  8
ALPHA
 62
   255
 10
55.727666
 20
34.182513
 30
0.0
 11
99.307666
 21
34.182513
 31
0.0
  0
LINE
  5
B534
  8
ALPHA
 62
   255
 10
55.727666
 20
61.182513
 30
0.0
 11
99.307666
 21
61.182513
 31
0.0
  0
LINE
  5
B535
  8
ALPHA
 10
56.262329
 20
62.682513
 30
0.0
 11
98.768004
 21
62.682513
 31
0.0
  0
LINE
  5
B536
  8
ALPHA
 10
55.727666
 20
61.852513
 30
0.0
 11
56.262329
 21
62.682513
 31
0.0
  0
LINE
  5
B537
  8
ALPHA
 10
98.768004
 20
62.682513
 30
0.0
 11
99.302666
 21
61.852513
 31
0.0
  0
LINE
  5
B538
  8
ALPHA
 62
   255
 10
26.277666
 20
39.027513
 30
0.0
 11
34.607666
 21
39.027513
 31
0.0
  0
LINE
  5
B539
  8
ALPHA
 62
   255
 10
26.277666
 20
49.217513
 30
0.0
 11
34.607666
 21
49.217513
 31
0.0
  0
SOLID
  5
B641
  8
COTATION1
  6
CONTINUOUS
 10
-72.533545
 20
28.560063
 30
0.0
 11
-75.483097
 21
32.682513
 31
0.0
 12
-74.029991
 22
27.826287
 32
0.0
 13
-74.029991
 23
27.826287
 33
0.0
210
0.0
220
0.0
230
-1.0
1001
ACAD
1000
DSTYLE
1002
{
1070
     5
1000
OPEN30
1070
   342
1005
9818F2030000A0EA
1002
}
  0
POLYLINE
  5
BAA8
  8
COTATION1
 66
     1
 10
0.0
 20
0.0
 30
0.0
 70
   128
1001
ACAD
1000
R13OBJECT
1002
{
1005
B641
1002
}
  0
VERTEX
  5
BAEB
  8
COTATION1
 10
73.281768
 20
28.193175
 30
0.0
  0
VERTEX
  5
BAEC
  8
COTATION1
 10
63.787475
 20
8.830734
 30
0.0
  0
VERTEX
  5
BAED
  8
COTATION1
 10
34.406523
 20
8.830734
 30
0.0
  0
SEQEND
  5
BAEE
  8
COTATION1
  0
TEXT
  5
B642
  8
COTATION1
 10
33.930333
 20
10.414068
 30
0.0
 40
2.5
  1
M30x1.5-6g
1001
ACAD
1000
MTEXTBEGIN
1070
    73
1070
     1
1070
    44
1040
1.0
1070
    74
1070
     0
1000
MTEXTEND
  0
SOLID
  5
B9E1
  8
COTATION1
  6
CONTINUOUS
 10
-26.948661
 20
34.473056
 30
0.0
 11
-30.466602
 21
38.122513
 31
0.0
 12
-28.322428
 22
33.52937
 32
0.0
 13
-28.322428
 23
33.52937
 33
0.0
210
0.0
220
0.0
230
-1.0
1001
ACAD
1000
DSTYLE
1002
{
1070
     5
1000
OPEN30
1002
}
  0
POLYLINE
  5
BAAD
  8
COTATION1
 66
     1
 10
0.0
 20
0.0
 30
0.0
 70
   128
1001
ACAD
1000
R13OBJECT
1002
{
1005
B9E1
1002
}
  0
VERTEX
  5
BAEF
  8
COTATION1
 10
27.635544
 20
34.001213
 30
0.0
  0
VERTEX
  5
BAF0
  8
COTATION1
 10
20.269493
 20
23.278118
 30
0.0
  0
VERTEX
  5
BAF1
  8
COTATION1
 10
-5.54003
 20
23.278118
 30
0.0
  0
SEQEND
  5
BAF2
  8
COTATION1
  0
TEXT
  5
B9E2
  8
COTATION1
 10
-6.016221
 20
24.861452
 30
0.0
 40
2.5
  1
M12x1-6g
1001
ACAD
1000
MTEXTBEGIN
1070
    73
1070
     1
1070
    44
1040
1.0
1070
    74
1070
     0
1000
MTEXTEND
  0
VIEWPORT
  5
494D
 67
     1
  8
0
 10
4.995325
 20
6.556512
 30
0.0
 40
22.70986
 41
13.988421
 68
    -1
 69
     1
1001
ACAD
1000
MVIEW
1002
{
1070
    16
1010
0.0
1020
0.0
1030
0.0
1010
0.0
1020
0.0
1030
1.0
1040
0.0
1040
13.988421
1040
4.995325
1040
6.556512
1040
50.0
1040
0.0
1040
0.0
1070
     0
1070
   100
1070
     1
1070
     1
1070
     0
1070
     0
1070
     0
1070
     0
1040
0.0
1040
0.0
1040
0.0
1040
10.0
1040
10.0
1040
10.0
1040
10.0
1070
     0
1002
{
1002
}
1002
}
  0
ENDSEC
  0
EOF
