  0
SECTION
  2
HEADER
  9
$ACADVER
  1
AC1009
  9
$INSBASE
 10
-146.27124
 20
-153.796096
 30
0.0
  9
$EXTMIN
 10
258.299155
 20
-169.364141
 30
0.0
  9
$EXTMAX
 10
312.799158
 20
-76.691373
 30
0.0
  9
$LIMMIN
 10
-407.970438
 20
-367.832444
  9
$LIMMAX
 10
429.804077
 20
234.370848
  9
$ORTHOMODE
 70
     0
  9
$REGENMODE
 70
     1
  9
$FILLMODE
 70
     1
  9
$QTEXTMODE
 70
     0
  9
$MIRRTEXT
 70
     1
  9
$DRAGMODE
 70
     2
  9
$LTSCALE
 40
10.0
  9
$OSMODE
 70
    37
  9
$ATTMODE
 70
     1
  9
$TEXTSIZE
 40
6.0
  9
$TRACEWID
 40
1.0
  9
$TEXTSTYLE
  7
ROMANS
  9
$CLAYER
  8
COTATION1
  9
$CELTYPE
  6
BYLAYER
  9
$CECOLOR
 62
   256
  9
$DIMSCALE
 40
1.0
  9
$DIMASZ
 40
2.0
  9
$DIMEXO
 40
0.5
  9
$DIMDLI
 40
0.38
  9
$DIMRND
 40
0.0
  9
$DIMDLE
 40
0.0
  9
$DIMEXE
 40
0.18
  9
$DIMTP
 40
0.0
  9
$DIMTM
 40
0.0
  9
$DIMTXT
 40
2.0
  9
$DIMCEN
 40
0.09
  9
$DIMTSZ
 40
0.0
  9
$DIMTOL
 70
     0
  9
$DIMLIM
 70
     0
  9
$DIMTIH
 70
     0
  9
$DIMTOH
 70
     0
  9
$DIMSE1
 70
     0
  9
$DIMSE2
 70
     0
  9
$DIMTAD
 70
     1
  9
$DIMZIN
 70
    12
  9
$DIMBLK
  1
OPEN30
  9
$DIMASO
 70
     1
  9
$DIMSHO
 70
     1
  9
$DIMPOST
  1

  9
$DIMAPOST
  1

  9
$DIMALT
 70
     0
  9
$DIMALTD
 70
     2
  9
$DIMALTF
 40
25.4
  9
$DIMLFAC
 40
1.0
  9
$DIMTOFL
 70
     0
  9
$DIMTVP
 40
0.0
  9
$DIMTIX
 70
     0
  9
$DIMSOXD
 70
     0
  9
$DIMSAH
 70
     0
  9
$DIMBLK1
  1

  9
$DIMBLK2
  1

  9
$DIMSTYLE
  2
ROMANS
  9
$DIMCLRD
 70
     0
  9
$DIMCLRE
 70
     0
  9
$DIMCLRT
 70
     0
  9
$DIMTFAC
 40
1.0
  9
$DIMGAP
 40
0.5
  9
$LUNITS
 70
     2
  9
$LUPREC
 70
     1
  9
$SKETCHINC
 40
0.1
  9
$FILLETRAD
 40
5.0
  9
$AUNITS
 70
     0
  9
$AUPREC
 70
     0
  9
$MENU
  1
acad
  9
$ELEVATION
 40
0.0
  9
$PELEVATION
 40
0.0
  9
$THICKNESS
 40
0.0
  9
$LIMCHECK
 70
     0
  9
$BLIPMODE
 70
     0
  9
$CHAMFERA
 40
0.0
  9
$CHAMFERB
 40
0.0
  9
$SKPOLY
 70
     0
  9
$TDCREATE
 40
2450365.355314
  9
$TDUPDATE
 40
2452608.493262
  9
$TDINDWG
 40
0.677295
  9
$TDUSRTIMER
 40
0.677295
  9
$USRTIMER
 70
     1
  9
$ANGBASE
 50
0.0
  9
$ANGDIR
 70
     0
  9
$PDMODE
 70
    32
  9
$PDSIZE
 40
0.0
  9
$PLINEWID
 40
0.0
  9
$COORDS
 70
     2
  9
$SPLFRAME
 70
     0
  9
$SPLINETYPE
 70
     6
  9
$SPLINESEGS
 70
     8
  9
$ATTDIA
 70
     0
  9
$ATTREQ
 70
     1
  9
$HANDLING
 70
     1
  9
$HANDSEED
  5
5F61
  9
$SURFTAB1
 70
     6
  9
$SURFTAB2
 70
     6
  9
$SURFTYPE
 70
     6
  9
$SURFU
 70
     6
  9
$SURFV
 70
     6
  9
$UCSNAME
  2

  9
$UCSORG
 10
0.0
 20
0.0
 30
0.0
  9
$UCSXDIR
 10
1.0
 20
0.0
 30
0.0
  9
$UCSYDIR
 10
0.0
 20
1.0
 30
0.0
  9
$PUCSNAME
  2

  9
$PUCSORG
 10
0.0
 20
0.0
 30
0.0
  9
$PUCSXDIR
 10
1.0
 20
0.0
 30
0.0
  9
$PUCSYDIR
 10
0.0
 20
1.0
 30
0.0
  9
$USERI1
 70
     0
  9
$USERI2
 70
     0
  9
$USERI3
 70
     0
  9
$USERI4
 70
     0
  9
$USERI5
 70
     0
  9
$USERR1
 40
0.0
  9
$USERR2
 40
0.0
  9
$USERR3
 40
0.0
  9
$USERR4
 40
0.0
  9
$USERR5
 40
0.0
  9
$WORLDVIEW
 70
     1
  9
$SHADEDGE
 70
     3
  9
$SHADEDIF
 70
    70
  9
$TILEMODE
 70
     1
  9
$MAXACTVP
 70
    16
  9
$PLIMCHECK
 70
     0
  9
$PEXTMIN
 10
1.000000E+020
 20
1.000000E+020
 30
1.000000E+020
  9
$PEXTMAX
 10
-1.000000E+020
 20
-1.000000E+020
 30
-1.000000E+020
  9
$PLIMMIN
 10
0.0
 20
0.0
  9
$PLIMMAX
 10
12.0
 20
9.0
  9
$UNITMODE
 70
     0
  9
$VISRETAIN
 70
     0
  9
$PLINEGEN
 70
     0
  9
$PSLTSCALE
 70
     0
  0
ENDSEC
  0
SECTION
  2
TABLES
  0
TABLE
  2
VPORT
 70
     2
  0
VPORT
  2
*ACTIVE
 70
     0
 10
0.0
 20
0.0
 11
1.0
 21
1.0
 12
285.568699
 22
-123.012766
 13
0.0
 23
0.0
 14
1.0
 24
1.0
 15
10.0
 25
10.0
 16
0.0
 26
0.0
 36
1.0
 17
0.0
 27
0.0
 37
0.0
 40
93.554988
 41
1.63142
 42
50.0
 43
0.0
 44
0.0
 50
0.0
 51
0.0
 71
     0
 72
   100
 73
     1
 74
     0
 75
     0
 76
     0
 77
     0
 78
     0
  0
ENDTAB
  0
TABLE
  2
LTYPE
 70
    26
  0
LTYPE
  2
CONTINUOUS
 70
     0
  3
Solid line
 72
    65
 73
     0
 40
0.0
  0
LTYPE
  2
AXES2
 70
     0
  3
___ _ ___ _ ___ _ ___ _ ___ _ ___ _ ___ _ ___ _
 72
    65
 73
     4
 40
1.125
 49
0.75
 49
-0.125
 49
0.125
 49
-0.125
  0
LTYPE
  2
ACAD_ISO04W100
 70
     0
  3
ISO Lang gestrichelt punktiert ____ . ____ . __
 72
    65
 73
     4
 40
30.5
 49
24.0
 49
-3.0
 49
0.5
 49
-3.0
  0
LTYPE
  2
AXES
 70
     0
  3
____ _ ____ _ ____ _ ____ _ ____ _ ____ _ ____ 
 72
    65
 73
     4
 40
2.0
 49
1.25
 49
-0.25
 49
0.25
 49
-0.25
  0
LTYPE
  2
AXESX2
 70
     0
  3
________  __  ________  __  ________  __  _____
 72
    65
 73
     4
 40
4.0
 49
2.5
 49
-0.5
 49
0.5
 49
-0.5
  0
LTYPE
  2
TIRETPT
 70
     0
  3
__ . __ . __ . __ . __ . __ . __ . __ . __ . __
 72
    65
 73
     4
 40
1.0
 49
0.5
 49
-0.25
 49
0.0
 49
-0.25
  0
LTYPE
  2
TIRETPT2
 70
     0
  3
_._._._._._._._._._._._._._._._._._._._._._._._
 72
    65
 73
     4
 40
0.5
 49
0.25
 49
-0.125
 49
0.0
 49
-0.125
  0
LTYPE
  2
TIRETPTX2
 70
     0
  3
____  .  ____  .  ____  .  ____  .  ____  .  __
 72
    65
 73
     4
 40
2.0
 49
1.0
 49
-0.5
 49
0.0
 49
-0.5
  0
LTYPE
  2
DISCONTINU
 70
     0
  3
__ __ __ __ __ __ __ __ __ __ __ __ __ __ __ __
 72
    65
 73
     2
 40
0.75
 49
0.5
 49
-0.25
  0
LTYPE
  2
DISCONTINU2
 70
     0
  3
_ _ _ _ _ _ _ _ _ _ _ _ _ _ _ _ _ _ _ _ _ _ _ _
 72
    65
 73
     2
 40
0.375
 49
0.25
 49
-0.125
  0
LTYPE
  2
DISCONTINUX2
 70
     0
  3
____  ____  ____  ____  ____  ____  ____  ____ 
 72
    65
 73
     2
 40
1.5
 49
1.0
 49
-0.5
  0
LTYPE
  2
DIVISE
 70
     0
  3
____ . . ____ . . ____ . . ____ . . ____ . . __
 72
    65
 73
     6
 40
1.25
 49
0.5
 49
-0.25
 49
0.0
 49
-0.25
 49
0.0
 49
-0.25
  0
LTYPE
  2
DIVISE2
 70
     0
  3
__..__..__..__..__..__..__..__..__..__..__..__.
 72
    65
 73
     6
 40
0.625
 49
0.25
 49
-0.125
 49
0.0
 49
-0.125
 49
0.0
 49
-0.125
  0
LTYPE
  2
DIVISEX2
 70
     0
  3
________  .  .  ________  .  .  ________  .  . 
 72
    65
 73
     6
 40
2.5
 49
1.0
 49
-0.5
 49
0.0
 49
-0.5
 49
0.0
 49
-0.5
  0
LTYPE
  2
POINTILLE
 70
     0
  3
. . . . . . . . . . . . . . . . . . . . . . . .
 72
    65
 73
     2
 40
0.25
 49
0.0
 49
-0.25
  0
LTYPE
  2
POINTILLE2
 70
     0
  3
...............................................
 72
    65
 73
     2
 40
0.125
 49
0.0
 49
-0.125
  0
LTYPE
  2
POINTILLEX2
 70
     0
  3
.  .  .  .  .  .  .  .  .  .  .  .  .  .  .  . 
 72
    65
 73
     2
 40
0.5
 49
0.0
 49
-0.5
  0
LTYPE
  2
CACHE
 70
     0
  3
__ __ __ __ __ __ __ __ __ __ __ __ __ __ __ __
 72
    65
 73
     2
 40
0.375
 49
0.25
 49
-0.125
  0
LTYPE
  2
CACHE2
 70
     0
  3
_ _ _ _ _ _ _ _ _ _ _ _ _ _ _ _ _ _ _ _ _ _ _ _
 72
    65
 73
     2
 40
0.1875
 49
0.125
 49
-0.0625
  0
LTYPE
  2
CACHEX2
 70
     0
  3
____ ____ ____ ____ ____ ____ ____ ____ ____ __
 72
    65
 73
     2
 40
0.75
 49
0.5
 49
-0.25
  0
LTYPE
  2
FANTOME
 70
     0
  3
______  __  __  ______  __  __  ______  __  __ 
 72
    65
 73
     6
 40
2.5
 49
1.25
 49
-0.25
 49
0.25
 49
-0.25
 49
0.25
 49
-0.25
  0
LTYPE
  2
FANTOME2
 70
     0
  3
___ _ _ ___ _ _ ___ _ _ ___ _ _ ___ _ _ ___ _ _
 72
    65
 73
     6
 40
1.25
 49
0.625
 49
-0.125
 49
0.125
 49
-0.125
 49
0.125
 49
-0.125
  0
LTYPE
  2
FANTOMEX2
 70
     0
  3
____________    ____    ____    ____________   
 72
    65
 73
     6
 40
5.0
 49
2.5
 49
-0.5
 49
0.5
 49
-0.5
 49
0.5
 49
-0.5
  0
LTYPE
  2
0
 70
     0
  3
MEDUSA PEN 0
 72
    65
 73
     0
 40
0.0
  0
LTYPE
  2
AI9-LTYPE1
 70
     0
  3
Illustrator Dash Style No.1
 72
    65
 73
     4
 40
5.64621
 49
4.106333
 49
-0.307975
 49
0.923926
 49
-0.307975
  0
LTYPE
  2
AI9-LTYPE2
 70
     0
  3
Illustrator Dash Style No.2
 72
    65
 73
     2
 40
1.33456
 49
1.026585
 49
-0.307975
  0
ENDTAB
  0
TABLE
  2
LAYER
 70
    21
  0
LAYER
  2
0
 70
     0
 62
     7
  6
CONTINUOUS
  0
LAYER
  2
TEXTE_MOYEN
 70
     0
 62
   131
  6
CONTINUOUS
  0
LAYER
  2
ALPHA
 70
     0
 62
   254
  6
CONTINUOUS
  0
LAYER
  2
COTATION1
 70
     0
 62
    50
  6
CONTINUOUS
  0
LAYER
  2
AXE
 70
     0
 62
    80
  6
AXES2
  0
LAYER
  2
DEFPOINTS
 70
     0
 62
     7
  6
CONTINUOUS
  0
LAYER
  2
MC_1_7_050
 70
     0
 62
     7
  6
CONTINUOUS
  0
LAYER
  2
MC_1_2_025
 70
     0
 62
     2
  6
CONTINUOUS
  0
LAYER
  2
MC_14_3_025
 70
     0
 62
     3
  6
ACAD_ISO04W100
  0
LAYER
  2
HACHURES1
 70
     0
 62
   130
  6
CONTINUOUS
  0
LAYER
  2
FMULT
 70
     0
 62
   210
  6
CONTINUOUS
  0
LAYER
  2
FDP_CARTOUCHE
 70
     0
 62
   136
  6
CONTINUOUS
  0
LAYER
  2
FDP_TEXTES
 70
     0
 62
   171
  6
CONTINUOUS
  0
LAYER
  2
FDP_LOGO_MG
 70
     0
 62
    30
  6
CONTINUOUS
  0
LAYER
  2
FDP_LOGO_SCH
 70
     0
 62
    90
  6
CONTINUOUS
  0
LAYER
  2
FDP_FDP
 70
     0
 62
   170
  6
CONTINUOUS
  0
LAYER
  2
POINTILLE_COURT2
 70
     0
 62
    41
  6
CACHE2
  0
LAYER
  2
POINTILLE_MOYEN2
 70
     0
 62
   141
  6
CACHE
  0
LAYER
  2
POINTILLE_LONG2
 70
     0
 62
   241
  6
CACHEX2
  0
LAYER
  2
ALPHA_FIN
 70
     0
 62
   255
  6
CONTINUOUS
  0
LAYER
  2
CALQUE_1
 70
     0
 62
   160
  6
CONTINUOUS
  0
ENDTAB
  0
TABLE
  2
STYLE
 70
     5
  0
STYLE
  2
ROMANS
 70
     0
 40
0.0
 41
1.0
 50
0.0
 71
     0
 42
6.0
  3
romans
  4

  0
STYLE
  2
STANDARD
 70
     0
 40
0.2
 41
1.0
 50
0.0
 71
     0
 42
0.2
  3
txt
  4

  0
STYLE
  2
STD
 70
     0
 40
0.0
 41
1.0
 50
0.0
 71
     0
 42
0.0
  3
txt
  4

  0
STYLE
  2
INFOCAR
 70
     0
 40
0.0
 41
1.34
 50
0.0
 71
     0
 42
2.0
  3
ROMANS.SHX
  4

  0
STYLE
  2
CARTOUCHE
 70
     0
 40
0.0
 41
1.0
 50
0.0
 71
     0
 42
0.2
  3
ROMANS.SHX
  4

  0
ENDTAB
  0
TABLE
  2
VIEW
 70
     0
  0
ENDTAB
  0
TABLE
  2
UCS
 70
     0
  0
ENDTAB
  0
TABLE
  2
APPID
 70
     3
  0
APPID
  2
ACAD
 70
     0
  0
APPID
  2
AVE_RENDER
 70
     0
  0
APPID
  2
AVE_MATERIAL
 70
     0
  0
ENDTAB
  0
TABLE
  2
DIMSTYLE
 70
     1
  0
DIMSTYLE
  2
ROMANS
 70
     0
  3

  4

  5
OPEN30
  6

  7

 40
1.0
 41
2.0
 42
0.5
 43
0.38
 44
0.18
 45
0.0
 46
0.0
 47
0.0
 48
0.0
140
2.0
141
0.09
142
0.0
143
25.4
144
1.0
145
0.0
146
1.0
147
0.5
 71
     0
 72
     0
 73
     0
 74
     0
 75
     0
 76
     0
 77
     1
 78
    12
170
     0
171
     2
172
     0
173
     0
174
     0
175
     0
176
     0
177
     0
178
     0
  0
ENDTAB
  0
ENDSEC
  0
SECTION
  2
BLOCKS
  0
BLOCK
  8
0
  2
$MODEL_SPACE
 70
     0
 10
0.0
 20
0.0
 30
0.0
  3
$MODEL_SPACE
  1

  0
ENDBLK
  5
5EF2
  8
0
  0
BLOCK
 67
     1
  8
0
  2
$PAPER_SPACE
 70
     0
 10
0.0
 20
0.0
 30
0.0
  3
$PAPER_SPACE
  1

  0
ENDBLK
  5
5EF0
 67
     1
  8
0
  0
BLOCK
  8
0
  2
COTE
 70
     0
 10
0.0
 20
0.0
 30
0.0
  3
COTE
  1

  0
ENDBLK
  5
35
  8
0
  0
BLOCK
  8
0
  2
FOND
 70
     0
 10
0.0
 20
0.0
 30
0.0
  3
FOND
  1

  0
ENDBLK
  5
39
  8
0
  0
BLOCK
  8
0
  2
SCH_ISO
 70
     0
 10
0.0
 20
0.0
 30
0.0
  3
SCH_ISO
  1

  0
ENDBLK
  5
24AD
  8
0
  0
BLOCK
  8
0
  2
_OPEN30
 70
     0
 10
0.0
 20
0.0
 30
0.0
  3
_OPEN30
  1

  0
LINE
  5
27E1
  8
COTATION1
 62
     0
 10
-1.0
 20
0.267949
 30
0.0
 11
0.0
 21
0.0
 31
0.0
1001
ACAD
1000
RTLwPs
1070
   158
  0
LINE
  5
27E2
  8
COTATION1
 62
     0
 10
0.0
 20
0.0
 30
0.0
 11
-1.0
 21
-0.267949
 31
0.0
1001
ACAD
1000
RTLwPs
1070
   158
  0
LINE
  5
27E3
  8
COTATION1
 62
     0
 10
0.0
 20
0.0
 30
0.0
 11
-1.0
 21
0.0
 31
0.0
1001
ACAD
1000
RTLwPs
1070
   158
  0
ENDBLK
  5
27E5
  8
0
  0
BLOCK
  8
0
  2
*D4
 70
     1
 10
0.0
 20
0.0
 30
0.0
  3
*D4
  1

  0
LINE
  5
5DA7
  8
COTATION1
 62
     0
 10
275.299155
 20
-94.191373
 30
0.0
 11
260.619155
 21
-94.191373
 31
0.0
1001
ACAD
1000
RTLwPs
1070
   158
  0
LINE
  5
5DA8
  8
COTATION1
 62
     0
 10
279.660382
 20
-154.191392
 30
0.0
 11
260.619155
 21
-154.191392
 31
0.0
1001
ACAD
1000
RTLwPs
1070
   158
  0
LINE
  5
5DA9
  8
COTATION1
 62
     0
 10
260.799155
 20
-96.191373
 30
0.0
 11
260.799155
 21
-152.191392
 31
0.0
1001
ACAD
1000
RTLwPs
1070
   158
  0
INSERT
  5
5DAA
  8
COTATION1
 62
     0
  2
_OPEN30
 10
260.799155
 20
-94.191373
 30
0.0
 41
2.0
 42
2.0
 43
2.0
 50
90.0
1001
ACAD
1000
RTLwPs
1070
   158
  0
INSERT
  5
5DAB
  8
COTATION1
 62
     0
  2
_OPEN30
 10
260.799155
 20
-154.191392
 30
0.0
 41
2.0
 42
2.0
 43
2.0
 50
270.0
1001
ACAD
1000
RTLwPs
1070
   158
  0
TEXT
  5
5DAC
  8
COTATION1
 62
     0
 10
260.299155
 20
-126.143763
 30
0.0
 40
2.0
  1
60
 50
90.0
1001
ACAD
1000
MTEXTBEGIN
1070
    73
1070
     1
1070
    44
1040
1.0
1070
    74
1070
     0
1000
MTEXTEND
  0
POINT
  5
5DAD
  8
DEFPOINTS
 62
     0
 10
275.799155
 20
-94.191373
 30
0.0
  0
POINT
  5
5DAE
  8
DEFPOINTS
 62
     0
 10
280.160382
 20
-154.191392
 30
0.0
  0
POINT
  5
5DAF
  8
DEFPOINTS
 62
     0
 10
260.799155
 20
-154.191392
 30
0.0
  0
ENDBLK
  5
5970
  8
0
  0
BLOCK
  8
0
  2
*D5
 70
     1
 10
0.0
 20
0.0
 30
0.0
  3
*D5
  1

  0
LINE
  5
5DB0
  8
COTATION1
 62
     0
 10
275.799155
 20
-93.691373
 30
0.0
 11
275.799155
 21
-79.011373
 31
0.0
1001
ACAD
1000
RTLwPs
1070
   158
  0
LINE
  5
5DB1
  8
COTATION1
 62
     0
 10
297.799158
 20
-151.025646
 30
0.0
 11
297.799158
 21
-79.011373
 31
0.0
1001
ACAD
1000
RTLwPs
1070
   158
  0
LINE
  5
5DB2
  8
COTATION1
 62
     0
 10
277.799155
 20
-79.191373
 30
0.0
 11
295.799158
 21
-79.191373
 31
0.0
1001
ACAD
1000
RTLwPs
1070
   158
  0
INSERT
  5
5DB3
  8
COTATION1
 62
     0
  2
_OPEN30
 10
275.799155
 20
-79.191373
 30
0.0
 41
2.0
 42
2.0
 43
2.0
 50
180.0
1001
ACAD
1000
RTLwPs
1070
   158
  0
INSERT
  5
5DB4
  8
COTATION1
 62
     0
  2
_OPEN30
 10
297.799158
 20
-79.191373
 30
0.0
 41
2.0
 42
2.0
 43
2.0
1001
ACAD
1000
RTLwPs
1070
   158
  0
TEXT
  5
5DB5
  8
COTATION1
 62
     0
 10
284.894395
 20
-78.691373
 30
0.0
 40
2.0
  1
22
1001
ACAD
1000
MTEXTBEGIN
1070
    73
1070
     1
1070
    44
1040
1.0
1070
    74
1070
     0
1000
MTEXTEND
  0
POINT
  5
5DB6
  8
DEFPOINTS
 62
     0
 10
275.799155
 20
-94.191373
 30
0.0
  0
POINT
  5
5DB7
  8
DEFPOINTS
 62
     0
 10
297.799158
 20
-151.525646
 30
0.0
  0
POINT
  5
5DB8
  8
DEFPOINTS
 62
     0
 10
297.799158
 20
-79.191373
 30
0.0
  0
ENDBLK
  5
5A35
  8
0
  0
ENDSEC
  0
SECTION
  2
ENTITIES
  0
INSERT
  5
32
  8
0
  2
COTE
 10
0.0
 20
0.0
 30
0.0
  0
INSERT
  5
36
  8
0
  2
FOND
 10
0.0
 20
0.0
 30
0.0
  0
INSERT
  5
24AE
  8
ALPHA
  2
SCH_ISO
 10
-66.27012
 20
-238.940658
 30
0.0
  0
LINE
  5
53BE
  8
AXE
 10
270.799155
 20
-122.85851
 30
0.0
 11
312.799158
 21
-122.85851
 31
0.0
  0
TEXT
  5
53C0
  8
AXE
 10
280.27455
 20
-169.364141
 30
0.0
 40
8.0
  1
Y
 72
     2
 11
286.750741
 21
-169.364141
 31
0.0
  0
LINE
  5
53C1
  8
AXE
 10
287.984525
 20
-169.191392
 30
0.0
 11
287.972193
 21
-89.191373
 31
0.0
  0
TEXT
  5
564D
  8
AXE
 10
306.230862
 20
-121.729285
 30
0.0
 40
8.0
  1
X
 72
     2
 11
312.707053
 21
-121.729285
 31
0.0
  0
POLYLINE
  5
58D7
  8
ALPHA
 66
     1
 10
0.0
 20
0.0
 30
0.0
 70
   128
  0
VERTEX
  5
5EF8
  8
ALPHA
 10
278.4649
 20
-94.191373
 30
0.0
  0
VERTEX
  5
5EF9
  8
ALPHA
 10
278.4649
 20
-94.279267
 30
0.0
  0
VERTEX
  5
5EFA
  8
ALPHA
 10
278.4649
 20
-94.537368
 30
0.0
  0
VERTEX
  5
5EFB
  8
ALPHA
 10
278.4649
 20
-94.957306
 30
0.0
  0
VERTEX
  5
5EFC
  8
ALPHA
 10
278.4649
 20
-95.53071
 30
0.0
  0
VERTEX
  5
5EFD
  8
ALPHA
 10
278.4649
 20
-97.104432
 30
0.0
  0
VERTEX
  5
5EFE
  8
ALPHA
 10
278.4649
 20
-99.191566
 30
0.0
  0
VERTEX
  5
5EFF
  8
ALPHA
 10
278.4649
 20
-101.725145
 30
0.0
  0
VERTEX
  5
5F00
  8
ALPHA
 10
278.4649
 20
-104.638204
 30
0.0
  0
VERTEX
  5
5F01
  8
ALPHA
 10
278.4649
 20
-107.863774
 30
0.0
  0
VERTEX
  5
5F02
  8
ALPHA
 10
278.4649
 20
-111.33489
 30
0.0
  0
VERTEX
  5
5F03
  8
ALPHA
 10
278.4649
 20
-118.74589
 30
0.0
  0
VERTEX
  5
5F04
  8
ALPHA
 10
278.4649
 20
-126.335468
 30
0.0
  0
VERTEX
  5
5F05
  8
ALPHA
 10
278.4649
 20
-130.029806
 30
0.0
  0
VERTEX
  5
5F06
  8
ALPHA
 10
278.4649
 20
-133.567889
 30
0.0
  0
VERTEX
  5
5F07
  8
ALPHA
 10
278.4649
 20
-136.882749
 30
0.0
  0
VERTEX
  5
5F08
  8
ALPHA
 10
278.4649
 20
-139.907419
 30
0.0
  0
VERTEX
  5
5F09
  8
ALPHA
 10
278.4649
 20
-142.574932
 30
0.0
  0
VERTEX
  5
5F0A
  8
ALPHA
 10
278.4649
 20
-144.818322
 30
0.0
  0
VERTEX
  5
5F0B
  8
ALPHA
 10
278.4649
 20
-146.570622
 30
0.0
  0
VERTEX
  5
5F0C
  8
ALPHA
 10
278.4649
 20
-147.241686
 30
0.0
  0
VERTEX
  5
5F0D
  8
ALPHA
 10
278.4649
 20
-147.764864
 30
0.0
  0
VERTEX
  5
5F0E
  8
ALPHA
 10
278.4649
 20
-148.131787
 30
0.0
  0
VERTEX
  5
5F0F
  8
ALPHA
 10
278.4649
 20
-148.334083
 30
0.0
  0
VERTEX
  5
5F10
  8
ALPHA
 10
278.468438
 20
-148.616934
 30
0.0
  0
VERTEX
  5
5F11
  8
ALPHA
 10
278.520786
 20
-149.274164
 30
0.0
  0
VERTEX
  5
5F12
  8
ALPHA
 10
278.805291
 20
-150.285708
 30
0.0
  0
VERTEX
  5
5F13
  8
ALPHA
 10
279.313527
 20
-150.949154
 30
0.0
  0
VERTEX
  5
5F14
  8
ALPHA
 10
280.026278
 20
-151.331448
 30
0.0
  0
VERTEX
  5
5F15
  8
ALPHA
 10
280.924329
 20
-151.499534
 30
0.0
  0
VERTEX
  5
5F16
  8
ALPHA
 10
281.436837
 20
-151.524169
 30
0.0
  0
VERTEX
  5
5F17
  8
ALPHA
 10
282.117546
 20
-151.525646
 30
0.0
  0
VERTEX
  5
5F18
  8
ALPHA
 10
283.324903
 20
-151.525646
 30
0.0
  0
VERTEX
  5
5F19
  8
ALPHA
 10
284.962493
 20
-151.525646
 30
0.0
  0
VERTEX
  5
5F1A
  8
ALPHA
 10
286.899045
 20
-151.525646
 30
0.0
  0
VERTEX
  5
5F1B
  8
ALPHA
 10
289.00329
 20
-151.525646
 30
0.0
  0
VERTEX
  5
5F1C
  8
ALPHA
 10
293.189775
 20
-151.525646
 30
0.0
  0
VERTEX
  5
5F1D
  8
ALPHA
 10
295.009475
 20
-151.525646
 30
0.0
  0
VERTEX
  5
5F1E
  8
ALPHA
 10
296.471785
 20
-151.525646
 30
0.0
  0
VERTEX
  5
5F1F
  8
ALPHA
 10
297.445437
 20
-151.525646
 30
0.0
  0
VERTEX
  5
5F20
  8
ALPHA
 10
297.707993
 20
-151.525646
 30
0.0
  0
VERTEX
  5
5F21
  8
ALPHA
 10
297.799158
 20
-151.525646
 30
0.0
  0
SEQEND
  5
5F22
  8
ALPHA
  0
POLYLINE
  5
58D8
  8
ALPHA
 66
     1
 10
0.0
 20
0.0
 30
0.0
 70
   128
  0
VERTEX
  5
5F23
  8
ALPHA
 10
297.799158
 20
-154.191392
 30
0.0
  0
VERTEX
  5
5F24
  8
ALPHA
 10
297.686521
 20
-154.191392
 30
0.0
  0
VERTEX
  5
5F25
  8
ALPHA
 10
297.363141
 20
-154.191392
 30
0.0
  0
VERTEX
  5
5F26
  8
ALPHA
 10
296.850821
 20
-154.191392
 30
0.0
  0
VERTEX
  5
5F27
  8
ALPHA
 10
296.171361
 20
-154.191392
 30
0.0
  0
VERTEX
  5
5F28
  8
ALPHA
 10
294.398225
 20
-154.191392
 30
0.0
  0
VERTEX
  5
5F29
  8
ALPHA
 10
292.218139
 20
-154.191392
 30
0.0
  0
VERTEX
  5
5F2A
  8
ALPHA
 10
287.334748
 20
-154.191392
 30
0.0
  0
VERTEX
  5
5F2B
  8
ALPHA
 10
284.980255
 20
-154.191392
 30
0.0
  0
VERTEX
  5
5F2C
  8
ALPHA
 10
282.916441
 20
-154.191392
 30
0.0
  0
VERTEX
  5
5F2D
  8
ALPHA
 10
281.317712
 20
-154.191392
 30
0.0
  0
VERTEX
  5
5F2E
  8
ALPHA
 10
280.747256
 20
-154.191392
 30
0.0
  0
VERTEX
  5
5F2F
  8
ALPHA
 10
280.358474
 20
-154.191392
 30
0.0
  0
VERTEX
  5
5F30
  8
ALPHA
 10
280.173167
 20
-154.191392
 30
0.0
  0
VERTEX
  5
5F31
  8
ALPHA
 10
280.081349
 20
-154.191125
 30
0.0
  0
VERTEX
  5
5F32
  8
ALPHA
 10
279.849527
 20
-154.187134
 30
0.0
  0
VERTEX
  5
5F33
  8
ALPHA
 10
278.999408
 20
-154.123263
 30
0.0
  0
VERTEX
  5
5F34
  8
ALPHA
 10
277.64628
 20
-153.765521
 30
0.0
  0
VERTEX
  5
5F35
  8
ALPHA
 10
276.708157
 20
-153.100996
 30
0.0
  0
VERTEX
  5
5F36
  8
ALPHA
 10
276.127676
 20
-152.129549
 30
0.0
  0
VERTEX
  5
5F37
  8
ALPHA
 10
275.847469
 20
-150.851039
 30
0.0
  0
VERTEX
  5
5F38
  8
ALPHA
 10
275.802042
 20
-150.096592
 30
0.0
  0
VERTEX
  5
5F39
  8
ALPHA
 10
275.799155
 20
-149.655631
 30
0.0
  0
VERTEX
  5
5F3A
  8
ALPHA
 10
275.799155
 20
-149.265315
 30
0.0
  0
VERTEX
  5
5F3B
  8
ALPHA
 10
275.799155
 20
-148.723998
 30
0.0
  0
VERTEX
  5
5F3C
  8
ALPHA
 10
275.799155
 20
-147.220046
 30
0.0
  0
VERTEX
  5
5F3D
  8
ALPHA
 10
275.799155
 20
-145.207149
 30
0.0
  0
VERTEX
  5
5F3E
  8
ALPHA
 10
275.799155
 20
-142.748682
 30
0.0
  0
VERTEX
  5
5F3F
  8
ALPHA
 10
275.799155
 20
-139.908016
 30
0.0
  0
VERTEX
  5
5F40
  8
ALPHA
 10
275.799155
 20
-136.748527
 30
0.0
  0
VERTEX
  5
5F41
  8
ALPHA
 10
275.799155
 20
-133.333588
 30
0.0
  0
VERTEX
  5
5F42
  8
ALPHA
 10
275.799155
 20
-125.990852
 30
0.0
  0
VERTEX
  5
5F43
  8
ALPHA
 10
275.799155
 20
-118.386798
 30
0.0
  0
VERTEX
  5
5F44
  8
ALPHA
 10
275.799155
 20
-111.028416
 30
0.0
  0
VERTEX
  5
5F45
  8
ALPHA
 10
275.799155
 20
-107.599785
 30
0.0
  0
VERTEX
  5
5F46
  8
ALPHA
 10
275.799155
 20
-104.422693
 30
0.0
  0
VERTEX
  5
5F47
  8
ALPHA
 10
275.799155
 20
-101.560513
 30
0.0
  0
VERTEX
  5
5F48
  8
ALPHA
 10
275.799155
 20
-99.076619
 30
0.0
  0
VERTEX
  5
5F49
  8
ALPHA
 10
275.799155
 20
-97.034384
 30
0.0
  0
VERTEX
  5
5F4A
  8
ALPHA
 10
275.799155
 20
-95.497183
 30
0.0
  0
VERTEX
  5
5F4B
  8
ALPHA
 10
275.799155
 20
-94.937773
 30
0.0
  0
VERTEX
  5
5F4C
  8
ALPHA
 10
275.799155
 20
-94.528388
 30
0.0
  0
VERTEX
  5
5F4D
  8
ALPHA
 10
275.799155
 20
-94.276947
 30
0.0
  0
VERTEX
  5
5F4E
  8
ALPHA
 10
275.799155
 20
-94.191373
 30
0.0
  0
SEQEND
  5
5F4F
  8
ALPHA
  0
POLYLINE
  5
5927
  8
ALPHA
 66
     1
 10
0.0
 20
0.0
 30
0.0
 70
   128
  0
VERTEX
  5
5F50
  8
ALPHA
 10
297.799158
 20
-151.525646
 30
0.0
  0
VERTEX
  5
5F51
  8
ALPHA
 10
297.799158
 20
-151.64019
 30
0.0
  0
VERTEX
  5
5F52
  8
ALPHA
 10
297.799158
 20
-151.942169
 30
0.0
  0
VERTEX
  5
5F53
  8
ALPHA
 10
297.799158
 20
-152.858519
 30
0.0
  0
VERTEX
  5
5F54
  8
ALPHA
 10
297.799158
 20
-153.774869
 30
0.0
  0
VERTEX
  5
5F55
  8
ALPHA
 10
297.799158
 20
-154.076848
 30
0.0
  0
VERTEX
  5
5F56
  8
ALPHA
 10
297.799158
 20
-154.191392
 30
0.0
  0
SEQEND
  5
5F57
  8
ALPHA
  0
POLYLINE
  5
5942
  8
ALPHA
 66
     1
 10
0.0
 20
0.0
 30
0.0
 70
   128
  0
VERTEX
  5
5F58
  8
ALPHA
 10
275.799155
 20
-94.191373
 30
0.0
  0
VERTEX
  5
5F59
  8
ALPHA
 10
275.913699
 20
-94.191373
 30
0.0
  0
VERTEX
  5
5F5A
  8
ALPHA
 10
276.215678
 20
-94.191373
 30
0.0
  0
VERTEX
  5
5F5B
  8
ALPHA
 10
277.132028
 20
-94.191373
 30
0.0
  0
VERTEX
  5
5F5C
  8
ALPHA
 10
278.048378
 20
-94.191373
 30
0.0
  0
VERTEX
  5
5F5D
  8
ALPHA
 10
278.350357
 20
-94.191373
 30
0.0
  0
VERTEX
  5
5F5E
  8
ALPHA
 10
278.4649
 20
-94.191373
 30
0.0
  0
SEQEND
  5
5F5F
  8
ALPHA
  0
DIMENSION
  5
5964
  8
COTATION1
  2
*D4
 10
260.799155
 20
-154.191392
 30
0.0
 11
259.299155
 21
-124.191382
 31
0.0
 13
275.799155
 23
-94.191373
 33
0.0
 14
280.160382
 24
-154.191392
 34
0.0
 50
90.0
  0
LINE
  5
5983
  8
ALPHA
 10
278.4649
 20
-147.816623
 30
0.0
 11
281.838602
 21
-151.525646
 31
0.0
  0
DIMENSION
  5
5A29
  8
COTATION1
  2
*D5
 10
297.799158
 20
-79.191373
 30
0.0
 11
286.799157
 21
-77.691373
 31
0.0
 13
275.799155
 23
-94.191373
 33
0.0
 14
297.799158
 24
-151.525646
 34
0.0
  0
ENDSEC
  0
EOF
