  0
SECTION
  2
HEADER
  9
$ACADVER
  1
AC1009
  9
$INSBASE
 10
-146.27124
 20
-153.796096
 30
0.0
  9
$EXTMIN
 10
613.690522
 20
-87.434514
 30
0.0
  9
$EXTMAX
 10
653.390558
 20
6.048658
 30
0.0
  9
$LIMMIN
 10
-407.970438
 20
-367.832444
  9
$LIMMAX
 10
429.804077
 20
234.370848
  9
$ORTHOMODE
 70
     0
  9
$REGENMODE
 70
     1
  9
$FILLMODE
 70
     1
  9
$QTEXTMODE
 70
     0
  9
$MIRRTEXT
 70
     1
  9
$DRAGMODE
 70
     2
  9
$LTSCALE
 40
10.0
  9
$OSMODE
 70
   165
  9
$ATTMODE
 70
     1
  9
$TEXTSIZE
 40
6.0
  9
$TRACEWID
 40
1.0
  9
$TEXTSTYLE
  7
ROMANS
  9
$CLAYER
  8
ALPHA
  9
$CELTYPE
  6
BYLAYER
  9
$CECOLOR
 62
   256
  9
$DIMSCALE
 40
1.0
  9
$DIMASZ
 40
2.0
  9
$DIMEXO
 40
0.3
  9
$DIMDLI
 40
0.1
  9
$DIMRND
 40
0.0
  9
$DIMDLE
 40
0.0
  9
$DIMEXE
 40
0.5
  9
$DIMTP
 40
0.0
  9
$DIMTM
 40
0.0
  9
$DIMTXT
 40
2.0
  9
$DIMCEN
 40
1.0
  9
$DIMTSZ
 40
0.0
  9
$DIMTOL
 70
     0
  9
$DIMLIM
 70
     0
  9
$DIMTIH
 70
     0
  9
$DIMTOH
 70
     0
  9
$DIMSE1
 70
     0
  9
$DIMSE2
 70
     0
  9
$DIMTAD
 70
     1
  9
$DIMZIN
 70
    12
  9
$DIMBLK
  1
OPEN30
  9
$DIMASO
 70
     1
  9
$DIMSHO
 70
     1
  9
$DIMPOST
  1

  9
$DIMAPOST
  1

  9
$DIMALT
 70
     0
  9
$DIMALTD
 70
     2
  9
$DIMALTF
 40
25.4
  9
$DIMLFAC
 40
1.0
  9
$DIMTOFL
 70
     0
  9
$DIMTVP
 40
0.0
  9
$DIMTIX
 70
     0
  9
$DIMSOXD
 70
     0
  9
$DIMSAH
 70
     0
  9
$DIMBLK1
  1

  9
$DIMBLK2
  1

  9
$DIMSTYLE
  2
SC_DEFAUT
  9
$DIMCLRD
 70
     0
  9
$DIMCLRE
 70
     0
  9
$DIMCLRT
 70
     0
  9
$DIMTFAC
 40
1.0
  9
$DIMGAP
 40
0.6
  9
$LUNITS
 70
     2
  9
$LUPREC
 70
     1
  9
$SKETCHINC
 40
0.1
  9
$FILLETRAD
 40
0.0
  9
$AUNITS
 70
     0
  9
$AUPREC
 70
     0
  9
$MENU
  1
acad
  9
$ELEVATION
 40
0.0
  9
$PELEVATION
 40
0.0
  9
$THICKNESS
 40
0.0
  9
$LIMCHECK
 70
     0
  9
$BLIPMODE
 70
     0
  9
$CHAMFERA
 40
0.0
  9
$CHAMFERB
 40
0.0
  9
$SKPOLY
 70
     0
  9
$TDCREATE
 40
2450365.355314
  9
$TDUPDATE
 40
2452587.459307
  9
$TDINDWG
 40
0.539531
  9
$TDUSRTIMER
 40
0.539531
  9
$USRTIMER
 70
     1
  9
$ANGBASE
 50
0.0
  9
$ANGDIR
 70
     0
  9
$PDMODE
 70
    32
  9
$PDSIZE
 40
0.0
  9
$PLINEWID
 40
0.0
  9
$COORDS
 70
     2
  9
$SPLFRAME
 70
     0
  9
$SPLINETYPE
 70
     6
  9
$SPLINESEGS
 70
     8
  9
$ATTDIA
 70
     0
  9
$ATTREQ
 70
     1
  9
$HANDLING
 70
     1
  9
$HANDSEED
  5
3B38
  9
$SURFTAB1
 70
     6
  9
$SURFTAB2
 70
     6
  9
$SURFTYPE
 70
     6
  9
$SURFU
 70
     6
  9
$SURFV
 70
     6
  9
$UCSNAME
  2

  9
$UCSORG
 10
0.0
 20
0.0
 30
0.0
  9
$UCSXDIR
 10
1.0
 20
0.0
 30
0.0
  9
$UCSYDIR
 10
0.0
 20
1.0
 30
0.0
  9
$PUCSNAME
  2

  9
$PUCSORG
 10
0.0
 20
0.0
 30
0.0
  9
$PUCSXDIR
 10
1.0
 20
0.0
 30
0.0
  9
$PUCSYDIR
 10
0.0
 20
1.0
 30
0.0
  9
$USERI1
 70
     0
  9
$USERI2
 70
     0
  9
$USERI3
 70
     0
  9
$USERI4
 70
     0
  9
$USERI5
 70
     0
  9
$USERR1
 40
0.0
  9
$USERR2
 40
0.0
  9
$USERR3
 40
0.0
  9
$USERR4
 40
0.0
  9
$USERR5
 40
0.0
  9
$WORLDVIEW
 70
     1
  9
$SHADEDGE
 70
     3
  9
$SHADEDIF
 70
    70
  9
$TILEMODE
 70
     1
  9
$MAXACTVP
 70
    16
  9
$PLIMCHECK
 70
     0
  9
$PEXTMIN
 10
1.000000E+020
 20
1.000000E+020
 30
1.000000E+020
  9
$PEXTMAX
 10
-1.000000E+020
 20
-1.000000E+020
 30
-1.000000E+020
  9
$PLIMMIN
 10
0.0
 20
0.0
  9
$PLIMMAX
 10
12.0
 20
9.0
  9
$UNITMODE
 70
     0
  9
$VISRETAIN
 70
     0
  9
$PLINEGEN
 70
     0
  9
$PSLTSCALE
 70
     0
  0
ENDSEC
  0
SECTION
  2
TABLES
  0
TABLE
  2
VPORT
 70
     2
  0
VPORT
  2
*ACTIVE
 70
     0
 10
0.0
 20
0.0
 11
1.0
 21
1.0
 12
633.543486
 22
-40.657313
 13
0.0
 23
0.0
 14
1.0
 24
1.0
 15
10.0
 25
10.0
 16
0.0
 26
0.0
 36
1.0
 17
0.0
 27
0.0
 37
0.0
 40
94.435833
 41
1.63142
 42
50.0
 43
0.0
 44
0.0
 50
0.0
 51
0.0
 71
     0
 72
   100
 73
     1
 74
     0
 75
     0
 76
     0
 77
     0
 78
     0
  0
ENDTAB
  0
TABLE
  2
LTYPE
 70
    25
  0
LTYPE
  2
CONTINUOUS
 70
     0
  3
Solid line
 72
    65
 73
     0
 40
0.0
  0
LTYPE
  2
AXES2
 70
     0
  3
___ _ ___ _ ___ _ ___ _ ___ _ ___ _ ___ _ ___ _
 72
    65
 73
     4
 40
1.125
 49
0.75
 49
-0.125
 49
0.125
 49
-0.125
  0
LTYPE
  2
ACAD_ISO04W100
 70
     0
  3
ISO Lang gestrichelt punktiert ____ . ____ . __
 72
    65
 73
     4
 40
30.5
 49
24.0
 49
-3.0
 49
0.5
 49
-3.0
  0
LTYPE
  2
AXES
 70
     0
  3
____ _ ____ _ ____ _ ____ _ ____ _ ____ _ ____ 
 72
    65
 73
     4
 40
2.0
 49
1.25
 49
-0.25
 49
0.25
 49
-0.25
  0
LTYPE
  2
AXESX2
 70
     0
  3
________  __  ________  __  ________  __  _____
 72
    65
 73
     4
 40
4.0
 49
2.5
 49
-0.5
 49
0.5
 49
-0.5
  0
LTYPE
  2
TIRETPT
 70
     0
  3
__ . __ . __ . __ . __ . __ . __ . __ . __ . __
 72
    65
 73
     4
 40
1.0
 49
0.5
 49
-0.25
 49
0.0
 49
-0.25
  0
LTYPE
  2
TIRETPT2
 70
     0
  3
_._._._._._._._._._._._._._._._._._._._._._._._
 72
    65
 73
     4
 40
0.5
 49
0.25
 49
-0.125
 49
0.0
 49
-0.125
  0
LTYPE
  2
TIRETPTX2
 70
     0
  3
____  .  ____  .  ____  .  ____  .  ____  .  __
 72
    65
 73
     4
 40
2.0
 49
1.0
 49
-0.5
 49
0.0
 49
-0.5
  0
LTYPE
  2
DISCONTINU
 70
     0
  3
__ __ __ __ __ __ __ __ __ __ __ __ __ __ __ __
 72
    65
 73
     2
 40
0.75
 49
0.5
 49
-0.25
  0
LTYPE
  2
DISCONTINU2
 70
     0
  3
_ _ _ _ _ _ _ _ _ _ _ _ _ _ _ _ _ _ _ _ _ _ _ _
 72
    65
 73
     2
 40
0.375
 49
0.25
 49
-0.125
  0
LTYPE
  2
DISCONTINUX2
 70
     0
  3
____  ____  ____  ____  ____  ____  ____  ____ 
 72
    65
 73
     2
 40
1.5
 49
1.0
 49
-0.5
  0
LTYPE
  2
DIVISE
 70
     0
  3
____ . . ____ . . ____ . . ____ . . ____ . . __
 72
    65
 73
     6
 40
1.25
 49
0.5
 49
-0.25
 49
0.0
 49
-0.25
 49
0.0
 49
-0.25
  0
LTYPE
  2
DIVISE2
 70
     0
  3
__..__..__..__..__..__..__..__..__..__..__..__.
 72
    65
 73
     6
 40
0.625
 49
0.25
 49
-0.125
 49
0.0
 49
-0.125
 49
0.0
 49
-0.125
  0
LTYPE
  2
DIVISEX2
 70
     0
  3
________  .  .  ________  .  .  ________  .  . 
 72
    65
 73
     6
 40
2.5
 49
1.0
 49
-0.5
 49
0.0
 49
-0.5
 49
0.0
 49
-0.5
  0
LTYPE
  2
POINTILLE
 70
     0
  3
. . . . . . . . . . . . . . . . . . . . . . . .
 72
    65
 73
     2
 40
0.25
 49
0.0
 49
-0.25
  0
LTYPE
  2
POINTILLE2
 70
     0
  3
...............................................
 72
    65
 73
     2
 40
0.125
 49
0.0
 49
-0.125
  0
LTYPE
  2
POINTILLEX2
 70
     0
  3
.  .  .  .  .  .  .  .  .  .  .  .  .  .  .  . 
 72
    65
 73
     2
 40
0.5
 49
0.0
 49
-0.5
  0
LTYPE
  2
CACHE
 70
     0
  3
__ __ __ __ __ __ __ __ __ __ __ __ __ __ __ __
 72
    65
 73
     2
 40
0.375
 49
0.25
 49
-0.125
  0
LTYPE
  2
CACHE2
 70
     0
  3
_ _ _ _ _ _ _ _ _ _ _ _ _ _ _ _ _ _ _ _ _ _ _ _
 72
    65
 73
     2
 40
0.1875
 49
0.125
 49
-0.0625
  0
LTYPE
  2
CACHEX2
 70
     0
  3
____ ____ ____ ____ ____ ____ ____ ____ ____ __
 72
    65
 73
     2
 40
0.75
 49
0.5
 49
-0.25
  0
LTYPE
  2
FANTOME
 70
     0
  3
______  __  __  ______  __  __  ______  __  __ 
 72
    65
 73
     6
 40
2.5
 49
1.25
 49
-0.25
 49
0.25
 49
-0.25
 49
0.25
 49
-0.25
  0
LTYPE
  2
FANTOME2
 70
     0
  3
___ _ _ ___ _ _ ___ _ _ ___ _ _ ___ _ _ ___ _ _
 72
    65
 73
     6
 40
1.25
 49
0.625
 49
-0.125
 49
0.125
 49
-0.125
 49
0.125
 49
-0.125
  0
LTYPE
  2
FANTOMEX2
 70
     0
  3
____________    ____    ____    ____________   
 72
    65
 73
     6
 40
5.0
 49
2.5
 49
-0.5
 49
0.5
 49
-0.5
 49
0.5
 49
-0.5
  0
LTYPE
  2
0
 70
     0
  3
MEDUSA PEN 0
 72
    65
 73
     0
 40
0.0
  0
LTYPE
  2
AI9-LTYPE1
 70
     0
  3
Illustrator Dash Style No.1
 72
    65
 73
     2
 40
1.33491
 49
1.026935
 49
-0.307975
  0
ENDTAB
  0
TABLE
  2
LAYER
 70
    17
  0
LAYER
  2
0
 70
     0
 62
     7
  6
CONTINUOUS
  0
LAYER
  2
TEXTE_MOYEN
 70
     0
 62
   131
  6
CONTINUOUS
  0
LAYER
  2
ALPHA
 70
     0
 62
   254
  6
CONTINUOUS
  0
LAYER
  2
COTATION1
 70
     0
 62
    50
  6
CONTINUOUS
  0
LAYER
  2
AXE
 70
     0
 62
    80
  6
AXES2
  0
LAYER
  2
DEFPOINTS
 70
     0
 62
     7
  6
CONTINUOUS
  0
LAYER
  2
HACHURES1
 70
     0
 62
   130
  6
CONTINUOUS
  0
LAYER
  2
FMULT
 70
     0
 62
   210
  6
CONTINUOUS
  0
LAYER
  2
FDP_CARTOUCHE
 70
     0
 62
   136
  6
CONTINUOUS
  0
LAYER
  2
FDP_TEXTES
 70
     0
 62
   171
  6
CONTINUOUS
  0
LAYER
  2
FDP_LOGO_MG
 70
     0
 62
    30
  6
CONTINUOUS
  0
LAYER
  2
FDP_LOGO_SCH
 70
     0
 62
    90
  6
CONTINUOUS
  0
LAYER
  2
FDP_FDP
 70
     0
 62
   170
  6
CONTINUOUS
  0
LAYER
  2
POINTILLE_COURT2
 70
     0
 62
    41
  6
CACHE2
  0
LAYER
  2
POINTILLE_MOYEN2
 70
     0
 62
   141
  6
CACHE
  0
LAYER
  2
POINTILLE_LONG2
 70
     0
 62
   241
  6
CACHEX2
  0
LAYER
  2
ALPHA_FIN
 70
     0
 62
   255
  6
CONTINUOUS
  0
ENDTAB
  0
TABLE
  2
STYLE
 70
     5
  0
STYLE
  2
ROMANS
 70
     0
 40
0.0
 41
1.0
 50
0.0
 71
     0
 42
6.0
  3
romans
  4

  0
STYLE
  2
STANDARD
 70
     0
 40
0.2
 41
1.0
 50
0.0
 71
     0
 42
0.2
  3
txt
  4

  0
STYLE
  2
STD
 70
     0
 40
0.0
 41
1.0
 50
0.0
 71
     0
 42
0.0
  3
txt
  4

  0
STYLE
  2
INFOCAR
 70
     0
 40
0.0
 41
1.34
 50
0.0
 71
     0
 42
2.0
  3
ROMANS.SHX
  4

  0
STYLE
  2
CARTOUCHE
 70
     0
 40
0.0
 41
1.0
 50
0.0
 71
     0
 42
0.2
  3
ROMANS.SHX
  4

  0
ENDTAB
  0
TABLE
  2
VIEW
 70
     0
  0
ENDTAB
  0
TABLE
  2
UCS
 70
     0
  0
ENDTAB
  0
TABLE
  2
APPID
 70
     4
  0
APPID
  2
ACAD
 70
     0
  0
APPID
  2
AVE_RENDER
 70
     0
  0
APPID
  2
AVE_MATERIAL
 70
     0
  0
APPID
  2
CONTENTBLOCKICON
 70
     0
  0
ENDTAB
  0
TABLE
  2
DIMSTYLE
 70
     2
  0
DIMSTYLE
  2
SC_DEFAUT
 70
     0
  3

  4

  5
OPEN30
  6

  7

 40
1.0
 41
2.0
 42
0.3
 43
0.1
 44
0.5
 45
0.0
 46
0.0
 47
0.0
 48
0.0
140
2.0
141
1.0
142
0.0
143
25.4
144
1.0
145
0.0
146
1.0
147
0.6
 71
     0
 72
     0
 73
     0
 74
     0
 75
     0
 76
     0
 77
     1
 78
    12
170
     0
171
     2
172
     0
173
     0
174
     0
175
     0
176
     0
177
     0
178
     0
  0
DIMSTYLE
  2
ROMANS
 70
     0
  3

  4

  5
OPEN30
  6

  7

 40
1.0
 41
2.0
 42
0.5
 43
0.38
 44
0.18
 45
0.0
 46
0.0
 47
0.0
 48
0.0
140
2.0
141
0.09
142
0.0
143
25.4
144
1.0
145
0.0
146
1.0
147
0.5
 71
     0
 72
     0
 73
     0
 74
     0
 75
     0
 76
     0
 77
     1
 78
    12
170
     0
171
     2
172
     0
173
     0
174
     0
175
     0
176
     0
177
     0
178
     0
  0
ENDTAB
  0
ENDSEC
  0
SECTION
  2
BLOCKS
  0
BLOCK
  8
0
  2
$MODEL_SPACE
 70
     0
 10
0.0
 20
0.0
 30
0.0
  3
$MODEL_SPACE
  1

  0
ENDBLK
  5
3A66
  8
0
  0
BLOCK
 67
     1
  8
0
  2
$PAPER_SPACE
 70
     0
 10
0.0
 20
0.0
 30
0.0
  3
$PAPER_SPACE
  1

  0
ENDBLK
  5
3A64
 67
     1
  8
0
  0
BLOCK
  8
0
  2
COTE
 70
     0
 10
0.0
 20
0.0
 30
0.0
  3
COTE
  1

  0
ENDBLK
  5
35
  8
0
  0
BLOCK
  8
0
  2
FOND
 70
     0
 10
0.0
 20
0.0
 30
0.0
  3
FOND
  1

  0
ENDBLK
  5
39
  8
0
  0
BLOCK
  8
0
  2
SCH_ISO
 70
     0
 10
0.0
 20
0.0
 30
0.0
  3
SCH_ISO
  1

  0
ENDBLK
  5
24AD
  8
0
  0
BLOCK
  8
0
  2
_OPEN30
 70
     0
 10
0.0
 20
0.0
 30
0.0
  3
_OPEN30
  1

  0
LINE
  5
27E1
  8
COTATION1
 62
     0
 10
-1.0
 20
0.267949
 30
0.0
 11
0.0
 21
0.0
 31
0.0
1001
ACAD
1000
RTLwPs
1070
   158
  0
LINE
  5
27E2
  8
COTATION1
 62
     0
 10
0.0
 20
0.0
 30
0.0
 11
-1.0
 21
-0.267949
 31
0.0
1001
ACAD
1000
RTLwPs
1070
   158
  0
LINE
  5
27E3
  8
COTATION1
 62
     0
 10
0.0
 20
0.0
 30
0.0
 11
-1.0
 21
0.0
 31
0.0
1001
ACAD
1000
RTLwPs
1070
   158
  0
ENDBLK
  5
27E5
  8
0
  0
BLOCK
  8
0
  2
*D4
 70
     1
 10
0.0
 20
0.0
 30
0.0
  3
*D4
  1

  0
LINE
  5
36FC
  8
COTATION1
 62
     0
 10
632.856426
 20
-60.811111
 30
0.0
 11
618.077703
 21
-60.811111
 31
0.0
1001
ACAD
1000
RTLwPs
1070
   158
  0
LINE
  5
36FD
  8
COTATION1
 62
     0
 10
633.457188
 20
-63.811073
 30
0.0
 11
618.077703
 21
-63.811073
 31
0.0
1001
ACAD
1000
RTLwPs
1070
   158
  0
LINE
  5
36FE
  8
COTATION1
 62
     0
 10
618.577703
 20
-58.811111
 30
0.0
 11
618.577703
 21
-56.811111
 31
0.0
1001
ACAD
1000
RTLwPs
1070
   158
  0
LINE
  5
36FF
  8
COTATION1
 62
     0
 10
618.577703
 20
-65.811073
 30
0.0
 11
618.577703
 21
-67.811073
 31
0.0
1001
ACAD
1000
RTLwPs
1070
   158
  0
INSERT
  5
3700
  8
COTATION1
 62
     0
  2
_OPEN30
 10
618.577703
 20
-60.811111
 30
0.0
 41
2.0
 42
2.0
 43
2.0
 50
270.0
1001
ACAD
1000
RTLwPs
1070
   158
  0
INSERT
  5
3701
  8
COTATION1
 62
     0
  2
_OPEN30
 10
618.577703
 20
-63.811073
 30
0.0
 41
2.0
 42
2.0
 43
2.0
 50
90.0
1001
ACAD
1000
RTLwPs
1070
   158
  0
TEXT
  5
3702
  8
COTATION1
 62
     0
 10
617.977703
 20
-63.263473
 30
0.0
 40
2.0
  1
3
 50
90.0
1001
ACAD
1000
MTEXTBEGIN
1070
    73
1070
     1
1070
    44
1040
1.0
1070
    74
1070
     0
1000
MTEXTEND
1000
MTEXTBEGIN
1070
    73
1070
     1
1070
    44
1040
1.0
1070
    74
1070
     0
1000
MTEXTEND
1000
MTEXTBEGIN
1070
    73
1070
     1
1070
    44
1040
1.0
1070
    74
1070
     0
1000
MTEXTEND
  0
POINT
  5
3703
  8
DEFPOINTS
 62
     0
 10
633.156426
 20
-60.811111
 30
0.0
  0
POINT
  5
3704
  8
DEFPOINTS
 62
     0
 10
633.757188
 20
-63.811073
 30
0.0
  0
POINT
  5
3705
  8
DEFPOINTS
 62
     0
 10
618.577703
 20
-63.811073
 30
0.0
  0
ENDBLK
  5
30A2
  8
0
  0
BLOCK
  8
0
  2
*D5
 70
     1
 10
0.0
 20
0.0
 30
0.0
  3
*D5
  1

  0
LINE
  5
3880
  8
COTATION1
 62
     0
 10
634.830517
 20
-48.378744
 30
0.0
 11
634.830517
 21
-35.044084
 31
0.0
1001
ACAD
1000
RTLwPs
1070
   158
  0
LINE
  5
3881
  8
COTATION1
 62
     0
 10
633.830469
 20
-48.511105
 30
0.0
 11
633.830469
 21
-35.044084
 31
0.0
1001
ACAD
1000
RTLwPs
1070
   158
  0
LINE
  5
3882
  8
COTATION1
 62
     0
 10
636.830517
 20
-35.544084
 30
0.0
 11
638.830517
 21
-35.544084
 31
0.0
1001
ACAD
1000
RTLwPs
1070
   158
  0
LINE
  5
3883
  8
COTATION1
 62
     0
 10
631.830469
 20
-35.544084
 30
0.0
 11
625.773326
 21
-35.544084
 31
0.0
1001
ACAD
1000
RTLwPs
1070
   158
  0
INSERT
  5
3884
  8
COTATION1
 62
     0
  2
_OPEN30
 10
634.830517
 20
-35.544084
 30
0.0
 41
2.0
 42
2.0
 43
2.0
 50
180.0
1001
ACAD
1000
RTLwPs
1070
   158
  0
INSERT
  5
3885
  8
COTATION1
 62
     0
  2
_OPEN30
 10
633.830469
 20
-35.544084
 30
0.0
 41
2.0
 42
2.0
 43
2.0
1001
ACAD
1000
RTLwPs
1070
   158
  0
TEXT
  5
3886
  8
COTATION1
 62
     0
 10
626.087612
 20
-34.944084
 30
0.0
 40
2.0
  1
Ø1
1001
ACAD
1000
MTEXTBEGIN
1070
    73
1070
     1
1070
    44
1040
1.0
1070
    74
1070
     0
1000
MTEXTEND
1000
MTEXTBEGIN
1070
    73
1070
     1
1070
    44
1040
1.0
1070
    74
1070
     0
1000
MTEXTEND
  0
POINT
  5
3887
  8
DEFPOINTS
 62
     0
 10
634.830517
 20
-48.678744
 30
0.0
  0
POINT
  5
3888
  8
DEFPOINTS
 62
     0
 10
633.830469
 20
-48.811105
 30
0.0
  0
POINT
  5
3889
  8
DEFPOINTS
 62
     0
 10
633.830469
 20
-35.544084
 30
0.0
  0
ENDBLK
  5
30B0
  8
0
  0
BLOCK
  8
0
  2
*D6
 70
     1
 10
0.0
 20
0.0
 30
0.0
  3
*D6
  1

  0
LINE
  5
3688
  8
COTATION1
 62
     0
 10
632.857186
 20
-48.811105
 30
0.0
 11
632.857186
 21
-39.98893
 31
0.0
1001
ACAD
1000
RTLwPs
1070
   158
  0
LINE
  5
3689
  8
COTATION1
 62
     0
 10
636.857175
 20
-48.811105
 30
0.0
 11
636.857175
 21
-39.98893
 31
0.0
1001
ACAD
1000
RTLwPs
1070
   158
  0
LINE
  5
368A
  8
COTATION1
 62
     0
 10
630.857186
 20
-40.48893
 30
0.0
 11
628.857186
 21
-40.48893
 31
0.0
1001
ACAD
1000
RTLwPs
1070
   158
  0
LINE
  5
368B
  8
COTATION1
 62
     0
 10
638.857175
 20
-40.48893
 30
0.0
 11
653.390558
 21
-40.48893
 31
0.0
1001
ACAD
1000
RTLwPs
1070
   158
  0
INSERT
  5
368C
  8
COTATION1
 62
     0
  2
_OPEN30
 10
632.857186
 20
-40.48893
 30
0.0
 41
2.0
 42
2.0
 43
2.0
1001
ACAD
1000
RTLwPs
1070
   158
  0
INSERT
  5
368D
  8
COTATION1
 62
     0
  2
_OPEN30
 10
636.857175
 20
-40.48893
 30
0.0
 41
2.0
 42
2.0
 43
2.0
 50
180.0
1001
ACAD
1000
RTLwPs
1070
   158
  0
TEXT
  5
368E
  8
COTATION1
 62
     0
 10
642.504844
 20
-39.88893
 30
0.0
 40
2.0
  1
M4x0.7
1001
ACAD
1000
MTEXTBEGIN
1070
    73
1070
     1
1070
    44
1040
1.0
1070
    74
1070
     0
1000
MTEXTEND
1000
MTEXTBEGIN
1070
    73
1070
     1
1070
    44
1040
1.0
1070
    74
1070
     0
1000
MTEXTEND
1000
MTEXTBEGIN
1070
    73
1070
     1
1070
    44
1040
1.0
1070
    74
1070
     0
1000
MTEXTEND
  0
POINT
  5
368F
  8
DEFPOINTS
 62
     0
 10
632.857186
 20
-49.111105
 30
0.0
  0
POINT
  5
3690
  8
DEFPOINTS
 62
     0
 10
636.857175
 20
-49.111105
 30
0.0
  0
POINT
  5
3691
  8
DEFPOINTS
 62
     0
 10
636.857175
 20
-40.48893
 30
0.0
  0
ENDBLK
  5
30BE
  8
0
  0
BLOCK
  8
0
  2
*D7
 70
     1
 10
0.0
 20
0.0
 30
0.0
  3
*D7
  1

  0
LINE
  5
366B
  8
COTATION1
 62
     0
 10
632.857186
 20
-48.811105
 30
0.0
 11
618.077703
 21
-48.811105
 31
0.0
1001
ACAD
1000
RTLwPs
1070
   158
  0
LINE
  5
366C
  8
COTATION1
 62
     0
 10
632.557136
 20
-60.811111
 30
0.0
 11
618.077703
 21
-60.811111
 31
0.0
1001
ACAD
1000
RTLwPs
1070
   158
  0
LINE
  5
366D
  8
COTATION1
 62
     0
 10
618.577703
 20
-50.811105
 30
0.0
 11
618.577703
 21
-58.811111
 31
0.0
1001
ACAD
1000
RTLwPs
1070
   158
  0
INSERT
  5
366E
  8
COTATION1
 62
     0
  2
_OPEN30
 10
618.577703
 20
-48.811105
 30
0.0
 41
2.0
 42
2.0
 43
2.0
 50
90.0
1001
ACAD
1000
RTLwPs
1070
   158
  0
INSERT
  5
366F
  8
COTATION1
 62
     0
  2
_OPEN30
 10
618.577703
 20
-60.811111
 30
0.0
 41
2.0
 42
2.0
 43
2.0
 50
270.0
1001
ACAD
1000
RTLwPs
1070
   158
  0
TEXT
  5
3670
  8
COTATION1
 62
     0
 10
617.977703
 20
-56.358727
 30
0.0
 40
2.0
  1
12
 50
90.0
1001
ACAD
1000
MTEXTBEGIN
1070
    73
1070
     1
1070
    44
1040
1.0
1070
    74
1070
     0
1000
MTEXTEND
1000
MTEXTBEGIN
1070
    73
1070
     1
1070
    44
1040
1.0
1070
    74
1070
     0
1000
MTEXTEND
1000
MTEXTBEGIN
1070
    73
1070
     1
1070
    44
1040
1.0
1070
    74
1070
     0
1000
MTEXTEND
  0
POINT
  5
3671
  8
DEFPOINTS
 62
     0
 10
633.157186
 20
-48.811105
 30
0.0
  0
POINT
  5
3672
  8
DEFPOINTS
 62
     0
 10
632.857136
 20
-60.811111
 30
0.0
  0
POINT
  5
3673
  8
DEFPOINTS
 62
     0
 10
618.577703
 20
-60.811111
 30
0.0
  0
ENDBLK
  5
30CC
  8
0
  0
BLOCK
  8
0
  2
*D8
 70
     1
 10
0.0
 20
0.0
 30
0.0
  3
*D8
  1

  0
LINE
  5
36E8
  8
COTATION1
 62
     0
 10
636.157172
 20
-63.911073
 30
0.0
 11
636.157172
 21
-74.397433
 31
0.0
1001
ACAD
1000
RTLwPs
1070
   158
  0
LINE
  5
36E9
  8
COTATION1
 62
     0
 10
633.557188
 20
-63.911073
 30
0.0
 11
633.557188
 21
-74.397433
 31
0.0
1001
ACAD
1000
RTLwPs
1070
   158
  0
LINE
  5
36EA
  8
COTATION1
 62
     0
 10
638.157172
 20
-73.897433
 30
0.0
 11
640.157172
 21
-73.897433
 31
0.0
1001
ACAD
1000
RTLwPs
1070
   158
  0
LINE
  5
36EB
  8
COTATION1
 62
     0
 10
631.557188
 20
-73.897433
 30
0.0
 11
613.690522
 21
-73.897433
 31
0.0
1001
ACAD
1000
RTLwPs
1070
   158
  0
INSERT
  5
36EC
  8
COTATION1
 62
     0
  2
_OPEN30
 10
636.157172
 20
-73.897433
 30
0.0
 41
2.0
 42
2.0
 43
2.0
 50
180.0
1001
ACAD
1000
RTLwPs
1070
   158
  0
INSERT
  5
36ED
  8
COTATION1
 62
     0
  2
_OPEN30
 10
633.557188
 20
-73.897433
 30
0.0
 41
2.0
 42
2.0
 43
2.0
1001
ACAD
1000
RTLwPs
1070
   158
  0
TEXT
  5
36EE
  8
COTATION1
 62
     0
 10
613.909569
 20
-73.297433
 30
0.0
 40
2.0
  1
M2.6x0.45
1001
ACAD
1000
MTEXTBEGIN
1070
    73
1070
     1
1070
    44
1040
1.0
1070
    74
1070
     0
1000
MTEXTEND
1000
MTEXTBEGIN
1070
    73
1070
     1
1070
    44
1040
1.0
1070
    74
1070
     0
1000
MTEXTEND
1000
MTEXTBEGIN
1070
    73
1070
     1
1070
    44
1040
1.0
1070
    74
1070
     0
1000
MTEXTEND
  0
POINT
  5
36EF
  8
DEFPOINTS
 62
     0
 10
636.157172
 20
-63.611073
 30
0.0
  0
POINT
  5
36F0
  8
DEFPOINTS
 62
     0
 10
633.557188
 20
-63.611073
 30
0.0
  0
POINT
  5
36F1
  8
DEFPOINTS
 62
     0
 10
633.557188
 20
-73.897433
 30
0.0
  0
ENDBLK
  5
354D
  8
0
  0
ENDSEC
  0
SECTION
  2
ENTITIES
  0
INSERT
  5
32
  8
0
  2
COTE
 10
0.0
 20
0.0
 30
0.0
  0
INSERT
  5
36
  8
0
  2
FOND
 10
0.0
 20
0.0
 30
0.0
  0
INSERT
  5
24AE
  8
ALPHA
  2
SCH_ISO
 10
-66.27012
 20
-238.940658
 30
0.0
  0
LINE
  5
2FE7
  8
ALPHA
 10
637.874046
 20
-52.229983
 30
0.0
 11
637.841835
 21
-54.806102
 31
0.0
  0
LINE
  5
2FE8
  8
ALPHA
 10
631.850694
 20
-52.229983
 30
0.0
 11
631.857136
 21
-54.823281
 31
0.0
  0
POLYLINE
  5
2FE9
  8
ALPHA
 66
     1
 10
0.0
 20
0.0
 30
0.0
 70
     1
  0
VERTEX
  5
3A6C
  8
ALPHA
 10
641.141616
 20
-54.830439
 30
0.0
  0
VERTEX
  5
3A6D
  8
ALPHA
 10
641.141616
 20
-51.82091
 30
0.0
  0
VERTEX
  5
3A6E
  8
ALPHA
 10
640.119113
 20
-51.305543
 30
0.0
  0
VERTEX
  5
3A6F
  8
ALPHA
 10
629.585942
 20
-51.305543
 30
0.0
  0
VERTEX
  5
3A70
  8
ALPHA
 10
628.519419
 20
-51.961562
 30
0.0
  0
VERTEX
  5
3A71
  8
ALPHA
 10
628.519419
 20
-54.830439
 30
0.0
  0
SEQEND
  5
3A72
  8
ALPHA
  0
POLYLINE
  5
2FFF
  8
ALPHA
 66
     1
 10
0.0
 20
0.0
 30
0.0
 70
   128
  0
VERTEX
  5
3A73
  8
ALPHA
 10
631.850694
 20
-58.587607
 30
0.0
  0
VERTEX
  5
3A74
  8
ALPHA
 10
632.08739
 20
-58.925123
 30
0.0
  0
VERTEX
  5
3A75
  8
ALPHA
 10
632.732857
 20
-59.200769
 30
0.0
  0
VERTEX
  5
3A76
  8
ALPHA
 10
633.690162
 20
-59.386627
 30
0.0
  0
VERTEX
  5
3A77
  8
ALPHA
 10
634.86237
 20
-59.454784
 30
0.0
  0
VERTEX
  5
3A78
  8
ALPHA
 10
636.034578
 20
-59.386627
 30
0.0
  0
VERTEX
  5
3A79
  8
ALPHA
 10
636.991882
 20
-59.200769
 30
0.0
  0
VERTEX
  5
3A7A
  8
ALPHA
 10
637.637349
 20
-58.925123
 30
0.0
  0
VERTEX
  5
3A7B
  8
ALPHA
 10
637.874046
 20
-58.587607
 30
0.0
  0
SEQEND
  5
3A7C
  8
ALPHA
  0
POLYLINE
  5
3000
  8
ALPHA
 66
     1
 10
0.0
 20
0.0
 30
0.0
 70
     1
  0
VERTEX
  5
3A7D
  8
ALPHA
 10
641.141616
 20
-55.986435
 30
0.0
  0
VERTEX
  5
3A7E
  8
ALPHA
 10
641.141616
 20
-58.99668
 30
0.0
  0
VERTEX
  5
3A7F
  8
ALPHA
 10
640.119113
 20
-59.512762
 30
0.0
  0
VERTEX
  5
3A80
  8
ALPHA
 10
629.585942
 20
-59.512762
 30
0.0
  0
VERTEX
  5
3A81
  8
ALPHA
 10
628.519419
 20
-58.856743
 30
0.0
  0
VERTEX
  5
3A82
  8
ALPHA
 10
628.519419
 20
-55.986435
 30
0.0
  0
SEQEND
  5
3A83
  8
ALPHA
  0
POLYLINE
  5
3008
  8
ALPHA
 66
     1
 10
0.0
 20
0.0
 30
0.0
 70
     1
  0
VERTEX
  5
3A84
  8
ALPHA
 10
628.106767
 20
-54.830439
 30
0.0
  0
VERTEX
  5
3A85
  8
ALPHA
 10
641.484836
 20
-54.830439
 30
0.0
  0
VERTEX
  5
3A86
  8
ALPHA
 10
641.484836
 20
-55.986435
 30
0.0
  0
VERTEX
  5
3A87
  8
ALPHA
 10
628.106767
 20
-55.986435
 30
0.0
  0
SEQEND
  5
3A88
  8
ALPHA
  0
LINE
  5
301E
  8
ALPHA
 10
631.850694
 20
-58.587607
 30
0.0
 11
631.857136
 21
-55.995025
 31
0.0
  0
POLYLINE
  5
301F
  8
ALPHA
 66
     1
 10
0.0
 20
0.0
 30
0.0
 70
   128
  0
VERTEX
  5
3A89
  8
ALPHA
 10
628.565587
 20
-58.587607
 30
0.0
  0
VERTEX
  5
3A8A
  8
ALPHA
 10
628.694625
 20
-58.925123
 30
0.0
  0
VERTEX
  5
3A8B
  8
ALPHA
 10
629.046552
 20
-59.200769
 30
0.0
  0
VERTEX
  5
3A8C
  8
ALPHA
 10
629.56859
 20
-59.386627
 30
0.0
  0
VERTEX
  5
3A8D
  8
ALPHA
 10
630.207962
 20
-59.454784
 30
0.0
  0
VERTEX
  5
3A8E
  8
ALPHA
 10
630.84754
 20
-59.386627
 30
0.0
  0
VERTEX
  5
3A8F
  8
ALPHA
 10
631.369685
 20
-59.200769
 30
0.0
  0
VERTEX
  5
3A90
  8
ALPHA
 10
631.721651
 20
-58.925123
 30
0.0
  0
VERTEX
  5
3A91
  8
ALPHA
 10
631.850694
 20
-58.587607
 30
0.0
  0
SEQEND
  5
3A92
  8
ALPHA
  0
LINE
  5
3020
  8
ALPHA
 10
637.874046
 20
-58.587607
 30
0.0
 11
637.841835
 21
-56.012204
 31
0.0
  0
POLYLINE
  5
3021
  8
ALPHA
 66
     1
 10
0.0
 20
0.0
 30
0.0
 70
   128
  0
VERTEX
  5
3A93
  8
ALPHA
 10
637.874046
 20
-58.587607
 30
0.0
  0
VERTEX
  5
3A94
  8
ALPHA
 10
638.003139
 20
-58.925123
 30
0.0
  0
VERTEX
  5
3A95
  8
ALPHA
 10
638.355189
 20
-59.200769
 30
0.0
  0
VERTEX
  5
3A96
  8
ALPHA
 10
638.87735
 20
-59.386627
 30
0.0
  0
VERTEX
  5
3A97
  8
ALPHA
 10
639.516778
 20
-59.454784
 30
0.0
  0
VERTEX
  5
3A98
  8
ALPHA
 10
640.156205
 20
-59.386627
 30
0.0
  0
VERTEX
  5
3A99
  8
ALPHA
 10
640.678367
 20
-59.200769
 30
0.0
  0
VERTEX
  5
3A9A
  8
ALPHA
 10
641.030417
 20
-58.925123
 30
0.0
  0
VERTEX
  5
3A9B
  8
ALPHA
 10
641.15951
 20
-58.587607
 30
0.0
  0
SEQEND
  5
3A9C
  8
ALPHA
  0
POLYLINE
  5
3022
  8
ALPHA
 66
     1
 10
0.0
 20
0.0
 30
0.0
 70
   128
210
0.0
220
0.0
230
-1.0
  0
VERTEX
  5
3A9D
  8
ALPHA
 10
-631.850694
 20
-52.229983
 30
0.0
  0
VERTEX
  5
3A9E
  8
ALPHA
 10
-632.08739
 20
-51.89288
 30
0.0
  0
VERTEX
  5
3A9F
  8
ALPHA
 10
-632.732857
 20
-51.617448
 30
0.0
  0
VERTEX
  5
3AA0
  8
ALPHA
 10
-633.690162
 20
-51.431667
 30
0.0
  0
VERTEX
  5
3AA1
  8
ALPHA
 10
-634.86237
 20
-51.363522
 30
0.0
  0
VERTEX
  5
3AA2
  8
ALPHA
 10
-636.034578
 20
-51.431667
 30
0.0
  0
VERTEX
  5
3AA3
  8
ALPHA
 10
-636.991882
 20
-51.617448
 30
0.0
  0
VERTEX
  5
3AA4
  8
ALPHA
 10
-637.637349
 20
-51.89288
 30
0.0
  0
VERTEX
  5
3AA5
  8
ALPHA
 10
-637.874046
 20
-52.229983
 30
0.0
  0
SEQEND
  5
3AA6
  8
ALPHA
  0
POLYLINE
  5
3034
  8
ALPHA
 66
     1
 10
0.0
 20
0.0
 30
0.0
 70
   128
210
0.0
220
0.0
230
-1.0
  0
VERTEX
  5
3AA7
  8
ALPHA
 10
-628.565587
 20
-52.229983
 30
0.0
  0
VERTEX
  5
3AA8
  8
ALPHA
 10
-628.694625
 20
-51.89288
 30
0.0
  0
VERTEX
  5
3AA9
  8
ALPHA
 10
-629.046552
 20
-51.617448
 30
0.0
  0
VERTEX
  5
3AAA
  8
ALPHA
 10
-629.56859
 20
-51.431667
 30
0.0
  0
VERTEX
  5
3AAB
  8
ALPHA
 10
-630.207962
 20
-51.363522
 30
0.0
  0
VERTEX
  5
3AAC
  8
ALPHA
 10
-630.84754
 20
-51.431667
 30
0.0
  0
VERTEX
  5
3AAD
  8
ALPHA
 10
-631.369685
 20
-51.617448
 30
0.0
  0
VERTEX
  5
3AAE
  8
ALPHA
 10
-631.721651
 20
-51.89288
 30
0.0
  0
VERTEX
  5
3AAF
  8
ALPHA
 10
-631.850694
 20
-52.229983
 30
0.0
  0
SEQEND
  5
3AB0
  8
ALPHA
  0
POLYLINE
  5
303B
  8
ALPHA
 66
     1
 10
0.0
 20
0.0
 30
0.0
 70
   128
210
0.0
220
0.0
230
-1.0
  0
VERTEX
  5
3AB1
  8
ALPHA
 10
-637.874046
 20
-52.229983
 30
0.0
  0
VERTEX
  5
3AB2
  8
ALPHA
 10
-638.003139
 20
-51.89288
 30
0.0
  0
VERTEX
  5
3AB3
  8
ALPHA
 10
-638.355189
 20
-51.617448
 30
0.0
  0
VERTEX
  5
3AB4
  8
ALPHA
 10
-638.87735
 20
-51.431667
 30
0.0
  0
VERTEX
  5
3AB5
  8
ALPHA
 10
-639.516778
 20
-51.363522
 30
0.0
  0
VERTEX
  5
3AB6
  8
ALPHA
 10
-640.156205
 20
-51.431667
 30
0.0
  0
VERTEX
  5
3AB7
  8
ALPHA
 10
-640.678367
 20
-51.617448
 30
0.0
  0
VERTEX
  5
3AB8
  8
ALPHA
 10
-641.030417
 20
-51.89288
 30
0.0
  0
VERTEX
  5
3AB9
  8
ALPHA
 10
-641.15951
 20
-52.229983
 30
0.0
  0
SEQEND
  5
3ABA
  8
ALPHA
  0
DIMENSION
  5
3095
  8
COTATION1
  2
*D4
 10
618.577703
 20
-63.811073
 30
0.0
 11
618.577703
 21
-62.311092
 31
0.0
 70
   128
 13
633.156426
 23
-60.811111
 33
0.0
 14
633.757188
 24
-63.811073
 34
0.0
 50
90.0
  0
DIMENSION
  5
30A3
  8
COTATION1
  2
*D5
 10
633.830469
 20
-35.544084
 30
0.0
 11
627.801898
 21
-33.944084
 31
0.0
  1
Ø<>
 13
634.830517
 23
-48.678744
 33
0.0
 14
633.830469
 24
-48.811105
 34
0.0
1001
ACAD
1000
DSTYLE
1002
{
1070
   271
1070
     3
1002
}
  0
DIMENSION
  5
30B1
  8
COTATION1
  2
*D6
 10
636.857175
 20
-40.48893
 30
0.0
 11
647.838177
 21
-40.48893
 31
0.0
 70
   128
  1
M<>x0.7
 13
632.857186
 23
-49.111105
 33
0.0
 14
636.857175
 24
-49.111105
 34
0.0
1001
ACAD
1000
DSTYLE
1002
{
1070
   271
1070
     3
1002
}
  0
DIMENSION
  5
30BF
  8
COTATION1
  2
*D7
 10
618.577703
 20
-60.811111
 30
0.0
 11
618.577703
 21
-54.311108
 31
0.0
 70
   128
 13
633.157186
 23
-48.811105
 33
0.0
 14
632.857136
 24
-60.811111
 34
0.0
 50
90.0
  0
POLYLINE
  5
31D0
  8
ALPHA
 66
     1
 10
0.0
 20
0.0
 30
0.0
  0
VERTEX
  5
3ABB
  8
ALPHA
 10
633.557188
 20
-63.611073
 30
0.0
  0
VERTEX
  5
3ABC
  8
ALPHA
 10
633.557188
 20
-60.811111
 30
0.0
  0
VERTEX
  5
3ABD
  8
ALPHA
 10
636.157172
 20
-60.811111
 30
0.0
  0
VERTEX
  5
3ABE
  8
ALPHA
 10
636.157172
 20
-63.611073
 30
0.0
  0
SEQEND
  5
3ABF
  8
ALPHA
  0
POLYLINE
  5
322D
  8
ALPHA
 66
     1
 10
0.0
 20
0.0
 30
0.0
 70
   128
  0
VERTEX
  5
3AC0
  8
ALPHA
 10
633.830469
 20
-2.330385
 30
0.0
  0
VERTEX
  5
3AC1
  8
ALPHA
 10
633.830469
 20
-2.463722
 30
0.0
  0
VERTEX
  5
3AC2
  8
ALPHA
 10
633.830469
 20
-2.852385
 30
0.0
  0
VERTEX
  5
3AC3
  8
ALPHA
 10
633.830469
 20
-3.479353
 30
0.0
  0
VERTEX
  5
3AC4
  8
ALPHA
 10
633.830469
 20
-4.327603
 30
0.0
  0
VERTEX
  5
3AC5
  8
ALPHA
 10
633.830469
 20
-5.380115
 30
0.0
  0
VERTEX
  5
3AC6
  8
ALPHA
 10
633.830469
 20
-6.619865
 30
0.0
  0
VERTEX
  5
3AC7
  8
ALPHA
 10
633.830469
 20
-8.029833
 30
0.0
  0
VERTEX
  5
3AC8
  8
ALPHA
 10
633.830469
 20
-9.592997
 30
0.0
  0
VERTEX
  5
3AC9
  8
ALPHA
 10
633.830469
 20
-13.110825
 30
0.0
  0
VERTEX
  5
3ACA
  8
ALPHA
 10
633.830469
 20
-17.037175
 30
0.0
  0
VERTEX
  5
3ACB
  8
ALPHA
 10
633.830469
 20
-25.570745
 30
0.0
  0
VERTEX
  5
3ACC
  8
ALPHA
 10
633.830469
 20
-34.104314
 30
0.0
  0
VERTEX
  5
3ACD
  8
ALPHA
 10
633.830469
 20
-38.030664
 30
0.0
  0
VERTEX
  5
3ACE
  8
ALPHA
 10
633.830469
 20
-41.548492
 30
0.0
  0
VERTEX
  5
3ACF
  8
ALPHA
 10
633.830469
 20
-43.111656
 30
0.0
  0
VERTEX
  5
3AD0
  8
ALPHA
 10
633.830469
 20
-44.521624
 30
0.0
  0
VERTEX
  5
3AD1
  8
ALPHA
 10
633.830469
 20
-45.761375
 30
0.0
  0
VERTEX
  5
3AD2
  8
ALPHA
 10
633.830469
 20
-46.813886
 30
0.0
  0
VERTEX
  5
3AD3
  8
ALPHA
 10
633.830469
 20
-47.662137
 30
0.0
  0
VERTEX
  5
3AD4
  8
ALPHA
 10
633.830469
 20
-48.289105
 30
0.0
  0
VERTEX
  5
3AD5
  8
ALPHA
 10
633.830469
 20
-48.677768
 30
0.0
  0
VERTEX
  5
3AD6
  8
ALPHA
 10
633.830469
 20
-48.811105
 30
0.0
  0
SEQEND
  5
3AD7
  8
ALPHA
  0
POLYLINE
  5
322F
  8
ALPHA
 66
     1
 10
0.0
 20
0.0
 30
0.0
 70
   128
  0
VERTEX
  5
3AD8
  8
ALPHA
 10
634.830517
 20
-48.811105
 30
0.0
  0
VERTEX
  5
3AD9
  8
ALPHA
 10
634.830517
 20
-48.688174
 30
0.0
  0
VERTEX
  5
3ADA
  8
ALPHA
 10
634.830517
 20
-48.329845
 30
0.0
  0
VERTEX
  5
3ADB
  8
ALPHA
 10
634.830517
 20
-47.751811
 30
0.0
  0
VERTEX
  5
3ADC
  8
ALPHA
 10
634.830517
 20
-46.969764
 30
0.0
  0
VERTEX
  5
3ADD
  8
ALPHA
 10
634.830517
 20
-45.999398
 30
0.0
  0
VERTEX
  5
3ADE
  8
ALPHA
 10
634.830517
 20
-44.856406
 30
0.0
  0
VERTEX
  5
3ADF
  8
ALPHA
 10
634.830517
 20
-42.115319
 30
0.0
  0
VERTEX
  5
3AE0
  8
ALPHA
 10
634.830517
 20
-38.872048
 30
0.0
  0
VERTEX
  5
3AE1
  8
ALPHA
 10
634.830517
 20
-35.252139
 30
0.0
  0
VERTEX
  5
3AE2
  8
ALPHA
 10
634.830517
 20
-27.384591
 30
0.0
  0
VERTEX
  5
3AE3
  8
ALPHA
 10
634.830517
 20
-19.517042
 30
0.0
  0
VERTEX
  5
3AE4
  8
ALPHA
 10
634.830517
 20
-15.897133
 30
0.0
  0
VERTEX
  5
3AE5
  8
ALPHA
 10
634.830517
 20
-12.653862
 30
0.0
  0
VERTEX
  5
3AE6
  8
ALPHA
 10
634.830517
 20
-9.912775
 30
0.0
  0
VERTEX
  5
3AE7
  8
ALPHA
 10
634.830517
 20
-8.769783
 30
0.0
  0
VERTEX
  5
3AE8
  8
ALPHA
 10
634.830517
 20
-7.799417
 30
0.0
  0
VERTEX
  5
3AE9
  8
ALPHA
 10
634.830517
 20
-7.01737
 30
0.0
  0
VERTEX
  5
3AEA
  8
ALPHA
 10
634.830517
 20
-6.439336
 30
0.0
  0
VERTEX
  5
3AEB
  8
ALPHA
 10
634.830517
 20
-6.081007
 30
0.0
  0
VERTEX
  5
3AEC
  8
ALPHA
 10
634.830517
 20
-5.958076
 30
0.0
  0
SEQEND
  5
3AED
  8
ALPHA
  0
LINE
  5
32A8
  8
AXE
 10
652.002732
 20
-54.830439
 30
0.0
 11
623.800364
 21
-54.830439
 31
0.0
  0
LINE
  5
32A9
  8
AXE
 10
634.830517
 20
6.048658
 30
0.0
 11
634.830517
 21
-87.266725
 31
0.0
  0
TEXT
  5
32AA
  8
AXE
 10
628.834264
 20
-87.434514
 30
0.0
 40
6.0
  1
Y
 72
     2
 11
633.691407
 21
-87.434514
 31
0.0
  0
TEXT
  5
32AB
  8
AXE
 10
646.827803
 20
-53.915778
 30
0.0
 40
6.0
  1
X
 72
     2
 11
651.684946
 21
-53.915778
 31
0.0
  0
LINE
  5
34DE
  8
ALPHA
 10
634.830517
 20
-2.330385
 30
0.0
 11
634.830517
 21
-5.958076
 31
0.0
  0
ARC
  5
34EB
  8
ALPHA
 10
627.830517
 20
-2.330385
 30
0.0
 40
7.0
 50
0.0
 51
90.0
  0
ARC
  5
34EC
  8
ALPHA
 10
627.830517
 20
-2.330385
 30
0.0
 40
6.0
 50
0.0
 51
90.0
  0
ARC
  5
34FC
  8
ALPHA
 10
641.830517
 20
-2.330385
 30
0.0
 40
6.0
 50
90.0
 51
180.0
  0
ARC
  5
34FD
  8
ALPHA
 10
641.830517
 20
-2.330385
 30
0.0
 40
7.0
 50
90.0
 51
180.0
  0
POLYLINE
  5
34FE
  8
ALPHA
 66
     1
 10
0.0
 20
0.0
 30
0.0
 70
   128
  0
VERTEX
  5
3AEE
  8
ALPHA
 10
635.830565
 20
-2.330385
 30
0.0
  0
VERTEX
  5
3AEF
  8
ALPHA
 10
635.830565
 20
-2.463722
 30
0.0
  0
VERTEX
  5
3AF0
  8
ALPHA
 10
635.830565
 20
-2.852385
 30
0.0
  0
VERTEX
  5
3AF1
  8
ALPHA
 10
635.830565
 20
-3.479353
 30
0.0
  0
VERTEX
  5
3AF2
  8
ALPHA
 10
635.830565
 20
-4.327603
 30
0.0
  0
VERTEX
  5
3AF3
  8
ALPHA
 10
635.830565
 20
-5.380115
 30
0.0
  0
VERTEX
  5
3AF4
  8
ALPHA
 10
635.830565
 20
-6.619865
 30
0.0
  0
VERTEX
  5
3AF5
  8
ALPHA
 10
635.830565
 20
-8.029833
 30
0.0
  0
VERTEX
  5
3AF6
  8
ALPHA
 10
635.830565
 20
-9.592997
 30
0.0
  0
VERTEX
  5
3AF7
  8
ALPHA
 10
635.830565
 20
-13.110825
 30
0.0
  0
VERTEX
  5
3AF8
  8
ALPHA
 10
635.830565
 20
-17.037175
 30
0.0
  0
VERTEX
  5
3AF9
  8
ALPHA
 10
635.830565
 20
-25.570745
 30
0.0
  0
VERTEX
  5
3AFA
  8
ALPHA
 10
635.830565
 20
-34.104314
 30
0.0
  0
VERTEX
  5
3AFB
  8
ALPHA
 10
635.830565
 20
-38.030664
 30
0.0
  0
VERTEX
  5
3AFC
  8
ALPHA
 10
635.830565
 20
-41.548492
 30
0.0
  0
VERTEX
  5
3AFD
  8
ALPHA
 10
635.830565
 20
-43.111656
 30
0.0
  0
VERTEX
  5
3AFE
  8
ALPHA
 10
635.830565
 20
-44.521624
 30
0.0
  0
VERTEX
  5
3AFF
  8
ALPHA
 10
635.830565
 20
-45.761375
 30
0.0
  0
VERTEX
  5
3B00
  8
ALPHA
 10
635.830565
 20
-46.813886
 30
0.0
  0
VERTEX
  5
3B01
  8
ALPHA
 10
635.830565
 20
-47.662137
 30
0.0
  0
VERTEX
  5
3B02
  8
ALPHA
 10
635.830565
 20
-48.289105
 30
0.0
  0
VERTEX
  5
3B03
  8
ALPHA
 10
635.830565
 20
-48.677768
 30
0.0
  0
VERTEX
  5
3B04
  8
ALPHA
 10
635.830565
 20
-48.811105
 30
0.0
  0
SEQEND
  5
3B05
  8
ALPHA
  0
POLYLINE
  5
34FF
  8
ALPHA
 66
     1
 10
0.0
 20
0.0
 30
0.0
 70
   128
  0
VERTEX
  5
3B06
  8
ALPHA
 10
634.830517
 20
-48.811105
 30
0.0
  0
VERTEX
  5
3B07
  8
ALPHA
 10
634.830517
 20
-48.688174
 30
0.0
  0
VERTEX
  5
3B08
  8
ALPHA
 10
634.830517
 20
-48.329845
 30
0.0
  0
VERTEX
  5
3B09
  8
ALPHA
 10
634.830517
 20
-47.751811
 30
0.0
  0
VERTEX
  5
3B0A
  8
ALPHA
 10
634.830517
 20
-46.969764
 30
0.0
  0
VERTEX
  5
3B0B
  8
ALPHA
 10
634.830517
 20
-45.999398
 30
0.0
  0
VERTEX
  5
3B0C
  8
ALPHA
 10
634.830517
 20
-44.856406
 30
0.0
  0
VERTEX
  5
3B0D
  8
ALPHA
 10
634.830517
 20
-42.115319
 30
0.0
  0
VERTEX
  5
3B0E
  8
ALPHA
 10
634.830517
 20
-38.872048
 30
0.0
  0
VERTEX
  5
3B0F
  8
ALPHA
 10
634.830517
 20
-35.252139
 30
0.0
  0
VERTEX
  5
3B10
  8
ALPHA
 10
634.830517
 20
-27.384591
 30
0.0
  0
VERTEX
  5
3B11
  8
ALPHA
 10
634.830517
 20
-19.517042
 30
0.0
  0
VERTEX
  5
3B12
  8
ALPHA
 10
634.830517
 20
-15.897133
 30
0.0
  0
VERTEX
  5
3B13
  8
ALPHA
 10
634.830517
 20
-12.653862
 30
0.0
  0
VERTEX
  5
3B14
  8
ALPHA
 10
634.830517
 20
-9.912775
 30
0.0
  0
VERTEX
  5
3B15
  8
ALPHA
 10
634.830517
 20
-8.769783
 30
0.0
  0
VERTEX
  5
3B16
  8
ALPHA
 10
634.830517
 20
-7.799417
 30
0.0
  0
VERTEX
  5
3B17
  8
ALPHA
 10
634.830517
 20
-7.01737
 30
0.0
  0
VERTEX
  5
3B18
  8
ALPHA
 10
634.830517
 20
-6.439336
 30
0.0
  0
VERTEX
  5
3B19
  8
ALPHA
 10
634.830517
 20
-6.081007
 30
0.0
  0
VERTEX
  5
3B1A
  8
ALPHA
 10
634.830517
 20
-5.958076
 30
0.0
  0
SEQEND
  5
3B1B
  8
ALPHA
  0
LINE
  5
3501
  8
ALPHA
 10
634.830517
 20
-2.330385
 30
0.0
 11
634.830517
 21
-5.958076
 31
0.0
  0
DIMENSION
  5
3540
  8
COTATION1
  2
*D8
 10
633.557188
 20
-73.897433
 30
0.0
 11
621.623855
 21
-72.297433
 31
0.0
  1
M<>x0.45
 13
636.157172
 23
-63.611073
 33
0.0
 14
633.557188
 24
-63.611073
 34
0.0
  0
LINE
  5
3663
  8
ALPHA
 10
636.857175
 20
-49.111105
 30
0.0
 11
632.857186
 21
-49.111105
 31
0.0
  0
POLYLINE
  5
3664
  8
ALPHA
 66
     1
 10
0.0
 20
0.0
 30
0.0
  0
VERTEX
  5
3B1C
  8
ALPHA
 10
636.557175
 20
-48.811105
 30
0.0
  0
VERTEX
  5
3B1D
  8
ALPHA
 10
633.157186
 20
-48.811105
 30
0.0
  0
SEQEND
  5
3B1E
  8
ALPHA
  0
LINE
  5
3665
  8
ALPHA
 10
633.157186
 20
-48.811105
 30
0.0
 11
632.857186
 21
-49.111105
 31
0.0
  0
LINE
  5
3666
  8
ALPHA_FIN
 10
633.157186
 20
-48.811105
 30
0.0
 11
633.157186
 21
-51.305543
 31
0.0
  0
POLYLINE
  5
3667
  8
ALPHA
 66
     1
 10
0.0
 20
0.0
 30
0.0
  0
VERTEX
  5
3B1F
  8
ALPHA
 10
632.857186
 20
-49.111105
 30
0.0
  0
VERTEX
  5
3B20
  8
ALPHA
 10
632.857186
 20
-51.305543
 30
0.0
  0
SEQEND
  5
3B21
  8
ALPHA
  0
LINE
  5
3668
  8
ALPHA
 10
636.557175
 20
-48.811105
 30
0.0
 11
636.857175
 21
-49.111105
 31
0.0
  0
POLYLINE
  5
3669
  8
ALPHA_FIN
 66
     1
 10
0.0
 20
0.0
 30
0.0
  0
VERTEX
  5
3B22
  8
ALPHA_FIN
 10
636.557175
 20
-51.305543
 30
0.0
  0
VERTEX
  5
3B23
  8
ALPHA_FIN
 10
636.557175
 20
-48.811105
 30
0.0
  0
SEQEND
  5
3B24
  8
ALPHA_FIN
  0
POLYLINE
  5
366A
  8
ALPHA
 66
     1
 10
0.0
 20
0.0
 30
0.0
  0
VERTEX
  5
3B25
  8
ALPHA
 10
636.857175
 20
-51.305543
 30
0.0
  0
VERTEX
  5
3B26
  8
ALPHA
 10
636.857175
 20
-49.111105
 30
0.0
  0
SEQEND
  5
3B27
  8
ALPHA
  0
LINE
  5
36B0
  8
ALPHA
 10
632.857946
 20
-60.511111
 30
0.0
 11
636.857934
 21
-60.511111
 31
0.0
  0
LINE
  5
36B1
  8
ALPHA
 10
632.857946
 20
-60.511111
 30
0.0
 11
633.156426
 21
-60.811111
 31
0.0
  0
POLYLINE
  5
36B2
  8
ALPHA
 66
     1
 10
0.0
 20
0.0
 30
0.0
  0
VERTEX
  5
3B28
  8
ALPHA
 10
632.857946
 20
-59.512762
 30
0.0
  0
VERTEX
  5
3B29
  8
ALPHA
 10
632.857946
 20
-60.511111
 30
0.0
  0
SEQEND
  5
3B2A
  8
ALPHA
  0
POLYLINE
  5
36B3
  8
ALPHA
 66
     1
 10
0.0
 20
0.0
 30
0.0
  0
VERTEX
  5
3B2B
  8
ALPHA
 10
636.857934
 20
-60.511111
 30
0.0
  0
VERTEX
  5
3B2C
  8
ALPHA
 10
636.857934
 20
-59.512762
 30
0.0
  0
SEQEND
  5
3B2D
  8
ALPHA
  0
POLYLINE
  5
36B4
  8
ALPHA
 66
     1
 10
0.0
 20
0.0
 30
0.0
  0
VERTEX
  5
3B2E
  8
ALPHA
 10
633.156426
 20
-60.811111
 30
0.0
  0
VERTEX
  5
3B2F
  8
ALPHA
 10
636.557934
 20
-60.811111
 30
0.0
  0
SEQEND
  5
3B30
  8
ALPHA
  0
LINE
  5
36B5
  8
ALPHA_FIN
 10
636.557934
 20
-60.811111
 30
0.0
 11
636.557934
 21
-59.512762
 31
0.0
  0
LINE
  5
36B6
  8
ALPHA
 10
636.857934
 20
-60.511111
 30
0.0
 11
636.557934
 21
-60.811111
 31
0.0
  0
POLYLINE
  5
36B7
  8
ALPHA_FIN
 66
     1
 10
0.0
 20
0.0
 30
0.0
  0
VERTEX
  5
3B31
  8
ALPHA_FIN
 10
633.156426
 20
-59.495398
 30
0.0
  0
VERTEX
  5
3B32
  8
ALPHA_FIN
 10
633.156426
 20
-60.811111
 30
0.0
  0
SEQEND
  5
3B33
  8
ALPHA_FIN
  0
LINE
  5
36D8
  8
ALPHA_FIN
 62
     7
 10
635.957172
 20
-60.811111
 30
0.0
 11
635.957172
 21
-63.811073
 31
0.0
  0
LINE
  5
36D9
  8
ALPHA
 10
636.157172
 20
-63.611073
 30
0.0
 11
633.557188
 21
-63.611073
 31
0.0
  0
LINE
  5
36DA
  8
ALPHA_FIN
 62
     7
 10
633.757188
 20
-63.811073
 30
0.0
 11
633.757188
 21
-60.811111
 31
0.0
  0
LINE
  5
36DB
  8
ALPHA
 10
636.157172
 20
-63.611073
 30
0.0
 11
635.957172
 21
-63.811073
 31
0.0
  0
LINE
  5
36DC
  8
ALPHA
 10
633.557188
 20
-63.611073
 30
0.0
 11
633.757188
 21
-63.811073
 31
0.0
  0
POLYLINE
  5
36DD
  8
ALPHA
 66
     1
 10
0.0
 20
0.0
 30
0.0
  0
VERTEX
  5
3B34
  8
ALPHA
 10
635.957172
 20
-63.811073
 30
0.0
  0
VERTEX
  5
3B35
  8
ALPHA
 10
633.757188
 20
-63.811073
 30
0.0
  0
SEQEND
  5
3B36
  8
ALPHA
  0
ENDSEC
  0
EOF
