  0
SECTION
  2
HEADER
  9
$ACADVER
  1
AC1014
  9
$ACADMAINTVER
 70
     0
  9
$DWGCODEPAGE
  3
ANSI_1252
  9
$INSBASE
 10
93.894301
 20
236.06014
 30
0.0
  9
$EXTMIN
 10
0.105744
 20
-6.897491
 30
0.0
  9
$EXTMAX
 10
39.006501
 20
57.386948
 30
0.0
  9
$LIMMIN
 10
0.0
 20
0.0
  9
$LIMMAX
 10
210.0
 20
297.0
  9
$ORTHOMODE
 70
     0
  9
$REGENMODE
 70
     1
  9
$FILLMODE
 70
     1
  9
$QTEXTMODE
 70
     0
  9
$MIRRTEXT
 70
     0
  9
$DRAGMODE
 70
     1
  9
$LTSCALE
 40
7.0
  9
$OSMODE
 70
  4095
  9
$ATTMODE
 70
     1
  9
$TEXTSIZE
 40
2.5
  9
$TRACEWID
 40
0.05
  9
$TEXTSTYLE
  7
STANDARD
  9
$CLAYER
  8
COTATION1
  9
$CELTYPE
  6
BYLAYER
  9
$CECOLOR
 62
   256
  9
$CELTSCALE
 40
1.0
  9
$DELOBJ
 70
     1
  9
$DISPSILH
 70
     0
  9
$DIMSCALE
 40
1.0
  9
$DIMASZ
 40
3.0
  9
$DIMEXO
 40
0.0625
  9
$DIMDLI
 40
0.38
  9
$DIMRND
 40
0.01
  9
$DIMDLE
 40
0.0
  9
$DIMEXE
 40
0.18
  9
$DIMTP
 40
0.0
  9
$DIMTM
 40
0.0
  9
$DIMTXT
 40
2.5
  9
$DIMCEN
 40
0.09
  9
$DIMTSZ
 40
0.0
  9
$DIMTOL
 70
     0
  9
$DIMLIM
 70
     0
  9
$DIMTIH
 70
     0
  9
$DIMTOH
 70
     0
  9
$DIMSE1
 70
     0
  9
$DIMSE2
 70
     0
  9
$DIMTAD
 70
     1
  9
$DIMZIN
 70
    12
  9
$DIMBLK
  1

  9
$DIMASO
 70
     1
  9
$DIMSHO
 70
     0
  9
$DIMPOST
  1

  9
$DIMAPOST
  1

  9
$DIMALT
 70
     0
  9
$DIMALTD
 70
     2
  9
$DIMALTF
 40
25.4
  9
$DIMLFAC
 40
1.0
  9
$DIMTOFL
 70
     1
  9
$DIMTVP
 40
0.0
  9
$DIMTIX
 70
     0
  9
$DIMSOXD
 70
     0
  9
$DIMSAH
 70
     0
  9
$DIMBLK1
  1

  9
$DIMBLK2
  1

  9
$DIMSTYLE
  2
SC_STAND
  9
$DIMCLRD
 70
     0
  9
$DIMCLRE
 70
     0
  9
$DIMCLRT
 70
     0
  9
$DIMTFAC
 40
1.0
  9
$DIMGAP
 40
1.0
  9
$DIMJUST
 70
     0
  9
$DIMSD1
 70
     0
  9
$DIMSD2
 70
     0
  9
$DIMTOLJ
 70
     1
  9
$DIMTZIN
 70
    12
  9
$DIMALTZ
 70
    12
  9
$DIMALTTZ
 70
    12
  9
$DIMFIT
 70
     5
  9
$DIMUPT
 70
     0
  9
$DIMUNIT
 70
     2
  9
$DIMDEC
 70
     3
  9
$DIMTDEC
 70
     3
  9
$DIMALTU
 70
     2
  9
$DIMALTTD
 70
     2
  9
$DIMTXSTY
  7
STANDARD
  9
$DIMAUNIT
 70
     0
  9
$LUNITS
 70
     2
  9
$LUPREC
 70
     3
  9
$SKETCHINC
 40
0.1
  9
$FILLETRAD
 40
0.0625
  9
$AUNITS
 70
     0
  9
$AUPREC
 70
     0
  9
$MENU
  1
ACAD
  9
$ELEVATION
 40
0.0
  9
$PELEVATION
 40
0.0
  9
$THICKNESS
 40
0.0
  9
$LIMCHECK
 70
     0
  9
$BLIPMODE
 70
     1
  9
$CHAMFERA
 40
0.0
  9
$CHAMFERB
 40
0.0
  9
$CHAMFERC
 40
0.0
  9
$CHAMFERD
 40
0.0
  9
$SKPOLY
 70
     0
  9
$TDCREATE
 40
2450953.590960648
  9
$TDUPDATE
 40
2453721.502240764
  9
$TDINDWG
 40
0.0120125347
  9
$TDUSRTIMER
 40
0.0120125347
  9
$USRTIMER
 70
     1
  9
$ANGBASE
 50
0.0
  9
$ANGDIR
 70
     0
  9
$PDMODE
 70
     0
  9
$PDSIZE
 40
0.0
  9
$PLINEWID
 40
0.0
  9
$COORDS
 70
     0
  9
$SPLFRAME
 70
     0
  9
$SPLINETYPE
 70
     6
  9
$SPLINESEGS
 70
     8
  9
$ATTDIA
 70
     0
  9
$ATTREQ
 70
     1
  9
$HANDLING
 70
     1
  9
$HANDSEED
  5
207F
  9
$SURFTAB1
 70
     6
  9
$SURFTAB2
 70
     6
  9
$SURFTYPE
 70
     6
  9
$SURFU
 70
     6
  9
$SURFV
 70
     6
  9
$UCSNAME
  2

  9
$UCSORG
 10
0.0
 20
0.0
 30
0.0
  9
$UCSXDIR
 10
1.0
 20
0.0
 30
0.0
  9
$UCSYDIR
 10
0.0
 20
1.0
 30
0.0
  9
$PUCSNAME
  2

  9
$PUCSORG
 10
0.0
 20
0.0
 30
0.0
  9
$PUCSXDIR
 10
1.0
 20
0.0
 30
0.0
  9
$PUCSYDIR
 10
0.0
 20
1.0
 30
0.0
  9
$USERI1
 70
     0
  9
$USERI2
 70
     0
  9
$USERI3
 70
     0
  9
$USERI4
 70
     0
  9
$USERI5
 70
     0
  9
$USERR1
 40
0.0
  9
$USERR2
 40
0.0
  9
$USERR3
 40
0.0
  9
$USERR4
 40
0.0
  9
$USERR5
 40
0.0
  9
$WORLDVIEW
 70
     1
  9
$SHADEDGE
 70
     3
  9
$SHADEDIF
 70
    70
  9
$TILEMODE
 70
     1
  9
$MAXACTVP
 70
    32
  9
$PINSBASE
 10
0.0
 20
0.0
 30
0.0
  9
$PLIMCHECK
 70
     0
  9
$PEXTMIN
 10
-3.174999
 20
-3.175
 30
0.0
  9
$PEXTMAX
 10
203.812116
 20
370.276807
 30
0.0
  9
$PLIMMIN
 10
-3.175
 20
-3.175
  9
$PLIMMAX
 10
203.812115
 20
370.276807
  9
$UNITMODE
 70
     0
  9
$VISRETAIN
 70
     0
  9
$PLINEGEN
 70
     0
  9
$PSLTSCALE
 70
     1
  9
$TREEDEPTH
 70
  3020
  9
$PICKSTYLE
 70
     1
  9
$CMLSTYLE
  2
STANDARD
  9
$CMLJUST
 70
     0
  9
$CMLSCALE
 40
1.0
  9
$PROXYGRAPHICS
 70
     1
  9
$MEASUREMENT
 70
     0
  0
ENDSEC
  0
SECTION
  2
CLASSES
  0
CLASS
  1
DICTIONARYVAR
  2
AcDbDictionaryVar
  3
"AutoCAD"
 90
        0
280
     0
281
     0
  0
CLASS
  1
HATCH
  2
AcDbHatch
  3
"ACAD_SEDONA"
 90
        0
280
     0
281
     1
  0
ENDSEC
  0
SECTION
  2
TABLES
  0
TABLE
  2
VPORT
  5
F4
100
AcDbSymbolTable
 70
     3
  0
VPORT
  5
207E
100
AcDbSymbolTableRecord
100
AcDbViewportTableRecord
  2
*ACTIVE
 70
     0
 10
0.0
 20
0.0
 11
1.0
 21
1.0
 12
19.556122
 22
25.244729
 13
0.0
 23
0.0
 14
1.0
 24
1.0
 15
10.0
 25
10.0
 16
0.0
 26
0.0
 36
1.0
 17
0.0
 27
0.0
 37
0.0
 40
64.787316
 41
1.643603
 42
50.0
 43
0.0
 44
0.0
 50
0.0
 51
0.0
 71
     0
 72
   100
 73
     1
 74
     1
 75
     0
 76
     1
 77
     0
 78
     0
  0
ENDTAB
  0
TABLE
  2
LTYPE
  5
F1
100
AcDbSymbolTable
 70
     5
  0
LTYPE
  5
FD
100
AcDbSymbolTableRecord
100
AcDbLinetypeTableRecord
  2
BYBLOCK
 70
     0
  3

 72
    65
 73
     0
 40
0.0
  0
LTYPE
  5
FE
100
AcDbSymbolTableRecord
100
AcDbLinetypeTableRecord
  2
BYLAYER
 70
     0
  3

 72
    65
 73
     0
 40
0.0
  0
LTYPE
  5
FF
100
AcDbSymbolTableRecord
100
AcDbLinetypeTableRecord
  2
CONTINUOUS
 70
     0
  3
Solid line
 72
    65
 73
     0
 40
0.0
  0
ENDTAB
  0
TABLE
  2
LAYER
  5
EE
100
AcDbSymbolTable
 70
     5
  0
LAYER
  5
FA
100
AcDbSymbolTableRecord
100
AcDbLayerTableRecord
  2
0
 70
     0
 62
     7
  6
CONTINUOUS
  0
LAYER
  5
12C
100
AcDbSymbolTableRecord
100
AcDbLayerTableRecord
  2
ALPHA
 70
     0
 62
   255
  6
CONTINUOUS
  0
LAYER
  5
12F
100
AcDbSymbolTableRecord
100
AcDbLayerTableRecord
  2
COTATION1
 70
     0
 62
     2
  6
CONTINUOUS
  0
LAYER
  5
13B
100
AcDbSymbolTableRecord
100
AcDbLayerTableRecord
  2
ASHADE
 70
     0
 62
     7
  6
CONTINUOUS
  0
LAYER
  5
13E
100
AcDbSymbolTableRecord
100
AcDbLayerTableRecord
  2
DEFPOINTS
 70
     0
 62
     7
  6
CONTINUOUS
  0
ENDTAB
  0
TABLE
  2
STYLE
  5
EF
100
AcDbSymbolTable
 70
     2
  0
STYLE
  5
FB
100
AcDbSymbolTableRecord
100
AcDbTextStyleTableRecord
  2
STANDARD
 70
     0
 40
0.0
 41
1.0
 50
0.0
 71
     0
 42
2.5
  3
txt
  4

  0
ENDTAB
  0
TABLE
  2
VIEW
  5
F2
100
AcDbSymbolTable
 70
     0
  0
ENDTAB
  0
TABLE
  2
UCS
  5
F3
100
AcDbSymbolTable
 70
     0
  0
ENDTAB
  0
TABLE
  2
APPID
  5
F5
100
AcDbSymbolTable
 70
     3
  0
APPID
  5
FC
100
AcDbSymbolTableRecord
100
AcDbRegAppTableRecord
  2
ACAD
 70
     0
  0
APPID
  5
127
100
AcDbSymbolTableRecord
100
AcDbRegAppTableRecord
  2
AVE_RENDER
 70
     0
  0
APPID
  5
128
100
AcDbSymbolTableRecord
100
AcDbRegAppTableRecord
  2
AVE_MATERIAL
 70
     0
  0
ENDTAB
  0
TABLE
  2
DIMSTYLE
  5
F6
100
AcDbSymbolTable
 70
     2
  0
DIMSTYLE
105
129
100
AcDbSymbolTableRecord
100
AcDbDimStyleTableRecord
  2
STANDARD
 70
     0
  3

  4

  5

  6

  7

 40
1.0
 41
0.18
 42
0.0625
 43
0.38
 44
0.18
 45
0.0
 46
0.0
 47
0.0
 48
0.0
140
0.18
141
0.09
142
0.0
143
25.4
144
1.0
145
0.0
146
1.0
147
0.09
 71
     0
 72
     0
 73
     1
 74
     1
 75
     0
 76
     0
 77
     0
 78
     0
170
     0
171
     2
172
     0
173
     0
174
     0
175
     0
176
     0
177
     0
178
     0
270
     2
271
     3
272
     3
273
     2
274
     2
340
FB
275
     0
280
     0
281
     0
282
     0
283
     1
284
    12
285
    12
286
    12
287
     5
288
     0
  0
DIMSTYLE
105
12A
102
{ACAD_REACTORS
330
2025
330
203D
330
204A
330
2072
102
}
100
AcDbSymbolTableRecord
100
AcDbDimStyleTableRecord
  2
SC_STAND
 70
     0
  3

  4

  5

  6

  7

 40
1.0
 41
3.0
 42
0.0625
 43
0.38
 44
0.18
 45
0.01
 46
0.0
 47
0.0
 48
0.0
140
2.5
141
0.09
142
0.0
143
25.4
144
1.0
145
0.0
146
1.0
147
1.0
 71
     0
 72
     0
 73
     0
 74
     0
 75
     0
 76
     0
 77
     1
 78
    12
170
     0
171
     2
172
     1
173
     0
174
     0
175
     0
176
     0
177
     0
178
     0
270
     2
271
     3
272
     3
273
     2
274
     2
340
FB
275
     0
280
     0
281
     0
282
     0
283
     1
284
    12
285
    12
286
    12
287
     5
288
     0
  0
ENDTAB
  0
TABLE
  2
BLOCK_RECORD
  5
ED
100
AcDbSymbolTable
 70
    11
  0
BLOCK_RECORD
  5
103
100
AcDbSymbolTableRecord
100
AcDbBlockTableRecord
  2
*MODEL_SPACE
  0
BLOCK_RECORD
  5
100
100
AcDbSymbolTableRecord
100
AcDbBlockTableRecord
  2
*PAPER_SPACE
  0
BLOCK_RECORD
  5
108
100
AcDbSymbolTableRecord
100
AcDbBlockTableRecord
  2
AVE_RENDER
  0
BLOCK_RECORD
  5
109
100
AcDbSymbolTableRecord
100
AcDbBlockTableRecord
  2
AVE_GLOBAL
  0
BLOCK_RECORD
  5
10A
100
AcDbSymbolTableRecord
100
AcDbBlockTableRecord
  2
SCH_IS
  0
BLOCK_RECORD
  5
2019
100
AcDbSymbolTableRecord
100
AcDbBlockTableRecord
  2
*D7
  0
BLOCK_RECORD
  5
2031
100
AcDbSymbolTableRecord
100
AcDbBlockTableRecord
  2
*D8
  0
BLOCK_RECORD
  5
203E
100
AcDbSymbolTableRecord
100
AcDbBlockTableRecord
  2
*D9
  0
BLOCK_RECORD
  5
2066
100
AcDbSymbolTableRecord
100
AcDbBlockTableRecord
  2
*D10
  0
ENDTAB
  0
ENDSEC
  0
SECTION
  2
BLOCKS
  0
BLOCK
  5
141
100
AcDbEntity
  8
0
100
AcDbBlockBegin
  2
*MODEL_SPACE
 70
     0
 10
0.0
 20
0.0
 30
0.0
  3
*MODEL_SPACE
  1

  0
ENDBLK
  5
142
100
AcDbEntity
  8
0
100
AcDbBlockEnd
  0
BLOCK
  5
13F
100
AcDbEntity
 67
     1
  8
0
100
AcDbBlockBegin
  2
*PAPER_SPACE
 70
     0
 10
0.0
 20
0.0
 30
0.0
  3
*PAPER_SPACE
  1

  0
ENDBLK
  5
140
100
AcDbEntity
 67
     1
  8
0
100
AcDbBlockEnd
  0
BLOCK
  5
8D
100
AcDbEntity
  8
0
100
AcDbBlockBegin
  2
AVE_RENDER
 70
     0
 10
0.0
 20
0.0
 30
0.0
  3
AVE_RENDER
  1
AVE_RENDER
  0
ENDBLK
  5
8E
100
AcDbEntity
  8
0
100
AcDbBlockEnd
  0
BLOCK
  5
90
100
AcDbEntity
  8
0
100
AcDbBlockBegin
  2
AVE_GLOBAL
 70
     0
 10
0.0
 20
0.0
 30
0.0
  3
AVE_GLOBAL
  1
AVE_GLOBAL
  0
ENDBLK
  5
91
100
AcDbEntity
  8
0
100
AcDbBlockEnd
  0
BLOCK
  5
C9
100
AcDbEntity
  8
0
100
AcDbBlockBegin
  2
SCH_IS
 70
     0
 10
0.0
 20
0.0
 30
0.0
  3
SCH_IS
  1

  0
INSERT
  5
C0
100
AcDbEntity
  8
ASHADE
 62
     1
100
AcDbBlockReference
  2
AVE_RENDER
 10
0.0
 20
0.0
 30
0.0
1001
AVE_RENDER
1002
{
1070
     6
1000
Pref
1070
    50
1070
    20
1070
     1
1070
     0
1000

1070
    10
1070
     1
1070
    30
1040
25.4
1070
     1
1040
0.3
1040
0.7
1040
0.0
1040
10.0
1010
-1.0
1020
-1.0
1030
-1.0
1040
0.3
1070
    49
1070
     0
1070
     0
1010
1.0
1020
1.0
1030
1.0
1040
45.0
1070
     1
1070
     0
1000
WCS
1040
0.0
1002
}
  0
INSERT
  5
C1
100
AcDbEntity
  8
ASHADE
 62
     3
100
AcDbBlockReference
  2
AVE_RENDER
 10
0.0
 20
0.0
 30
0.0
1001
AVE_RENDER
1002
{
1070
     0
1000
Full Opt
1070
     0
1070
     1
1070
     1
1070
     1
1070
     0
1070
     0
1070
     0
1070
     1
1070
     1
1040
0.0001
1040
0.0001
1002
}
  0
INSERT
  5
C2
100
AcDbEntity
  8
ASHADE
 62
     4
100
AcDbBlockReference
  2
AVE_RENDER
 10
0.0
 20
0.0
 30
0.0
1001
AVE_RENDER
1002
{
1070
     0
1000
Quick Opt
1070
     0
1070
     1
1070
     1
1070
     1
1070
     0
1070
     0
1070
     1
1002
}
  0
INSERT
  5
C3
100
AcDbEntity
  8
ASHADE
 62
     5
100
AcDbBlockReference
  2
AVE_RENDER
 10
0.0
 20
0.0
 30
0.0
1001
AVE_RENDER
1002
{
1070
     1
1000
Scanl Opt
1070
     2
1070
     0
1070
     2
1040
2.0
1040
4.0
1070
     0
1070
     1
1070
     0
1040
0.03
1002
}
  0
INSERT
  5
C4
100
AcDbEntity
  8
ASHADE
 62
     6
100
AcDbBlockReference
  2
AVE_RENDER
 10
0.0
 20
0.0
 30
0.0
1001
AVE_RENDER
1002
{
1070
     2
1000
Raytr Opt
1070
     2
1070
     0
1070
     2
1040
2.0
1040
4.0
1070
     0
1070
     1
1070
     1
1040
0.03
1070
     3
1040
0.03
1002
}
  0
INSERT
  5
C5
100
AcDbEntity
  8
ASHADE
 62
     7
100
AcDbBlockReference
  2
AVE_RENDER
 10
0.0
 20
0.0
 30
0.0
1001
AVE_RENDER
1002
{
1070
     0
1000
RFile Opt
1070
     5
1070
   640
1070
   480
1070
 10000
1070
     3
1070
    32
1070
    24
1070
     0
1070
     0
1070
     0
1070
     1
1070
     0
1070
     0
1070
     0
1002
}
  0
INSERT
  5
C6
100
AcDbEntity
  8
ASHADE
 62
     8
100
AcDbBlockReference
  2
AVE_RENDER
 10
0.0
 20
0.0
 30
0.0
1001
AVE_RENDER
1002
{
1070
     0
1000
Fog Opt
1070
     0
1070
     0
1040
0.0
1040
1.0
1040
0.0
1040
1.0
1010
0.5
1020
0.5
1030
0.5
1002
}
  0
INSERT
  5
C7
100
AcDbEntity
  8
ASHADE
 62
     9
100
AcDbBlockReference
  2
AVE_RENDER
 10
0.0
 20
0.0
 30
0.0
1001
AVE_RENDER
1002
{
1070
     0
1000
BG Opt
1070
     0
1070
     1
1010
0.0
1020
0.0
1030
0.0
1010
1.0
1020
0.0
1030
0.0
1010
0.0
1020
1.0
1030
0.0
1010
0.0
1020
0.0
1030
1.0
1040
0.5
1040
0.33
1040
0.0
1000

1070
     1
1000

1070
     1
1070
     1
1040
1.0
1040
1.0
1040
0.0
1040
0.0
1070
     0
1002
}
  0
INSERT
  5
C8
100
AcDbEntity
  8
ASHADE
 62
     1
100
AcDbBlockReference
  2
AVE_GLOBAL
 10
0.0
 20
0.0
 30
0.0
1001
AVE_MATERIAL
1002
{
1000
*GLOBAL*
1000
1
1000
Finition globale.
1002
{
1002
}
1002
{
1070
    63
1002
{
1002
{
1010
-1.0
1020
-1.0
1030
-1.0
1002
}
1040
0.1
1000

1040
0.0
1002
{
1002
}
1040
0.0
1002
{
1002
}
1040
0.0
1002
}
1002
{
1002
{
1010
-1.0
1020
-1.0
1030
-1.0
1002
}
1040
0.7
1000

1040
0.0
1002
{
1002
}
1040
0.0
1002
{
1002
}
1040
0.0
1002
}
1002
{
1002
{
1010
-1.0
1020
-1.0
1030
-1.0
1002
}
1040
0.2
1000

1040
0.0
1002
{
1002
}
1040
0.0
1002
{
1002
}
1040
0.0
1002
}
1002
{
1070
     0
1002
{
1070
     1
1002
{
1040
1.0
1040
1.0
1000

1040
0.0
1002
{
1002
}
1040
0.0
1002
{
1002
}
1040
0.0
1002
}
1002
}
1040
1.0
1040
0.0
1040
0.0
1002
}
1002
{
1040
1.0
1040
1.0
1000

1040
0.0
1002
{
1002
}
1040
0.0
1002
{
1002
}
1040
0.0
1002
}
1002
{
1040
0.5
1040
1.0
1000

1040
0.0
1002
{
1002
}
1040
0.0
1002
{
1002
}
1040
0.0
1002
}
1002
{
1070
     0
1040
0.0
1002
{
1002
}
1040
1.0
1002
{
1002
}
1040
0.0
1002
}
1002
{
1040
0.0
1002
{
1002
{
1010
0.0
1020
0.0
1030
0.0
1002
}
1040
1.0
1000

1040
0.0
1002
{
1002
}
1040
0.0
1002
{
1002
}
1040
0.0
1002
}
1002
}
1002
{
1002
{
1070
     1
1002
{
1040
0.0
1040
1.0
1000

1040
0.0
1002
{
1002
}
1040
0.0
1002
{
1002
}
1040
0.0
1002
}
1002
}
1040
0.0
1002
{
1002
}
1010
1.0
1020
0.0
1030
0.0
1010
0.0
1020
1.0
1030
0.0
1010
0.0
1020
0.0
1030
1.0
1070
     0
1002
}
1002
{
1002
{
1040
1.0
1040
1.0
1002
{
1070
     1
1002
{
1040
1.0
1040
1.0
1000

1040
0.0
1002
{
1002
}
1040
0.0
1002
{
1002
}
1040
0.0
1002
}
1002
}
1002
}
1070
     0
1040
0.0
1002
{
1002
}
1002
}
1002
{
1002
}
1002
}
1002
{
1071
        3
1070
     3
1070
     0
1002
{
1070
     2
1070
     0
1070
     0
1040
0.0
1002
}
1070
     0
1070
     2
1002
{
1002
}
1002
}
1002
{
1040
8030.0
1040
190.300003
1040
0.305
1040
228.0
1040
545.0
1040
14.0
1040
17.4
1040
0.456
1002
}
1002
}
  0
ENDBLK
  5
CA
100
AcDbEntity
  8
0
100
AcDbBlockEnd
  0
BLOCK
  5
2026
100
AcDbEntity
  8
0
100
AcDbBlockBegin
  2
*D7
 70
     1
 10
0.0
 20
0.0
 30
0.0
  3
*D7
  1

  0
LINE
  5
2027
100
AcDbEntity
  8
0
  6
BYBLOCK
 62
     0
100
AcDbLine
 10
3.76315
 20
48.678612
 30
0.0
 11
3.76315
 21
54.046148
 31
0.0
  0
LINE
  5
2028
100
AcDbEntity
  8
0
  6
BYBLOCK
 62
     0
100
AcDbLine
 10
21.76274
 20
48.678612
 30
0.0
 11
21.76274
 21
54.046148
 31
0.0
  0
LINE
  5
2029
100
AcDbEntity
  8
0
  6
BYBLOCK
 62
     0
100
AcDbLine
 10
6.76315
 20
53.866148
 30
0.0
 11
18.76274
 21
53.866148
 31
0.0
  0
SOLID
  5
202A
100
AcDbEntity
  8
0
  6
BYBLOCK
 62
     0
100
AcDbTrace
 10
6.76315
 20
54.366148
 30
0.0
 11
6.76315
 21
53.366148
 31
0.0
 12
3.76315
 22
53.866148
 32
0.0
 13
3.76315
 23
53.866148
 33
0.0
  0
SOLID
  5
202B
100
AcDbEntity
  8
0
  6
BYBLOCK
 62
     0
100
AcDbTrace
 10
18.76274
 20
54.366148
 30
0.0
 11
18.76274
 21
53.366148
 31
0.0
 12
21.76274
 22
53.866148
 32
0.0
 13
21.76274
 23
53.866148
 33
0.0
  0
MTEXT
  5
202C
100
AcDbEntity
  8
0
  6
BYBLOCK
 62
     0
100
AcDbMText
 10
12.762945
 20
56.116148
 30
0.0
 40
2.5
 41
0.0
 71
     5
 72
     1
  1
\A1;M18
  0
POINT
  5
202D
100
AcDbEntity
  8
DEFPOINTS
  6
BYBLOCK
 62
     0
100
AcDbPoint
 10
3.76315
 20
48.616112
 30
0.0
  0
POINT
  5
202E
100
AcDbEntity
  8
DEFPOINTS
  6
BYBLOCK
 62
     0
100
AcDbPoint
 10
21.76274
 20
48.616112
 30
0.0
  0
POINT
  5
202F
100
AcDbEntity
  8
DEFPOINTS
  6
BYBLOCK
 62
     0
100
AcDbPoint
 10
21.76274
 20
53.866148
 30
0.0
  0
ENDBLK
  5
2030
100
AcDbEntity
  8
0
100
AcDbBlockEnd
  0
BLOCK
  5
2032
100
AcDbEntity
  8
0
100
AcDbBlockBegin
  2
*D8
 70
     1
 10
0.0
 20
0.0
 30
0.0
  3
*D8
  1

  0
LINE
  5
2033
100
AcDbEntity
  8
0
  6
BYBLOCK
 62
     0
100
AcDbLine
 10
21.82524
 20
48.616112
 30
0.0
 11
31.889159
 21
48.616112
 31
0.0
  0
LINE
  5
2034
100
AcDbEntity
  8
0
  6
BYBLOCK
 62
     0
100
AcDbLine
 10
21.82524
 20
20.616098
 30
0.0
 11
31.889159
 21
20.616098
 31
0.0
  0
LINE
  5
2035
100
AcDbEntity
  8
0
  6
BYBLOCK
 62
     0
100
AcDbLine
 10
31.709159
 20
45.616112
 30
0.0
 11
31.709159
 21
23.616098
 31
0.0
  0
SOLID
  5
2036
100
AcDbEntity
  8
0
  6
BYBLOCK
 62
     0
100
AcDbTrace
 10
31.209159
 20
45.616112
 30
0.0
 11
32.209159
 21
45.616112
 31
0.0
 12
31.709159
 22
48.616112
 32
0.0
 13
31.709159
 23
48.616112
 33
0.0
  0
SOLID
  5
2037
100
AcDbEntity
  8
0
  6
BYBLOCK
 62
     0
100
AcDbTrace
 10
31.209159
 20
23.616098
 30
0.0
 11
32.209159
 21
23.616098
 31
0.0
 12
31.709159
 22
20.616098
 32
0.0
 13
31.709159
 23
20.616098
 33
0.0
  0
MTEXT
  5
2038
100
AcDbEntity
  8
0
  6
BYBLOCK
 62
     0
100
AcDbMText
 10
29.459159
 20
34.616105
 30
0.0
 40
2.5
 41
0.0
 71
     5
 72
     1
  1
\A1;28
 11
0.0
 21
1.0
 31
0.0
  0
POINT
  5
2039
100
AcDbEntity
  8
DEFPOINTS
  6
BYBLOCK
 62
     0
100
AcDbPoint
 10
21.76274
 20
48.616112
 30
0.0
  0
POINT
  5
203A
100
AcDbEntity
  8
DEFPOINTS
  6
BYBLOCK
 62
     0
100
AcDbPoint
 10
21.76274
 20
20.616098
 30
0.0
  0
POINT
  5
203B
100
AcDbEntity
  8
DEFPOINTS
  6
BYBLOCK
 62
     0
100
AcDbPoint
 10
31.709159
 20
20.616098
 30
0.0
  0
ENDBLK
  5
203C
100
AcDbEntity
  8
0
100
AcDbBlockEnd
  0
BLOCK
  5
2050
100
AcDbEntity
  8
0
100
AcDbBlockBegin
  2
*D9
 70
     1
 10
0.0
 20
0.0
 30
0.0
  3
*D9
  1

  0
LINE
  5
2051
100
AcDbEntity
  8
0
  6
BYBLOCK
 62
     0
100
AcDbLine
 10
26.919699
 20
48.616112
 30
0.0
 11
38.683447
 21
48.616112
 31
0.0
  0
LINE
  5
2052
100
AcDbEntity
  8
0
  6
BYBLOCK
 62
     0
100
AcDbLine
 10
18.075598
 20
0.01615
 30
0.0
 11
38.683447
 21
0.01615
 31
0.0
  0
LINE
  5
2053
100
AcDbEntity
  8
0
  6
BYBLOCK
 62
     0
100
AcDbLine
 10
38.503447
 20
45.616112
 30
0.0
 11
38.503447
 21
3.01615
 31
0.0
  0
SOLID
  5
2054
100
AcDbEntity
  8
0
  6
BYBLOCK
 62
     0
100
AcDbTrace
 10
38.003447
 20
45.616112
 30
0.0
 11
39.003447
 21
45.616112
 31
0.0
 12
38.503447
 22
48.616112
 32
0.0
 13
38.503447
 23
48.616112
 33
0.0
  0
SOLID
  5
2055
100
AcDbEntity
  8
0
  6
BYBLOCK
 62
     0
100
AcDbTrace
 10
38.003447
 20
3.01615
 30
0.0
 11
39.003447
 21
3.01615
 31
0.0
 12
38.503447
 22
0.01615
 32
0.0
 13
38.503447
 23
0.01615
 33
0.0
  0
MTEXT
  5
2056
100
AcDbEntity
  8
0
  6
BYBLOCK
 62
     0
100
AcDbMText
 10
36.253447
 20
24.316131
 30
0.0
 40
2.5
 41
0.0
 71
     5
 72
     1
  1
\A1;48.6
 11
0.0
 21
1.0
 31
0.0
  0
POINT
  5
2057
100
AcDbEntity
  8
DEFPOINTS
  6
BYBLOCK
 62
     0
100
AcDbPoint
 10
26.857199
 20
48.616112
 30
0.0
  0
POINT
  5
2058
100
AcDbEntity
  8
DEFPOINTS
  6
BYBLOCK
 62
     0
100
AcDbPoint
 10
18.013098
 20
0.01615
 30
0.0
  0
POINT
  5
2059
100
AcDbEntity
  8
DEFPOINTS
  6
BYBLOCK
 62
     0
100
AcDbPoint
 10
38.503447
 20
0.01615
 30
0.0
  0
ENDBLK
  5
205A
100
AcDbEntity
  8
0
100
AcDbBlockEnd
  0
BLOCK
  5
2073
100
AcDbEntity
  8
0
100
AcDbBlockBegin
  2
*D10
 70
     1
 10
0.0
 20
0.0
 30
0.0
  3
*D10
  1

  0
LINE
  5
2074
100
AcDbEntity
  8
0
  6
BYBLOCK
 62
     0
100
AcDbLine
 10
6.763139
 20
2.276292
 30
0.0
 11
6.763139
 21
-6.557503
 31
0.0
  0
LINE
  5
2075
100
AcDbEntity
  8
0
  6
BYBLOCK
 62
     0
100
AcDbLine
 10
18.763096
 20
2.276292
 30
0.0
 11
18.763096
 21
-6.557503
 31
0.0
  0
LINE
  5
2076
100
AcDbEntity
  8
0
  6
BYBLOCK
 62
     0
100
AcDbLine
 10
9.763139
 20
-6.377503
 30
0.0
 11
15.763096
 21
-6.377503
 31
0.0
  0
SOLID
  5
2077
100
AcDbEntity
  8
0
  6
BYBLOCK
 62
     0
100
AcDbTrace
 10
9.763139
 20
-5.877503
 30
0.0
 11
9.763139
 21
-6.877503
 31
0.0
 12
6.763139
 22
-6.377503
 32
0.0
 13
6.763139
 23
-6.377503
 33
0.0
  0
SOLID
  5
2078
100
AcDbEntity
  8
0
  6
BYBLOCK
 62
     0
100
AcDbTrace
 10
15.763096
 20
-5.877503
 30
0.0
 11
15.763096
 21
-6.877503
 31
0.0
 12
18.763096
 22
-6.377503
 32
0.0
 13
18.763096
 23
-6.377503
 33
0.0
  0
MTEXT
  5
2079
100
AcDbEntity
  8
0
  6
BYBLOCK
 62
     0
100
AcDbMText
 10
12.763117
 20
-4.127503
 30
0.0
 40
2.5
 41
0.0
 71
     5
 72
     1
  1
\A1;M12
  0
POINT
  5
207A
100
AcDbEntity
  8
DEFPOINTS
  6
BYBLOCK
 62
     0
100
AcDbPoint
 10
6.763139
 20
2.338792
 30
0.0
  0
POINT
  5
207B
100
AcDbEntity
  8
DEFPOINTS
  6
BYBLOCK
 62
     0
100
AcDbPoint
 10
18.763096
 20
2.338792
 30
0.0
  0
POINT
  5
207C
100
AcDbEntity
  8
DEFPOINTS
  6
BYBLOCK
 62
     0
100
AcDbPoint
 10
18.763096
 20
-6.377503
 30
0.0
  0
ENDBLK
  5
207D
100
AcDbEntity
  8
0
100
AcDbBlockEnd
  0
ENDSEC
  0
SECTION
  2
ENTITIES
  0
INSERT
  5
CC
100
AcDbEntity
  8
0
100
AcDbBlockReference
  2
SCH_IS
 10
-68.718396
 20
-140.042541
 30
0.0
  0
INSERT
  5
EC
100
AcDbEntity
  8
COTATION1
100
AcDbBlockReference
  2
SCH_IS
 10
0.0
 20
0.0
 30
0.0
  0
POLYLINE
  5
1EA5
100
AcDbEntity
  8
ALPHA
 62
   255
100
AcDb2dPolyline
 66
     1
 10
0.0
 20
0.0
 30
0.0
  0
VERTEX
  5
1EA6
100
AcDbEntity
  8
ALPHA
 62
   255
100
AcDbVertex
100
AcDb2dVertex
 10
4.513147
 20
20.616098
 30
0.0
  0
VERTEX
  5
1EA7
100
AcDbEntity
  8
ALPHA
 62
   255
100
AcDbVertex
100
AcDb2dVertex
 10
4.513147
 20
28.524315
 30
0.0
  0
SEQEND
  5
1EA8
100
AcDbEntity
  8
ALPHA
  0
POLYLINE
  5
1EA9
100
AcDbEntity
  8
ALPHA
 62
   255
100
AcDb2dPolyline
 66
     1
 10
0.0
 20
0.0
 30
0.0
  0
VERTEX
  5
1EAA
100
AcDbEntity
  8
ALPHA
 62
   255
100
AcDbVertex
100
AcDb2dVertex
 10
21.012743
 20
20.616098
 30
0.0
  0
VERTEX
  5
1EAB
100
AcDbEntity
  8
ALPHA
 62
   255
100
AcDbVertex
100
AcDb2dVertex
 10
21.012743
 20
28.524315
 30
0.0
  0
SEQEND
  5
1EAC
100
AcDbEntity
  8
ALPHA
  0
POLYLINE
  5
1EAD
100
AcDbEntity
  8
ALPHA
 62
   255
100
AcDb2dPolyline
 66
     1
 10
0.0
 20
0.0
 30
0.0
  0
VERTEX
  5
1EAE
100
AcDbEntity
  8
ALPHA
 62
   255
100
AcDbVertex
100
AcDb2dVertex
 10
4.513147
 20
48.616112
 30
0.0
  0
VERTEX
  5
1EAF
100
AcDbEntity
  8
ALPHA
 62
   255
100
AcDbVertex
100
AcDb2dVertex
 10
4.513147
 20
41.903688
 30
0.0
  0
SEQEND
  5
1EB0
100
AcDbEntity
  8
ALPHA
  0
POLYLINE
  5
1EB1
100
AcDbEntity
  8
ALPHA
 62
   255
100
AcDb2dPolyline
 66
     1
 10
0.0
 20
0.0
 30
0.0
  0
VERTEX
  5
1EB2
100
AcDbEntity
  8
ALPHA
 62
   255
100
AcDbVertex
100
AcDb2dVertex
 10
21.012743
 20
48.616112
 30
0.0
  0
VERTEX
  5
1EB3
100
AcDbEntity
  8
ALPHA
 62
   255
100
AcDbVertex
100
AcDb2dVertex
 10
21.012743
 20
41.903688
 30
0.0
  0
SEQEND
  5
1EB4
100
AcDbEntity
  8
ALPHA
  0
POLYLINE
  5
1EB5
100
AcDbEntity
  8
ALPHA
 62
   255
100
AcDb2dPolyline
 66
     1
 10
0.0
 20
0.0
 30
0.0
  0
VERTEX
  5
1EB6
100
AcDbEntity
  8
ALPHA
 62
   255
100
AcDbVertex
100
AcDb2dVertex
 10
3.76315
 20
36.904165
 30
0.0
  0
VERTEX
  5
1EB7
100
AcDbEntity
  8
ALPHA
 62
   255
100
AcDbVertex
100
AcDb2dVertex
 10
3.76315
 20
33.524526
 30
0.0
  0
SEQEND
  5
1EB8
100
AcDbEntity
  8
ALPHA
  0
POLYLINE
  5
1EB9
100
AcDbEntity
  8
ALPHA
 62
   255
100
AcDb2dPolyline
 66
     1
 10
0.0
 20
0.0
 30
0.0
  0
VERTEX
  5
1EBA
100
AcDbEntity
  8
ALPHA
 62
   255
100
AcDbVertex
100
AcDb2dVertex
 10
21.76274
 20
33.524526
 30
0.0
  0
VERTEX
  5
1EBB
100
AcDbEntity
  8
ALPHA
 62
   255
100
AcDbVertex
100
AcDb2dVertex
 10
21.76274
 20
36.904165
 30
0.0
  0
SEQEND
  5
1EBC
100
AcDbEntity
  8
ALPHA
  0
POLYLINE
  5
1EBD
100
AcDbEntity
  8
ALPHA
 62
   255
100
AcDb2dPolyline
 66
     1
 10
0.0
 20
0.0
 30
0.0
  0
VERTEX
  5
1EBE
100
AcDbEntity
  8
ALPHA
 62
   255
100
AcDbVertex
100
AcDb2dVertex
 10
4.513147
 20
36.904165
 30
0.0
  0
VERTEX
  5
1EBF
100
AcDbEntity
  8
ALPHA
 62
   255
100
AcDbVertex
100
AcDb2dVertex
 10
4.513147
 20
33.524526
 30
0.0
  0
SEQEND
  5
1EC0
100
AcDbEntity
  8
ALPHA
  0
POLYLINE
  5
1EC1
100
AcDbEntity
  8
ALPHA
 62
   255
100
AcDb2dPolyline
 66
     1
 10
0.0
 20
0.0
 30
0.0
  0
VERTEX
  5
1EC2
100
AcDbEntity
  8
ALPHA
 62
   255
100
AcDbVertex
100
AcDb2dVertex
 10
21.012743
 20
36.904165
 30
0.0
  0
VERTEX
  5
1EC3
100
AcDbEntity
  8
ALPHA
 62
   255
100
AcDbVertex
100
AcDb2dVertex
 10
21.012743
 20
33.524526
 30
0.0
  0
SEQEND
  5
1EC4
100
AcDbEntity
  8
ALPHA
  0
POLYLINE
  5
1EC5
100
AcDbEntity
  8
ALPHA
 62
   255
100
AcDb2dPolyline
 66
     1
 10
0.0
 20
0.0
 30
0.0
  0
VERTEX
  5
1EC6
100
AcDbEntity
  8
ALPHA
 62
   255
100
AcDbVertex
100
AcDb2dVertex
 10
7.512792
 20
1.015916
 30
0.0
  0
VERTEX
  5
1EC7
100
AcDbEntity
  8
ALPHA
 62
   255
100
AcDbVertex
100
AcDb2dVertex
 10
7.512792
 20
10.015884
 30
0.0
  0
SEQEND
  5
1EC8
100
AcDbEntity
  8
ALPHA
  0
POLYLINE
  5
1EC9
100
AcDbEntity
  8
ALPHA
 62
   255
100
AcDb2dPolyline
 66
     1
 10
0.0
 20
0.0
 30
0.0
  0
VERTEX
  5
1ECA
100
AcDbEntity
  8
ALPHA
 62
   255
100
AcDbVertex
100
AcDb2dVertex
 10
18.013098
 20
1.015916
 30
0.0
  0
VERTEX
  5
1ECB
100
AcDbEntity
  8
ALPHA
 62
   255
100
AcDbVertex
100
AcDb2dVertex
 10
18.013098
 20
10.015884
 30
0.0
  0
SEQEND
  5
1ECC
100
AcDbEntity
  8
ALPHA
  0
POLYLINE
  5
1ECD
100
AcDbEntity
  8
ALPHA
 62
   255
100
AcDb2dPolyline
 66
     1
 10
0.0
 20
0.0
 30
0.0
  0
VERTEX
  5
1ECE
100
AcDbEntity
  8
ALPHA
 62
   255
100
AcDbVertex
100
AcDb2dVertex
 10
7.512792
 20
10.015884
 30
0.0
  0
VERTEX
  5
1ECF
100
AcDbEntity
  8
ALPHA
 62
   255
100
AcDbVertex
100
AcDb2dVertex
 10
7.512792
 20
12.116014
 30
0.0
  0
SEQEND
  5
1ED0
100
AcDbEntity
  8
ALPHA
  0
POLYLINE
  5
1ED1
100
AcDbEntity
  8
ALPHA
 62
   255
100
AcDb2dPolyline
 66
     1
 10
0.0
 20
0.0
 30
0.0
  0
VERTEX
  5
1ED2
100
AcDbEntity
  8
ALPHA
 62
   255
100
AcDbVertex
100
AcDb2dVertex
 10
18.013098
 20
12.116014
 30
0.0
  0
VERTEX
  5
1ED3
100
AcDbEntity
  8
ALPHA
 62
   255
100
AcDbVertex
100
AcDb2dVertex
 10
18.013098
 20
10.015884
 30
0.0
  0
SEQEND
  5
1ED4
100
AcDbEntity
  8
ALPHA
  0
POLYLINE
  5
1ED5
100
AcDbEntity
  8
ALPHA
 62
   255
100
AcDb2dPolyline
 66
     1
 10
0.0
 20
0.0
 30
0.0
  0
VERTEX
  5
1ED6
100
AcDbEntity
  8
ALPHA
 62
   255
100
AcDbVertex
100
AcDb2dVertex
 10
18.512982
 20
10.015884
 30
0.0
  0
VERTEX
  5
1ED7
100
AcDbEntity
  8
ALPHA
 62
   255
100
AcDbVertex
100
AcDb2dVertex
 10
18.763096
 20
9.76577
 30
0.0
  0
SEQEND
  5
1ED8
100
AcDbEntity
  8
ALPHA
  0
POLYLINE
  5
1ED9
100
AcDbEntity
  8
ALPHA
 62
   255
100
AcDb2dPolyline
 66
     1
 10
0.0
 20
0.0
 30
0.0
  0
VERTEX
  5
1EDA
100
AcDbEntity
  8
ALPHA
 62
   255
100
AcDbVertex
100
AcDb2dVertex
 10
18.763096
 20
9.76577
 30
0.0
  0
VERTEX
  5
1EDB
100
AcDbEntity
  8
ALPHA
 62
   255
100
AcDbVertex
100
AcDb2dVertex
 10
18.763096
 20
1.26603
 30
0.0
  0
SEQEND
  5
1EDC
100
AcDbEntity
  8
ALPHA
  0
POLYLINE
  5
1EDD
100
AcDbEntity
  8
ALPHA
 62
   255
100
AcDb2dPolyline
 66
     1
 10
0.0
 20
0.0
 30
0.0
  0
VERTEX
  5
1EDE
100
AcDbEntity
  8
ALPHA
 62
   255
100
AcDbVertex
100
AcDb2dVertex
 10
18.763096
 20
1.26603
 30
0.0
  0
VERTEX
  5
1EDF
100
AcDbEntity
  8
ALPHA
 62
   255
100
AcDbVertex
100
AcDb2dVertex
 10
18.512982
 20
1.015916
 30
0.0
  0
SEQEND
  5
1EE0
100
AcDbEntity
  8
ALPHA
  0
POLYLINE
  5
1EE1
100
AcDbEntity
  8
ALPHA
 62
   255
100
AcDb2dPolyline
 66
     1
 10
0.0
 20
0.0
 30
0.0
  0
VERTEX
  5
1EE2
100
AcDbEntity
  8
ALPHA
 62
   255
100
AcDbVertex
100
AcDb2dVertex
 10
18.512982
 20
1.015916
 30
0.0
  0
VERTEX
  5
1EE3
100
AcDbEntity
  8
ALPHA
 62
   255
100
AcDbVertex
100
AcDb2dVertex
 10
7.012908
 20
1.015916
 30
0.0
  0
SEQEND
  5
1EE4
100
AcDbEntity
  8
ALPHA
  0
POLYLINE
  5
1EE5
100
AcDbEntity
  8
ALPHA
 62
   255
100
AcDb2dPolyline
 66
     1
 10
0.0
 20
0.0
 30
0.0
  0
VERTEX
  5
1EE6
100
AcDbEntity
  8
ALPHA
 62
   255
100
AcDbVertex
100
AcDb2dVertex
 10
7.012908
 20
1.015916
 30
0.0
  0
VERTEX
  5
1EE7
100
AcDbEntity
  8
ALPHA
 62
   255
100
AcDbVertex
100
AcDb2dVertex
 10
6.763139
 20
1.26603
 30
0.0
  0
SEQEND
  5
1EE8
100
AcDbEntity
  8
ALPHA
  0
POLYLINE
  5
1EE9
100
AcDbEntity
  8
ALPHA
 62
   255
100
AcDb2dPolyline
 66
     1
 10
0.0
 20
0.0
 30
0.0
  0
VERTEX
  5
1EEA
100
AcDbEntity
  8
ALPHA
 62
   255
100
AcDbVertex
100
AcDb2dVertex
 10
6.763139
 20
1.26603
 30
0.0
  0
VERTEX
  5
1EEB
100
AcDbEntity
  8
ALPHA
 62
   255
100
AcDbVertex
100
AcDb2dVertex
 10
6.763139
 20
9.76577
 30
0.0
  0
SEQEND
  5
1EEC
100
AcDbEntity
  8
ALPHA
  0
POLYLINE
  5
1EED
100
AcDbEntity
  8
ALPHA
 62
   255
100
AcDb2dPolyline
 66
     1
 10
0.0
 20
0.0
 30
0.0
  0
VERTEX
  5
1EEE
100
AcDbEntity
  8
ALPHA
 62
   255
100
AcDbVertex
100
AcDb2dVertex
 10
6.763139
 20
9.76577
 30
0.0
  0
VERTEX
  5
1EEF
100
AcDbEntity
  8
ALPHA
 62
   255
100
AcDbVertex
100
AcDb2dVertex
 10
7.012908
 20
10.015884
 30
0.0
  0
SEQEND
  5
1EF0
100
AcDbEntity
  8
ALPHA
  0
POLYLINE
  5
1EF1
100
AcDbEntity
  8
ALPHA
 62
   255
100
AcDb2dPolyline
 66
     1
 10
0.0
 20
0.0
 30
0.0
  0
VERTEX
  5
1EF2
100
AcDbEntity
  8
ALPHA
 62
   255
100
AcDbVertex
100
AcDb2dVertex
 10
7.012908
 20
10.015884
 30
0.0
  0
VERTEX
  5
1EF3
100
AcDbEntity
  8
ALPHA
 62
   255
100
AcDbVertex
100
AcDb2dVertex
 10
18.512982
 20
10.015884
 30
0.0
  0
SEQEND
  5
1EF4
100
AcDbEntity
  8
ALPHA
  0
POLYLINE
  5
1EF5
100
AcDbEntity
  8
ALPHA
 62
   255
100
AcDb2dPolyline
 66
     1
 10
0.0
 20
0.0
 30
0.0
  0
VERTEX
  5
1EF6
100
AcDbEntity
  8
ALPHA
 62
   255
100
AcDbVertex
100
AcDb2dVertex
 10
7.512792
 20
1.015916
 30
0.0
  0
VERTEX
  5
1EF7
100
AcDbEntity
  8
ALPHA
 62
   255
100
AcDbVertex
100
AcDb2dVertex
 10
7.512792
 20
0.01615
 30
0.0
  0
SEQEND
  5
1EF8
100
AcDbEntity
  8
ALPHA
  0
POLYLINE
  5
1EF9
100
AcDbEntity
  8
ALPHA
 62
   255
100
AcDb2dPolyline
 66
     1
 10
0.0
 20
0.0
 30
0.0
  0
VERTEX
  5
1EFA
100
AcDbEntity
  8
ALPHA
 62
   255
100
AcDbVertex
100
AcDb2dVertex
 10
7.512792
 20
0.01615
 30
0.0
  0
VERTEX
  5
1EFB
100
AcDbEntity
  8
ALPHA
 62
   255
100
AcDbVertex
100
AcDb2dVertex
 10
18.013098
 20
0.01615
 30
0.0
  0
SEQEND
  5
1EFC
100
AcDbEntity
  8
ALPHA
  0
POLYLINE
  5
1EFD
100
AcDbEntity
  8
ALPHA
 62
   255
100
AcDb2dPolyline
 66
     1
 10
0.0
 20
0.0
 30
0.0
  0
VERTEX
  5
1EFE
100
AcDbEntity
  8
ALPHA
 62
   255
100
AcDbVertex
100
AcDb2dVertex
 10
18.013098
 20
0.01615
 30
0.0
  0
VERTEX
  5
1EFF
100
AcDbEntity
  8
ALPHA
 62
   255
100
AcDbVertex
100
AcDb2dVertex
 10
18.013098
 20
1.015916
 30
0.0
  0
SEQEND
  5
1F00
100
AcDbEntity
  8
ALPHA
  0
POLYLINE
  5
1F01
100
AcDbEntity
  8
ALPHA
 62
   255
100
AcDb2dPolyline
 66
     1
 10
0.0
 20
0.0
 30
0.0
  0
VERTEX
  5
1F02
100
AcDbEntity
  8
ALPHA
 62
   255
100
AcDbVertex
100
AcDb2dVertex
 10
6.442401
 20
40.852934
 30
0.0
  0
VERTEX
  5
1F03
100
AcDbEntity
  8
ALPHA
 62
   255
100
AcDbVertex
100
AcDb2dVertex
 10
6.442401
 20
37.95423
 30
0.0
  0
SEQEND
  5
1F04
100
AcDbEntity
  8
ALPHA
  0
POLYLINE
  5
1F05
100
AcDbEntity
  8
ALPHA
 62
   255
100
AcDb2dPolyline
 66
     1
 10
0.0
 20
0.0
 30
0.0
  0
VERTEX
  5
1F06
100
AcDbEntity
  8
ALPHA
 62
   255
100
AcDbVertex
100
AcDb2dVertex
 10
19.083489
 20
40.852934
 30
0.0
  0
VERTEX
  5
1F07
100
AcDbEntity
  8
ALPHA
 62
   255
100
AcDbVertex
100
AcDb2dVertex
 10
19.083489
 20
37.95423
 30
0.0
  0
SEQEND
  5
1F08
100
AcDbEntity
  8
ALPHA
  0
POLYLINE
  5
1F09
100
AcDbEntity
  8
ALPHA
 62
   255
100
AcDb3dPolyline
 66
     1
 10
0.0
 20
0.0
 30
0.0
 70
     8
  0
VERTEX
  5
1F0A
100
AcDbEntity
  8
ALPHA
 62
   255
100
AcDbVertex
100
AcDb3dPolylineVertex
 10
0.121684
 20
37.95423
 30
0.0
 70
    32
  0
VERTEX
  5
1F0B
100
AcDbEntity
  8
ALPHA
 62
   255
100
AcDbVertex
100
AcDb3dPolylineVertex
 10
0.124873
 20
37.951217
 30
0.0
 70
    32
  0
VERTEX
  5
1F0C
100
AcDbEntity
  8
ALPHA
 62
   255
100
AcDbVertex
100
AcDb3dPolylineVertex
 10
0.134404
 20
37.942434
 30
0.0
 70
    32
  0
VERTEX
  5
1F0D
100
AcDbEntity
  8
ALPHA
 62
   255
100
AcDbVertex
100
AcDb3dPolylineVertex
 10
0.172284
 20
37.909095
 30
0.0
 70
    32
  0
VERTEX
  5
1F0E
100
AcDbEntity
  8
ALPHA
 62
   255
100
AcDbVertex
100
AcDb3dPolylineVertex
 10
0.321844
 20
37.790104
 30
0.0
 70
    32
  0
VERTEX
  5
1F0F
100
AcDbEntity
  8
ALPHA
 62
   255
100
AcDbVertex
100
AcDb3dPolylineVertex
 10
0.90441
 20
37.429025
 30
0.0
 70
    32
  0
VERTEX
  5
1F10
100
AcDbEntity
  8
ALPHA
 62
   255
100
AcDbVertex
100
AcDb3dPolylineVertex
 10
1.330697
 20
37.236177
 30
0.0
 70
    32
  0
VERTEX
  5
1F11
100
AcDbEntity
  8
ALPHA
 62
   255
100
AcDbVertex
100
AcDb3dPolylineVertex
 10
1.842509
 20
37.067947
 30
0.0
 70
    32
  0
VERTEX
  5
1F12
100
AcDbEntity
  8
ALPHA
 62
   255
100
AcDbVertex
100
AcDb3dPolylineVertex
 10
2.436487
 20
36.948955
 30
0.0
 70
    32
  0
VERTEX
  5
1F13
100
AcDbEntity
  8
ALPHA
 62
   255
100
AcDbVertex
100
AcDb3dPolylineVertex
 10
3.109271
 20
36.903821
 30
0.0
 70
    32
  0
VERTEX
  5
1F14
100
AcDbEntity
  8
ALPHA
 62
   255
100
AcDbVertex
100
AcDb3dPolylineVertex
 10
3.467059
 20
36.92256
 30
0.0
 70
    32
  0
VERTEX
  5
1F15
100
AcDbEntity
  8
ALPHA
 62
   255
100
AcDbVertex
100
AcDb3dPolylineVertex
 10
3.856463
 20
36.977449
 30
0.0
 70
    32
  0
VERTEX
  5
1F16
100
AcDbEntity
  8
ALPHA
 62
   255
100
AcDbVertex
100
AcDb3dPolylineVertex
 10
4.700517
 20
37.187696
 30
0.0
 70
    32
  0
VERTEX
  5
1F17
100
AcDbEntity
  8
ALPHA
 62
   255
100
AcDbVertex
100
AcDb3dPolylineVertex
 10
5.58223
 20
37.518609
 30
0.0
 70
    32
  0
VERTEX
  5
1F18
100
AcDbEntity
  8
ALPHA
 62
   255
100
AcDbVertex
100
AcDb3dPolylineVertex
 10
6.442401
 20
37.95423
 30
0.0
 70
    32
  0
SEQEND
  5
1F19
100
AcDbEntity
  8
ALPHA
 62
   255
  0
POLYLINE
  5
1F1A
100
AcDbEntity
  8
ALPHA
 62
   255
100
AcDb3dPolyline
 66
     1
 10
0.0
 20
0.0
 30
0.0
 70
     8
  0
VERTEX
  5
1F1B
100
AcDbEntity
  8
ALPHA
 62
   255
100
AcDbVertex
100
AcDb3dPolylineVertex
 10
25.404551
 20
37.95423
 30
0.0
 70
    32
  0
VERTEX
  5
1F1C
100
AcDbEntity
  8
ALPHA
 62
   255
100
AcDbVertex
100
AcDb3dPolylineVertex
 10
25.401362
 20
37.951217
 30
0.0
 70
    32
  0
VERTEX
  5
1F1D
100
AcDbEntity
  8
ALPHA
 62
   255
100
AcDbVertex
100
AcDb3dPolylineVertex
 10
25.391831
 20
37.942434
 30
0.0
 70
    32
  0
VERTEX
  5
1F1E
100
AcDbEntity
  8
ALPHA
 62
   255
100
AcDbVertex
100
AcDb3dPolylineVertex
 10
25.35395
 20
37.909095
 30
0.0
 70
    32
  0
VERTEX
  5
1F1F
100
AcDbEntity
  8
ALPHA
 62
   255
100
AcDbVertex
100
AcDb3dPolylineVertex
 10
25.204385
 20
37.790104
 30
0.0
 70
    32
  0
VERTEX
  5
1F20
100
AcDbEntity
  8
ALPHA
 62
   255
100
AcDbVertex
100
AcDb3dPolylineVertex
 10
24.621782
 20
37.429025
 30
0.0
 70
    32
  0
VERTEX
  5
1F21
100
AcDbEntity
  8
ALPHA
 62
   255
100
AcDbVertex
100
AcDb3dPolylineVertex
 10
24.195453
 20
37.236177
 30
0.0
 70
    32
  0
VERTEX
  5
1F22
100
AcDbEntity
  8
ALPHA
 62
   255
100
AcDbVertex
100
AcDb3dPolylineVertex
 10
23.68358
 20
37.067947
 30
0.0
 70
    32
  0
VERTEX
  5
1F23
100
AcDbEntity
  8
ALPHA
 62
   255
100
AcDbVertex
100
AcDb3dPolylineVertex
 10
23.089517
 20
36.948955
 30
0.0
 70
    32
  0
VERTEX
  5
1F24
100
AcDbEntity
  8
ALPHA
 62
   255
100
AcDbVertex
100
AcDb3dPolylineVertex
 10
22.416619
 20
36.903821
 30
0.0
 70
    32
  0
VERTEX
  5
1F25
100
AcDbEntity
  8
ALPHA
 62
   255
100
AcDbVertex
100
AcDb3dPolylineVertex
 10
22.058859
 20
36.92256
 30
0.0
 70
    32
  0
VERTEX
  5
1F26
100
AcDbEntity
  8
ALPHA
 62
   255
100
AcDbVertex
100
AcDb3dPolylineVertex
 10
21.669523
 20
36.977449
 30
0.0
 70
    32
  0
VERTEX
  5
1F27
100
AcDbEntity
  8
ALPHA
 62
   255
100
AcDbVertex
100
AcDb3dPolylineVertex
 10
20.825631
 20
37.187696
 30
0.0
 70
    32
  0
VERTEX
  5
1F28
100
AcDbEntity
  8
ALPHA
 62
   255
100
AcDbVertex
100
AcDb3dPolylineVertex
 10
19.94395
 20
37.518609
 30
0.0
 70
    32
  0
VERTEX
  5
1F29
100
AcDbEntity
  8
ALPHA
 62
   255
100
AcDbVertex
100
AcDb3dPolylineVertex
 10
19.083489
 20
37.95423
 30
0.0
 70
    32
  0
SEQEND
  5
1F2A
100
AcDbEntity
  8
ALPHA
 62
   255
  0
POLYLINE
  5
1F2B
100
AcDbEntity
  8
ALPHA
 62
   255
100
AcDb2dPolyline
 66
     1
 10
0.0
 20
0.0
 30
0.0
  0
VERTEX
  5
1F2C
100
AcDbEntity
  8
ALPHA
 62
   255
100
AcDbVertex
100
AcDb2dVertex
 10
6.442401
 20
37.95423
 30
0.0
  0
VERTEX
  5
1F2D
100
AcDbEntity
  8
ALPHA
 62
   255
100
AcDbVertex
100
AcDb2dVertex
 10
9.74629
 20
37.187696
 30
0.0
  0
VERTEX
  5
1F2E
100
AcDbEntity
  8
ALPHA
 62
   255
100
AcDbVertex
100
AcDb2dVertex
 10
12.763117
 20
36.903821
 30
0.0
  0
VERTEX
  5
1F2F
100
AcDbEntity
  8
ALPHA
 62
   255
100
AcDbVertex
100
AcDb2dVertex
 10
15.779901
 20
37.187696
 30
0.0
  0
VERTEX
  5
1F30
100
AcDbEntity
  8
ALPHA
 62
   255
100
AcDbVertex
100
AcDb2dVertex
 10
19.083489
 20
37.95423
 30
0.0
  0
SEQEND
  5
1F31
100
AcDbEntity
  8
ALPHA
  0
POLYLINE
  5
1F32
100
AcDbEntity
  8
ALPHA
 62
   255
100
AcDb3dPolyline
 66
     1
 10
0.0
 20
0.0
 30
0.0
 70
     8
  0
VERTEX
  5
1F33
100
AcDbEntity
  8
ALPHA
 62
   255
100
AcDbVertex
100
AcDb3dPolylineVertex
 10
0.121684
 20
40.852934
 30
0.0
 70
    32
  0
VERTEX
  5
1F34
100
AcDbEntity
  8
ALPHA
 62
   255
100
AcDbVertex
100
AcDb3dPolylineVertex
 10
0.124873
 20
40.855948
 30
0.0
 70
    32
  0
VERTEX
  5
1F35
100
AcDbEntity
  8
ALPHA
 62
   255
100
AcDbVertex
100
AcDb3dPolylineVertex
 10
0.134404
 20
40.864734
 30
0.0
 70
    32
  0
VERTEX
  5
1F36
100
AcDbEntity
  8
ALPHA
 62
   255
100
AcDbVertex
100
AcDb3dPolylineVertex
 10
0.172284
 20
40.898083
 30
0.0
 70
    32
  0
VERTEX
  5
1F37
100
AcDbEntity
  8
ALPHA
 62
   255
100
AcDbVertex
100
AcDb3dPolylineVertex
 10
0.321844
 20
41.017114
 30
0.0
 70
    32
  0
VERTEX
  5
1F38
100
AcDbEntity
  8
ALPHA
 62
   255
100
AcDbVertex
100
AcDb3dPolylineVertex
 10
0.90441
 20
41.378311
 30
0.0
 70
    32
  0
VERTEX
  5
1F39
100
AcDbEntity
  8
ALPHA
 62
   255
100
AcDbVertex
100
AcDb3dPolylineVertex
 10
1.330697
 20
41.571222
 30
0.0
 70
    32
  0
VERTEX
  5
1F3A
100
AcDbEntity
  8
ALPHA
 62
   255
100
AcDbVertex
100
AcDb3dPolylineVertex
 10
1.842509
 20
41.739507
 30
0.0
 70
    32
  0
VERTEX
  5
1F3B
100
AcDbEntity
  8
ALPHA
 62
   255
100
AcDbVertex
100
AcDb3dPolylineVertex
 10
2.436487
 20
41.858538
 30
0.0
 70
    32
  0
VERTEX
  5
1F3C
100
AcDbEntity
  8
ALPHA
 62
   255
100
AcDbVertex
100
AcDb3dPolylineVertex
 10
3.109271
 20
41.903688
 30
0.0
 70
    32
  0
VERTEX
  5
1F3D
100
AcDbEntity
  8
ALPHA
 62
   255
100
AcDbVertex
100
AcDb3dPolylineVertex
 10
3.467059
 20
41.884933
 30
0.0
 70
    32
  0
VERTEX
  5
1F3E
100
AcDbEntity
  8
ALPHA
 62
   255
100
AcDbVertex
100
AcDb3dPolylineVertex
 10
3.856463
 20
41.830006
 30
0.0
 70
    32
  0
VERTEX
  5
1F3F
100
AcDbEntity
  8
ALPHA
 62
   255
100
AcDbVertex
100
AcDb3dPolylineVertex
 10
4.700517
 20
41.61964
 30
0.0
 70
    32
  0
VERTEX
  5
1F40
100
AcDbEntity
  8
ALPHA
 62
   255
100
AcDbVertex
100
AcDb3dPolylineVertex
 10
5.58223
 20
41.288609
 30
0.0
 70
    32
  0
VERTEX
  5
1F41
100
AcDbEntity
  8
ALPHA
 62
   255
100
AcDbVertex
100
AcDb3dPolylineVertex
 10
6.442401
 20
40.852934
 30
0.0
 70
    32
  0
SEQEND
  5
1F42
100
AcDbEntity
  8
ALPHA
 62
   255
  0
POLYLINE
  5
1F43
100
AcDbEntity
  8
ALPHA
 62
   255
100
AcDb3dPolyline
 66
     1
 10
0.0
 20
0.0
 30
0.0
 70
     8
  0
VERTEX
  5
1F44
100
AcDbEntity
  8
ALPHA
 62
   255
100
AcDbVertex
100
AcDb3dPolylineVertex
 10
25.404551
 20
40.852934
 30
0.0
 70
    32
  0
VERTEX
  5
1F45
100
AcDbEntity
  8
ALPHA
 62
   255
100
AcDbVertex
100
AcDb3dPolylineVertex
 10
25.401362
 20
40.855948
 30
0.0
 70
    32
  0
VERTEX
  5
1F46
100
AcDbEntity
  8
ALPHA
 62
   255
100
AcDbVertex
100
AcDb3dPolylineVertex
 10
25.391831
 20
40.864734
 30
0.0
 70
    32
  0
VERTEX
  5
1F47
100
AcDbEntity
  8
ALPHA
 62
   255
100
AcDbVertex
100
AcDb3dPolylineVertex
 10
25.35395
 20
40.898083
 30
0.0
 70
    32
  0
VERTEX
  5
1F48
100
AcDbEntity
  8
ALPHA
 62
   255
100
AcDbVertex
100
AcDb3dPolylineVertex
 10
25.204385
 20
41.017114
 30
0.0
 70
    32
  0
VERTEX
  5
1F49
100
AcDbEntity
  8
ALPHA
 62
   255
100
AcDbVertex
100
AcDb3dPolylineVertex
 10
24.621782
 20
41.378311
 30
0.0
 70
    32
  0
VERTEX
  5
1F4A
100
AcDbEntity
  8
ALPHA
 62
   255
100
AcDbVertex
100
AcDb3dPolylineVertex
 10
24.195453
 20
41.571222
 30
0.0
 70
    32
  0
VERTEX
  5
1F4B
100
AcDbEntity
  8
ALPHA
 62
   255
100
AcDbVertex
100
AcDb3dPolylineVertex
 10
23.68358
 20
41.739507
 30
0.0
 70
    32
  0
VERTEX
  5
1F4C
100
AcDbEntity
  8
ALPHA
 62
   255
100
AcDbVertex
100
AcDb3dPolylineVertex
 10
23.089517
 20
41.858538
 30
0.0
 70
    32
  0
VERTEX
  5
1F4D
100
AcDbEntity
  8
ALPHA
 62
   255
100
AcDbVertex
100
AcDb3dPolylineVertex
 10
22.416619
 20
41.903688
 30
0.0
 70
    32
  0
VERTEX
  5
1F4E
100
AcDbEntity
  8
ALPHA
 62
   255
100
AcDbVertex
100
AcDb3dPolylineVertex
 10
22.058859
 20
41.884933
 30
0.0
 70
    32
  0
VERTEX
  5
1F4F
100
AcDbEntity
  8
ALPHA
 62
   255
100
AcDbVertex
100
AcDb3dPolylineVertex
 10
21.669523
 20
41.830006
 30
0.0
 70
    32
  0
VERTEX
  5
1F50
100
AcDbEntity
  8
ALPHA
 62
   255
100
AcDbVertex
100
AcDb3dPolylineVertex
 10
20.825631
 20
41.61964
 30
0.0
 70
    32
  0
VERTEX
  5
1F51
100
AcDbEntity
  8
ALPHA
 62
   255
100
AcDbVertex
100
AcDb3dPolylineVertex
 10
19.94395
 20
41.288609
 30
0.0
 70
    32
  0
VERTEX
  5
1F52
100
AcDbEntity
  8
ALPHA
 62
   255
100
AcDbVertex
100
AcDb3dPolylineVertex
 10
19.083489
 20
40.852934
 30
0.0
 70
    32
  0
SEQEND
  5
1F53
100
AcDbEntity
  8
ALPHA
 62
   255
  0
POLYLINE
  5
1F54
100
AcDbEntity
  8
ALPHA
 62
   255
100
AcDb2dPolyline
 66
     1
 10
0.0
 20
0.0
 30
0.0
  0
VERTEX
  5
1F55
100
AcDbEntity
  8
ALPHA
 62
   255
100
AcDbVertex
100
AcDb2dVertex
 10
6.442401
 20
40.852934
 30
0.0
  0
VERTEX
  5
1F56
100
AcDbEntity
  8
ALPHA
 62
   255
100
AcDbVertex
100
AcDb2dVertex
 10
9.74629
 20
41.61964
 30
0.0
  0
VERTEX
  5
1F57
100
AcDbEntity
  8
ALPHA
 62
   255
100
AcDbVertex
100
AcDb2dVertex
 10
12.763117
 20
41.903688
 30
0.0
  0
VERTEX
  5
1F58
100
AcDbEntity
  8
ALPHA
 62
   255
100
AcDbVertex
100
AcDb2dVertex
 10
15.779901
 20
41.61964
 30
0.0
  0
VERTEX
  5
1F59
100
AcDbEntity
  8
ALPHA
 62
   255
100
AcDbVertex
100
AcDb2dVertex
 10
19.083489
 20
40.852934
 30
0.0
  0
SEQEND
  5
1F5A
100
AcDbEntity
  8
ALPHA
  0
POLYLINE
  5
1F5B
100
AcDbEntity
  8
ALPHA
 62
   255
100
AcDb2dPolyline
 66
     1
 10
0.0
 20
0.0
 30
0.0
  0
VERTEX
  5
1F5C
100
AcDbEntity
  8
ALPHA
 62
   255
100
AcDbVertex
100
AcDb2dVertex
 10
6.442401
 20
32.473772
 30
0.0
  0
VERTEX
  5
1F5D
100
AcDbEntity
  8
ALPHA
 62
   255
100
AcDbVertex
100
AcDb2dVertex
 10
6.442401
 20
29.575069
 30
0.0
  0
SEQEND
  5
1F5E
100
AcDbEntity
  8
ALPHA
  0
POLYLINE
  5
1F5F
100
AcDbEntity
  8
ALPHA
 62
   255
100
AcDb2dPolyline
 66
     1
 10
0.0
 20
0.0
 30
0.0
  0
VERTEX
  5
1F60
100
AcDbEntity
  8
ALPHA
 62
   255
100
AcDbVertex
100
AcDb2dVertex
 10
19.083489
 20
32.473772
 30
0.0
  0
VERTEX
  5
1F61
100
AcDbEntity
  8
ALPHA
 62
   255
100
AcDbVertex
100
AcDb2dVertex
 10
19.083489
 20
29.575069
 30
0.0
  0
SEQEND
  5
1F62
100
AcDbEntity
  8
ALPHA
  0
POLYLINE
  5
1F63
100
AcDbEntity
  8
ALPHA
 62
   255
100
AcDb3dPolyline
 66
     1
 10
0.0
 20
0.0
 30
0.0
 70
     8
  0
VERTEX
  5
1F64
100
AcDbEntity
  8
ALPHA
 62
   255
100
AcDbVertex
100
AcDb3dPolylineVertex
 10
0.121684
 20
29.575069
 30
0.0
 70
    32
  0
VERTEX
  5
1F65
100
AcDbEntity
  8
ALPHA
 62
   255
100
AcDbVertex
100
AcDb3dPolylineVertex
 10
0.124873
 20
29.572055
 30
0.0
 70
    32
  0
VERTEX
  5
1F66
100
AcDbEntity
  8
ALPHA
 62
   255
100
AcDbVertex
100
AcDb3dPolylineVertex
 10
0.134404
 20
29.563268
 30
0.0
 70
    32
  0
VERTEX
  5
1F67
100
AcDbEntity
  8
ALPHA
 62
   255
100
AcDbVertex
100
AcDb3dPolylineVertex
 10
0.172284
 20
29.529919
 30
0.0
 70
    32
  0
VERTEX
  5
1F68
100
AcDbEntity
  8
ALPHA
 62
   255
100
AcDbVertex
100
AcDb3dPolylineVertex
 10
0.321844
 20
29.410889
 30
0.0
 70
    32
  0
VERTEX
  5
1F69
100
AcDbEntity
  8
ALPHA
 62
   255
100
AcDbVertex
100
AcDb3dPolylineVertex
 10
0.90441
 20
29.049692
 30
0.0
 70
    32
  0
VERTEX
  5
1F6A
100
AcDbEntity
  8
ALPHA
 62
   255
100
AcDbVertex
100
AcDb3dPolylineVertex
 10
1.330697
 20
28.85678
 30
0.0
 70
    32
  0
VERTEX
  5
1F6B
100
AcDbEntity
  8
ALPHA
 62
   255
100
AcDbVertex
100
AcDb3dPolylineVertex
 10
1.842509
 20
28.688495
 30
0.0
 70
    32
  0
VERTEX
  5
1F6C
100
AcDbEntity
  8
ALPHA
 62
   255
100
AcDbVertex
100
AcDb3dPolylineVertex
 10
2.436487
 20
28.569464
 30
0.0
 70
    32
  0
VERTEX
  5
1F6D
100
AcDbEntity
  8
ALPHA
 62
   255
100
AcDbVertex
100
AcDb3dPolylineVertex
 10
3.109271
 20
28.524315
 30
0.0
 70
    32
  0
VERTEX
  5
1F6E
100
AcDbEntity
  8
ALPHA
 62
   255
100
AcDbVertex
100
AcDb3dPolylineVertex
 10
3.467059
 20
28.543041
 30
0.0
 70
    32
  0
VERTEX
  5
1F6F
100
AcDbEntity
  8
ALPHA
 62
   255
100
AcDbVertex
100
AcDb3dPolylineVertex
 10
3.856463
 20
28.5979
 30
0.0
 70
    32
  0
VERTEX
  5
1F70
100
AcDbEntity
  8
ALPHA
 62
   255
100
AcDbVertex
100
AcDb3dPolylineVertex
 10
4.700517
 20
28.808105
 30
0.0
 70
    32
  0
VERTEX
  5
1F71
100
AcDbEntity
  8
ALPHA
 62
   255
100
AcDbVertex
100
AcDb3dPolylineVertex
 10
5.58223
 20
29.139103
 30
0.0
 70
    32
  0
VERTEX
  5
1F72
100
AcDbEntity
  8
ALPHA
 62
   255
100
AcDbVertex
100
AcDb3dPolylineVertex
 10
6.442401
 20
29.575069
 30
0.0
 70
    32
  0
SEQEND
  5
1F73
100
AcDbEntity
  8
ALPHA
 62
   255
  0
POLYLINE
  5
1F74
100
AcDbEntity
  8
ALPHA
 62
   255
100
AcDb3dPolyline
 66
     1
 10
0.0
 20
0.0
 30
0.0
 70
     8
  0
VERTEX
  5
1F75
100
AcDbEntity
  8
ALPHA
 62
   255
100
AcDbVertex
100
AcDb3dPolylineVertex
 10
25.404551
 20
29.575069
 30
0.0
 70
    32
  0
VERTEX
  5
1F76
100
AcDbEntity
  8
ALPHA
 62
   255
100
AcDbVertex
100
AcDb3dPolylineVertex
 10
25.401362
 20
29.572055
 30
0.0
 70
    32
  0
VERTEX
  5
1F77
100
AcDbEntity
  8
ALPHA
 62
   255
100
AcDbVertex
100
AcDb3dPolylineVertex
 10
25.391831
 20
29.563268
 30
0.0
 70
    32
  0
VERTEX
  5
1F78
100
AcDbEntity
  8
ALPHA
 62
   255
100
AcDbVertex
100
AcDb3dPolylineVertex
 10
25.35395
 20
29.529919
 30
0.0
 70
    32
  0
VERTEX
  5
1F79
100
AcDbEntity
  8
ALPHA
 62
   255
100
AcDbVertex
100
AcDb3dPolylineVertex
 10
25.204385
 20
29.410889
 30
0.0
 70
    32
  0
VERTEX
  5
1F7A
100
AcDbEntity
  8
ALPHA
 62
   255
100
AcDbVertex
100
AcDb3dPolylineVertex
 10
24.621782
 20
29.049692
 30
0.0
 70
    32
  0
VERTEX
  5
1F7B
100
AcDbEntity
  8
ALPHA
 62
   255
100
AcDbVertex
100
AcDb3dPolylineVertex
 10
24.195453
 20
28.85678
 30
0.0
 70
    32
  0
VERTEX
  5
1F7C
100
AcDbEntity
  8
ALPHA
 62
   255
100
AcDbVertex
100
AcDb3dPolylineVertex
 10
23.68358
 20
28.688495
 30
0.0
 70
    32
  0
VERTEX
  5
1F7D
100
AcDbEntity
  8
ALPHA
 62
   255
100
AcDbVertex
100
AcDb3dPolylineVertex
 10
23.089517
 20
28.569464
 30
0.0
 70
    32
  0
VERTEX
  5
1F7E
100
AcDbEntity
  8
ALPHA
 62
   255
100
AcDbVertex
100
AcDb3dPolylineVertex
 10
22.416619
 20
28.524315
 30
0.0
 70
    32
  0
VERTEX
  5
1F7F
100
AcDbEntity
  8
ALPHA
 62
   255
100
AcDbVertex
100
AcDb3dPolylineVertex
 10
22.058859
 20
28.543041
 30
0.0
 70
    32
  0
VERTEX
  5
1F80
100
AcDbEntity
  8
ALPHA
 62
   255
100
AcDbVertex
100
AcDb3dPolylineVertex
 10
21.669523
 20
28.5979
 30
0.0
 70
    32
  0
VERTEX
  5
1F81
100
AcDbEntity
  8
ALPHA
 62
   255
100
AcDbVertex
100
AcDb3dPolylineVertex
 10
20.825631
 20
28.808105
 30
0.0
 70
    32
  0
VERTEX
  5
1F82
100
AcDbEntity
  8
ALPHA
 62
   255
100
AcDbVertex
100
AcDb3dPolylineVertex
 10
19.94395
 20
29.139103
 30
0.0
 70
    32
  0
VERTEX
  5
1F83
100
AcDbEntity
  8
ALPHA
 62
   255
100
AcDbVertex
100
AcDb3dPolylineVertex
 10
19.083489
 20
29.575069
 30
0.0
 70
    32
  0
SEQEND
  5
1F84
100
AcDbEntity
  8
ALPHA
 62
   255
  0
POLYLINE
  5
1F85
100
AcDbEntity
  8
ALPHA
 62
   255
100
AcDb2dPolyline
 66
     1
 10
0.0
 20
0.0
 30
0.0
  0
VERTEX
  5
1F86
100
AcDbEntity
  8
ALPHA
 62
   255
100
AcDbVertex
100
AcDb2dVertex
 10
6.442401
 20
29.575069
 30
0.0
  0
VERTEX
  5
1F87
100
AcDbEntity
  8
ALPHA
 62
   255
100
AcDbVertex
100
AcDb2dVertex
 10
9.74629
 20
28.808105
 30
0.0
  0
VERTEX
  5
1F88
100
AcDbEntity
  8
ALPHA
 62
   255
100
AcDbVertex
100
AcDb2dVertex
 10
12.763117
 20
28.524315
 30
0.0
  0
VERTEX
  5
1F89
100
AcDbEntity
  8
ALPHA
 62
   255
100
AcDbVertex
100
AcDb2dVertex
 10
15.779901
 20
28.808105
 30
0.0
  0
VERTEX
  5
1F8A
100
AcDbEntity
  8
ALPHA
 62
   255
100
AcDbVertex
100
AcDb2dVertex
 10
19.083489
 20
29.575069
 30
0.0
  0
SEQEND
  5
1F8B
100
AcDbEntity
  8
ALPHA
  0
POLYLINE
  5
1F8C
100
AcDbEntity
  8
ALPHA
 62
   255
100
AcDb3dPolyline
 66
     1
 10
0.0
 20
0.0
 30
0.0
 70
     8
  0
VERTEX
  5
1F8D
100
AcDbEntity
  8
ALPHA
 62
   255
100
AcDbVertex
100
AcDb3dPolylineVertex
 10
0.121684
 20
32.473772
 30
0.0
 70
    32
  0
VERTEX
  5
1F8E
100
AcDbEntity
  8
ALPHA
 62
   255
100
AcDbVertex
100
AcDb3dPolylineVertex
 10
0.124873
 20
32.476787
 30
0.0
 70
    32
  0
VERTEX
  5
1F8F
100
AcDbEntity
  8
ALPHA
 62
   255
100
AcDbVertex
100
AcDb3dPolylineVertex
 10
0.134404
 20
32.485573
 30
0.0
 70
    32
  0
VERTEX
  5
1F90
100
AcDbEntity
  8
ALPHA
 62
   255
100
AcDbVertex
100
AcDb3dPolylineVertex
 10
0.172284
 20
32.518922
 30
0.0
 70
    32
  0
VERTEX
  5
1F91
100
AcDbEntity
  8
ALPHA
 62
   255
100
AcDbVertex
100
AcDb3dPolylineVertex
 10
0.321844
 20
32.637953
 30
0.0
 70
    32
  0
VERTEX
  5
1F92
100
AcDbEntity
  8
ALPHA
 62
   255
100
AcDbVertex
100
AcDb3dPolylineVertex
 10
0.90441
 20
32.999149
 30
0.0
 70
    32
  0
VERTEX
  5
1F93
100
AcDbEntity
  8
ALPHA
 62
   255
100
AcDbVertex
100
AcDb3dPolylineVertex
 10
1.330697
 20
33.192061
 30
0.0
 70
    32
  0
VERTEX
  5
1F94
100
AcDbEntity
  8
ALPHA
 62
   255
100
AcDbVertex
100
AcDb3dPolylineVertex
 10
1.842509
 20
33.360346
 30
0.0
 70
    32
  0
VERTEX
  5
1F95
100
AcDbEntity
  8
ALPHA
 62
   255
100
AcDbVertex
100
AcDb3dPolylineVertex
 10
2.436487
 20
33.479377
 30
0.0
 70
    32
  0
VERTEX
  5
1F96
100
AcDbEntity
  8
ALPHA
 62
   255
100
AcDbVertex
100
AcDb3dPolylineVertex
 10
3.109271
 20
33.524526
 30
0.0
 70
    32
  0
VERTEX
  5
1F97
100
AcDbEntity
  8
ALPHA
 62
   255
100
AcDbVertex
100
AcDb3dPolylineVertex
 10
3.467059
 20
33.505772
 30
0.0
 70
    32
  0
VERTEX
  5
1F98
100
AcDbEntity
  8
ALPHA
 62
   255
100
AcDbVertex
100
AcDb3dPolylineVertex
 10
3.856463
 20
33.450844
 30
0.0
 70
    32
  0
VERTEX
  5
1F99
100
AcDbEntity
  8
ALPHA
 62
   255
100
AcDbVertex
100
AcDb3dPolylineVertex
 10
4.700517
 20
33.240478
 30
0.0
 70
    32
  0
VERTEX
  5
1F9A
100
AcDbEntity
  8
ALPHA
 62
   255
100
AcDbVertex
100
AcDb3dPolylineVertex
 10
5.58223
 20
32.909448
 30
0.0
 70
    32
  0
VERTEX
  5
1F9B
100
AcDbEntity
  8
ALPHA
 62
   255
100
AcDbVertex
100
AcDb3dPolylineVertex
 10
6.442401
 20
32.473772
 30
0.0
 70
    32
  0
SEQEND
  5
1F9C
100
AcDbEntity
  8
ALPHA
 62
   255
  0
POLYLINE
  5
1F9D
100
AcDbEntity
  8
ALPHA
 62
   255
100
AcDb3dPolyline
 66
     1
 10
0.0
 20
0.0
 30
0.0
 70
     8
  0
VERTEX
  5
1F9E
100
AcDbEntity
  8
ALPHA
 62
   255
100
AcDbVertex
100
AcDb3dPolylineVertex
 10
25.404551
 20
32.473772
 30
0.0
 70
    32
  0
VERTEX
  5
1F9F
100
AcDbEntity
  8
ALPHA
 62
   255
100
AcDbVertex
100
AcDb3dPolylineVertex
 10
25.401362
 20
32.476787
 30
0.0
 70
    32
  0
VERTEX
  5
1FA0
100
AcDbEntity
  8
ALPHA
 62
   255
100
AcDbVertex
100
AcDb3dPolylineVertex
 10
25.391831
 20
32.485573
 30
0.0
 70
    32
  0
VERTEX
  5
1FA1
100
AcDbEntity
  8
ALPHA
 62
   255
100
AcDbVertex
100
AcDb3dPolylineVertex
 10
25.35395
 20
32.518922
 30
0.0
 70
    32
  0
VERTEX
  5
1FA2
100
AcDbEntity
  8
ALPHA
 62
   255
100
AcDbVertex
100
AcDb3dPolylineVertex
 10
25.204385
 20
32.637953
 30
0.0
 70
    32
  0
VERTEX
  5
1FA3
100
AcDbEntity
  8
ALPHA
 62
   255
100
AcDbVertex
100
AcDb3dPolylineVertex
 10
24.621782
 20
32.999149
 30
0.0
 70
    32
  0
VERTEX
  5
1FA4
100
AcDbEntity
  8
ALPHA
 62
   255
100
AcDbVertex
100
AcDb3dPolylineVertex
 10
24.195453
 20
33.192061
 30
0.0
 70
    32
  0
VERTEX
  5
1FA5
100
AcDbEntity
  8
ALPHA
 62
   255
100
AcDbVertex
100
AcDb3dPolylineVertex
 10
23.68358
 20
33.360346
 30
0.0
 70
    32
  0
VERTEX
  5
1FA6
100
AcDbEntity
  8
ALPHA
 62
   255
100
AcDbVertex
100
AcDb3dPolylineVertex
 10
23.089517
 20
33.479377
 30
0.0
 70
    32
  0
VERTEX
  5
1FA7
100
AcDbEntity
  8
ALPHA
 62
   255
100
AcDbVertex
100
AcDb3dPolylineVertex
 10
22.416619
 20
33.524526
 30
0.0
 70
    32
  0
VERTEX
  5
1FA8
100
AcDbEntity
  8
ALPHA
 62
   255
100
AcDbVertex
100
AcDb3dPolylineVertex
 10
22.058859
 20
33.505772
 30
0.0
 70
    32
  0
VERTEX
  5
1FA9
100
AcDbEntity
  8
ALPHA
 62
   255
100
AcDbVertex
100
AcDb3dPolylineVertex
 10
21.669523
 20
33.450844
 30
0.0
 70
    32
  0
VERTEX
  5
1FAA
100
AcDbEntity
  8
ALPHA
 62
   255
100
AcDbVertex
100
AcDb3dPolylineVertex
 10
20.825631
 20
33.240478
 30
0.0
 70
    32
  0
VERTEX
  5
1FAB
100
AcDbEntity
  8
ALPHA
 62
   255
100
AcDbVertex
100
AcDb3dPolylineVertex
 10
19.94395
 20
32.909448
 30
0.0
 70
    32
  0
VERTEX
  5
1FAC
100
AcDbEntity
  8
ALPHA
 62
   255
100
AcDbVertex
100
AcDb3dPolylineVertex
 10
19.083489
 20
32.473772
 30
0.0
 70
    32
  0
SEQEND
  5
1FAD
100
AcDbEntity
  8
ALPHA
 62
   255
  0
POLYLINE
  5
1FAE
100
AcDbEntity
  8
ALPHA
 62
   255
100
AcDb2dPolyline
 66
     1
 10
0.0
 20
0.0
 30
0.0
  0
VERTEX
  5
1FAF
100
AcDbEntity
  8
ALPHA
 62
   255
100
AcDbVertex
100
AcDb2dVertex
 10
6.442401
 20
32.473772
 30
0.0
  0
VERTEX
  5
1FB0
100
AcDbEntity
  8
ALPHA
 62
   255
100
AcDbVertex
100
AcDb2dVertex
 10
9.74629
 20
33.240478
 30
0.0
  0
VERTEX
  5
1FB1
100
AcDbEntity
  8
ALPHA
 62
   255
100
AcDbVertex
100
AcDb2dVertex
 10
12.763117
 20
33.524526
 30
0.0
  0
VERTEX
  5
1FB2
100
AcDbEntity
  8
ALPHA
 62
   255
100
AcDbVertex
100
AcDb2dVertex
 10
15.779901
 20
33.240478
 30
0.0
  0
VERTEX
  5
1FB3
100
AcDbEntity
  8
ALPHA
 62
   255
100
AcDbVertex
100
AcDb2dVertex
 10
19.083489
 20
32.473772
 30
0.0
  0
SEQEND
  5
1FB4
100
AcDbEntity
  8
ALPHA
  0
POLYLINE
  5
1FB5
100
AcDbEntity
  8
ALPHA
 62
   255
100
AcDb2dPolyline
 66
     1
 10
0.0
 20
0.0
 30
0.0
  0
VERTEX
  5
1FB6
100
AcDbEntity
  8
ALPHA
 62
   255
100
AcDbVertex
100
AcDb2dVertex
 10
21.76274
 20
41.903688
 30
0.0
  0
VERTEX
  5
1FB7
100
AcDbEntity
  8
ALPHA
 62
   255
100
AcDbVertex
100
AcDb2dVertex
 10
21.76274
 20
48.616112
 30
0.0
  0
SEQEND
  5
1FB8
100
AcDbEntity
  8
ALPHA
  0
POLYLINE
  5
1FB9
100
AcDbEntity
  8
ALPHA
 62
   255
100
AcDb2dPolyline
 66
     1
 10
0.0
 20
0.0
 30
0.0
  0
VERTEX
  5
1FBA
100
AcDbEntity
  8
ALPHA
 62
   255
100
AcDbVertex
100
AcDb2dVertex
 10
21.76274
 20
48.616112
 30
0.0
  0
VERTEX
  5
1FBB
100
AcDbEntity
  8
ALPHA
 62
   255
100
AcDbVertex
100
AcDb2dVertex
 10
3.76315
 20
48.616112
 30
0.0
  0
SEQEND
  5
1FBC
100
AcDbEntity
  8
ALPHA
  0
POLYLINE
  5
1FBD
100
AcDbEntity
  8
ALPHA
 62
   255
100
AcDb2dPolyline
 66
     1
 10
0.0
 20
0.0
 30
0.0
  0
VERTEX
  5
1FBE
100
AcDbEntity
  8
ALPHA
 62
   255
100
AcDbVertex
100
AcDb2dVertex
 10
3.76315
 20
48.616112
 30
0.0
  0
VERTEX
  5
1FBF
100
AcDbEntity
  8
ALPHA
 62
   255
100
AcDbVertex
100
AcDb2dVertex
 10
3.76315
 20
41.903688
 30
0.0
  0
SEQEND
  5
1FC0
100
AcDbEntity
  8
ALPHA
  0
POLYLINE
  5
1FC1
100
AcDbEntity
  8
ALPHA
 62
   255
100
AcDb2dPolyline
 66
     1
 10
0.0
 20
0.0
 30
0.0
  0
VERTEX
  5
1FC2
100
AcDbEntity
  8
ALPHA
 62
   255
100
AcDbVertex
100
AcDb2dVertex
 10
21.012743
 20
20.616098
 30
0.0
  0
VERTEX
  5
1FC3
100
AcDbEntity
  8
ALPHA
 62
   255
100
AcDbVertex
100
AcDb2dVertex
 10
21.012743
 20
12.116014
 30
0.0
  0
SEQEND
  5
1FC4
100
AcDbEntity
  8
ALPHA
  0
POLYLINE
  5
1FC5
100
AcDbEntity
  8
ALPHA
 62
   255
100
AcDb2dPolyline
 66
     1
 10
0.0
 20
0.0
 30
0.0
  0
VERTEX
  5
1FC6
100
AcDbEntity
  8
ALPHA
 62
   255
100
AcDbVertex
100
AcDb2dVertex
 10
21.012743
 20
12.116014
 30
0.0
  0
VERTEX
  5
1FC7
100
AcDbEntity
  8
ALPHA
 62
   255
100
AcDbVertex
100
AcDb2dVertex
 10
4.513147
 20
12.116014
 30
0.0
  0
SEQEND
  5
1FC8
100
AcDbEntity
  8
ALPHA
  0
POLYLINE
  5
1FC9
100
AcDbEntity
  8
ALPHA
 62
   255
100
AcDb2dPolyline
 66
     1
 10
0.0
 20
0.0
 30
0.0
  0
VERTEX
  5
1FCA
100
AcDbEntity
  8
ALPHA
 62
   255
100
AcDbVertex
100
AcDb2dVertex
 10
4.513147
 20
12.116014
 30
0.0
  0
VERTEX
  5
1FCB
100
AcDbEntity
  8
ALPHA
 62
   255
100
AcDbVertex
100
AcDb2dVertex
 10
4.513147
 20
20.616098
 30
0.0
  0
SEQEND
  5
1FCC
100
AcDbEntity
  8
ALPHA
  0
POLYLINE
  5
1FCD
100
AcDbEntity
  8
ALPHA
 62
   255
100
AcDb2dPolyline
 66
     1
 10
0.0
 20
0.0
 30
0.0
  0
VERTEX
  5
1FCE
100
AcDbEntity
  8
ALPHA
 62
   255
100
AcDbVertex
100
AcDb2dVertex
 10
21.76274
 20
28.524315
 30
0.0
  0
VERTEX
  5
1FCF
100
AcDbEntity
  8
ALPHA
 62
   255
100
AcDbVertex
100
AcDb2dVertex
 10
21.76274
 20
20.616098
 30
0.0
  0
SEQEND
  5
1FD0
100
AcDbEntity
  8
ALPHA
  0
POLYLINE
  5
1FD1
100
AcDbEntity
  8
ALPHA
 62
   255
100
AcDb2dPolyline
 66
     1
 10
0.0
 20
0.0
 30
0.0
  0
VERTEX
  5
1FD2
100
AcDbEntity
  8
ALPHA
 62
   255
100
AcDbVertex
100
AcDb2dVertex
 10
21.76274
 20
20.616098
 30
0.0
  0
VERTEX
  5
1FD3
100
AcDbEntity
  8
ALPHA
 62
   255
100
AcDbVertex
100
AcDb2dVertex
 10
3.76315
 20
20.616098
 30
0.0
  0
SEQEND
  5
1FD4
100
AcDbEntity
  8
ALPHA
  0
POLYLINE
  5
1FD5
100
AcDbEntity
  8
ALPHA
 62
   255
100
AcDb2dPolyline
 66
     1
 10
0.0
 20
0.0
 30
0.0
  0
VERTEX
  5
1FD6
100
AcDbEntity
  8
ALPHA
 62
   255
100
AcDbVertex
100
AcDb2dVertex
 10
3.76315
 20
20.616098
 30
0.0
  0
VERTEX
  5
1FD7
100
AcDbEntity
  8
ALPHA
 62
   255
100
AcDbVertex
100
AcDb2dVertex
 10
3.76315
 20
28.524315
 30
0.0
  0
SEQEND
  5
1FD8
100
AcDbEntity
  8
ALPHA
  0
POLYLINE
  5
1FD9
100
AcDbEntity
  8
ALPHA
 62
   255
100
AcDb2dPolyline
 66
     1
 10
0.0
 20
0.0
 30
0.0
  0
VERTEX
  5
1FDA
100
AcDbEntity
  8
ALPHA
 62
   255
100
AcDbVertex
100
AcDb2dVertex
 10
25.404551
 20
32.442422
 30
0.0
  0
VERTEX
  5
1FDB
100
AcDbEntity
  8
ALPHA
 62
   255
100
AcDbVertex
100
AcDb2dVertex
 10
24.313144
 20
33.524526
 30
0.0
  0
SEQEND
  5
1FDC
100
AcDbEntity
  8
ALPHA
  0
POLYLINE
  5
1FDD
100
AcDbEntity
  8
ALPHA
 62
   255
100
AcDb2dPolyline
 66
     1
 10
0.0
 20
0.0
 30
0.0
  0
VERTEX
  5
1FDE
100
AcDbEntity
  8
ALPHA
 62
   255
100
AcDbVertex
100
AcDb2dVertex
 10
24.313144
 20
33.524526
 30
0.0
  0
VERTEX
  5
1FDF
100
AcDbEntity
  8
ALPHA
 62
   255
100
AcDbVertex
100
AcDb2dVertex
 10
1.21309
 20
33.524526
 30
0.0
  0
SEQEND
  5
1FE0
100
AcDbEntity
  8
ALPHA
  0
POLYLINE
  5
1FE1
100
AcDbEntity
  8
ALPHA
 62
   255
100
AcDb2dPolyline
 66
     1
 10
0.0
 20
0.0
 30
0.0
  0
VERTEX
  5
1FE2
100
AcDbEntity
  8
ALPHA
 62
   255
100
AcDbVertex
100
AcDb2dVertex
 10
1.21309
 20
33.524526
 30
0.0
  0
VERTEX
  5
1FE3
100
AcDbEntity
  8
ALPHA
 62
   255
100
AcDbVertex
100
AcDb2dVertex
 10
0.121684
 20
32.442422
 30
0.0
  0
SEQEND
  5
1FE4
100
AcDbEntity
  8
ALPHA
  0
POLYLINE
  5
1FE5
100
AcDbEntity
  8
ALPHA
 62
   255
100
AcDb2dPolyline
 66
     1
 10
0.0
 20
0.0
 30
0.0
  0
VERTEX
  5
1FE6
100
AcDbEntity
  8
ALPHA
 62
   255
100
AcDbVertex
100
AcDb2dVertex
 10
0.121684
 20
32.442422
 30
0.0
  0
VERTEX
  5
1FE7
100
AcDbEntity
  8
ALPHA
 62
   255
100
AcDbVertex
100
AcDb2dVertex
 10
0.121684
 20
29.606764
 30
0.0
  0
SEQEND
  5
1FE8
100
AcDbEntity
  8
ALPHA
  0
POLYLINE
  5
1FE9
100
AcDbEntity
  8
ALPHA
 62
   255
100
AcDb2dPolyline
 66
     1
 10
0.0
 20
0.0
 30
0.0
  0
VERTEX
  5
1FEA
100
AcDbEntity
  8
ALPHA
 62
   255
100
AcDbVertex
100
AcDb2dVertex
 10
0.121684
 20
29.606764
 30
0.0
  0
VERTEX
  5
1FEB
100
AcDbEntity
  8
ALPHA
 62
   255
100
AcDbVertex
100
AcDb2dVertex
 10
1.21309
 20
28.524315
 30
0.0
  0
SEQEND
  5
1FEC
100
AcDbEntity
  8
ALPHA
  0
POLYLINE
  5
1FED
100
AcDbEntity
  8
ALPHA
 62
   255
100
AcDb2dPolyline
 66
     1
 10
0.0
 20
0.0
 30
0.0
  0
VERTEX
  5
1FEE
100
AcDbEntity
  8
ALPHA
 62
   255
100
AcDbVertex
100
AcDb2dVertex
 10
1.21309
 20
28.524315
 30
0.0
  0
VERTEX
  5
1FEF
100
AcDbEntity
  8
ALPHA
 62
   255
100
AcDbVertex
100
AcDb2dVertex
 10
24.313144
 20
28.524315
 30
0.0
  0
SEQEND
  5
1FF0
100
AcDbEntity
  8
ALPHA
  0
POLYLINE
  5
1FF1
100
AcDbEntity
  8
ALPHA
 62
   255
100
AcDb2dPolyline
 66
     1
 10
0.0
 20
0.0
 30
0.0
  0
VERTEX
  5
1FF2
100
AcDbEntity
  8
ALPHA
 62
   255
100
AcDbVertex
100
AcDb2dVertex
 10
24.313144
 20
28.524315
 30
0.0
  0
VERTEX
  5
1FF3
100
AcDbEntity
  8
ALPHA
 62
   255
100
AcDbVertex
100
AcDb2dVertex
 10
25.404551
 20
29.606764
 30
0.0
  0
SEQEND
  5
1FF4
100
AcDbEntity
  8
ALPHA
  0
POLYLINE
  5
1FF5
100
AcDbEntity
  8
ALPHA
 62
   255
100
AcDb2dPolyline
 66
     1
 10
0.0
 20
0.0
 30
0.0
  0
VERTEX
  5
1FF6
100
AcDbEntity
  8
ALPHA
 62
   255
100
AcDbVertex
100
AcDb2dVertex
 10
25.404551
 20
29.606764
 30
0.0
  0
VERTEX
  5
1FF7
100
AcDbEntity
  8
ALPHA
 62
   255
100
AcDbVertex
100
AcDb2dVertex
 10
25.404551
 20
32.442422
 30
0.0
  0
SEQEND
  5
1FF8
100
AcDbEntity
  8
ALPHA
  0
POLYLINE
  5
1FF9
100
AcDbEntity
  8
ALPHA
 62
   255
100
AcDb2dPolyline
 66
     1
 10
0.0
 20
0.0
 30
0.0
  0
VERTEX
  5
1FFA
100
AcDbEntity
  8
ALPHA
 62
   255
100
AcDbVertex
100
AcDb2dVertex
 10
25.404551
 20
40.821928
 30
0.0
  0
VERTEX
  5
1FFB
100
AcDbEntity
  8
ALPHA
 62
   255
100
AcDbVertex
100
AcDb2dVertex
 10
24.313144
 20
41.903688
 30
0.0
  0
SEQEND
  5
1FFC
100
AcDbEntity
  8
ALPHA
  0
POLYLINE
  5
1FFD
100
AcDbEntity
  8
ALPHA
 62
   255
100
AcDb2dPolyline
 66
     1
 10
0.0
 20
0.0
 30
0.0
  0
VERTEX
  5
1FFE
100
AcDbEntity
  8
ALPHA
 62
   255
100
AcDbVertex
100
AcDb2dVertex
 10
24.313144
 20
41.903688
 30
0.0
  0
VERTEX
  5
1FFF
100
AcDbEntity
  8
ALPHA
 62
   255
100
AcDbVertex
100
AcDb2dVertex
 10
1.21309
 20
41.903688
 30
0.0
  0
SEQEND
  5
2000
100
AcDbEntity
  8
ALPHA
  0
POLYLINE
  5
2001
100
AcDbEntity
  8
ALPHA
 62
   255
100
AcDb2dPolyline
 66
     1
 10
0.0
 20
0.0
 30
0.0
  0
VERTEX
  5
2002
100
AcDbEntity
  8
ALPHA
 62
   255
100
AcDbVertex
100
AcDb2dVertex
 10
1.21309
 20
41.903688
 30
0.0
  0
VERTEX
  5
2003
100
AcDbEntity
  8
ALPHA
 62
   255
100
AcDbVertex
100
AcDb2dVertex
 10
0.121684
 20
40.821928
 30
0.0
  0
SEQEND
  5
2004
100
AcDbEntity
  8
ALPHA
  0
POLYLINE
  5
2005
100
AcDbEntity
  8
ALPHA
 62
   255
100
AcDb2dPolyline
 66
     1
 10
0.0
 20
0.0
 30
0.0
  0
VERTEX
  5
2006
100
AcDbEntity
  8
ALPHA
 62
   255
100
AcDbVertex
100
AcDb2dVertex
 10
0.121684
 20
40.821928
 30
0.0
  0
VERTEX
  5
2007
100
AcDbEntity
  8
ALPHA
 62
   255
100
AcDbVertex
100
AcDb2dVertex
 10
0.121684
 20
37.985925
 30
0.0
  0
SEQEND
  5
2008
100
AcDbEntity
  8
ALPHA
  0
POLYLINE
  5
2009
100
AcDbEntity
  8
ALPHA
 62
   255
100
AcDb2dPolyline
 66
     1
 10
0.0
 20
0.0
 30
0.0
  0
VERTEX
  5
200A
100
AcDbEntity
  8
ALPHA
 62
   255
100
AcDbVertex
100
AcDb2dVertex
 10
0.121684
 20
37.985925
 30
0.0
  0
VERTEX
  5
200B
100
AcDbEntity
  8
ALPHA
 62
   255
100
AcDbVertex
100
AcDb2dVertex
 10
1.21309
 20
36.903821
 30
0.0
  0
SEQEND
  5
200C
100
AcDbEntity
  8
ALPHA
  0
POLYLINE
  5
200D
100
AcDbEntity
  8
ALPHA
 62
   255
100
AcDb2dPolyline
 66
     1
 10
0.0
 20
0.0
 30
0.0
  0
VERTEX
  5
200E
100
AcDbEntity
  8
ALPHA
 62
   255
100
AcDbVertex
100
AcDb2dVertex
 10
1.21309
 20
36.903821
 30
0.0
  0
VERTEX
  5
200F
100
AcDbEntity
  8
ALPHA
 62
   255
100
AcDbVertex
100
AcDb2dVertex
 10
24.313144
 20
36.903821
 30
0.0
  0
SEQEND
  5
2010
100
AcDbEntity
  8
ALPHA
  0
POLYLINE
  5
2011
100
AcDbEntity
  8
ALPHA
 62
   255
100
AcDb2dPolyline
 66
     1
 10
0.0
 20
0.0
 30
0.0
  0
VERTEX
  5
2012
100
AcDbEntity
  8
ALPHA
 62
   255
100
AcDbVertex
100
AcDb2dVertex
 10
24.313144
 20
36.903821
 30
0.0
  0
VERTEX
  5
2013
100
AcDbEntity
  8
ALPHA
 62
   255
100
AcDbVertex
100
AcDb2dVertex
 10
25.404551
 20
37.985925
 30
0.0
  0
SEQEND
  5
2014
100
AcDbEntity
  8
ALPHA
  0
POLYLINE
  5
2015
100
AcDbEntity
  8
ALPHA
 62
   255
100
AcDb2dPolyline
 66
     1
 10
0.0
 20
0.0
 30
0.0
  0
VERTEX
  5
2016
100
AcDbEntity
  8
ALPHA
 62
   255
100
AcDbVertex
100
AcDb2dVertex
 10
25.404551
 20
37.985925
 30
0.0
  0
VERTEX
  5
2017
100
AcDbEntity
  8
ALPHA
 62
   255
100
AcDbVertex
100
AcDb2dVertex
 10
25.404551
 20
40.821928
 30
0.0
  0
SEQEND
  5
2018
100
AcDbEntity
  8
ALPHA
  0
DIMENSION
  5
2025
100
AcDbEntity
  8
COTATION1
100
AcDbDimension
  2
*D7
 10
21.76274
 20
53.866148
 30
0.0
 11
12.762945
 21
56.116148
 31
0.0
 70
    32
  1
M<>
  3
SC_STAND
100
AcDbAlignedDimension
 13
3.76315
 23
48.616112
 33
0.0
 14
21.76274
 24
48.616112
 34
0.0
100
AcDbRotatedDimension
  0
DIMENSION
  5
203D
100
AcDbEntity
  8
COTATION1
100
AcDbDimension
  2
*D8
 10
31.709159
 20
20.616098
 30
0.0
 11
29.459159
 21
34.616105
 31
0.0
 70
    32
  3
SC_STAND
100
AcDbAlignedDimension
 13
21.76274
 23
48.616112
 33
0.0
 14
21.76274
 24
20.616098
 34
0.0
 50
90.0
100
AcDbRotatedDimension
  0
DIMENSION
  5
204A
100
AcDbEntity
  8
COTATION1
100
AcDbDimension
  2
*D9
 10
38.503447
 20
0.01615
 30
0.0
 11
36.253447
 21
24.316131
 31
0.0
 70
    32
  3
SC_STAND
100
AcDbAlignedDimension
 13
26.857199
 23
48.616112
 33
0.0
 14
18.013098
 24
0.01615
 34
0.0
 50
90.0
100
AcDbRotatedDimension
  0
DIMENSION
  5
2072
100
AcDbEntity
  8
COTATION1
100
AcDbDimension
  2
*D10
 10
18.763096
 20
-6.377503
 30
0.0
 11
12.763117
 21
-4.127503
 31
0.0
 70
    32
  1
M<>
  3
SC_STAND
100
AcDbAlignedDimension
 13
6.763139
 23
2.338792
 33
0.0
 14
18.763096
 24
2.338792
 34
0.0
100
AcDbRotatedDimension
  0
ENDSEC
  0
SECTION
  2
OBJECTS
  0
DICTIONARY
  5
F8
100
AcDbDictionary
  3
ACAD_GROUP
350
F9
  3
ACAD_MLINESTYLE
350
106
  3
ACDBVARIABLEDICTIONARY
350
143
  0
DICTIONARY
  5
F9
102
{ACAD_REACTORS
330
F8
102
}
100
AcDbDictionary
  0
DICTIONARY
  5
106
102
{ACAD_REACTORS
330
F8
102
}
100
AcDbDictionary
  3
STANDARD
350
107
  0
DICTIONARY
  5
143
102
{ACAD_REACTORS
330
F8
102
}
100
AcDbDictionary
  3
DIMADEC
350
144
  0
MLINESTYLE
  5
107
102
{ACAD_REACTORS
330
106
102
}
100
AcDbMlineStyle
  2
STANDARD
 70
     0
  3

 62
   256
 51
90.0
 52
90.0
 71
     2
 49
0.5
 62
   256
  6
BYLAYER
 49
-0.5
 62
   256
  6
BYLAYER
  0
DICTIONARYVAR
  5
144
102
{ACAD_REACTORS
330
143
102
}
100
DictionaryVariables
280
     0
  1
0
  0
ENDSEC
  0
EOF
