  0
SECTION
  2
HEADER
  9
$ACADVER
  1
AC1014
  9
$ACADMAINTVER
 70
     0
  9
$DWGCODEPAGE
  3
ANSI_1252
  9
$INSBASE
 10
93.894301
 20
236.06014
 30
0.0
  9
$EXTMIN
 10
0.156573
 20
-0.018071
 30
0.0
  9
$EXTMAX
 10
36.674228
 20
50.318347
 30
0.0
  9
$LIMMIN
 10
0.0
 20
0.0
  9
$LIMMAX
 10
210.0
 20
297.0
  9
$ORTHOMODE
 70
     0
  9
$REGENMODE
 70
     1
  9
$FILLMODE
 70
     1
  9
$QTEXTMODE
 70
     0
  9
$MIRRTEXT
 70
     0
  9
$DRAGMODE
 70
     1
  9
$LTSCALE
 40
7.0
  9
$OSMODE
 70
  4095
  9
$ATTMODE
 70
     1
  9
$TEXTSIZE
 40
2.5
  9
$TRACEWID
 40
0.05
  9
$TEXTSTYLE
  7
STANDARD
  9
$CLAYER
  8
COTATION1
  9
$CELTYPE
  6
BYLAYER
  9
$CECOLOR
 62
   256
  9
$CELTSCALE
 40
1.0
  9
$DELOBJ
 70
     1
  9
$DISPSILH
 70
     0
  9
$DIMSCALE
 40
1.0
  9
$DIMASZ
 40
3.0
  9
$DIMEXO
 40
0.0625
  9
$DIMDLI
 40
0.38
  9
$DIMRND
 40
0.01
  9
$DIMDLE
 40
0.0
  9
$DIMEXE
 40
0.18
  9
$DIMTP
 40
0.0
  9
$DIMTM
 40
0.0
  9
$DIMTXT
 40
2.5
  9
$DIMCEN
 40
0.09
  9
$DIMTSZ
 40
0.0
  9
$DIMTOL
 70
     0
  9
$DIMLIM
 70
     0
  9
$DIMTIH
 70
     0
  9
$DIMTOH
 70
     0
  9
$DIMSE1
 70
     0
  9
$DIMSE2
 70
     0
  9
$DIMTAD
 70
     1
  9
$DIMZIN
 70
    12
  9
$DIMBLK
  1

  9
$DIMASO
 70
     1
  9
$DIMSHO
 70
     0
  9
$DIMPOST
  1

  9
$DIMAPOST
  1

  9
$DIMALT
 70
     0
  9
$DIMALTD
 70
     2
  9
$DIMALTF
 40
25.4
  9
$DIMLFAC
 40
1.0
  9
$DIMTOFL
 70
     1
  9
$DIMTVP
 40
0.0
  9
$DIMTIX
 70
     0
  9
$DIMSOXD
 70
     0
  9
$DIMSAH
 70
     0
  9
$DIMBLK1
  1

  9
$DIMBLK2
  1

  9
$DIMSTYLE
  2
SC_STAND
  9
$DIMCLRD
 70
     0
  9
$DIMCLRE
 70
     0
  9
$DIMCLRT
 70
     0
  9
$DIMTFAC
 40
1.0
  9
$DIMGAP
 40
1.0
  9
$DIMJUST
 70
     0
  9
$DIMSD1
 70
     0
  9
$DIMSD2
 70
     0
  9
$DIMTOLJ
 70
     1
  9
$DIMTZIN
 70
    12
  9
$DIMALTZ
 70
    12
  9
$DIMALTTZ
 70
    12
  9
$DIMFIT
 70
     5
  9
$DIMUPT
 70
     0
  9
$DIMUNIT
 70
     2
  9
$DIMDEC
 70
     3
  9
$DIMTDEC
 70
     3
  9
$DIMALTU
 70
     2
  9
$DIMALTTD
 70
     2
  9
$DIMTXSTY
  7
STANDARD
  9
$DIMAUNIT
 70
     0
  9
$LUNITS
 70
     2
  9
$LUPREC
 70
     3
  9
$SKETCHINC
 40
0.1
  9
$FILLETRAD
 40
0.0625
  9
$AUNITS
 70
     0
  9
$AUPREC
 70
     0
  9
$MENU
  1
ACAD
  9
$ELEVATION
 40
0.0
  9
$PELEVATION
 40
0.0
  9
$THICKNESS
 40
0.0
  9
$LIMCHECK
 70
     0
  9
$BLIPMODE
 70
     1
  9
$CHAMFERA
 40
0.0
  9
$CHAMFERB
 40
0.0
  9
$CHAMFERC
 40
0.0
  9
$CHAMFERD
 40
0.0
  9
$SKPOLY
 70
     0
  9
$TDCREATE
 40
2450953.590960648
  9
$TDUPDATE
 40
2453721.501678877
  9
$TDINDWG
 40
0.0110238426
  9
$TDUSRTIMER
 40
0.0110238426
  9
$USRTIMER
 70
     1
  9
$ANGBASE
 50
0.0
  9
$ANGDIR
 70
     0
  9
$PDMODE
 70
     0
  9
$PDSIZE
 40
0.0
  9
$PLINEWID
 40
0.0
  9
$COORDS
 70
     0
  9
$SPLFRAME
 70
     0
  9
$SPLINETYPE
 70
     6
  9
$SPLINESEGS
 70
     8
  9
$ATTDIA
 70
     0
  9
$ATTREQ
 70
     1
  9
$HANDLING
 70
     1
  9
$HANDSEED
  5
1D59
  9
$SURFTAB1
 70
     6
  9
$SURFTAB2
 70
     6
  9
$SURFTYPE
 70
     6
  9
$SURFU
 70
     6
  9
$SURFV
 70
     6
  9
$UCSNAME
  2

  9
$UCSORG
 10
0.0
 20
0.0
 30
0.0
  9
$UCSXDIR
 10
1.0
 20
0.0
 30
0.0
  9
$UCSYDIR
 10
0.0
 20
1.0
 30
0.0
  9
$PUCSNAME
  2

  9
$PUCSORG
 10
0.0
 20
0.0
 30
0.0
  9
$PUCSXDIR
 10
1.0
 20
0.0
 30
0.0
  9
$PUCSYDIR
 10
0.0
 20
1.0
 30
0.0
  9
$USERI1
 70
     0
  9
$USERI2
 70
     0
  9
$USERI3
 70
     0
  9
$USERI4
 70
     0
  9
$USERI5
 70
     0
  9
$USERR1
 40
0.0
  9
$USERR2
 40
0.0
  9
$USERR3
 40
0.0
  9
$USERR4
 40
0.0
  9
$USERR5
 40
0.0
  9
$WORLDVIEW
 70
     1
  9
$SHADEDGE
 70
     3
  9
$SHADEDIF
 70
    70
  9
$TILEMODE
 70
     1
  9
$MAXACTVP
 70
    32
  9
$PINSBASE
 10
0.0
 20
0.0
 30
0.0
  9
$PLIMCHECK
 70
     0
  9
$PEXTMIN
 10
-3.174999
 20
-3.175
 30
0.0
  9
$PEXTMAX
 10
203.812116
 20
370.276807
 30
0.0
  9
$PLIMMIN
 10
-3.175
 20
-3.175
  9
$PLIMMAX
 10
203.812115
 20
370.276807
  9
$UNITMODE
 70
     0
  9
$VISRETAIN
 70
     0
  9
$PLINEGEN
 70
     0
  9
$PSLTSCALE
 70
     1
  9
$TREEDEPTH
 70
  3020
  9
$PICKSTYLE
 70
     1
  9
$CMLSTYLE
  2
STANDARD
  9
$CMLJUST
 70
     0
  9
$CMLSCALE
 40
1.0
  9
$PROXYGRAPHICS
 70
     1
  9
$MEASUREMENT
 70
     0
  0
ENDSEC
  0
SECTION
  2
CLASSES
  0
CLASS
  1
DICTIONARYVAR
  2
AcDbDictionaryVar
  3
"AutoCAD"
 90
        0
280
     0
281
     0
  0
CLASS
  1
HATCH
  2
AcDbHatch
  3
"ACAD_SEDONA"
 90
        0
280
     0
281
     1
  0
ENDSEC
  0
SECTION
  2
TABLES
  0
TABLE
  2
VPORT
  5
F4
100
AcDbSymbolTable
 70
     3
  0
VPORT
  5
1D58
100
AcDbSymbolTableRecord
100
AcDbViewportTableRecord
  2
*ACTIVE
 70
     0
 10
0.0
 20
0.0
 11
1.0
 21
1.0
 12
18.418579
 22
25.159048
 13
0.0
 23
0.0
 14
1.0
 24
1.0
 15
10.0
 25
10.0
 16
0.0
 26
0.0
 36
1.0
 17
0.0
 27
0.0
 37
0.0
 40
50.748252
 41
1.643603
 42
50.0
 43
0.0
 44
0.0
 50
0.0
 51
0.0
 71
     0
 72
   100
 73
     1
 74
     1
 75
     0
 76
     1
 77
     0
 78
     0
  0
ENDTAB
  0
TABLE
  2
LTYPE
  5
F1
100
AcDbSymbolTable
 70
     5
  0
LTYPE
  5
FD
100
AcDbSymbolTableRecord
100
AcDbLinetypeTableRecord
  2
BYBLOCK
 70
     0
  3

 72
    65
 73
     0
 40
0.0
  0
LTYPE
  5
FE
100
AcDbSymbolTableRecord
100
AcDbLinetypeTableRecord
  2
BYLAYER
 70
     0
  3

 72
    65
 73
     0
 40
0.0
  0
LTYPE
  5
FF
100
AcDbSymbolTableRecord
100
AcDbLinetypeTableRecord
  2
CONTINUOUS
 70
     0
  3
Solid line
 72
    65
 73
     0
 40
0.0
  0
ENDTAB
  0
TABLE
  2
LAYER
  5
EE
100
AcDbSymbolTable
 70
     5
  0
LAYER
  5
FA
100
AcDbSymbolTableRecord
100
AcDbLayerTableRecord
  2
0
 70
     0
 62
     7
  6
CONTINUOUS
  0
LAYER
  5
12C
100
AcDbSymbolTableRecord
100
AcDbLayerTableRecord
  2
ALPHA
 70
     0
 62
   255
  6
CONTINUOUS
  0
LAYER
  5
12F
100
AcDbSymbolTableRecord
100
AcDbLayerTableRecord
  2
COTATION1
 70
     0
 62
     2
  6
CONTINUOUS
  0
LAYER
  5
13B
100
AcDbSymbolTableRecord
100
AcDbLayerTableRecord
  2
ASHADE
 70
     0
 62
     7
  6
CONTINUOUS
  0
LAYER
  5
13E
100
AcDbSymbolTableRecord
100
AcDbLayerTableRecord
  2
DEFPOINTS
 70
     0
 62
     7
  6
CONTINUOUS
  0
ENDTAB
  0
TABLE
  2
STYLE
  5
EF
100
AcDbSymbolTable
 70
     2
  0
STYLE
  5
FB
100
AcDbSymbolTableRecord
100
AcDbTextStyleTableRecord
  2
STANDARD
 70
     0
 40
0.0
 41
1.0
 50
0.0
 71
     0
 42
2.5
  3
txt
  4

  0
ENDTAB
  0
TABLE
  2
VIEW
  5
F2
100
AcDbSymbolTable
 70
     0
  0
ENDTAB
  0
TABLE
  2
UCS
  5
F3
100
AcDbSymbolTable
 70
     0
  0
ENDTAB
  0
TABLE
  2
APPID
  5
F5
100
AcDbSymbolTable
 70
     3
  0
APPID
  5
FC
100
AcDbSymbolTableRecord
100
AcDbRegAppTableRecord
  2
ACAD
 70
     0
  0
APPID
  5
127
100
AcDbSymbolTableRecord
100
AcDbRegAppTableRecord
  2
AVE_RENDER
 70
     0
  0
APPID
  5
128
100
AcDbSymbolTableRecord
100
AcDbRegAppTableRecord
  2
AVE_MATERIAL
 70
     0
  0
ENDTAB
  0
TABLE
  2
DIMSTYLE
  5
F6
100
AcDbSymbolTable
 70
     2
  0
DIMSTYLE
105
129
100
AcDbSymbolTableRecord
100
AcDbDimStyleTableRecord
  2
STANDARD
 70
     0
  3

  4

  5

  6

  7

 40
1.0
 41
0.18
 42
0.0625
 43
0.38
 44
0.18
 45
0.0
 46
0.0
 47
0.0
 48
0.0
140
0.18
141
0.09
142
0.0
143
25.4
144
1.0
145
0.0
146
1.0
147
0.09
 71
     0
 72
     0
 73
     1
 74
     1
 75
     0
 76
     0
 77
     0
 78
     0
170
     0
171
     2
172
     0
173
     0
174
     0
175
     0
176
     0
177
     0
178
     0
270
     2
271
     3
272
     3
273
     2
274
     2
340
FB
275
     0
280
     0
281
     0
282
     0
283
     1
284
    12
285
    12
286
    12
287
     5
288
     0
  0
DIMSTYLE
105
12A
102
{ACAD_REACTORS
330
1D06
330
1D1E
330
1D2B
102
}
100
AcDbSymbolTableRecord
100
AcDbDimStyleTableRecord
  2
SC_STAND
 70
     0
  3

  4

  5

  6

  7

 40
1.0
 41
3.0
 42
0.0625
 43
0.38
 44
0.18
 45
0.01
 46
0.0
 47
0.0
 48
0.0
140
2.5
141
0.09
142
0.0
143
25.4
144
1.0
145
0.0
146
1.0
147
1.0
 71
     0
 72
     0
 73
     0
 74
     0
 75
     0
 76
     0
 77
     1
 78
    12
170
     0
171
     2
172
     1
173
     0
174
     0
175
     0
176
     0
177
     0
178
     0
270
     2
271
     3
272
     3
273
     2
274
     2
340
FB
275
     0
280
     0
281
     0
282
     0
283
     1
284
    12
285
    12
286
    12
287
     5
288
     0
  0
ENDTAB
  0
TABLE
  2
BLOCK_RECORD
  5
ED
100
AcDbSymbolTable
 70
    10
  0
BLOCK_RECORD
  5
103
100
AcDbSymbolTableRecord
100
AcDbBlockTableRecord
  2
*MODEL_SPACE
  0
BLOCK_RECORD
  5
100
100
AcDbSymbolTableRecord
100
AcDbBlockTableRecord
  2
*PAPER_SPACE
  0
BLOCK_RECORD
  5
108
100
AcDbSymbolTableRecord
100
AcDbBlockTableRecord
  2
AVE_RENDER
  0
BLOCK_RECORD
  5
109
100
AcDbSymbolTableRecord
100
AcDbBlockTableRecord
  2
AVE_GLOBAL
  0
BLOCK_RECORD
  5
10A
100
AcDbSymbolTableRecord
100
AcDbBlockTableRecord
  2
SCH_IS
  0
BLOCK_RECORD
  5
1CFA
100
AcDbSymbolTableRecord
100
AcDbBlockTableRecord
  2
*D7
  0
BLOCK_RECORD
  5
1D12
100
AcDbSymbolTableRecord
100
AcDbBlockTableRecord
  2
*D8
  0
BLOCK_RECORD
  5
1D1F
100
AcDbSymbolTableRecord
100
AcDbBlockTableRecord
  2
*D9
  0
ENDTAB
  0
ENDSEC
  0
SECTION
  2
BLOCKS
  0
BLOCK
  5
141
100
AcDbEntity
  8
0
100
AcDbBlockBegin
  2
*MODEL_SPACE
 70
     0
 10
0.0
 20
0.0
 30
0.0
  3
*MODEL_SPACE
  1

  0
ENDBLK
  5
142
100
AcDbEntity
  8
0
100
AcDbBlockEnd
  0
BLOCK
  5
13F
100
AcDbEntity
 67
     1
  8
0
100
AcDbBlockBegin
  2
*PAPER_SPACE
 70
     0
 10
0.0
 20
0.0
 30
0.0
  3
*PAPER_SPACE
  1

  0
ENDBLK
  5
140
100
AcDbEntity
 67
     1
  8
0
100
AcDbBlockEnd
  0
BLOCK
  5
8D
100
AcDbEntity
  8
0
100
AcDbBlockBegin
  2
AVE_RENDER
 70
     0
 10
0.0
 20
0.0
 30
0.0
  3
AVE_RENDER
  1
AVE_RENDER
  0
ENDBLK
  5
8E
100
AcDbEntity
  8
0
100
AcDbBlockEnd
  0
BLOCK
  5
90
100
AcDbEntity
  8
0
100
AcDbBlockBegin
  2
AVE_GLOBAL
 70
     0
 10
0.0
 20
0.0
 30
0.0
  3
AVE_GLOBAL
  1
AVE_GLOBAL
  0
ENDBLK
  5
91
100
AcDbEntity
  8
0
100
AcDbBlockEnd
  0
BLOCK
  5
C9
100
AcDbEntity
  8
0
100
AcDbBlockBegin
  2
SCH_IS
 70
     0
 10
0.0
 20
0.0
 30
0.0
  3
SCH_IS
  1

  0
INSERT
  5
C0
100
AcDbEntity
  8
ASHADE
 62
     1
100
AcDbBlockReference
  2
AVE_RENDER
 10
0.0
 20
0.0
 30
0.0
1001
AVE_RENDER
1002
{
1070
     6
1000
Pref
1070
    50
1070
    20
1070
     1
1070
     0
1000

1070
    10
1070
     1
1070
    30
1040
25.4
1070
     1
1040
0.3
1040
0.7
1040
0.0
1040
10.0
1010
-1.0
1020
-1.0
1030
-1.0
1040
0.3
1070
    49
1070
     0
1070
     0
1010
1.0
1020
1.0
1030
1.0
1040
45.0
1070
     1
1070
     0
1000
WCS
1040
0.0
1002
}
  0
INSERT
  5
C1
100
AcDbEntity
  8
ASHADE
 62
     3
100
AcDbBlockReference
  2
AVE_RENDER
 10
0.0
 20
0.0
 30
0.0
1001
AVE_RENDER
1002
{
1070
     0
1000
Full Opt
1070
     0
1070
     1
1070
     1
1070
     1
1070
     0
1070
     0
1070
     0
1070
     1
1070
     1
1040
0.0001
1040
0.0001
1002
}
  0
INSERT
  5
C2
100
AcDbEntity
  8
ASHADE
 62
     4
100
AcDbBlockReference
  2
AVE_RENDER
 10
0.0
 20
0.0
 30
0.0
1001
AVE_RENDER
1002
{
1070
     0
1000
Quick Opt
1070
     0
1070
     1
1070
     1
1070
     1
1070
     0
1070
     0
1070
     1
1002
}
  0
INSERT
  5
C3
100
AcDbEntity
  8
ASHADE
 62
     5
100
AcDbBlockReference
  2
AVE_RENDER
 10
0.0
 20
0.0
 30
0.0
1001
AVE_RENDER
1002
{
1070
     1
1000
Scanl Opt
1070
     2
1070
     0
1070
     2
1040
2.0
1040
4.0
1070
     0
1070
     1
1070
     0
1040
0.03
1002
}
  0
INSERT
  5
C4
100
AcDbEntity
  8
ASHADE
 62
     6
100
AcDbBlockReference
  2
AVE_RENDER
 10
0.0
 20
0.0
 30
0.0
1001
AVE_RENDER
1002
{
1070
     2
1000
Raytr Opt
1070
     2
1070
     0
1070
     2
1040
2.0
1040
4.0
1070
     0
1070
     1
1070
     1
1040
0.03
1070
     3
1040
0.03
1002
}
  0
INSERT
  5
C5
100
AcDbEntity
  8
ASHADE
 62
     7
100
AcDbBlockReference
  2
AVE_RENDER
 10
0.0
 20
0.0
 30
0.0
1001
AVE_RENDER
1002
{
1070
     0
1000
RFile Opt
1070
     5
1070
   640
1070
   480
1070
 10000
1070
     3
1070
    32
1070
    24
1070
     0
1070
     0
1070
     0
1070
     1
1070
     0
1070
     0
1070
     0
1002
}
  0
INSERT
  5
C6
100
AcDbEntity
  8
ASHADE
 62
     8
100
AcDbBlockReference
  2
AVE_RENDER
 10
0.0
 20
0.0
 30
0.0
1001
AVE_RENDER
1002
{
1070
     0
1000
Fog Opt
1070
     0
1070
     0
1040
0.0
1040
1.0
1040
0.0
1040
1.0
1010
0.5
1020
0.5
1030
0.5
1002
}
  0
INSERT
  5
C7
100
AcDbEntity
  8
ASHADE
 62
     9
100
AcDbBlockReference
  2
AVE_RENDER
 10
0.0
 20
0.0
 30
0.0
1001
AVE_RENDER
1002
{
1070
     0
1000
BG Opt
1070
     0
1070
     1
1010
0.0
1020
0.0
1030
0.0
1010
1.0
1020
0.0
1030
0.0
1010
0.0
1020
1.0
1030
0.0
1010
0.0
1020
0.0
1030
1.0
1040
0.5
1040
0.33
1040
0.0
1000

1070
     1
1000

1070
     1
1070
     1
1040
1.0
1040
1.0
1040
0.0
1040
0.0
1070
     0
1002
}
  0
INSERT
  5
C8
100
AcDbEntity
  8
ASHADE
 62
     1
100
AcDbBlockReference
  2
AVE_GLOBAL
 10
0.0
 20
0.0
 30
0.0
1001
AVE_MATERIAL
1002
{
1000
*GLOBAL*
1000
1
1000
Finition globale.
1002
{
1002
}
1002
{
1070
    63
1002
{
1002
{
1010
-1.0
1020
-1.0
1030
-1.0
1002
}
1040
0.1
1000

1040
0.0
1002
{
1002
}
1040
0.0
1002
{
1002
}
1040
0.0
1002
}
1002
{
1002
{
1010
-1.0
1020
-1.0
1030
-1.0
1002
}
1040
0.7
1000

1040
0.0
1002
{
1002
}
1040
0.0
1002
{
1002
}
1040
0.0
1002
}
1002
{
1002
{
1010
-1.0
1020
-1.0
1030
-1.0
1002
}
1040
0.2
1000

1040
0.0
1002
{
1002
}
1040
0.0
1002
{
1002
}
1040
0.0
1002
}
1002
{
1070
     0
1002
{
1070
     1
1002
{
1040
1.0
1040
1.0
1000

1040
0.0
1002
{
1002
}
1040
0.0
1002
{
1002
}
1040
0.0
1002
}
1002
}
1040
1.0
1040
0.0
1040
0.0
1002
}
1002
{
1040
1.0
1040
1.0
1000

1040
0.0
1002
{
1002
}
1040
0.0
1002
{
1002
}
1040
0.0
1002
}
1002
{
1040
0.5
1040
1.0
1000

1040
0.0
1002
{
1002
}
1040
0.0
1002
{
1002
}
1040
0.0
1002
}
1002
{
1070
     0
1040
0.0
1002
{
1002
}
1040
1.0
1002
{
1002
}
1040
0.0
1002
}
1002
{
1040
0.0
1002
{
1002
{
1010
0.0
1020
0.0
1030
0.0
1002
}
1040
1.0
1000

1040
0.0
1002
{
1002
}
1040
0.0
1002
{
1002
}
1040
0.0
1002
}
1002
}
1002
{
1002
{
1070
     1
1002
{
1040
0.0
1040
1.0
1000

1040
0.0
1002
{
1002
}
1040
0.0
1002
{
1002
}
1040
0.0
1002
}
1002
}
1040
0.0
1002
{
1002
}
1010
1.0
1020
0.0
1030
0.0
1010
0.0
1020
1.0
1030
0.0
1010
0.0
1020
0.0
1030
1.0
1070
     0
1002
}
1002
{
1002
{
1040
1.0
1040
1.0
1002
{
1070
     1
1002
{
1040
1.0
1040
1.0
1000

1040
0.0
1002
{
1002
}
1040
0.0
1002
{
1002
}
1040
0.0
1002
}
1002
}
1002
}
1070
     0
1040
0.0
1002
{
1002
}
1002
}
1002
{
1002
}
1002
}
1002
{
1071
        3
1070
     3
1070
     0
1002
{
1070
     2
1070
     0
1070
     0
1040
0.0
1002
}
1070
     0
1070
     2
1002
{
1002
}
1002
}
1002
{
1040
8030.0
1040
190.300003
1040
0.305
1040
228.0
1040
545.0
1040
14.0
1040
17.4
1040
0.456
1002
}
1002
}
  0
ENDBLK
  5
CA
100
AcDbEntity
  8
0
100
AcDbBlockEnd
  0
BLOCK
  5
1D31
100
AcDbEntity
  8
0
100
AcDbBlockBegin
  2
*D7
 70
     1
 10
0.0
 20
0.0
 30
0.0
  3
*D7
  1

  0
LINE
  5
1D32
100
AcDbEntity
  8
0
  6
BYBLOCK
 62
     0
100
AcDbLine
 10
3.797694
 20
42.974193
 30
0.0
 11
3.797694
 21
46.998347
 31
0.0
  0
LINE
  5
1D33
100
AcDbEntity
  8
0
  6
BYBLOCK
 62
     0
100
AcDbLine
 10
21.797285
 20
42.974193
 30
0.0
 11
21.797285
 21
46.998347
 31
0.0
  0
LINE
  5
1D34
100
AcDbEntity
  8
0
  6
BYBLOCK
 62
     0
100
AcDbLine
 10
6.797694
 20
46.818347
 30
0.0
 11
18.797285
 21
46.818347
 31
0.0
  0
SOLID
  5
1D35
100
AcDbEntity
  8
0
  6
BYBLOCK
 62
     0
100
AcDbTrace
 10
6.797694
 20
47.318347
 30
0.0
 11
6.797694
 21
46.318347
 31
0.0
 12
3.797694
 22
46.818347
 32
0.0
 13
3.797694
 23
46.818347
 33
0.0
  0
SOLID
  5
1D36
100
AcDbEntity
  8
0
  6
BYBLOCK
 62
     0
100
AcDbTrace
 10
18.797285
 20
47.318347
 30
0.0
 11
18.797285
 21
46.318347
 31
0.0
 12
21.797285
 22
46.818347
 32
0.0
 13
21.797285
 23
46.818347
 33
0.0
  0
MTEXT
  5
1D37
100
AcDbEntity
  8
0
  6
BYBLOCK
 62
     0
100
AcDbMText
 10
12.797489
 20
49.068347
 30
0.0
 40
2.5
 41
0.0
 71
     5
 72
     1
  1
\A1;M18
  0
POINT
  5
1D38
100
AcDbEntity
  8
DEFPOINTS
  6
BYBLOCK
 62
     0
100
AcDbPoint
 10
3.797694
 20
42.911693
 30
0.0
  0
POINT
  5
1D39
100
AcDbEntity
  8
DEFPOINTS
  6
BYBLOCK
 62
     0
100
AcDbPoint
 10
21.797285
 20
42.911693
 30
0.0
  0
POINT
  5
1D3A
100
AcDbEntity
  8
DEFPOINTS
  6
BYBLOCK
 62
     0
100
AcDbPoint
 10
21.797285
 20
46.818347
 30
0.0
  0
ENDBLK
  5
1D3B
100
AcDbEntity
  8
0
100
AcDbBlockEnd
  0
BLOCK
  5
1D47
100
AcDbEntity
  8
0
100
AcDbBlockBegin
  2
*D8
 70
     1
 10
0.0
 20
0.0
 30
0.0
  3
*D8
  1

  0
LINE
  5
1D48
100
AcDbEntity
  8
0
  6
BYBLOCK
 62
     0
100
AcDbLine
 10
21.859785
 20
42.911693
 30
0.0
 11
30.496686
 21
42.911693
 31
0.0
  0
LINE
  5
1D49
100
AcDbEntity
  8
0
  6
BYBLOCK
 62
     0
100
AcDbLine
 10
21.859785
 20
14.911679
 30
0.0
 11
30.496686
 21
14.911679
 31
0.0
  0
LINE
  5
1D4A
100
AcDbEntity
  8
0
  6
BYBLOCK
 62
     0
100
AcDbLine
 10
30.316686
 20
39.911693
 30
0.0
 11
30.316686
 21
17.911679
 31
0.0
  0
SOLID
  5
1D4B
100
AcDbEntity
  8
0
  6
BYBLOCK
 62
     0
100
AcDbTrace
 10
29.816686
 20
39.911693
 30
0.0
 11
30.816686
 21
39.911693
 31
0.0
 12
30.316686
 22
42.911693
 32
0.0
 13
30.316686
 23
42.911693
 33
0.0
  0
SOLID
  5
1D4C
100
AcDbEntity
  8
0
  6
BYBLOCK
 62
     0
100
AcDbTrace
 10
29.816686
 20
17.911679
 30
0.0
 11
30.816686
 21
17.911679
 31
0.0
 12
30.316686
 22
14.911679
 32
0.0
 13
30.316686
 23
14.911679
 33
0.0
  0
MTEXT
  5
1D4D
100
AcDbEntity
  8
0
  6
BYBLOCK
 62
     0
100
AcDbMText
 10
28.066686
 20
28.911686
 30
0.0
 40
2.5
 41
0.0
 71
     5
 72
     1
  1
\A1;28
 11
0.0
 21
1.0
 31
0.0
  0
POINT
  5
1D4E
100
AcDbEntity
  8
DEFPOINTS
  6
BYBLOCK
 62
     0
100
AcDbPoint
 10
21.797285
 20
42.911693
 30
0.0
  0
POINT
  5
1D4F
100
AcDbEntity
  8
DEFPOINTS
  6
BYBLOCK
 62
     0
100
AcDbPoint
 10
21.797285
 20
14.911679
 30
0.0
  0
POINT
  5
1D50
100
AcDbEntity
  8
DEFPOINTS
  6
BYBLOCK
 62
     0
100
AcDbPoint
 10
30.316686
 20
14.911679
 30
0.0
  0
ENDBLK
  5
1D51
100
AcDbEntity
  8
0
100
AcDbBlockEnd
  0
BLOCK
  5
1D3C
100
AcDbEntity
  8
0
100
AcDbBlockBegin
  2
*D9
 70
     1
 10
0.0
 20
0.0
 30
0.0
  3
*D9
  1

  0
LINE
  5
1D3D
100
AcDbEntity
  8
0
  6
BYBLOCK
 62
     0
100
AcDbLine
 10
26.240735
 20
42.911693
 30
0.0
 11
36.354228
 21
42.911693
 31
0.0
  0
LINE
  5
1D3E
100
AcDbEntity
  8
0
  6
BYBLOCK
 62
     0
100
AcDbLine
 10
21.109787
 20
6.411595
 30
0.0
 11
36.354228
 21
6.411595
 31
0.0
  0
LINE
  5
1D3F
100
AcDbEntity
  8
0
  6
BYBLOCK
 62
     0
100
AcDbLine
 10
36.174228
 20
39.911693
 30
0.0
 11
36.174228
 21
9.411595
 31
0.0
  0
SOLID
  5
1D40
100
AcDbEntity
  8
0
  6
BYBLOCK
 62
     0
100
AcDbTrace
 10
35.674228
 20
39.911693
 30
0.0
 11
36.674228
 21
39.911693
 31
0.0
 12
36.174228
 22
42.911693
 32
0.0
 13
36.174228
 23
42.911693
 33
0.0
  0
SOLID
  5
1D41
100
AcDbEntity
  8
0
  6
BYBLOCK
 62
     0
100
AcDbTrace
 10
35.674228
 20
9.411595
 30
0.0
 11
36.674228
 21
9.411595
 31
0.0
 12
36.174228
 22
6.411595
 32
0.0
 13
36.174228
 23
6.411595
 33
0.0
  0
MTEXT
  5
1D42
100
AcDbEntity
  8
0
  6
BYBLOCK
 62
     0
100
AcDbMText
 10
33.924228
 20
24.661644
 30
0.0
 40
2.5
 41
0.0
 71
     5
 72
     1
  1
\A1;36.5
 11
0.0
 21
1.0
 31
0.0
  0
POINT
  5
1D43
100
AcDbEntity
  8
DEFPOINTS
  6
BYBLOCK
 62
     0
100
AcDbPoint
 10
26.178235
 20
42.911693
 30
0.0
  0
POINT
  5
1D44
100
AcDbEntity
  8
DEFPOINTS
  6
BYBLOCK
 62
     0
100
AcDbPoint
 10
21.047287
 20
6.411595
 30
0.0
  0
POINT
  5
1D45
100
AcDbEntity
  8
DEFPOINTS
  6
BYBLOCK
 62
     0
100
AcDbPoint
 10
36.174228
 20
6.411595
 30
0.0
  0
ENDBLK
  5
1D46
100
AcDbEntity
  8
0
100
AcDbBlockEnd
  0
ENDSEC
  0
SECTION
  2
ENTITIES
  0
INSERT
  5
CC
100
AcDbEntity
  8
0
100
AcDbBlockReference
  2
SCH_IS
 10
-68.718396
 20
-140.042541
 30
0.0
  0
INSERT
  5
EC
100
AcDbEntity
  8
COTATION1
100
AcDbBlockReference
  2
SCH_IS
 10
0.0
 20
0.0
 30
0.0
  0
POLYLINE
  5
1B7B
100
AcDbEntity
  8
ALPHA
100
AcDb2dPolyline
 66
     1
 10
0.0
 20
0.0
 30
0.0
  0
VERTEX
  5
1B7C
100
AcDbEntity
  8
ALPHA
100
AcDbVertex
100
AcDb2dVertex
 10
15.612994
 20
0.604198
 30
0.0
  0
VERTEX
  5
1B7D
100
AcDbEntity
  8
ALPHA
100
AcDbVertex
100
AcDb2dVertex
 10
15.076861
 20
0.926057
 30
0.0
  0
VERTEX
  5
1B7E
100
AcDbEntity
  8
ALPHA
100
AcDbVertex
100
AcDb2dVertex
 10
14.851016
 20
1.02048
 30
0.0
  0
VERTEX
  5
1B7F
100
AcDbEntity
  8
ALPHA
100
AcDbVertex
100
AcDb2dVertex
 10
14.651311
 20
1.077134
 30
0.0
  0
VERTEX
  5
1B80
100
AcDbEntity
  8
ALPHA
100
AcDbVertex
100
AcDb2dVertex
 10
14.47624
 20
1.100945
 30
0.0
  0
VERTEX
  5
1B81
100
AcDbEntity
  8
ALPHA
100
AcDbVertex
100
AcDb2dVertex
 10
14.324294
 20
1.096839
 30
0.0
  0
VERTEX
  5
1B82
100
AcDbEntity
  8
ALPHA
100
AcDbVertex
100
AcDb2dVertex
 10
14.256524
 20
1.085858
 30
0.0
  0
VERTEX
  5
1B83
100
AcDbEntity
  8
ALPHA
100
AcDbVertex
100
AcDb2dVertex
 10
14.19397
 20
1.069744
 30
0.0
  0
VERTEX
  5
1B84
100
AcDbEntity
  8
ALPHA
100
AcDbVertex
100
AcDb2dVertex
 10
14.136444
 20
1.049115
 30
0.0
  0
VERTEX
  5
1B85
100
AcDbEntity
  8
ALPHA
100
AcDbVertex
100
AcDb2dVertex
 10
14.083759
 20
1.024585
 30
0.0
  0
VERTEX
  5
1B86
100
AcDbEntity
  8
ALPHA
100
AcDbVertex
100
AcDb2dVertex
 10
13.992156
 20
0.966289
 30
0.0
  0
VERTEX
  5
1B87
100
AcDbEntity
  8
ALPHA
100
AcDbVertex
100
AcDb2dVertex
 10
13.917653
 20
0.899783
 30
0.0
  0
VERTEX
  5
1B88
100
AcDbEntity
  8
ALPHA
100
AcDbVertex
100
AcDb2dVertex
 10
13.858746
 20
0.829992
 30
0.0
  0
VERTEX
  5
1B89
100
AcDbEntity
  8
ALPHA
100
AcDbVertex
100
AcDb2dVertex
 10
13.813927
 20
0.761843
 30
0.0
  0
VERTEX
  5
1B8A
100
AcDbEntity
  8
ALPHA
100
AcDbVertex
100
AcDb2dVertex
 10
13.760529
 20
0.650177
 30
0.0
  0
VERTEX
  5
1B8B
100
AcDbEntity
  8
ALPHA
100
AcDbVertex
100
AcDb2dVertex
 10
13.748937
 20
0.616514
 30
0.0
  0
VERTEX
  5
1B8C
100
AcDbEntity
  8
ALPHA
100
AcDbVertex
100
AcDb2dVertex
 10
13.746258
 20
0.607379
 30
0.0
  0
VERTEX
  5
1B8D
100
AcDbEntity
  8
ALPHA
100
AcDbVertex
100
AcDb2dVertex
 10
13.745407
 20
0.604198
 30
0.0
  0
SEQEND
  5
1B8E
100
AcDbEntity
  8
ALPHA
  0
POLYLINE
  5
1B8F
100
AcDbEntity
  8
ALPHA
100
AcDb2dPolyline
 66
     1
 10
0.0
 20
0.0
 30
0.0
  0
VERTEX
  5
1B90
100
AcDbEntity
  8
ALPHA
100
AcDbVertex
100
AcDb2dVertex
 10
4.547691
 20
14.911679
 30
0.0
  0
VERTEX
  5
1B91
100
AcDbEntity
  8
ALPHA
100
AcDbVertex
100
AcDb2dVertex
 10
4.547691
 20
22.819896
 30
0.0
  0
SEQEND
  5
1B92
100
AcDbEntity
  8
ALPHA
  0
POLYLINE
  5
1B93
100
AcDbEntity
  8
ALPHA
100
AcDb2dPolyline
 66
     1
 10
0.0
 20
0.0
 30
0.0
  0
VERTEX
  5
1B94
100
AcDbEntity
  8
ALPHA
100
AcDbVertex
100
AcDb2dVertex
 10
21.047287
 20
14.911679
 30
0.0
  0
VERTEX
  5
1B95
100
AcDbEntity
  8
ALPHA
100
AcDbVertex
100
AcDb2dVertex
 10
21.047287
 20
22.819896
 30
0.0
  0
SEQEND
  5
1B96
100
AcDbEntity
  8
ALPHA
  0
POLYLINE
  5
1B97
100
AcDbEntity
  8
ALPHA
100
AcDb2dPolyline
 66
     1
 10
0.0
 20
0.0
 30
0.0
  0
VERTEX
  5
1B98
100
AcDbEntity
  8
ALPHA
100
AcDbVertex
100
AcDb2dVertex
 10
4.547691
 20
42.911693
 30
0.0
  0
VERTEX
  5
1B99
100
AcDbEntity
  8
ALPHA
100
AcDbVertex
100
AcDb2dVertex
 10
4.547691
 20
36.199269
 30
0.0
  0
SEQEND
  5
1B9A
100
AcDbEntity
  8
ALPHA
  0
POLYLINE
  5
1B9B
100
AcDbEntity
  8
ALPHA
100
AcDb2dPolyline
 66
     1
 10
0.0
 20
0.0
 30
0.0
  0
VERTEX
  5
1B9C
100
AcDbEntity
  8
ALPHA
100
AcDbVertex
100
AcDb2dVertex
 10
21.047287
 20
42.911693
 30
0.0
  0
VERTEX
  5
1B9D
100
AcDbEntity
  8
ALPHA
100
AcDbVertex
100
AcDb2dVertex
 10
21.047287
 20
36.199269
 30
0.0
  0
SEQEND
  5
1B9E
100
AcDbEntity
  8
ALPHA
  0
POLYLINE
  5
1B9F
100
AcDbEntity
  8
ALPHA
100
AcDb2dPolyline
 66
     1
 10
0.0
 20
0.0
 30
0.0
  0
VERTEX
  5
1BA0
100
AcDbEntity
  8
ALPHA
100
AcDbVertex
100
AcDb2dVertex
 10
3.797694
 20
31.199746
 30
0.0
  0
VERTEX
  5
1BA1
100
AcDbEntity
  8
ALPHA
100
AcDbVertex
100
AcDb2dVertex
 10
3.797694
 20
27.820107
 30
0.0
  0
SEQEND
  5
1BA2
100
AcDbEntity
  8
ALPHA
  0
POLYLINE
  5
1BA3
100
AcDbEntity
  8
ALPHA
100
AcDb2dPolyline
 66
     1
 10
0.0
 20
0.0
 30
0.0
  0
VERTEX
  5
1BA4
100
AcDbEntity
  8
ALPHA
100
AcDbVertex
100
AcDb2dVertex
 10
21.797285
 20
27.820107
 30
0.0
  0
VERTEX
  5
1BA5
100
AcDbEntity
  8
ALPHA
100
AcDbVertex
100
AcDb2dVertex
 10
21.797285
 20
31.199746
 30
0.0
  0
SEQEND
  5
1BA6
100
AcDbEntity
  8
ALPHA
  0
POLYLINE
  5
1BA7
100
AcDbEntity
  8
ALPHA
100
AcDb2dPolyline
 66
     1
 10
0.0
 20
0.0
 30
0.0
  0
VERTEX
  5
1BA8
100
AcDbEntity
  8
ALPHA
100
AcDbVertex
100
AcDb2dVertex
 10
4.547691
 20
31.199746
 30
0.0
  0
VERTEX
  5
1BA9
100
AcDbEntity
  8
ALPHA
100
AcDbVertex
100
AcDb2dVertex
 10
4.547691
 20
27.820107
 30
0.0
  0
SEQEND
  5
1BAA
100
AcDbEntity
  8
ALPHA
  0
POLYLINE
  5
1BAB
100
AcDbEntity
  8
ALPHA
100
AcDb2dPolyline
 66
     1
 10
0.0
 20
0.0
 30
0.0
  0
VERTEX
  5
1BAC
100
AcDbEntity
  8
ALPHA
100
AcDbVertex
100
AcDb2dVertex
 10
21.047287
 20
31.199746
 30
0.0
  0
VERTEX
  5
1BAD
100
AcDbEntity
  8
ALPHA
100
AcDbVertex
100
AcDb2dVertex
 10
21.047287
 20
27.820107
 30
0.0
  0
SEQEND
  5
1BAE
100
AcDbEntity
  8
ALPHA
  0
POLYLINE
  5
1BAF
100
AcDbEntity
  8
ALPHA
100
AcDb2dPolyline
 66
     1
 10
0.0
 20
0.0
 30
0.0
  0
VERTEX
  5
1BB0
100
AcDbEntity
  8
ALPHA
100
AcDbVertex
100
AcDb2dVertex
 10
6.476945
 20
35.148514
 30
0.0
  0
VERTEX
  5
1BB1
100
AcDbEntity
  8
ALPHA
100
AcDbVertex
100
AcDb2dVertex
 10
6.476945
 20
32.249811
 30
0.0
  0
SEQEND
  5
1BB2
100
AcDbEntity
  8
ALPHA
  0
POLYLINE
  5
1BB3
100
AcDbEntity
  8
ALPHA
100
AcDb2dPolyline
 66
     1
 10
0.0
 20
0.0
 30
0.0
  0
VERTEX
  5
1BB4
100
AcDbEntity
  8
ALPHA
100
AcDbVertex
100
AcDb2dVertex
 10
19.118034
 20
35.148514
 30
0.0
  0
VERTEX
  5
1BB5
100
AcDbEntity
  8
ALPHA
100
AcDbVertex
100
AcDb2dVertex
 10
19.118034
 20
32.249811
 30
0.0
  0
SEQEND
  5
1BB6
100
AcDbEntity
  8
ALPHA
  0
POLYLINE
  5
1BB7
100
AcDbEntity
  8
ALPHA
100
AcDb3dPolyline
 66
     1
 10
0.0
 20
0.0
 30
0.0
 70
     8
  0
VERTEX
  5
1BB8
100
AcDbEntity
  8
ALPHA
100
AcDbVertex
100
AcDb3dPolylineVertex
 10
0.156573
 20
32.249811
 30
0.0
 70
    32
  0
VERTEX
  5
1BB9
100
AcDbEntity
  8
ALPHA
100
AcDbVertex
100
AcDb3dPolylineVertex
 10
0.159761
 20
32.246798
 30
0.0
 70
    32
  0
VERTEX
  5
1BBA
100
AcDbEntity
  8
ALPHA
100
AcDbVertex
100
AcDb3dPolylineVertex
 10
0.169293
 20
32.238015
 30
0.0
 70
    32
  0
VERTEX
  5
1BBB
100
AcDbEntity
  8
ALPHA
100
AcDbVertex
100
AcDb3dPolylineVertex
 10
0.207172
 20
32.204676
 30
0.0
 70
    32
  0
VERTEX
  5
1BBC
100
AcDbEntity
  8
ALPHA
100
AcDbVertex
100
AcDb3dPolylineVertex
 10
0.356727
 20
32.085685
 30
0.0
 70
    32
  0
VERTEX
  5
1BBD
100
AcDbEntity
  8
ALPHA
100
AcDbVertex
100
AcDb3dPolylineVertex
 10
0.939255
 20
31.724606
 30
0.0
 70
    32
  0
VERTEX
  5
1BBE
100
AcDbEntity
  8
ALPHA
100
AcDbVertex
100
AcDb3dPolylineVertex
 10
1.365502
 20
31.531758
 30
0.0
 70
    32
  0
VERTEX
  5
1BBF
100
AcDbEntity
  8
ALPHA
100
AcDbVertex
100
AcDb3dPolylineVertex
 10
1.877253
 20
31.363528
 30
0.0
 70
    32
  0
VERTEX
  5
1BC0
100
AcDbEntity
  8
ALPHA
100
AcDbVertex
100
AcDb3dPolylineVertex
 10
2.471145
 20
31.244536
 30
0.0
 70
    32
  0
VERTEX
  5
1BC1
100
AcDbEntity
  8
ALPHA
100
AcDbVertex
100
AcDb3dPolylineVertex
 10
3.143815
 20
31.199402
 30
0.0
 70
    32
  0
VERTEX
  5
1BC2
100
AcDbEntity
  8
ALPHA
100
AcDbVertex
100
AcDb3dPolylineVertex
 10
3.501604
 20
31.218141
 30
0.0
 70
    32
  0
VERTEX
  5
1BC3
100
AcDbEntity
  8
ALPHA
100
AcDbVertex
100
AcDb3dPolylineVertex
 10
3.891008
 20
31.27303
 30
0.0
 70
    32
  0
VERTEX
  5
1BC4
100
AcDbEntity
  8
ALPHA
100
AcDbVertex
100
AcDb3dPolylineVertex
 10
4.735062
 20
31.483277
 30
0.0
 70
    32
  0
VERTEX
  5
1BC5
100
AcDbEntity
  8
ALPHA
100
AcDbVertex
100
AcDb3dPolylineVertex
 10
5.616775
 20
31.81419
 30
0.0
 70
    32
  0
VERTEX
  5
1BC6
100
AcDbEntity
  8
ALPHA
100
AcDbVertex
100
AcDb3dPolylineVertex
 10
6.476945
 20
32.249811
 30
0.0
 70
    32
  0
SEQEND
  5
1BC7
100
AcDbEntity
  8
ALPHA
  0
POLYLINE
  5
1BC8
100
AcDbEntity
  8
ALPHA
100
AcDb3dPolyline
 66
     1
 10
0.0
 20
0.0
 30
0.0
 70
     8
  0
VERTEX
  5
1BC9
100
AcDbEntity
  8
ALPHA
100
AcDbVertex
100
AcDb3dPolylineVertex
 10
25.439095
 20
32.249811
 30
0.0
 70
    32
  0
VERTEX
  5
1BCA
100
AcDbEntity
  8
ALPHA
100
AcDbVertex
100
AcDb3dPolylineVertex
 10
25.435906
 20
32.246798
 30
0.0
 70
    32
  0
VERTEX
  5
1BCB
100
AcDbEntity
  8
ALPHA
100
AcDbVertex
100
AcDb3dPolylineVertex
 10
25.426375
 20
32.238015
 30
0.0
 70
    32
  0
VERTEX
  5
1BCC
100
AcDbEntity
  8
ALPHA
100
AcDbVertex
100
AcDb3dPolylineVertex
 10
25.388494
 20
32.204676
 30
0.0
 70
    32
  0
VERTEX
  5
1BCD
100
AcDbEntity
  8
ALPHA
100
AcDbVertex
100
AcDb3dPolylineVertex
 10
25.23893
 20
32.085685
 30
0.0
 70
    32
  0
VERTEX
  5
1BCE
100
AcDbEntity
  8
ALPHA
100
AcDbVertex
100
AcDb3dPolylineVertex
 10
24.656326
 20
31.724606
 30
0.0
 70
    32
  0
VERTEX
  5
1BCF
100
AcDbEntity
  8
ALPHA
100
AcDbVertex
100
AcDb3dPolylineVertex
 10
24.229998
 20
31.531758
 30
0.0
 70
    32
  0
VERTEX
  5
1BD0
100
AcDbEntity
  8
ALPHA
100
AcDbVertex
100
AcDb3dPolylineVertex
 10
23.718124
 20
31.363528
 30
0.0
 70
    32
  0
VERTEX
  5
1BD1
100
AcDbEntity
  8
ALPHA
100
AcDbVertex
100
AcDb3dPolylineVertex
 10
23.124061
 20
31.244536
 30
0.0
 70
    32
  0
VERTEX
  5
1BD2
100
AcDbEntity
  8
ALPHA
100
AcDbVertex
100
AcDb3dPolylineVertex
 10
22.451164
 20
31.199402
 30
0.0
 70
    32
  0
VERTEX
  5
1BD3
100
AcDbEntity
  8
ALPHA
100
AcDbVertex
100
AcDb3dPolylineVertex
 10
22.093403
 20
31.218141
 30
0.0
 70
    32
  0
VERTEX
  5
1BD4
100
AcDbEntity
  8
ALPHA
100
AcDbVertex
100
AcDb3dPolylineVertex
 10
21.704068
 20
31.27303
 30
0.0
 70
    32
  0
VERTEX
  5
1BD5
100
AcDbEntity
  8
ALPHA
100
AcDbVertex
100
AcDb3dPolylineVertex
 10
20.860175
 20
31.483277
 30
0.0
 70
    32
  0
VERTEX
  5
1BD6
100
AcDbEntity
  8
ALPHA
100
AcDbVertex
100
AcDb3dPolylineVertex
 10
19.978495
 20
31.81419
 30
0.0
 70
    32
  0
VERTEX
  5
1BD7
100
AcDbEntity
  8
ALPHA
100
AcDbVertex
100
AcDb3dPolylineVertex
 10
19.118034
 20
32.249811
 30
0.0
 70
    32
  0
SEQEND
  5
1BD8
100
AcDbEntity
  8
ALPHA
  0
POLYLINE
  5
1BD9
100
AcDbEntity
  8
ALPHA
100
AcDb2dPolyline
 66
     1
 10
0.0
 20
0.0
 30
0.0
  0
VERTEX
  5
1BDA
100
AcDbEntity
  8
ALPHA
100
AcDbVertex
100
AcDb2dVertex
 10
6.476945
 20
32.249811
 30
0.0
  0
VERTEX
  5
1BDB
100
AcDbEntity
  8
ALPHA
100
AcDbVertex
100
AcDb2dVertex
 10
9.780835
 20
31.483277
 30
0.0
  0
VERTEX
  5
1BDC
100
AcDbEntity
  8
ALPHA
100
AcDbVertex
100
AcDb2dVertex
 10
12.797662
 20
31.199402
 30
0.0
  0
VERTEX
  5
1BDD
100
AcDbEntity
  8
ALPHA
100
AcDbVertex
100
AcDb2dVertex
 10
15.814446
 20
31.483277
 30
0.0
  0
VERTEX
  5
1BDE
100
AcDbEntity
  8
ALPHA
100
AcDbVertex
100
AcDb2dVertex
 10
19.118034
 20
32.249811
 30
0.0
  0
SEQEND
  5
1BDF
100
AcDbEntity
  8
ALPHA
  0
POLYLINE
  5
1BE0
100
AcDbEntity
  8
ALPHA
100
AcDb3dPolyline
 66
     1
 10
0.0
 20
0.0
 30
0.0
 70
     8
  0
VERTEX
  5
1BE1
100
AcDbEntity
  8
ALPHA
100
AcDbVertex
100
AcDb3dPolylineVertex
 10
0.156573
 20
35.148514
 30
0.0
 70
    32
  0
VERTEX
  5
1BE2
100
AcDbEntity
  8
ALPHA
100
AcDbVertex
100
AcDb3dPolylineVertex
 10
0.159761
 20
35.151529
 30
0.0
 70
    32
  0
VERTEX
  5
1BE3
100
AcDbEntity
  8
ALPHA
100
AcDbVertex
100
AcDb3dPolylineVertex
 10
0.169293
 20
35.160315
 30
0.0
 70
    32
  0
VERTEX
  5
1BE4
100
AcDbEntity
  8
ALPHA
100
AcDbVertex
100
AcDb3dPolylineVertex
 10
0.207172
 20
35.193664
 30
0.0
 70
    32
  0
VERTEX
  5
1BE5
100
AcDbEntity
  8
ALPHA
100
AcDbVertex
100
AcDb3dPolylineVertex
 10
0.356727
 20
35.312695
 30
0.0
 70
    32
  0
VERTEX
  5
1BE6
100
AcDbEntity
  8
ALPHA
100
AcDbVertex
100
AcDb3dPolylineVertex
 10
0.939255
 20
35.673892
 30
0.0
 70
    32
  0
VERTEX
  5
1BE7
100
AcDbEntity
  8
ALPHA
100
AcDbVertex
100
AcDb3dPolylineVertex
 10
1.365502
 20
35.866803
 30
0.0
 70
    32
  0
VERTEX
  5
1BE8
100
AcDbEntity
  8
ALPHA
100
AcDbVertex
100
AcDb3dPolylineVertex
 10
1.877253
 20
36.035088
 30
0.0
 70
    32
  0
VERTEX
  5
1BE9
100
AcDbEntity
  8
ALPHA
100
AcDbVertex
100
AcDb3dPolylineVertex
 10
2.471145
 20
36.154119
 30
0.0
 70
    32
  0
VERTEX
  5
1BEA
100
AcDbEntity
  8
ALPHA
100
AcDbVertex
100
AcDb3dPolylineVertex
 10
3.143815
 20
36.199269
 30
0.0
 70
    32
  0
VERTEX
  5
1BEB
100
AcDbEntity
  8
ALPHA
100
AcDbVertex
100
AcDb3dPolylineVertex
 10
3.501604
 20
36.180514
 30
0.0
 70
    32
  0
VERTEX
  5
1BEC
100
AcDbEntity
  8
ALPHA
100
AcDbVertex
100
AcDb3dPolylineVertex
 10
3.891008
 20
36.125587
 30
0.0
 70
    32
  0
VERTEX
  5
1BED
100
AcDbEntity
  8
ALPHA
100
AcDbVertex
100
AcDb3dPolylineVertex
 10
4.735062
 20
35.91522
 30
0.0
 70
    32
  0
VERTEX
  5
1BEE
100
AcDbEntity
  8
ALPHA
100
AcDbVertex
100
AcDb3dPolylineVertex
 10
5.616775
 20
35.58419
 30
0.0
 70
    32
  0
VERTEX
  5
1BEF
100
AcDbEntity
  8
ALPHA
100
AcDbVertex
100
AcDb3dPolylineVertex
 10
6.476945
 20
35.148514
 30
0.0
 70
    32
  0
SEQEND
  5
1BF0
100
AcDbEntity
  8
ALPHA
  0
POLYLINE
  5
1BF1
100
AcDbEntity
  8
ALPHA
100
AcDb3dPolyline
 66
     1
 10
0.0
 20
0.0
 30
0.0
 70
     8
  0
VERTEX
  5
1BF2
100
AcDbEntity
  8
ALPHA
100
AcDbVertex
100
AcDb3dPolylineVertex
 10
25.439095
 20
35.148514
 30
0.0
 70
    32
  0
VERTEX
  5
1BF3
100
AcDbEntity
  8
ALPHA
100
AcDbVertex
100
AcDb3dPolylineVertex
 10
25.435906
 20
35.151529
 30
0.0
 70
    32
  0
VERTEX
  5
1BF4
100
AcDbEntity
  8
ALPHA
100
AcDbVertex
100
AcDb3dPolylineVertex
 10
25.426375
 20
35.160315
 30
0.0
 70
    32
  0
VERTEX
  5
1BF5
100
AcDbEntity
  8
ALPHA
100
AcDbVertex
100
AcDb3dPolylineVertex
 10
25.388494
 20
35.193664
 30
0.0
 70
    32
  0
VERTEX
  5
1BF6
100
AcDbEntity
  8
ALPHA
100
AcDbVertex
100
AcDb3dPolylineVertex
 10
25.23893
 20
35.312695
 30
0.0
 70
    32
  0
VERTEX
  5
1BF7
100
AcDbEntity
  8
ALPHA
100
AcDbVertex
100
AcDb3dPolylineVertex
 10
24.656326
 20
35.673892
 30
0.0
 70
    32
  0
VERTEX
  5
1BF8
100
AcDbEntity
  8
ALPHA
100
AcDbVertex
100
AcDb3dPolylineVertex
 10
24.229998
 20
35.866803
 30
0.0
 70
    32
  0
VERTEX
  5
1BF9
100
AcDbEntity
  8
ALPHA
100
AcDbVertex
100
AcDb3dPolylineVertex
 10
23.718124
 20
36.035088
 30
0.0
 70
    32
  0
VERTEX
  5
1BFA
100
AcDbEntity
  8
ALPHA
100
AcDbVertex
100
AcDb3dPolylineVertex
 10
23.124061
 20
36.154119
 30
0.0
 70
    32
  0
VERTEX
  5
1BFB
100
AcDbEntity
  8
ALPHA
100
AcDbVertex
100
AcDb3dPolylineVertex
 10
22.451164
 20
36.199269
 30
0.0
 70
    32
  0
VERTEX
  5
1BFC
100
AcDbEntity
  8
ALPHA
100
AcDbVertex
100
AcDb3dPolylineVertex
 10
22.093403
 20
36.180514
 30
0.0
 70
    32
  0
VERTEX
  5
1BFD
100
AcDbEntity
  8
ALPHA
100
AcDbVertex
100
AcDb3dPolylineVertex
 10
21.704068
 20
36.125587
 30
0.0
 70
    32
  0
VERTEX
  5
1BFE
100
AcDbEntity
  8
ALPHA
100
AcDbVertex
100
AcDb3dPolylineVertex
 10
20.860175
 20
35.91522
 30
0.0
 70
    32
  0
VERTEX
  5
1BFF
100
AcDbEntity
  8
ALPHA
100
AcDbVertex
100
AcDb3dPolylineVertex
 10
19.978495
 20
35.58419
 30
0.0
 70
    32
  0
VERTEX
  5
1C00
100
AcDbEntity
  8
ALPHA
100
AcDbVertex
100
AcDb3dPolylineVertex
 10
19.118034
 20
35.148514
 30
0.0
 70
    32
  0
SEQEND
  5
1C01
100
AcDbEntity
  8
ALPHA
  0
POLYLINE
  5
1C02
100
AcDbEntity
  8
ALPHA
100
AcDb2dPolyline
 66
     1
 10
0.0
 20
0.0
 30
0.0
  0
VERTEX
  5
1C03
100
AcDbEntity
  8
ALPHA
100
AcDbVertex
100
AcDb2dVertex
 10
6.476945
 20
35.148514
 30
0.0
  0
VERTEX
  5
1C04
100
AcDbEntity
  8
ALPHA
100
AcDbVertex
100
AcDb2dVertex
 10
9.780835
 20
35.91522
 30
0.0
  0
VERTEX
  5
1C05
100
AcDbEntity
  8
ALPHA
100
AcDbVertex
100
AcDb2dVertex
 10
12.797662
 20
36.199269
 30
0.0
  0
VERTEX
  5
1C06
100
AcDbEntity
  8
ALPHA
100
AcDbVertex
100
AcDb2dVertex
 10
15.814446
 20
35.91522
 30
0.0
  0
VERTEX
  5
1C07
100
AcDbEntity
  8
ALPHA
100
AcDbVertex
100
AcDb2dVertex
 10
19.118034
 20
35.148514
 30
0.0
  0
SEQEND
  5
1C08
100
AcDbEntity
  8
ALPHA
  0
POLYLINE
  5
1C09
100
AcDbEntity
  8
ALPHA
100
AcDb2dPolyline
 66
     1
 10
0.0
 20
0.0
 30
0.0
  0
VERTEX
  5
1C0A
100
AcDbEntity
  8
ALPHA
100
AcDbVertex
100
AcDb2dVertex
 10
6.476945
 20
26.769353
 30
0.0
  0
VERTEX
  5
1C0B
100
AcDbEntity
  8
ALPHA
100
AcDbVertex
100
AcDb2dVertex
 10
6.476945
 20
23.87065
 30
0.0
  0
SEQEND
  5
1C0C
100
AcDbEntity
  8
ALPHA
  0
POLYLINE
  5
1C0D
100
AcDbEntity
  8
ALPHA
100
AcDb2dPolyline
 66
     1
 10
0.0
 20
0.0
 30
0.0
  0
VERTEX
  5
1C0E
100
AcDbEntity
  8
ALPHA
100
AcDbVertex
100
AcDb2dVertex
 10
19.118034
 20
26.769353
 30
0.0
  0
VERTEX
  5
1C0F
100
AcDbEntity
  8
ALPHA
100
AcDbVertex
100
AcDb2dVertex
 10
19.118034
 20
23.87065
 30
0.0
  0
SEQEND
  5
1C10
100
AcDbEntity
  8
ALPHA
  0
POLYLINE
  5
1C11
100
AcDbEntity
  8
ALPHA
100
AcDb3dPolyline
 66
     1
 10
0.0
 20
0.0
 30
0.0
 70
     8
  0
VERTEX
  5
1C12
100
AcDbEntity
  8
ALPHA
100
AcDbVertex
100
AcDb3dPolylineVertex
 10
0.156573
 20
23.87065
 30
0.0
 70
    32
  0
VERTEX
  5
1C13
100
AcDbEntity
  8
ALPHA
100
AcDbVertex
100
AcDb3dPolylineVertex
 10
0.159761
 20
23.867636
 30
0.0
 70
    32
  0
VERTEX
  5
1C14
100
AcDbEntity
  8
ALPHA
100
AcDbVertex
100
AcDb3dPolylineVertex
 10
0.169293
 20
23.858849
 30
0.0
 70
    32
  0
VERTEX
  5
1C15
100
AcDbEntity
  8
ALPHA
100
AcDbVertex
100
AcDb3dPolylineVertex
 10
0.207172
 20
23.8255
 30
0.0
 70
    32
  0
VERTEX
  5
1C16
100
AcDbEntity
  8
ALPHA
100
AcDbVertex
100
AcDb3dPolylineVertex
 10
0.356727
 20
23.70647
 30
0.0
 70
    32
  0
VERTEX
  5
1C17
100
AcDbEntity
  8
ALPHA
100
AcDbVertex
100
AcDb3dPolylineVertex
 10
0.939255
 20
23.345273
 30
0.0
 70
    32
  0
VERTEX
  5
1C18
100
AcDbEntity
  8
ALPHA
100
AcDbVertex
100
AcDb3dPolylineVertex
 10
1.365502
 20
23.152361
 30
0.0
 70
    32
  0
VERTEX
  5
1C19
100
AcDbEntity
  8
ALPHA
100
AcDbVertex
100
AcDb3dPolylineVertex
 10
1.877253
 20
22.984076
 30
0.0
 70
    32
  0
VERTEX
  5
1C1A
100
AcDbEntity
  8
ALPHA
100
AcDbVertex
100
AcDb3dPolylineVertex
 10
2.471145
 20
22.865045
 30
0.0
 70
    32
  0
VERTEX
  5
1C1B
100
AcDbEntity
  8
ALPHA
100
AcDbVertex
100
AcDb3dPolylineVertex
 10
3.143815
 20
22.819896
 30
0.0
 70
    32
  0
VERTEX
  5
1C1C
100
AcDbEntity
  8
ALPHA
100
AcDbVertex
100
AcDb3dPolylineVertex
 10
3.501604
 20
22.838622
 30
0.0
 70
    32
  0
VERTEX
  5
1C1D
100
AcDbEntity
  8
ALPHA
100
AcDbVertex
100
AcDb3dPolylineVertex
 10
3.891008
 20
22.893481
 30
0.0
 70
    32
  0
VERTEX
  5
1C1E
100
AcDbEntity
  8
ALPHA
100
AcDbVertex
100
AcDb3dPolylineVertex
 10
4.735062
 20
23.103686
 30
0.0
 70
    32
  0
VERTEX
  5
1C1F
100
AcDbEntity
  8
ALPHA
100
AcDbVertex
100
AcDb3dPolylineVertex
 10
5.616775
 20
23.434684
 30
0.0
 70
    32
  0
VERTEX
  5
1C20
100
AcDbEntity
  8
ALPHA
100
AcDbVertex
100
AcDb3dPolylineVertex
 10
6.476945
 20
23.87065
 30
0.0
 70
    32
  0
SEQEND
  5
1C21
100
AcDbEntity
  8
ALPHA
  0
POLYLINE
  5
1C22
100
AcDbEntity
  8
ALPHA
100
AcDb3dPolyline
 66
     1
 10
0.0
 20
0.0
 30
0.0
 70
     8
  0
VERTEX
  5
1C23
100
AcDbEntity
  8
ALPHA
100
AcDbVertex
100
AcDb3dPolylineVertex
 10
25.439095
 20
23.87065
 30
0.0
 70
    32
  0
VERTEX
  5
1C24
100
AcDbEntity
  8
ALPHA
100
AcDbVertex
100
AcDb3dPolylineVertex
 10
25.435906
 20
23.867636
 30
0.0
 70
    32
  0
VERTEX
  5
1C25
100
AcDbEntity
  8
ALPHA
100
AcDbVertex
100
AcDb3dPolylineVertex
 10
25.426375
 20
23.858849
 30
0.0
 70
    32
  0
VERTEX
  5
1C26
100
AcDbEntity
  8
ALPHA
100
AcDbVertex
100
AcDb3dPolylineVertex
 10
25.388494
 20
23.8255
 30
0.0
 70
    32
  0
VERTEX
  5
1C27
100
AcDbEntity
  8
ALPHA
100
AcDbVertex
100
AcDb3dPolylineVertex
 10
25.23893
 20
23.70647
 30
0.0
 70
    32
  0
VERTEX
  5
1C28
100
AcDbEntity
  8
ALPHA
100
AcDbVertex
100
AcDb3dPolylineVertex
 10
24.656326
 20
23.345273
 30
0.0
 70
    32
  0
VERTEX
  5
1C29
100
AcDbEntity
  8
ALPHA
100
AcDbVertex
100
AcDb3dPolylineVertex
 10
24.229998
 20
23.152361
 30
0.0
 70
    32
  0
VERTEX
  5
1C2A
100
AcDbEntity
  8
ALPHA
100
AcDbVertex
100
AcDb3dPolylineVertex
 10
23.718124
 20
22.984076
 30
0.0
 70
    32
  0
VERTEX
  5
1C2B
100
AcDbEntity
  8
ALPHA
100
AcDbVertex
100
AcDb3dPolylineVertex
 10
23.124061
 20
22.865045
 30
0.0
 70
    32
  0
VERTEX
  5
1C2C
100
AcDbEntity
  8
ALPHA
100
AcDbVertex
100
AcDb3dPolylineVertex
 10
22.451164
 20
22.819896
 30
0.0
 70
    32
  0
VERTEX
  5
1C2D
100
AcDbEntity
  8
ALPHA
100
AcDbVertex
100
AcDb3dPolylineVertex
 10
22.093403
 20
22.838622
 30
0.0
 70
    32
  0
VERTEX
  5
1C2E
100
AcDbEntity
  8
ALPHA
100
AcDbVertex
100
AcDb3dPolylineVertex
 10
21.704068
 20
22.893481
 30
0.0
 70
    32
  0
VERTEX
  5
1C2F
100
AcDbEntity
  8
ALPHA
100
AcDbVertex
100
AcDb3dPolylineVertex
 10
20.860175
 20
23.103686
 30
0.0
 70
    32
  0
VERTEX
  5
1C30
100
AcDbEntity
  8
ALPHA
100
AcDbVertex
100
AcDb3dPolylineVertex
 10
19.978495
 20
23.434684
 30
0.0
 70
    32
  0
VERTEX
  5
1C31
100
AcDbEntity
  8
ALPHA
100
AcDbVertex
100
AcDb3dPolylineVertex
 10
19.118034
 20
23.87065
 30
0.0
 70
    32
  0
SEQEND
  5
1C32
100
AcDbEntity
  8
ALPHA
  0
POLYLINE
  5
1C33
100
AcDbEntity
  8
ALPHA
100
AcDb2dPolyline
 66
     1
 10
0.0
 20
0.0
 30
0.0
  0
VERTEX
  5
1C34
100
AcDbEntity
  8
ALPHA
100
AcDbVertex
100
AcDb2dVertex
 10
6.476945
 20
23.87065
 30
0.0
  0
VERTEX
  5
1C35
100
AcDbEntity
  8
ALPHA
100
AcDbVertex
100
AcDb2dVertex
 10
9.780835
 20
23.103686
 30
0.0
  0
VERTEX
  5
1C36
100
AcDbEntity
  8
ALPHA
100
AcDbVertex
100
AcDb2dVertex
 10
12.797662
 20
22.819896
 30
0.0
  0
VERTEX
  5
1C37
100
AcDbEntity
  8
ALPHA
100
AcDbVertex
100
AcDb2dVertex
 10
15.814446
 20
23.103686
 30
0.0
  0
VERTEX
  5
1C38
100
AcDbEntity
  8
ALPHA
100
AcDbVertex
100
AcDb2dVertex
 10
19.118034
 20
23.87065
 30
0.0
  0
SEQEND
  5
1C39
100
AcDbEntity
  8
ALPHA
  0
POLYLINE
  5
1C3A
100
AcDbEntity
  8
ALPHA
100
AcDb3dPolyline
 66
     1
 10
0.0
 20
0.0
 30
0.0
 70
     8
  0
VERTEX
  5
1C3B
100
AcDbEntity
  8
ALPHA
100
AcDbVertex
100
AcDb3dPolylineVertex
 10
0.156573
 20
26.769353
 30
0.0
 70
    32
  0
VERTEX
  5
1C3C
100
AcDbEntity
  8
ALPHA
100
AcDbVertex
100
AcDb3dPolylineVertex
 10
0.159761
 20
26.772367
 30
0.0
 70
    32
  0
VERTEX
  5
1C3D
100
AcDbEntity
  8
ALPHA
100
AcDbVertex
100
AcDb3dPolylineVertex
 10
0.169293
 20
26.781154
 30
0.0
 70
    32
  0
VERTEX
  5
1C3E
100
AcDbEntity
  8
ALPHA
100
AcDbVertex
100
AcDb3dPolylineVertex
 10
0.207172
 20
26.814503
 30
0.0
 70
    32
  0
VERTEX
  5
1C3F
100
AcDbEntity
  8
ALPHA
100
AcDbVertex
100
AcDb3dPolylineVertex
 10
0.356727
 20
26.933534
 30
0.0
 70
    32
  0
VERTEX
  5
1C40
100
AcDbEntity
  8
ALPHA
100
AcDbVertex
100
AcDb3dPolylineVertex
 10
0.939255
 20
27.29473
 30
0.0
 70
    32
  0
VERTEX
  5
1C41
100
AcDbEntity
  8
ALPHA
100
AcDbVertex
100
AcDb3dPolylineVertex
 10
1.365502
 20
27.487642
 30
0.0
 70
    32
  0
VERTEX
  5
1C42
100
AcDbEntity
  8
ALPHA
100
AcDbVertex
100
AcDb3dPolylineVertex
 10
1.877253
 20
27.655927
 30
0.0
 70
    32
  0
VERTEX
  5
1C43
100
AcDbEntity
  8
ALPHA
100
AcDbVertex
100
AcDb3dPolylineVertex
 10
2.471145
 20
27.774958
 30
0.0
 70
    32
  0
VERTEX
  5
1C44
100
AcDbEntity
  8
ALPHA
100
AcDbVertex
100
AcDb3dPolylineVertex
 10
3.143815
 20
27.820107
 30
0.0
 70
    32
  0
VERTEX
  5
1C45
100
AcDbEntity
  8
ALPHA
100
AcDbVertex
100
AcDb3dPolylineVertex
 10
3.501604
 20
27.801353
 30
0.0
 70
    32
  0
VERTEX
  5
1C46
100
AcDbEntity
  8
ALPHA
100
AcDbVertex
100
AcDb3dPolylineVertex
 10
3.891008
 20
27.746425
 30
0.0
 70
    32
  0
VERTEX
  5
1C47
100
AcDbEntity
  8
ALPHA
100
AcDbVertex
100
AcDb3dPolylineVertex
 10
4.735062
 20
27.536059
 30
0.0
 70
    32
  0
VERTEX
  5
1C48
100
AcDbEntity
  8
ALPHA
100
AcDbVertex
100
AcDb3dPolylineVertex
 10
5.616775
 20
27.205029
 30
0.0
 70
    32
  0
VERTEX
  5
1C49
100
AcDbEntity
  8
ALPHA
100
AcDbVertex
100
AcDb3dPolylineVertex
 10
6.476945
 20
26.769353
 30
0.0
 70
    32
  0
SEQEND
  5
1C4A
100
AcDbEntity
  8
ALPHA
  0
POLYLINE
  5
1C4B
100
AcDbEntity
  8
ALPHA
100
AcDb3dPolyline
 66
     1
 10
0.0
 20
0.0
 30
0.0
 70
     8
  0
VERTEX
  5
1C4C
100
AcDbEntity
  8
ALPHA
100
AcDbVertex
100
AcDb3dPolylineVertex
 10
25.439095
 20
26.769353
 30
0.0
 70
    32
  0
VERTEX
  5
1C4D
100
AcDbEntity
  8
ALPHA
100
AcDbVertex
100
AcDb3dPolylineVertex
 10
25.435906
 20
26.772367
 30
0.0
 70
    32
  0
VERTEX
  5
1C4E
100
AcDbEntity
  8
ALPHA
100
AcDbVertex
100
AcDb3dPolylineVertex
 10
25.426375
 20
26.781154
 30
0.0
 70
    32
  0
VERTEX
  5
1C4F
100
AcDbEntity
  8
ALPHA
100
AcDbVertex
100
AcDb3dPolylineVertex
 10
25.388494
 20
26.814503
 30
0.0
 70
    32
  0
VERTEX
  5
1C50
100
AcDbEntity
  8
ALPHA
100
AcDbVertex
100
AcDb3dPolylineVertex
 10
25.23893
 20
26.933534
 30
0.0
 70
    32
  0
VERTEX
  5
1C51
100
AcDbEntity
  8
ALPHA
100
AcDbVertex
100
AcDb3dPolylineVertex
 10
24.656326
 20
27.29473
 30
0.0
 70
    32
  0
VERTEX
  5
1C52
100
AcDbEntity
  8
ALPHA
100
AcDbVertex
100
AcDb3dPolylineVertex
 10
24.229998
 20
27.487642
 30
0.0
 70
    32
  0
VERTEX
  5
1C53
100
AcDbEntity
  8
ALPHA
100
AcDbVertex
100
AcDb3dPolylineVertex
 10
23.718124
 20
27.655927
 30
0.0
 70
    32
  0
VERTEX
  5
1C54
100
AcDbEntity
  8
ALPHA
100
AcDbVertex
100
AcDb3dPolylineVertex
 10
23.124061
 20
27.774958
 30
0.0
 70
    32
  0
VERTEX
  5
1C55
100
AcDbEntity
  8
ALPHA
100
AcDbVertex
100
AcDb3dPolylineVertex
 10
22.451164
 20
27.820107
 30
0.0
 70
    32
  0
VERTEX
  5
1C56
100
AcDbEntity
  8
ALPHA
100
AcDbVertex
100
AcDb3dPolylineVertex
 10
22.093403
 20
27.801353
 30
0.0
 70
    32
  0
VERTEX
  5
1C57
100
AcDbEntity
  8
ALPHA
100
AcDbVertex
100
AcDb3dPolylineVertex
 10
21.704068
 20
27.746425
 30
0.0
 70
    32
  0
VERTEX
  5
1C58
100
AcDbEntity
  8
ALPHA
100
AcDbVertex
100
AcDb3dPolylineVertex
 10
20.860175
 20
27.536059
 30
0.0
 70
    32
  0
VERTEX
  5
1C59
100
AcDbEntity
  8
ALPHA
100
AcDbVertex
100
AcDb3dPolylineVertex
 10
19.978495
 20
27.205029
 30
0.0
 70
    32
  0
VERTEX
  5
1C5A
100
AcDbEntity
  8
ALPHA
100
AcDbVertex
100
AcDb3dPolylineVertex
 10
19.118034
 20
26.769353
 30
0.0
 70
    32
  0
SEQEND
  5
1C5B
100
AcDbEntity
  8
ALPHA
  0
POLYLINE
  5
1C5C
100
AcDbEntity
  8
ALPHA
100
AcDb2dPolyline
 66
     1
 10
0.0
 20
0.0
 30
0.0
  0
VERTEX
  5
1C5D
100
AcDbEntity
  8
ALPHA
100
AcDbVertex
100
AcDb2dVertex
 10
6.476945
 20
26.769353
 30
0.0
  0
VERTEX
  5
1C5E
100
AcDbEntity
  8
ALPHA
100
AcDbVertex
100
AcDb2dVertex
 10
9.780835
 20
27.536059
 30
0.0
  0
VERTEX
  5
1C5F
100
AcDbEntity
  8
ALPHA
100
AcDbVertex
100
AcDb2dVertex
 10
12.797662
 20
27.820107
 30
0.0
  0
VERTEX
  5
1C60
100
AcDbEntity
  8
ALPHA
100
AcDbVertex
100
AcDb2dVertex
 10
15.814446
 20
27.536059
 30
0.0
  0
VERTEX
  5
1C61
100
AcDbEntity
  8
ALPHA
100
AcDbVertex
100
AcDb2dVertex
 10
19.118034
 20
26.769353
 30
0.0
  0
SEQEND
  5
1C62
100
AcDbEntity
  8
ALPHA
  0
POLYLINE
  5
1C63
100
AcDbEntity
  8
ALPHA
100
AcDb2dPolyline
 66
     1
 10
0.0
 20
0.0
 30
0.0
  0
VERTEX
  5
1C64
100
AcDbEntity
  8
ALPHA
100
AcDbVertex
100
AcDb2dVertex
 10
21.797285
 20
36.199269
 30
0.0
  0
VERTEX
  5
1C65
100
AcDbEntity
  8
ALPHA
100
AcDbVertex
100
AcDb2dVertex
 10
21.797285
 20
42.911693
 30
0.0
  0
SEQEND
  5
1C66
100
AcDbEntity
  8
ALPHA
  0
POLYLINE
  5
1C67
100
AcDbEntity
  8
ALPHA
100
AcDb2dPolyline
 66
     1
 10
0.0
 20
0.0
 30
0.0
  0
VERTEX
  5
1C68
100
AcDbEntity
  8
ALPHA
100
AcDbVertex
100
AcDb2dVertex
 10
21.797285
 20
42.911693
 30
0.0
  0
VERTEX
  5
1C69
100
AcDbEntity
  8
ALPHA
100
AcDbVertex
100
AcDb2dVertex
 10
3.797694
 20
42.911693
 30
0.0
  0
SEQEND
  5
1C6A
100
AcDbEntity
  8
ALPHA
  0
POLYLINE
  5
1C6B
100
AcDbEntity
  8
ALPHA
100
AcDb2dPolyline
 66
     1
 10
0.0
 20
0.0
 30
0.0
  0
VERTEX
  5
1C6C
100
AcDbEntity
  8
ALPHA
100
AcDbVertex
100
AcDb2dVertex
 10
3.797694
 20
42.911693
 30
0.0
  0
VERTEX
  5
1C6D
100
AcDbEntity
  8
ALPHA
100
AcDbVertex
100
AcDb2dVertex
 10
3.797694
 20
36.199269
 30
0.0
  0
SEQEND
  5
1C6E
100
AcDbEntity
  8
ALPHA
  0
POLYLINE
  5
1C6F
100
AcDbEntity
  8
ALPHA
100
AcDb2dPolyline
 66
     1
 10
0.0
 20
0.0
 30
0.0
  0
VERTEX
  5
1C70
100
AcDbEntity
  8
ALPHA
100
AcDbVertex
100
AcDb2dVertex
 10
21.047287
 20
14.911679
 30
0.0
  0
VERTEX
  5
1C71
100
AcDbEntity
  8
ALPHA
100
AcDbVertex
100
AcDb2dVertex
 10
21.047287
 20
6.411595
 30
0.0
  0
SEQEND
  5
1C72
100
AcDbEntity
  8
ALPHA
  0
POLYLINE
  5
1C73
100
AcDbEntity
  8
ALPHA
100
AcDb2dPolyline
 66
     1
 10
0.0
 20
0.0
 30
0.0
  0
VERTEX
  5
1C74
100
AcDbEntity
  8
ALPHA
100
AcDbVertex
100
AcDb2dVertex
 10
21.047287
 20
6.411595
 30
0.0
  0
VERTEX
  5
1C75
100
AcDbEntity
  8
ALPHA
100
AcDbVertex
100
AcDb2dVertex
 10
4.547691
 20
6.411595
 30
0.0
  0
SEQEND
  5
1C76
100
AcDbEntity
  8
ALPHA
  0
POLYLINE
  5
1C77
100
AcDbEntity
  8
ALPHA
100
AcDb2dPolyline
 66
     1
 10
0.0
 20
0.0
 30
0.0
  0
VERTEX
  5
1C78
100
AcDbEntity
  8
ALPHA
100
AcDbVertex
100
AcDb2dVertex
 10
4.547691
 20
6.411595
 30
0.0
  0
VERTEX
  5
1C79
100
AcDbEntity
  8
ALPHA
100
AcDbVertex
100
AcDb2dVertex
 10
4.547691
 20
14.911679
 30
0.0
  0
SEQEND
  5
1C7A
100
AcDbEntity
  8
ALPHA
  0
POLYLINE
  5
1C7B
100
AcDbEntity
  8
ALPHA
100
AcDb2dPolyline
 66
     1
 10
0.0
 20
0.0
 30
0.0
  0
VERTEX
  5
1C7C
100
AcDbEntity
  8
ALPHA
100
AcDbVertex
100
AcDb2dVertex
 10
21.797285
 20
22.819896
 30
0.0
  0
VERTEX
  5
1C7D
100
AcDbEntity
  8
ALPHA
100
AcDbVertex
100
AcDb2dVertex
 10
21.797285
 20
14.911679
 30
0.0
  0
SEQEND
  5
1C7E
100
AcDbEntity
  8
ALPHA
  0
POLYLINE
  5
1C7F
100
AcDbEntity
  8
ALPHA
100
AcDb2dPolyline
 66
     1
 10
0.0
 20
0.0
 30
0.0
  0
VERTEX
  5
1C80
100
AcDbEntity
  8
ALPHA
100
AcDbVertex
100
AcDb2dVertex
 10
21.797285
 20
14.911679
 30
0.0
  0
VERTEX
  5
1C81
100
AcDbEntity
  8
ALPHA
100
AcDbVertex
100
AcDb2dVertex
 10
3.797694
 20
14.911679
 30
0.0
  0
SEQEND
  5
1C82
100
AcDbEntity
  8
ALPHA
  0
POLYLINE
  5
1C83
100
AcDbEntity
  8
ALPHA
100
AcDb2dPolyline
 66
     1
 10
0.0
 20
0.0
 30
0.0
  0
VERTEX
  5
1C84
100
AcDbEntity
  8
ALPHA
100
AcDbVertex
100
AcDb2dVertex
 10
3.797694
 20
14.911679
 30
0.0
  0
VERTEX
  5
1C85
100
AcDbEntity
  8
ALPHA
100
AcDbVertex
100
AcDb2dVertex
 10
3.797694
 20
22.819896
 30
0.0
  0
SEQEND
  5
1C86
100
AcDbEntity
  8
ALPHA
  0
POLYLINE
  5
1C87
100
AcDbEntity
  8
ALPHA
100
AcDb2dPolyline
 66
     1
 10
0.0
 20
0.0
 30
0.0
  0
VERTEX
  5
1C88
100
AcDbEntity
  8
ALPHA
100
AcDbVertex
100
AcDb2dVertex
 10
13.745407
 20
6.411595
 30
0.0
  0
VERTEX
  5
1C89
100
AcDbEntity
  8
ALPHA
100
AcDbVertex
100
AcDb2dVertex
 10
13.745407
 20
0.604198
 30
0.0
  0
SEQEND
  5
1C8A
100
AcDbEntity
  8
ALPHA
  0
POLYLINE
  5
1C8B
100
AcDbEntity
  8
ALPHA
100
AcDb2dPolyline
 66
     1
 10
0.0
 20
0.0
 30
0.0
  0
VERTEX
  5
1C8C
100
AcDbEntity
  8
ALPHA
100
AcDbVertex
100
AcDb2dVertex
 10
13.745407
 20
0.604198
 30
0.0
  0
VERTEX
  5
1C8D
100
AcDbEntity
  8
ALPHA
100
AcDbVertex
100
AcDb2dVertex
 10
13.745994
 20
0.600221
 30
0.0
  0
VERTEX
  5
1C8E
100
AcDbEntity
  8
ALPHA
100
AcDbVertex
100
AcDb2dVertex
 10
13.747915
 20
0.588804
 30
0.0
  0
VERTEX
  5
1C8F
100
AcDbEntity
  8
ALPHA
100
AcDbVertex
100
AcDb2dVertex
 10
13.756714
 20
0.54673
 30
0.0
  0
VERTEX
  5
1C90
100
AcDbEntity
  8
ALPHA
100
AcDbVertex
100
AcDb2dVertex
 10
13.800846
 20
0.407165
 30
0.0
  0
VERTEX
  5
1C91
100
AcDbEntity
  8
ALPHA
100
AcDbVertex
100
AcDb2dVertex
 10
13.840011
 20
0.321989
 30
0.0
  0
VERTEX
  5
1C92
100
AcDbEntity
  8
ALPHA
100
AcDbVertex
100
AcDb2dVertex
 10
13.893127
 20
0.234762
 30
0.0
  0
VERTEX
  5
1C93
100
AcDbEntity
  8
ALPHA
100
AcDbVertex
100
AcDb2dVertex
 10
13.962111
 20
0.151638
 30
0.0
  0
VERTEX
  5
1C94
100
AcDbEntity
  8
ALPHA
100
AcDbVertex
100
AcDb2dVertex
 10
14.003152
 20
0.11354
 30
0.0
  0
VERTEX
  5
1C95
100
AcDbEntity
  8
ALPHA
100
AcDbVertex
100
AcDb2dVertex
 10
14.048877
 20
0.078777
 30
0.0
  0
VERTEX
  5
1C96
100
AcDbEntity
  8
ALPHA
100
AcDbVertex
100
AcDb2dVertex
 10
14.099527
 20
0.048119
 30
0.0
  0
VERTEX
  5
1C97
100
AcDbEntity
  8
ALPHA
100
AcDbVertex
100
AcDb2dVertex
 10
14.155341
 20
0.022336
 30
0.0
  0
VERTEX
  5
1C98
100
AcDbEntity
  8
ALPHA
100
AcDbVertex
100
AcDb2dVertex
 10
14.216558
 20
0.002196
 30
0.0
  0
VERTEX
  5
1C99
100
AcDbEntity
  8
ALPHA
100
AcDbVertex
100
AcDb2dVertex
 10
14.283418
 20
-0.011529
 30
0.0
  0
VERTEX
  5
1C9A
100
AcDbEntity
  8
ALPHA
100
AcDbVertex
100
AcDb2dVertex
 10
14.356159
 20
-0.018071
 30
0.0
  0
VERTEX
  5
1C9B
100
AcDbEntity
  8
ALPHA
100
AcDbVertex
100
AcDb2dVertex
 10
14.435022
 20
-0.01666
 30
0.0
  0
VERTEX
  5
1C9C
100
AcDbEntity
  8
ALPHA
100
AcDbVertex
100
AcDb2dVertex
 10
14.520246
 20
-0.006526
 30
0.0
  0
VERTEX
  5
1C9D
100
AcDbEntity
  8
ALPHA
100
AcDbVertex
100
AcDb2dVertex
 10
14.61207
 20
0.0131
 30
0.0
  0
VERTEX
  5
1C9E
100
AcDbEntity
  8
ALPHA
100
AcDbVertex
100
AcDb2dVertex
 10
14.816475
 20
0.083908
 30
0.0
  0
VERTEX
  5
1C9F
100
AcDbEntity
  8
ALPHA
100
AcDbVertex
100
AcDb2dVertex
 10
15.050155
 20
0.201923
 30
0.0
  0
VERTEX
  5
1CA0
100
AcDbEntity
  8
ALPHA
100
AcDbVertex
100
AcDb2dVertex
 10
15.612994
 20
0.604198
 30
0.0
  0
SEQEND
  5
1CA1
100
AcDbEntity
  8
ALPHA
  0
POLYLINE
  5
1CA2
100
AcDbEntity
  8
ALPHA
100
AcDb2dPolyline
 66
     1
 10
0.0
 20
0.0
 30
0.0
  0
VERTEX
  5
1CA3
100
AcDbEntity
  8
ALPHA
100
AcDbVertex
100
AcDb2dVertex
 10
15.612994
 20
0.604198
 30
0.0
  0
VERTEX
  5
1CA4
100
AcDbEntity
  8
ALPHA
100
AcDbVertex
100
AcDb2dVertex
 10
16.149255
 20
0.282239
 30
0.0
  0
VERTEX
  5
1CA5
100
AcDbEntity
  8
ALPHA
100
AcDbVertex
100
AcDb2dVertex
 10
16.375162
 20
0.187787
 30
0.0
  0
VERTEX
  5
1CA6
100
AcDbEntity
  8
ALPHA
100
AcDbVertex
100
AcDb2dVertex
 10
16.574929
 20
0.131116
 30
0.0
  0
VERTEX
  5
1CA7
100
AcDbEntity
  8
ALPHA
100
AcDbVertex
100
AcDb2dVertex
 10
16.75006
 20
0.107298
 30
0.0
  0
VERTEX
  5
1CA8
100
AcDbEntity
  8
ALPHA
100
AcDbVertex
100
AcDb2dVertex
 10
16.902062
 20
0.111404
 30
0.0
  0
VERTEX
  5
1CA9
100
AcDbEntity
  8
ALPHA
100
AcDbVertex
100
AcDb2dVertex
 10
16.96986
 20
0.122389
 30
0.0
  0
VERTEX
  5
1CAA
100
AcDbEntity
  8
ALPHA
100
AcDbVertex
100
AcDb2dVertex
 10
17.032441
 20
0.138508
 30
0.0
  0
VERTEX
  5
1CAB
100
AcDbEntity
  8
ALPHA
100
AcDbVertex
100
AcDb2dVertex
 10
17.089992
 20
0.159144
 30
0.0
  0
VERTEX
  5
1CAC
100
AcDbEntity
  8
ALPHA
100
AcDbVertex
100
AcDb2dVertex
 10
17.142702
 20
0.183681
 30
0.0
  0
VERTEX
  5
1CAD
100
AcDbEntity
  8
ALPHA
100
AcDbVertex
100
AcDb2dVertex
 10
17.234352
 20
0.241994
 30
0.0
  0
VERTEX
  5
1CAE
100
AcDbEntity
  8
ALPHA
100
AcDbVertex
100
AcDb2dVertex
 10
17.308896
 20
0.308522
 30
0.0
  0
VERTEX
  5
1CAF
100
AcDbEntity
  8
ALPHA
100
AcDbVertex
100
AcDb2dVertex
 10
17.36784
 20
0.378334
 30
0.0
  0
VERTEX
  5
1CB0
100
AcDbEntity
  8
ALPHA
100
AcDbVertex
100
AcDb2dVertex
 10
17.41269
 20
0.446504
 30
0.0
  0
VERTEX
  5
1CB1
100
AcDbEntity
  8
ALPHA
100
AcDbVertex
100
AcDb2dVertex
 10
17.466132
 20
0.558203
 30
0.0
  0
VERTEX
  5
1CB2
100
AcDbEntity
  8
ALPHA
100
AcDbVertex
100
AcDb2dVertex
 10
17.477736
 20
0.591878
 30
0.0
  0
VERTEX
  5
1CB3
100
AcDbEntity
  8
ALPHA
100
AcDbVertex
100
AcDb2dVertex
 10
17.480417
 20
0.601015
 30
0.0
  0
VERTEX
  5
1CB4
100
AcDbEntity
  8
ALPHA
100
AcDbVertex
100
AcDb2dVertex
 10
17.481269
 20
0.604198
 30
0.0
  0
SEQEND
  5
1CB5
100
AcDbEntity
  8
ALPHA
  0
POLYLINE
  5
1CB6
100
AcDbEntity
  8
ALPHA
100
AcDb2dPolyline
 66
     1
 10
0.0
 20
0.0
 30
0.0
  0
VERTEX
  5
1CB7
100
AcDbEntity
  8
ALPHA
100
AcDbVertex
100
AcDb2dVertex
 10
17.481269
 20
0.604198
 30
0.0
  0
VERTEX
  5
1CB8
100
AcDbEntity
  8
ALPHA
100
AcDbVertex
100
AcDb2dVertex
 10
17.481269
 20
6.411595
 30
0.0
  0
SEQEND
  5
1CB9
100
AcDbEntity
  8
ALPHA
  0
POLYLINE
  5
1CBA
100
AcDbEntity
  8
ALPHA
100
AcDb2dPolyline
 66
     1
 10
0.0
 20
0.0
 30
0.0
  0
VERTEX
  5
1CBB
100
AcDbEntity
  8
ALPHA
100
AcDbVertex
100
AcDb2dVertex
 10
25.439095
 20
26.738003
 30
0.0
  0
VERTEX
  5
1CBC
100
AcDbEntity
  8
ALPHA
100
AcDbVertex
100
AcDb2dVertex
 10
24.347689
 20
27.820107
 30
0.0
  0
SEQEND
  5
1CBD
100
AcDbEntity
  8
ALPHA
  0
POLYLINE
  5
1CBE
100
AcDbEntity
  8
ALPHA
100
AcDb2dPolyline
 66
     1
 10
0.0
 20
0.0
 30
0.0
  0
VERTEX
  5
1CBF
100
AcDbEntity
  8
ALPHA
100
AcDbVertex
100
AcDb2dVertex
 10
24.347689
 20
27.820107
 30
0.0
  0
VERTEX
  5
1CC0
100
AcDbEntity
  8
ALPHA
100
AcDbVertex
100
AcDb2dVertex
 10
1.247979
 20
27.820107
 30
0.0
  0
SEQEND
  5
1CC1
100
AcDbEntity
  8
ALPHA
  0
POLYLINE
  5
1CC2
100
AcDbEntity
  8
ALPHA
100
AcDb2dPolyline
 66
     1
 10
0.0
 20
0.0
 30
0.0
  0
VERTEX
  5
1CC3
100
AcDbEntity
  8
ALPHA
100
AcDbVertex
100
AcDb2dVertex
 10
1.247979
 20
27.820107
 30
0.0
  0
VERTEX
  5
1CC4
100
AcDbEntity
  8
ALPHA
100
AcDbVertex
100
AcDb2dVertex
 10
0.156573
 20
26.738003
 30
0.0
  0
SEQEND
  5
1CC5
100
AcDbEntity
  8
ALPHA
  0
POLYLINE
  5
1CC6
100
AcDbEntity
  8
ALPHA
100
AcDb2dPolyline
 66
     1
 10
0.0
 20
0.0
 30
0.0
  0
VERTEX
  5
1CC7
100
AcDbEntity
  8
ALPHA
100
AcDbVertex
100
AcDb2dVertex
 10
0.156573
 20
26.738003
 30
0.0
  0
VERTEX
  5
1CC8
100
AcDbEntity
  8
ALPHA
100
AcDbVertex
100
AcDb2dVertex
 10
0.156573
 20
23.902345
 30
0.0
  0
SEQEND
  5
1CC9
100
AcDbEntity
  8
ALPHA
  0
POLYLINE
  5
1CCA
100
AcDbEntity
  8
ALPHA
100
AcDb2dPolyline
 66
     1
 10
0.0
 20
0.0
 30
0.0
  0
VERTEX
  5
1CCB
100
AcDbEntity
  8
ALPHA
100
AcDbVertex
100
AcDb2dVertex
 10
0.156573
 20
23.902345
 30
0.0
  0
VERTEX
  5
1CCC
100
AcDbEntity
  8
ALPHA
100
AcDbVertex
100
AcDb2dVertex
 10
1.247979
 20
22.819896
 30
0.0
  0
SEQEND
  5
1CCD
100
AcDbEntity
  8
ALPHA
  0
POLYLINE
  5
1CCE
100
AcDbEntity
  8
ALPHA
100
AcDb2dPolyline
 66
     1
 10
0.0
 20
0.0
 30
0.0
  0
VERTEX
  5
1CCF
100
AcDbEntity
  8
ALPHA
100
AcDbVertex
100
AcDb2dVertex
 10
1.247979
 20
22.819896
 30
0.0
  0
VERTEX
  5
1CD0
100
AcDbEntity
  8
ALPHA
100
AcDbVertex
100
AcDb2dVertex
 10
24.347689
 20
22.819896
 30
0.0
  0
SEQEND
  5
1CD1
100
AcDbEntity
  8
ALPHA
  0
POLYLINE
  5
1CD2
100
AcDbEntity
  8
ALPHA
100
AcDb2dPolyline
 66
     1
 10
0.0
 20
0.0
 30
0.0
  0
VERTEX
  5
1CD3
100
AcDbEntity
  8
ALPHA
100
AcDbVertex
100
AcDb2dVertex
 10
24.347689
 20
22.819896
 30
0.0
  0
VERTEX
  5
1CD4
100
AcDbEntity
  8
ALPHA
100
AcDbVertex
100
AcDb2dVertex
 10
25.439095
 20
23.902345
 30
0.0
  0
SEQEND
  5
1CD5
100
AcDbEntity
  8
ALPHA
  0
POLYLINE
  5
1CD6
100
AcDbEntity
  8
ALPHA
100
AcDb2dPolyline
 66
     1
 10
0.0
 20
0.0
 30
0.0
  0
VERTEX
  5
1CD7
100
AcDbEntity
  8
ALPHA
100
AcDbVertex
100
AcDb2dVertex
 10
25.439095
 20
23.902345
 30
0.0
  0
VERTEX
  5
1CD8
100
AcDbEntity
  8
ALPHA
100
AcDbVertex
100
AcDb2dVertex
 10
25.439095
 20
26.738003
 30
0.0
  0
SEQEND
  5
1CD9
100
AcDbEntity
  8
ALPHA
  0
POLYLINE
  5
1CDA
100
AcDbEntity
  8
ALPHA
100
AcDb2dPolyline
 66
     1
 10
0.0
 20
0.0
 30
0.0
  0
VERTEX
  5
1CDB
100
AcDbEntity
  8
ALPHA
100
AcDbVertex
100
AcDb2dVertex
 10
25.439095
 20
35.117509
 30
0.0
  0
VERTEX
  5
1CDC
100
AcDbEntity
  8
ALPHA
100
AcDbVertex
100
AcDb2dVertex
 10
24.347689
 20
36.199269
 30
0.0
  0
SEQEND
  5
1CDD
100
AcDbEntity
  8
ALPHA
  0
POLYLINE
  5
1CDE
100
AcDbEntity
  8
ALPHA
100
AcDb2dPolyline
 66
     1
 10
0.0
 20
0.0
 30
0.0
  0
VERTEX
  5
1CDF
100
AcDbEntity
  8
ALPHA
100
AcDbVertex
100
AcDb2dVertex
 10
24.347689
 20
36.199269
 30
0.0
  0
VERTEX
  5
1CE0
100
AcDbEntity
  8
ALPHA
100
AcDbVertex
100
AcDb2dVertex
 10
1.247979
 20
36.199269
 30
0.0
  0
SEQEND
  5
1CE1
100
AcDbEntity
  8
ALPHA
  0
POLYLINE
  5
1CE2
100
AcDbEntity
  8
ALPHA
100
AcDb2dPolyline
 66
     1
 10
0.0
 20
0.0
 30
0.0
  0
VERTEX
  5
1CE3
100
AcDbEntity
  8
ALPHA
100
AcDbVertex
100
AcDb2dVertex
 10
1.247979
 20
36.199269
 30
0.0
  0
VERTEX
  5
1CE4
100
AcDbEntity
  8
ALPHA
100
AcDbVertex
100
AcDb2dVertex
 10
0.156573
 20
35.117509
 30
0.0
  0
SEQEND
  5
1CE5
100
AcDbEntity
  8
ALPHA
  0
POLYLINE
  5
1CE6
100
AcDbEntity
  8
ALPHA
100
AcDb2dPolyline
 66
     1
 10
0.0
 20
0.0
 30
0.0
  0
VERTEX
  5
1CE7
100
AcDbEntity
  8
ALPHA
100
AcDbVertex
100
AcDb2dVertex
 10
0.156573
 20
35.117509
 30
0.0
  0
VERTEX
  5
1CE8
100
AcDbEntity
  8
ALPHA
100
AcDbVertex
100
AcDb2dVertex
 10
0.156573
 20
32.281506
 30
0.0
  0
SEQEND
  5
1CE9
100
AcDbEntity
  8
ALPHA
  0
POLYLINE
  5
1CEA
100
AcDbEntity
  8
ALPHA
100
AcDb2dPolyline
 66
     1
 10
0.0
 20
0.0
 30
0.0
  0
VERTEX
  5
1CEB
100
AcDbEntity
  8
ALPHA
100
AcDbVertex
100
AcDb2dVertex
 10
0.156573
 20
32.281506
 30
0.0
  0
VERTEX
  5
1CEC
100
AcDbEntity
  8
ALPHA
100
AcDbVertex
100
AcDb2dVertex
 10
1.247979
 20
31.199402
 30
0.0
  0
SEQEND
  5
1CED
100
AcDbEntity
  8
ALPHA
  0
POLYLINE
  5
1CEE
100
AcDbEntity
  8
ALPHA
100
AcDb2dPolyline
 66
     1
 10
0.0
 20
0.0
 30
0.0
  0
VERTEX
  5
1CEF
100
AcDbEntity
  8
ALPHA
100
AcDbVertex
100
AcDb2dVertex
 10
1.247979
 20
31.199402
 30
0.0
  0
VERTEX
  5
1CF0
100
AcDbEntity
  8
ALPHA
100
AcDbVertex
100
AcDb2dVertex
 10
24.347689
 20
31.199402
 30
0.0
  0
SEQEND
  5
1CF1
100
AcDbEntity
  8
ALPHA
  0
POLYLINE
  5
1CF2
100
AcDbEntity
  8
ALPHA
100
AcDb2dPolyline
 66
     1
 10
0.0
 20
0.0
 30
0.0
  0
VERTEX
  5
1CF3
100
AcDbEntity
  8
ALPHA
100
AcDbVertex
100
AcDb2dVertex
 10
24.347689
 20
31.199402
 30
0.0
  0
VERTEX
  5
1CF4
100
AcDbEntity
  8
ALPHA
100
AcDbVertex
100
AcDb2dVertex
 10
25.439095
 20
32.281506
 30
0.0
  0
SEQEND
  5
1CF5
100
AcDbEntity
  8
ALPHA
  0
POLYLINE
  5
1CF6
100
AcDbEntity
  8
ALPHA
100
AcDb2dPolyline
 66
     1
 10
0.0
 20
0.0
 30
0.0
  0
VERTEX
  5
1CF7
100
AcDbEntity
  8
ALPHA
100
AcDbVertex
100
AcDb2dVertex
 10
25.439095
 20
32.281506
 30
0.0
  0
VERTEX
  5
1CF8
100
AcDbEntity
  8
ALPHA
100
AcDbVertex
100
AcDb2dVertex
 10
25.439095
 20
35.117509
 30
0.0
  0
SEQEND
  5
1CF9
100
AcDbEntity
  8
ALPHA
  0
DIMENSION
  5
1D06
100
AcDbEntity
  8
COTATION1
100
AcDbDimension
  2
*D7
 10
21.797285
 20
46.818347
 30
0.0
 11
12.797489
 21
49.068347
 31
0.0
 70
    32
  1
M<>
  3
SC_STAND
100
AcDbAlignedDimension
 13
3.797694
 23
42.911693
 33
0.0
 14
21.797285
 24
42.911693
 34
0.0
100
AcDbRotatedDimension
  0
DIMENSION
  5
1D1E
100
AcDbEntity
  8
COTATION1
100
AcDbDimension
  2
*D8
 10
30.316686
 20
14.911679
 30
0.0
 11
28.066686
 21
28.911686
 31
0.0
 70
    32
  3
SC_STAND
100
AcDbAlignedDimension
 13
21.797285
 23
42.911693
 33
0.0
 14
21.797285
 24
14.911679
 34
0.0
 50
90.0
100
AcDbRotatedDimension
  0
DIMENSION
  5
1D2B
100
AcDbEntity
  8
COTATION1
100
AcDbDimension
  2
*D9
 10
36.174228
 20
6.411595
 30
0.0
 11
33.924228
 21
24.661644
 31
0.0
 70
    32
  3
SC_STAND
100
AcDbAlignedDimension
 13
26.178235
 23
42.911693
 33
0.0
 14
21.047287
 24
6.411595
 34
0.0
 50
90.0
100
AcDbRotatedDimension
  0
ENDSEC
  0
SECTION
  2
OBJECTS
  0
DICTIONARY
  5
F8
100
AcDbDictionary
  3
ACAD_GROUP
350
F9
  3
ACAD_MLINESTYLE
350
106
  3
ACDBVARIABLEDICTIONARY
350
143
  0
DICTIONARY
  5
F9
102
{ACAD_REACTORS
330
F8
102
}
100
AcDbDictionary
  0
DICTIONARY
  5
106
102
{ACAD_REACTORS
330
F8
102
}
100
AcDbDictionary
  3
STANDARD
350
107
  0
DICTIONARY
  5
143
102
{ACAD_REACTORS
330
F8
102
}
100
AcDbDictionary
  3
DIMADEC
350
144
  0
MLINESTYLE
  5
107
102
{ACAD_REACTORS
330
106
102
}
100
AcDbMlineStyle
  2
STANDARD
 70
     0
  3

 62
   256
 51
90.0
 52
90.0
 71
     2
 49
0.5
 62
   256
  6
BYLAYER
 49
-0.5
 62
   256
  6
BYLAYER
  0
DICTIONARYVAR
  5
144
102
{ACAD_REACTORS
330
143
102
}
100
DictionaryVariables
280
     0
  1
0
  0
ENDSEC
  0
EOF
