  0
SECTION
  2
HEADER
  9
$ACADVER
  1
AC1014
  9
$ACADMAINTVER
 70
     0
  9
$DWGCODEPAGE
  3
ANSI_1252
  9
$INSBASE
 10
0.0
 20
0.0
 30
0.0
  9
$EXTMIN
 10
68.949856
 20
41.872333
 30
0.0
  9
$EXTMAX
 10
143.800578
 20
315.965449
 30
0.0
  9
$LIMMIN
 10
0.0
 20
0.0
  9
$LIMMAX
 10
297.0
 20
210.0
  9
$ORTHOMODE
 70
     0
  9
$REGENMODE
 70
     1
  9
$FILLMODE
 70
     1
  9
$QTEXTMODE
 70
     0
  9
$MIRRTEXT
 70
     1
  9
$DRAGMODE
 70
     2
  9
$LTSCALE
 40
1.0
  9
$OSMODE
 70
     0
  9
$ATTMODE
 70
     1
  9
$TEXTSIZE
 40
3.5
  9
$TRACEWID
 40
0.05
  9
$TEXTSTYLE
  7
ROMANS
  9
$CLAYER
  8
0
  9
$CELTYPE
  6
BYLAYER
  9
$CECOLOR
 62
   256
  9
$CELTSCALE
 40
1.0
  9
$DELOBJ
 70
     1
  9
$DISPSILH
 70
     0
  9
$DIMSCALE
 40
1.0
  9
$DIMASZ
 40
3.0
  9
$DIMEXO
 40
0.0625
  9
$DIMDLI
 40
0.38
  9
$DIMRND
 40
0.01
  9
$DIMDLE
 40
0.0
  9
$DIMEXE
 40
0.18
  9
$DIMTP
 40
0.0
  9
$DIMTM
 40
0.0
  9
$DIMTXT
 40
2.5
  9
$DIMCEN
 40
0.09
  9
$DIMTSZ
 40
0.0
  9
$DIMTOL
 70
     0
  9
$DIMLIM
 70
     0
  9
$DIMTIH
 70
     0
  9
$DIMTOH
 70
     0
  9
$DIMSE1
 70
     0
  9
$DIMSE2
 70
     0
  9
$DIMTAD
 70
     1
  9
$DIMZIN
 70
    12
  9
$DIMBLK
  1

  9
$DIMASO
 70
     1
  9
$DIMSHO
 70
     1
  9
$DIMPOST
  1

  9
$DIMAPOST
  1

  9
$DIMALT
 70
     0
  9
$DIMALTD
 70
     2
  9
$DIMALTF
 40
25.4
  9
$DIMLFAC
 40
1.0
  9
$DIMTOFL
 70
     1
  9
$DIMTVP
 40
0.0
  9
$DIMTIX
 70
     0
  9
$DIMSOXD
 70
     0
  9
$DIMSAH
 70
     0
  9
$DIMBLK1
  1

  9
$DIMBLK2
  1

  9
$DIMSTYLE
  2
SC_STAND
  9
$DIMCLRD
 70
     0
  9
$DIMCLRE
 70
     0
  9
$DIMCLRT
 70
     0
  9
$DIMTFAC
 40
1.0
  9
$DIMGAP
 40
1.0
  9
$DIMJUST
 70
     0
  9
$DIMSD1
 70
     0
  9
$DIMSD2
 70
     0
  9
$DIMTOLJ
 70
     1
  9
$DIMTZIN
 70
    12
  9
$DIMALTZ
 70
    12
  9
$DIMALTTZ
 70
    12
  9
$DIMFIT
 70
     5
  9
$DIMUPT
 70
     0
  9
$DIMUNIT
 70
     2
  9
$DIMDEC
 70
     4
  9
$DIMTDEC
 70
     4
  9
$DIMALTU
 70
     2
  9
$DIMALTTD
 70
     2
  9
$DIMTXSTY
  7
ROMANS
  9
$DIMAUNIT
 70
     0
  9
$LUNITS
 70
     2
  9
$LUPREC
 70
     4
  9
$SKETCHINC
 40
0.1
  9
$FILLETRAD
 40
10.0
  9
$AUNITS
 70
     0
  9
$AUPREC
 70
     0
  9
$MENU
  1
acad
  9
$ELEVATION
 40
0.0
  9
$PELEVATION
 40
0.0
  9
$THICKNESS
 40
0.0
  9
$LIMCHECK
 70
     0
  9
$BLIPMODE
 70
     1
  9
$CHAMFERA
 40
10.0
  9
$CHAMFERB
 40
10.0
  9
$CHAMFERC
 40
0.0
  9
$CHAMFERD
 40
0.0
  9
$SKPOLY
 70
     0
  9
$TDCREATE
 40
2450653.479081250
  9
$TDUPDATE
 40
2451387.895825925
  9
$TDINDWG
 40
0.0000535995
  9
$TDUSRTIMER
 40
0.0000535995
  9
$USRTIMER
 70
     1
  9
$ANGBASE
 50
0.0
  9
$ANGDIR
 70
     0
  9
$PDMODE
 70
     0
  9
$PDSIZE
 40
0.0
  9
$PLINEWID
 40
0.0
  9
$COORDS
 70
     1
  9
$SPLFRAME
 70
     0
  9
$SPLINETYPE
 70
     6
  9
$SPLINESEGS
 70
     8
  9
$ATTDIA
 70
     0
  9
$ATTREQ
 70
     1
  9
$HANDLING
 70
     1
  9
$HANDSEED
  5
2F1
  9
$SURFTAB1
 70
     6
  9
$SURFTAB2
 70
     6
  9
$SURFTYPE
 70
     6
  9
$SURFU
 70
     6
  9
$SURFV
 70
     6
  9
$UCSNAME
  2

  9
$UCSORG
 10
0.0
 20
0.0
 30
0.0
  9
$UCSXDIR
 10
1.0
 20
0.0
 30
0.0
  9
$UCSYDIR
 10
0.0
 20
1.0
 30
0.0
  9
$PUCSNAME
  2

  9
$PUCSORG
 10
0.0
 20
0.0
 30
0.0
  9
$PUCSXDIR
 10
1.0
 20
0.0
 30
0.0
  9
$PUCSYDIR
 10
0.0
 20
1.0
 30
0.0
  9
$USERI1
 70
     0
  9
$USERI2
 70
     0
  9
$USERI3
 70
     0
  9
$USERI4
 70
     0
  9
$USERI5
 70
     0
  9
$USERR1
 40
0.0
  9
$USERR2
 40
0.0
  9
$USERR3
 40
0.0
  9
$USERR4
 40
0.0
  9
$USERR5
 40
0.0
  9
$WORLDVIEW
 70
     1
  9
$SHADEDGE
 70
     3
  9
$SHADEDIF
 70
    70
  9
$TILEMODE
 70
     1
  9
$MAXACTVP
 70
    16
  9
$PINSBASE
 10
0.0
 20
0.0
 30
0.0
  9
$PLIMCHECK
 70
     0
  9
$PEXTMIN
 10
1.000000E+20
 20
1.000000E+20
 30
1.000000E+20
  9
$PEXTMAX
 10
-1.000000E+20
 20
-1.000000E+20
 30
-1.000000E+20
  9
$PLIMMIN
 10
0.0
 20
0.0
  9
$PLIMMAX
 10
12.0
 20
9.0
  9
$UNITMODE
 70
     0
  9
$VISRETAIN
 70
     0
  9
$PLINEGEN
 70
     0
  9
$PSLTSCALE
 70
     1
  9
$TREEDEPTH
 70
  3020
  9
$PICKSTYLE
 70
     1
  9
$CMLSTYLE
  2
STANDARD
  9
$CMLJUST
 70
     0
  9
$CMLSCALE
 40
1.0
  9
$PROXYGRAPHICS
 70
     1
  9
$MEASUREMENT
 70
     0
  0
ENDSEC
  0
SECTION
  2
CLASSES
  0
CLASS
  1
DICTIONARYVAR
  2
AcDbDictionaryVar
  3
"AutoCAD"
 90
        0
280
     0
281
     0
  0
CLASS
  1
LWPOLYLINE
  2
AcDbPolyline
  3
"AutoCAD"
 90
        0
280
     0
281
     1
  0
ENDSEC
  0
SECTION
  2
TABLES
  0
TABLE
  2
VPORT
  5
293
100
AcDbSymbolTable
 70
     1
  0
VPORT
  5
2EC
100
AcDbSymbolTableRecord
100
AcDbViewportTableRecord
  2
*ACTIVE
 70
     0
 10
0.0
 20
0.0
 11
1.0
 21
1.0
 12
337.888744
 22
202.81214
 13
0.0
 23
0.0
 14
1.0
 24
1.0
 15
0.0
 25
0.0
 16
0.0
 26
0.0
 36
1.0
 17
0.0
 27
0.0
 37
0.0
 40
321.879613
 41
1.671053
 42
50.0
 43
0.0
 44
0.0
 50
0.0
 51
0.0
 71
     0
 72
   100
 73
     1
 74
     1
 75
     0
 76
     0
 77
     0
 78
     0
  0
ENDTAB
  0
TABLE
  2
LTYPE
  5
290
100
AcDbSymbolTable
 70
    23
  0
LTYPE
  5
29C
100
AcDbSymbolTableRecord
100
AcDbLinetypeTableRecord
  2
BYBLOCK
 70
     0
  3

 72
    65
 73
     0
 40
0.0
  0
LTYPE
  5
29D
100
AcDbSymbolTableRecord
100
AcDbLinetypeTableRecord
  2
BYLAYER
 70
     0
  3

 72
    65
 73
     0
 40
0.0
  0
LTYPE
  5
29E
100
AcDbSymbolTableRecord
100
AcDbLinetypeTableRecord
  2
CONTINUOUS
 70
     0
  3
Solid line
 72
    65
 73
     0
 40
0.0
  0
LTYPE
  5
2B3
100
AcDbSymbolTableRecord
100
AcDbLinetypeTableRecord
  2
AXES
 70
     0
  3
____ _ ____ _ ____ _ ____ _ ____ _ ____ _ ____ 
 72
    65
 73
     4
 40
2.0
 49
1.25
 74
     0
 49
-0.25
 74
     0
 49
0.25
 74
     0
 49
-0.25
 74
     0
  0
LTYPE
  5
2B4
100
AcDbSymbolTableRecord
100
AcDbLinetypeTableRecord
  2
AXES2
 70
     0
  3
___ _ ___ _ ___ _ ___ _ ___ _ ___ _ ___ _ ___ _
 72
    65
 73
     4
 40
1.125
 49
0.75
 74
     0
 49
-0.125
 74
     0
 49
0.125
 74
     0
 49
-0.125
 74
     0
  0
LTYPE
  5
2B5
100
AcDbSymbolTableRecord
100
AcDbLinetypeTableRecord
  2
AXESX2
 70
     0
  3
________  __  ________  __  ________  __  _____
 72
    65
 73
     4
 40
4.0
 49
2.5
 74
     0
 49
-0.5
 74
     0
 49
0.5
 74
     0
 49
-0.5
 74
     0
  0
LTYPE
  5
2B6
100
AcDbSymbolTableRecord
100
AcDbLinetypeTableRecord
  2
TIRETPT
 70
     0
  3
__ . __ . __ . __ . __ . __ . __ . __ . __ . __
 72
    65
 73
     4
 40
1.0
 49
0.5
 74
     0
 49
-0.25
 74
     0
 49
0.0
 74
     0
 49
-0.25
 74
     0
  0
LTYPE
  5
2B7
100
AcDbSymbolTableRecord
100
AcDbLinetypeTableRecord
  2
TIRETPT2
 70
     0
  3
_._._._._._._._._._._._._._._._._._._._._._._._
 72
    65
 73
     4
 40
0.5
 49
0.25
 74
     0
 49
-0.125
 74
     0
 49
0.0
 74
     0
 49
-0.125
 74
     0
  0
LTYPE
  5
2B8
100
AcDbSymbolTableRecord
100
AcDbLinetypeTableRecord
  2
TIRETPTX2
 70
     0
  3
____  .  ____  .  ____  .  ____  .  ____  .  __
 72
    65
 73
     4
 40
2.0
 49
1.0
 74
     0
 49
-0.5
 74
     0
 49
0.0
 74
     0
 49
-0.5
 74
     0
  0
LTYPE
  5
2B9
100
AcDbSymbolTableRecord
100
AcDbLinetypeTableRecord
  2
DISCONTINU
 70
     0
  3
__ __ __ __ __ __ __ __ __ __ __ __ __ __ __ __
 72
    65
 73
     2
 40
0.75
 49
0.5
 74
     0
 49
-0.25
 74
     0
  0
LTYPE
  5
2BA
100
AcDbSymbolTableRecord
100
AcDbLinetypeTableRecord
  2
DISCONTINU2
 70
     0
  3
_ _ _ _ _ _ _ _ _ _ _ _ _ _ _ _ _ _ _ _ _ _ _ _
 72
    65
 73
     2
 40
0.375
 49
0.25
 74
     0
 49
-0.125
 74
     0
  0
LTYPE
  5
2BB
100
AcDbSymbolTableRecord
100
AcDbLinetypeTableRecord
  2
DISCONTINUX2
 70
     0
  3
____  ____  ____  ____  ____  ____  ____  ____ 
 72
    65
 73
     2
 40
1.5
 49
1.0
 74
     0
 49
-0.5
 74
     0
  0
LTYPE
  5
2BC
100
AcDbSymbolTableRecord
100
AcDbLinetypeTableRecord
  2
DIVISE
 70
     0
  3
____ . . ____ . . ____ . . ____ . . ____ . . __
 72
    65
 73
     6
 40
1.25
 49
0.5
 74
     0
 49
-0.25
 74
     0
 49
0.0
 74
     0
 49
-0.25
 74
     0
 49
0.0
 74
     0
 49
-0.25
 74
     0
  0
LTYPE
  5
2BD
100
AcDbSymbolTableRecord
100
AcDbLinetypeTableRecord
  2
DIVISE2
 70
     0
  3
__..__..__..__..__..__..__..__..__..__..__..__.
 72
    65
 73
     6
 40
0.625
 49
0.25
 74
     0
 49
-0.125
 74
     0
 49
0.0
 74
     0
 49
-0.125
 74
     0
 49
0.0
 74
     0
 49
-0.125
 74
     0
  0
LTYPE
  5
2BE
100
AcDbSymbolTableRecord
100
AcDbLinetypeTableRecord
  2
DIVISEX2
 70
     0
  3
________  .  .  ________  .  .  ________  .  . 
 72
    65
 73
     6
 40
2.5
 49
1.0
 74
     0
 49
-0.5
 74
     0
 49
0.0
 74
     0
 49
-0.5
 74
     0
 49
0.0
 74
     0
 49
-0.5
 74
     0
  0
LTYPE
  5
2BF
100
AcDbSymbolTableRecord
100
AcDbLinetypeTableRecord
  2
POINTILLE
 70
     0
  3
. . . . . . . . . . . . . . . . . . . . . . . .
 72
    65
 73
     2
 40
0.25
 49
0.0
 74
     0
 49
-0.25
 74
     0
  0
LTYPE
  5
2C0
100
AcDbSymbolTableRecord
100
AcDbLinetypeTableRecord
  2
POINTILLE2
 70
     0
  3
...............................................
 72
    65
 73
     2
 40
0.125
 49
0.0
 74
     0
 49
-0.125
 74
     0
  0
LTYPE
  5
2C1
100
AcDbSymbolTableRecord
100
AcDbLinetypeTableRecord
  2
POINTILLEX2
 70
     0
  3
.  .  .  .  .  .  .  .  .  .  .  .  .  .  .  . 
 72
    65
 73
     2
 40
0.5
 49
0.0
 74
     0
 49
-0.5
 74
     0
  0
LTYPE
  5
2C2
100
AcDbSymbolTableRecord
100
AcDbLinetypeTableRecord
  2
CACHE
 70
     0
  3
__ __ __ __ __ __ __ __ __ __ __ __ __ __ __ __
 72
    65
 73
     2
 40
0.375
 49
0.25
 74
     0
 49
-0.125
 74
     0
  0
LTYPE
  5
2C3
100
AcDbSymbolTableRecord
100
AcDbLinetypeTableRecord
  2
CACHE2
 70
     0
  3
_ _ _ _ _ _ _ _ _ _ _ _ _ _ _ _ _ _ _ _ _ _ _ _
 72
    65
 73
     2
 40
0.1875
 49
0.125
 74
     0
 49
-0.0625
 74
     0
  0
LTYPE
  5
2C4
100
AcDbSymbolTableRecord
100
AcDbLinetypeTableRecord
  2
CACHEX2
 70
     0
  3
____ ____ ____ ____ ____ ____ ____ ____ ____ __
 72
    65
 73
     2
 40
0.75
 49
0.5
 74
     0
 49
-0.25
 74
     0
  0
LTYPE
  5
2C5
100
AcDbSymbolTableRecord
100
AcDbLinetypeTableRecord
  2
FANTOME
 70
     0
  3
______  __  __  ______  __  __  ______  __  __ 
 72
    65
 73
     6
 40
2.5
 49
1.25
 74
     0
 49
-0.25
 74
     0
 49
0.25
 74
     0
 49
-0.25
 74
     0
 49
0.25
 74
     0
 49
-0.25
 74
     0
  0
LTYPE
  5
2C6
100
AcDbSymbolTableRecord
100
AcDbLinetypeTableRecord
  2
FANTOME2
 70
     0
  3
___ _ _ ___ _ _ ___ _ _ ___ _ _ ___ _ _ ___ _ _
 72
    65
 73
     6
 40
1.25
 49
0.625
 74
     0
 49
-0.125
 74
     0
 49
0.125
 74
     0
 49
-0.125
 74
     0
 49
0.125
 74
     0
 49
-0.125
 74
     0
  0
LTYPE
  5
2C7
100
AcDbSymbolTableRecord
100
AcDbLinetypeTableRecord
  2
FANTOMEX2
 70
     0
  3
____________    ____    ____    ____________   
 72
    65
 73
     6
 40
5.0
 49
2.5
 74
     0
 49
-0.5
 74
     0
 49
0.5
 74
     0
 49
-0.5
 74
     0
 49
0.5
 74
     0
 49
-0.5
 74
     0
  0
LTYPE
  5
2C8
100
AcDbSymbolTableRecord
100
AcDbLinetypeTableRecord
  2
0
 70
     0
  3
MEDUSA PEN 0
 72
    65
 73
     0
 40
0.0
  0
ENDTAB
  0
TABLE
  2
LAYER
  5
28D
100
AcDbSymbolTable
 70
    21
  0
LAYER
  5
299
100
AcDbSymbolTableRecord
100
AcDbLayerTableRecord
  2
0
 70
     0
 62
     7
  6
CONTINUOUS
  0
LAYER
  5
2CF
100
AcDbSymbolTableRecord
100
AcDbLayerTableRecord
  2
COTATION1
 70
     0
 62
     2
  6
CONTINUOUS
  0
LAYER
  5
2D0
100
AcDbSymbolTableRecord
100
AcDbLayerTableRecord
  2
ALPHA
 70
     0
 62
   255
  6
CONTINUOUS
  0
LAYER
  5
2D1
100
AcDbSymbolTableRecord
100
AcDbLayerTableRecord
  2
DEFPOINTS
 70
     0
 62
     7
  6
CONTINUOUS
  0
LAYER
  5
2D2
100
AcDbSymbolTableRecord
100
AcDbLayerTableRecord
  2
AXE
 70
     0
 62
    80
  6
AXES2
  0
LAYER
  5
2D3
100
AcDbSymbolTableRecord
100
AcDbLayerTableRecord
  2
CONSTRUCTION
 70
     0
 62
     6
  6
CONTINUOUS
  0
LAYER
  5
2D4
100
AcDbSymbolTableRecord
100
AcDbLayerTableRecord
  2
HACHURES
 70
     0
 62
     9
  6
CONTINUOUS
  0
LAYER
  5
2D5
100
AcDbSymbolTableRecord
100
AcDbLayerTableRecord
  2
FMULT
 70
     0
 62
     6
  6
CONTINUOUS
  0
LAYER
  5
2D6
100
AcDbSymbolTableRecord
100
AcDbLayerTableRecord
  2
TEXTE
 70
     0
 62
   131
  6
CONTINUOUS
  0
LAYER
  5
2D7
100
AcDbSymbolTableRecord
100
AcDbLayerTableRecord
  2
FDP_CARTOUCHE
 70
     0
 62
     4
  6
CONTINUOUS
  0
LAYER
  5
2D8
100
AcDbSymbolTableRecord
100
AcDbLayerTableRecord
  2
FDP_TEXTES
 70
     0
 62
     5
  6
CONTINUOUS
  0
LAYER
  5
2D9
100
AcDbSymbolTableRecord
100
AcDbLayerTableRecord
  2
FDP_LOGO_MG
 70
     0
 62
    30
  6
CONTINUOUS
  0
LAYER
  5
2DA
100
AcDbSymbolTableRecord
100
AcDbLayerTableRecord
  2
FDP_LOGO_SCH
 70
     0
 62
     3
  6
CONTINUOUS
  0
LAYER
  5
2DB
100
AcDbSymbolTableRecord
100
AcDbLayerTableRecord
  2
FDP_FDP
 70
     0
 62
     5
  6
CONTINUOUS
  0
LAYER
  5
2DC
100
AcDbSymbolTableRecord
100
AcDbLayerTableRecord
  2
COTATION2
 70
     0
 62
     2
  6
CONTINUOUS
  0
LAYER
  5
2DD
100
AcDbSymbolTableRecord
100
AcDbLayerTableRecord
  2
COTATION3
 70
     0
 62
     2
  6
CONTINUOUS
  0
LAYER
  5
2DE
100
AcDbSymbolTableRecord
100
AcDbLayerTableRecord
  2
COTATION4
 70
     0
 62
     2
  6
CONTINUOUS
  0
LAYER
  5
2DF
100
AcDbSymbolTableRecord
100
AcDbLayerTableRecord
  2
ASHADE
 70
     0
 62
     7
  6
CONTINUOUS
  0
LAYER
  5
2E0
100
AcDbSymbolTableRecord
100
AcDbLayerTableRecord
  2
POINTILLE_COURT
 70
     0
 62
    40
  6
CACHE2
  0
LAYER
  5
2E1
100
AcDbSymbolTableRecord
100
AcDbLayerTableRecord
  2
POINTILLE_MOYEN
 70
     0
 62
   140
  6
CACHE
  0
LAYER
  5
2E2
100
AcDbSymbolTableRecord
100
AcDbLayerTableRecord
  2
POINTILLE_LONG
 70
     0
 62
   240
  6
CACHEX2
  0
ENDTAB
  0
TABLE
  2
STYLE
  5
28E
100
AcDbSymbolTable
 70
     4
  0
STYLE
  5
29A
100
AcDbSymbolTableRecord
100
AcDbTextStyleTableRecord
  2
STANDARD
 70
     0
 40
0.0
 41
1.0
 50
0.0
 71
     0
 42
3.5
  3
txt
  4

  0
STYLE
  5
2B0
100
AcDbSymbolTableRecord
100
AcDbTextStyleTableRecord
  2
ROMANS
 70
     0
 40
0.0
 41
1.0
 50
0.0
 71
     0
 42
2.9
  3
romans.shx
  4

  0
STYLE
  5
2B1
100
AcDbSymbolTableRecord
100
AcDbTextStyleTableRecord
  2
INFOCAR
 70
     0
 40
0.0
 41
1.34
 50
0.0
 71
     0
 42
2.0
  3
ROMANS.SHX
  4

  0
STYLE
  5
2B2
100
AcDbSymbolTableRecord
100
AcDbTextStyleTableRecord
  2
CARTOUCHE
 70
     0
 40
0.0
 41
1.0
 50
0.0
 71
     0
 42
0.2
  3
ROMANS.SHX
  4

  0
ENDTAB
  0
TABLE
  2
VIEW
  5
291
100
AcDbSymbolTable
 70
     0
  0
ENDTAB
  0
TABLE
  2
UCS
  5
292
100
AcDbSymbolTable
 70
     0
  0
ENDTAB
  0
TABLE
  2
APPID
  5
294
100
AcDbSymbolTable
 70
     3
  0
APPID
  5
29B
100
AcDbSymbolTableRecord
100
AcDbRegAppTableRecord
  2
ACAD
 70
     0
  0
APPID
  5
2CB
100
AcDbSymbolTableRecord
100
AcDbRegAppTableRecord
  2
AVE_RENDER
 70
     0
  0
APPID
  5
2CC
100
AcDbSymbolTableRecord
100
AcDbRegAppTableRecord
  2
AVE_MATERIAL
 70
     0
  0
ENDTAB
  0
TABLE
  2
DIMSTYLE
  5
295
100
AcDbSymbolTable
 70
     2
  0
DIMSTYLE
105
2CD
100
AcDbSymbolTableRecord
100
AcDbDimStyleTableRecord
  2
STANDARD
 70
     0
  3

  4

  5

  6

  7

 40
1.0
 41
0.18
 42
0.0625
 43
0.38
 44
0.18
 45
0.0
 46
0.0
 47
0.0
 48
0.0
140
0.18
141
0.09
142
0.0
143
25.4
144
1.0
145
0.0
146
1.0
147
0.09
 71
     0
 72
     0
 73
     1
 74
     1
 75
     0
 76
     0
 77
     0
 78
     0
170
     0
171
     2
172
     0
173
     0
174
     0
175
     0
176
     0
177
     0
178
     0
270
     2
271
     4
272
     4
273
     2
274
     2
340
2B0
275
     0
280
     0
281
     0
282
     0
283
     1
284
    12
285
    12
286
    12
287
     5
288
     0
  0
DIMSTYLE
105
2CE
102
{ACAD_REACTORS
330
3
330
18
102
}
100
AcDbSymbolTableRecord
100
AcDbDimStyleTableRecord
  2
SC_STAND
 70
     0
  3

  4

  5

  6

  7

 40
1.0
 41
3.0
 42
0.0625
 43
0.38
 44
0.18
 45
0.01
 46
0.0
 47
0.0
 48
0.0
140
2.5
141
0.09
142
0.0
143
25.4
144
1.0
145
0.0
146
1.0
147
1.0
 71
     0
 72
     0
 73
     0
 74
     0
 75
     0
 76
     0
 77
     1
 78
    12
170
     0
171
     2
172
     1
173
     0
174
     0
175
     0
176
     0
177
     0
178
     0
270
     2
271
     4
272
     4
273
     2
274
     2
340
2B0
275
     0
280
     0
281
     0
282
     0
283
     1
284
    12
285
    12
286
    12
287
     5
288
     0
  0
ENDTAB
  0
TABLE
  2
BLOCK_RECORD
  5
28C
100
AcDbSymbolTable
 70
     7
  0
BLOCK_RECORD
  5
2A2
100
AcDbSymbolTableRecord
100
AcDbBlockTableRecord
  2
*MODEL_SPACE
  0
BLOCK_RECORD
  5
29F
100
AcDbSymbolTableRecord
100
AcDbBlockTableRecord
  2
*PAPER_SPACE
  0
BLOCK_RECORD
  5
2A7
100
AcDbSymbolTableRecord
100
AcDbBlockTableRecord
  2
AVE_RENDER
  0
BLOCK_RECORD
  5
2A8
100
AcDbSymbolTableRecord
100
AcDbBlockTableRecord
  2
AVE_GLOBAL
  0
BLOCK_RECORD
  5
2A9
100
AcDbSymbolTableRecord
100
AcDbBlockTableRecord
  2
SCH_ISO
  0
BLOCK_RECORD
  5
2AE
100
AcDbSymbolTableRecord
100
AcDbBlockTableRecord
  2
*D5
  0
BLOCK_RECORD
  5
2AF
100
AcDbSymbolTableRecord
100
AcDbBlockTableRecord
  2
*D6
  0
ENDTAB
  0
ENDSEC
  0
SECTION
  2
BLOCKS
  0
BLOCK
  5
2E5
100
AcDbEntity
  8
0
100
AcDbBlockBegin
  2
*MODEL_SPACE
 70
     0
 10
0.0
 20
0.0
 30
0.0
  3
*MODEL_SPACE
  1

  0
ENDBLK
  5
2E6
100
AcDbEntity
  8
0
100
AcDbBlockEnd
  0
BLOCK
  5
2E3
100
AcDbEntity
 67
     1
  8
0
100
AcDbBlockBegin
  2
*PAPER_SPACE
 70
     0
 10
0.0
 20
0.0
 30
0.0
  3
*PAPER_SPACE
  1

  0
ENDBLK
  5
2E4
100
AcDbEntity
 67
     1
  8
0
100
AcDbBlockEnd
  0
BLOCK
  5
1ED
100
AcDbEntity
  8
0
100
AcDbBlockBegin
  2
AVE_RENDER
 70
     0
 10
0.0
 20
0.0
 30
0.0
  3
AVE_RENDER
  1
AVE_RENDER
  0
ENDBLK
  5
1EE
100
AcDbEntity
  8
0
100
AcDbBlockEnd
  0
BLOCK
  5
1F0
100
AcDbEntity
  8
0
100
AcDbBlockBegin
  2
AVE_GLOBAL
 70
     0
 10
0.0
 20
0.0
 30
0.0
  3
AVE_GLOBAL
  1
AVE_GLOBAL
  0
ENDBLK
  5
1F1
100
AcDbEntity
  8
0
100
AcDbBlockEnd
  0
BLOCK
  5
227
100
AcDbEntity
  8
0
100
AcDbBlockBegin
  2
SCH_ISO
 70
     0
 10
0.0
 20
0.0
 30
0.0
  3
SCH_ISO
  1

  0
INSERT
  5
21E
100
AcDbEntity
  8
ASHADE
 62
     1
100
AcDbBlockReference
  2
AVE_RENDER
 10
0.0
 20
0.0
 30
0.0
1001
AVE_RENDER
1002
{
1070
     6
1000
Pref
1070
    50
1070
    20
1070
     1
1070
     0
1000

1070
    10
1070
     1
1070
    30
1040
25.4
1070
     1
1040
0.3
1040
0.7
1040
0.0
1040
10.0
1010
-1.0
1020
-1.0
1030
-1.0
1040
0.3
1070
    49
1070
     0
1070
     0
1010
1.0
1020
1.0
1030
1.0
1040
45.0
1070
     1
1070
     0
1000
WCS
1040
0.0
1002
}
  0
INSERT
  5
21F
100
AcDbEntity
  8
ASHADE
 62
     3
100
AcDbBlockReference
  2
AVE_RENDER
 10
0.0
 20
0.0
 30
0.0
1001
AVE_RENDER
1002
{
1070
     0
1000
Full Opt
1070
     0
1070
     1
1070
     1
1070
     1
1070
     0
1070
     0
1070
     0
1070
     1
1070
     1
1040
0.0001
1040
0.0001
1002
}
  0
INSERT
  5
220
100
AcDbEntity
  8
ASHADE
 62
     4
100
AcDbBlockReference
  2
AVE_RENDER
 10
0.0
 20
0.0
 30
0.0
1001
AVE_RENDER
1002
{
1070
     0
1000
Quick Opt
1070
     0
1070
     1
1070
     1
1070
     1
1070
     0
1070
     0
1070
     1
1002
}
  0
INSERT
  5
221
100
AcDbEntity
  8
ASHADE
 62
     5
100
AcDbBlockReference
  2
AVE_RENDER
 10
0.0
 20
0.0
 30
0.0
1001
AVE_RENDER
1002
{
1070
     1
1000
Scanl Opt
1070
     2
1070
     0
1070
     2
1040
2.0
1040
4.0
1070
     0
1070
     1
1070
     0
1040
0.03
1002
}
  0
INSERT
  5
222
100
AcDbEntity
  8
ASHADE
 62
     6
100
AcDbBlockReference
  2
AVE_RENDER
 10
0.0
 20
0.0
 30
0.0
1001
AVE_RENDER
1002
{
1070
     2
1000
Raytr Opt
1070
     2
1070
     0
1070
     2
1040
2.0
1040
4.0
1070
     0
1070
     1
1070
     1
1040
0.03
1070
     3
1040
0.03
1002
}
  0
INSERT
  5
223
100
AcDbEntity
  8
ASHADE
 62
     7
100
AcDbBlockReference
  2
AVE_RENDER
 10
0.0
 20
0.0
 30
0.0
1001
AVE_RENDER
1002
{
1070
     0
1000
RFile Opt
1070
     5
1070
   640
1070
   480
1070
 10000
1070
     3
1070
    32
1070
    24
1070
     0
1070
     0
1070
     0
1070
     1
1070
     0
1070
     0
1070
     0
1002
}
  0
INSERT
  5
224
100
AcDbEntity
  8
ASHADE
 62
     8
100
AcDbBlockReference
  2
AVE_RENDER
 10
0.0
 20
0.0
 30
0.0
1001
AVE_RENDER
1002
{
1070
     0
1000
Fog Opt
1070
     0
1070
     0
1040
0.0
1040
1.0
1040
0.0
1040
1.0
1010
0.5
1020
0.5
1030
0.5
1002
}
  0
INSERT
  5
225
100
AcDbEntity
  8
ASHADE
 62
     9
100
AcDbBlockReference
  2
AVE_RENDER
 10
0.0
 20
0.0
 30
0.0
1001
AVE_RENDER
1002
{
1070
     0
1000
BG Opt
1070
     0
1070
     1
1010
0.0
1020
0.0
1030
0.0
1010
1.0
1020
0.0
1030
0.0
1010
0.0
1020
1.0
1030
0.0
1010
0.0
1020
0.0
1030
1.0
1040
0.5
1040
0.33
1040
0.0
1000

1070
     1
1000

1070
     1
1070
     1
1040
1.0
1040
1.0
1040
0.0
1040
0.0
1070
     0
1002
}
  0
INSERT
  5
226
100
AcDbEntity
  8
ASHADE
 62
     1
100
AcDbBlockReference
  2
AVE_GLOBAL
 10
0.0
 20
0.0
 30
0.0
1001
AVE_MATERIAL
1002
{
1000
*GLOBAL*
1000
1
1000
Finition globale.
1002
{
1002
}
1002
{
1070
    63
1002
{
1002
{
1010
-1.0
1020
-1.0
1030
-1.0
1002
}
1040
0.1
1000

1040
0.0
1002
{
1002
}
1040
0.0
1002
{
1002
}
1040
0.0
1002
}
1002
{
1002
{
1010
-1.0
1020
-1.0
1030
-1.0
1002
}
1040
0.7
1000

1040
0.0
1002
{
1002
}
1040
0.0
1002
{
1002
}
1040
0.0
1002
}
1002
{
1002
{
1010
-1.0
1020
-1.0
1030
-1.0
1002
}
1040
0.2
1000

1040
0.0
1002
{
1002
}
1040
0.0
1002
{
1002
}
1040
0.0
1002
}
1002
{
1070
     0
1002
{
1070
     1
1002
{
1040
1.0
1040
1.0
1000

1040
0.0
1002
{
1002
}
1040
0.0
1002
{
1002
}
1040
0.0
1002
}
1002
}
1040
1.0
1040
0.0
1040
0.0
1002
}
1002
{
1040
1.0
1040
1.0
1000

1040
0.0
1002
{
1002
}
1040
0.0
1002
{
1002
}
1040
0.0
1002
}
1002
{
1040
0.5
1040
1.0
1000

1040
0.0
1002
{
1002
}
1040
0.0
1002
{
1002
}
1040
0.0
1002
}
1002
{
1070
     0
1040
0.0
1002
{
1002
}
1040
1.0
1002
{
1002
}
1040
0.0
1002
}
1002
{
1040
0.0
1002
{
1002
{
1010
0.0
1020
0.0
1030
0.0
1002
}
1040
1.0
1000

1040
0.0
1002
{
1002
}
1040
0.0
1002
{
1002
}
1040
0.0
1002
}
1002
}
1002
{
1002
{
1070
     1
1002
{
1040
0.0
1040
1.0
1000

1040
0.0
1002
{
1002
}
1040
0.0
1002
{
1002
}
1040
0.0
1002
}
1002
}
1040
0.0
1002
{
1002
}
1010
1.0
1020
0.0
1030
0.0
1010
0.0
1020
1.0
1030
0.0
1010
0.0
1020
0.0
1030
1.0
1070
     0
1002
}
1002
{
1002
{
1040
1.0
1040
1.0
1002
{
1070
     1
1002
{
1040
1.0
1040
1.0
1000

1040
0.0
1002
{
1002
}
1040
0.0
1002
{
1002
}
1040
0.0
1002
}
1002
}
1002
}
1070
     0
1040
0.0
1002
{
1002
}
1002
}
1002
{
1002
}
1002
}
1002
{
1071
        3
1070
     3
1070
     0
1002
{
1070
     2
1070
     0
1070
     0
1040
0.0
1002
}
1070
     0
1070
     2
1002
{
1002
}
1002
}
1002
{
1040
8030.0
1040
190.300003
1040
0.305
1040
228.0
1040
545.0
1040
14.0
1040
17.4
1040
0.456
1002
}
1002
}
  0
ENDBLK
  5
228
100
AcDbEntity
  8
0
100
AcDbBlockEnd
  0
BLOCK
  5
276
100
AcDbEntity
  8
0
100
AcDbBlockBegin
  2
*D5
 70
     1
 10
0.0
 20
0.0
 30
0.0
  3
*D5
  1
AVE_GLOBAL
  0
LINE
  5
277
100
AcDbEntity
  8
0
  6
BYBLOCK
 62
     0
100
AcDbLine
 10
116.799856
 20
76.402949
 30
0.0
 11
116.799856
 21
42.192333
 31
0.0
  0
LINE
  5
278
100
AcDbEntity
  8
0
  6
BYBLOCK
 62
     0
100
AcDbLine
 10
72.849849
 20
79.252957
 30
0.0
 11
72.849849
 21
42.192333
 31
0.0
  0
LINE
  5
279
100
AcDbEntity
  8
0
  6
BYBLOCK
 62
     0
100
AcDbLine
 10
113.799856
 20
42.372333
 30
0.0
 11
75.849849
 21
42.372333
 31
0.0
  0
SOLID
  5
27A
100
AcDbEntity
  8
0
  6
BYBLOCK
 62
     0
100
AcDbTrace
 10
113.799856
 20
42.872333
 30
0.0
 11
113.799856
 21
41.872333
 31
0.0
 12
116.799856
 22
42.372333
 32
0.0
 13
116.799856
 23
42.372333
 33
0.0
  0
SOLID
  5
27B
100
AcDbEntity
  8
0
  6
BYBLOCK
 62
     0
100
AcDbTrace
 10
75.849849
 20
42.872333
 30
0.0
 11
75.849849
 21
41.872333
 31
0.0
 12
72.849849
 22
42.372333
 32
0.0
 13
72.849849
 23
42.372333
 33
0.0
  0
TEXT
  5
27C
100
AcDbEntity
  8
0
  6
BYBLOCK
 62
     0
100
AcDbText
 10
89.46771
 20
43.622333
 30
0.0
 40
2.5
  1
43.95
  7
ROMANS
 72
     1
 11
94.824853
 21
44.872333
 31
0.0
100
AcDbText
 73
     2
  0
POINT
  5
27D
100
AcDbEntity
  8
DEFPOINTS
  6
BYBLOCK
 62
     0
100
AcDbPoint
 10
116.799856
 20
76.465449
 30
0.0
  0
POINT
  5
27E
100
AcDbEntity
  8
DEFPOINTS
  6
BYBLOCK
 62
     0
100
AcDbPoint
 10
72.849849
 20
79.315457
 30
0.0
  0
POINT
  5
27F
100
AcDbEntity
  8
DEFPOINTS
  6
BYBLOCK
 62
     0
100
AcDbPoint
 10
72.849849
 20
42.372333
 30
0.0
  0
ENDBLK
  5
280
100
AcDbEntity
  8
0
100
AcDbBlockEnd
  0
BLOCK
  5
281
100
AcDbEntity
  8
0
100
AcDbBlockBegin
  2
*D6
 70
     1
 10
0.0
 20
0.0
 30
0.0
  3
*D6
  1
AVE_GLOBAL
  0
LINE
  5
282
100
AcDbEntity
  8
0
  6
BYBLOCK
 62
     0
100
AcDbLine
 10
113.24881
 20
74.996927
 30
0.0
 11
143.480578
 21
74.996927
 31
0.0
  0
LINE
  5
283
100
AcDbEntity
  8
0
  6
BYBLOCK
 62
     0
100
AcDbLine
 10
116.162356
 20
221.965449
 30
0.0
 11
143.480578
 21
221.965449
 31
0.0
  0
LINE
  5
284
100
AcDbEntity
  8
0
  6
BYBLOCK
 62
     0
100
AcDbLine
 10
143.300578
 20
77.996927
 30
0.0
 11
143.300578
 21
218.965449
 31
0.0
  0
SOLID
  5
285
100
AcDbEntity
  8
0
  6
BYBLOCK
 62
     0
100
AcDbTrace
 10
142.800578
 20
77.996927
 30
0.0
 11
143.800578
 21
77.996927
 31
0.0
 12
143.300578
 22
74.996927
 32
0.0
 13
143.300578
 23
74.996927
 33
0.0
  0
SOLID
  5
286
100
AcDbEntity
  8
0
  6
BYBLOCK
 62
     0
100
AcDbTrace
 10
142.800578
 20
218.965449
 30
0.0
 11
143.800578
 21
218.965449
 31
0.0
 12
143.300578
 22
221.965449
 32
0.0
 13
143.300578
 23
221.965449
 33
0.0
  0
TEXT
  5
287
100
AcDbEntity
  8
0
  6
BYBLOCK
 62
     0
100
AcDbText
 10
142.050578
 20
141.754998
 30
0.0
 40
2.5
  1
146.97
 50
90.0
  7
ROMANS
 72
     1
 11
140.800578
 21
148.481188
 31
0.0
100
AcDbText
 73
     2
  0
POINT
  5
288
100
AcDbEntity
  8
DEFPOINTS
  6
BYBLOCK
 62
     0
100
AcDbPoint
 10
113.18631
 20
74.996927
 30
0.0
  0
POINT
  5
289
100
AcDbEntity
  8
DEFPOINTS
  6
BYBLOCK
 62
     0
100
AcDbPoint
 10
116.099856
 20
221.965449
 30
0.0
  0
POINT
  5
28A
100
AcDbEntity
  8
DEFPOINTS
  6
BYBLOCK
 62
     0
100
AcDbPoint
 10
143.300578
 20
221.965449
 30
0.0
  0
ENDBLK
  5
28B
100
AcDbEntity
  8
0
100
AcDbBlockEnd
  0
ENDSEC
  0
SECTION
  2
ENTITIES
  0
DIMENSION
  5
3
100
AcDbEntity
  8
COTATION1
100
AcDbDimension
  2
*D6
 10
143.300578
 20
221.965449
 30
0.0
 11
140.800578
 21
148.481188
 31
0.0
  3
SC_STAND
100
AcDbAlignedDimension
 13
113.18631
 23
74.996927
 33
0.0
 14
116.099856
 24
221.965449
 34
0.0
 50
90.0
100
AcDbRotatedDimension
  0
DIMENSION
  5
18
100
AcDbEntity
  8
COTATION1
100
AcDbDimension
  2
*D5
 10
72.849849
 20
42.372333
 30
0.0
 11
94.824853
 21
44.872333
 31
0.0
  3
SC_STAND
100
AcDbAlignedDimension
 13
116.799856
 23
76.465449
 33
0.0
 14
72.849849
 24
79.315457
 34
0.0
100
AcDbRotatedDimension
  0
ARC
  5
25
100
AcDbEntity
  8
ALPHA
100
AcDbCircle
 10
116.899856
 20
186.965449
 30
0.0
 40
0.2
100
AcDbArc
 50
0.0
 51
90.0
  0
ARC
  5
27
100
AcDbEntity
  8
ALPHA
100
AcDbCircle
 10
116.899856
 20
186.565449
 30
0.0
 40
0.2
100
AcDbArc
 50
270.0
 51
0.0
  0
ARC
  5
28
100
AcDbEntity
  8
ALPHA
100
AcDbCircle
 10
116.899856
 20
183.565449
 30
0.0
 40
0.2
100
AcDbArc
 50
270.0
 51
0.0
  0
ARC
  5
29
100
AcDbEntity
  8
ALPHA
100
AcDbCircle
 10
73.349856
 20
91.615449
 30
0.0
 40
0.5
100
AcDbArc
 50
180.0
 51
270.0
  0
ARC
  5
2A
100
AcDbEntity
  8
ALPHA
100
AcDbCircle
 10
77.199856
 20
89.765449
 30
0.0
 40
0.5
100
AcDbArc
 50
180.0
 51
270.0
  0
ARC
  5
2B
100
AcDbEntity
  8
ALPHA
100
AcDbCircle
 10
77.199856
 20
76.965449
 30
0.0
 40
0.5
100
AcDbArc
 50
180.0
 51
270.0
  0
ARC
  5
2C
100
AcDbEntity
  8
ALPHA
100
AcDbCircle
 10
77.199856
 20
188.965449
 30
0.0
 40
0.5
100
AcDbArc
 50
90.0
 51
180.0
  0
ARC
  5
2D
100
AcDbEntity
  8
ALPHA
100
AcDbCircle
 10
77.199856
 20
171.465449
 30
0.0
 40
0.5
100
AcDbArc
 50
90.0
 51
180.0
  0
ARC
  5
2E
100
AcDbEntity
  8
ALPHA
100
AcDbCircle
 10
76.199856
 20
90.615449
 30
0.0
 40
0.5
100
AcDbArc
 50
0.0
 51
90.0
  0
ARC
  5
2F
100
AcDbEntity
  8
ALPHA
100
AcDbCircle
 10
76.199856
 20
77.815449
 30
0.0
 40
0.5
100
AcDbArc
 50
0.0
 51
90.0
  0
ARC
  5
30
100
AcDbEntity
  8
ALPHA
100
AcDbCircle
 10
73.349856
 20
187.115449
 30
0.0
 40
0.5
100
AcDbArc
 50
90.0
 51
180.0
  0
ARC
  5
31
100
AcDbEntity
  8
ALPHA
100
AcDbCircle
 10
76.199856
 20
170.615449
 30
0.0
 40
0.5
100
AcDbArc
 50
270.0
 51
0.0
  0
ARC
  5
32
100
AcDbEntity
  8
ALPHA
100
AcDbCircle
 10
76.199856
 20
188.115449
 30
0.0
 40
0.5
100
AcDbArc
 50
270.0
 51
0.0
  0
ARC
  5
33
100
AcDbEntity
  8
ALPHA
100
AcDbCircle
 10
73.349856
 20
169.615449
 30
0.0
 40
0.5
100
AcDbArc
 50
90.0
 51
180.0
  0
CIRCLE
  5
34
100
AcDbEntity
  8
ALPHA
100
AcDbCircle
 10
107.049856
 20
193.715449
 30
0.0
 40
0.975
  0
CIRCLE
  5
35
100
AcDbEntity
  8
ALPHA
100
AcDbCircle
 10
88.999856
 20
193.715449
 30
0.0
 40
0.975
  0
ARC
  5
36
100
AcDbEntity
  8
ALPHA
100
AcDbCircle
 10
84.299856
 20
221.465449
 30
0.0
 40
0.5
100
AcDbArc
 50
90.0
 51
180.0
  0
ARC
  5
37
100
AcDbEntity
  8
ALPHA
100
AcDbCircle
 10
116.099856
 20
221.465449
 30
0.0
 40
0.5
100
AcDbArc
 50
0.0
 51
90.0
  0
ARC
  5
38
100
AcDbEntity
  8
ALPHA
100
AcDbCircle
 10
100.299856
 20
205.765449
 30
0.0
 40
14.2
100
AcDbArc
 50
167.373774
 51
167.580523
  0
ARC
  5
39
100
AcDbEntity
  8
ALPHA
100
AcDbCircle
 10
112.997662
 20
76.298623
 30
0.0
 40
0.2
100
AcDbArc
 50
359.5
 51
89.5
  0
ARC
  5
3A
100
AcDbEntity
  8
ALPHA
100
AcDbCircle
 10
89.39856
 20
76.504569
 30
0.0
 40
0.2
100
AcDbArc
 50
89.5
 51
179.5
  0
ARC
  5
3B
100
AcDbEntity
  8
ALPHA
100
AcDbCircle
 10
73.449856
 20
159.965449
 30
0.0
 40
2.0
100
AcDbArc
 50
180.0
 51
216.590011
  0
ARC
  5
3C
100
AcDbEntity
  8
ALPHA
100
AcDbCircle
 10
73.449856
 20
159.965449
 30
0.0
 40
3.0
100
AcDbArc
 50
180.0
 51
237.690966
  0
ARC
  5
3D
100
AcDbEntity
  8
ALPHA
100
AcDbCircle
 10
74.799856
 20
78.470449
 30
0.0
 40
0.4
100
AcDbArc
 50
202.892775
 51
270.0
  0
CIRCLE
  5
3E
100
AcDbEntity
  8
ALPHA
100
AcDbCircle
 10
88.999856
 20
193.715449
 30
0.0
 40
0.775
  0
CIRCLE
  5
3F
100
AcDbEntity
  8
ALPHA
100
AcDbCircle
 10
107.049856
 20
193.715449
 30
0.0
 40
0.775
  0
LINE
  5
40
100
AcDbEntity
  8
ALPHA
100
AcDbLine
 10
111.899856
 20
315.965449
 30
0.0
 11
109.399856
 21
315.965449
 31
0.0
  0
LINE
  5
41
100
AcDbEntity
  8
ALPHA
100
AcDbLine
 10
111.899856
 20
314.965449
 30
0.0
 11
109.399856
 21
314.965449
 31
0.0
  0
LINE
  5
42
100
AcDbEntity
  8
ALPHA
100
AcDbLine
 10
109.399856
 20
268.565449
 30
0.0
 11
111.899856
 21
268.565449
 31
0.0
  0
LINE
  5
43
100
AcDbEntity
  8
ALPHA
100
AcDbLine
 10
111.899856
 20
267.565449
 30
0.0
 11
109.399856
 21
267.565449
 31
0.0
  0
LINE
  5
44
100
AcDbEntity
  8
ALPHA
100
AcDbLine
 10
111.899856
 20
266.565449
 30
0.0
 11
109.399856
 21
266.565449
 31
0.0
  0
LINE
  5
45
100
AcDbEntity
  8
ALPHA
100
AcDbLine
 10
111.899856
 20
236.465449
 30
0.0
 11
109.399856
 21
236.465449
 31
0.0
  0
LINE
  5
46
100
AcDbEntity
  8
ALPHA
100
AcDbLine
 10
111.899856
 20
234.465449
 30
0.0
 11
109.399856
 21
234.465449
 31
0.0
  0
LINE
  5
47
100
AcDbEntity
  8
ALPHA
100
AcDbLine
 10
101.962713
 20
103.215449
 30
0.0
 11
100.46277
 21
101.715449
 31
0.0
  0
LINE
  5
48
100
AcDbEntity
  8
ALPHA
100
AcDbLine
 10
116.099856
 20
221.965449
 30
0.0
 11
84.299856
 21
221.965449
 31
0.0
  0
LINE
  5
49
100
AcDbEntity
  8
ALPHA
100
AcDbLine
 10
83.799856
 20
221.465449
 30
0.0
 11
116.599856
 21
221.465449
 31
0.0
  0
LINE
  5
4A
100
AcDbEntity
  8
ALPHA
100
AcDbLine
 10
86.899856
 20
219.065449
 30
0.0
 11
116.599856
 21
219.065449
 31
0.0
  0
LINE
  5
4B
100
AcDbEntity
  8
ALPHA
100
AcDbLine
 10
91.299856
 20
213.815449
 30
0.0
 11
86.899856
 21
213.815449
 31
0.0
  0
LINE
  5
4C
100
AcDbEntity
  8
ALPHA
100
AcDbLine
 10
91.299856
 20
213.765449
 30
0.0
 11
86.899856
 21
213.765449
 31
0.0
  0
LINE
  5
4D
100
AcDbEntity
  8
ALPHA
100
AcDbLine
 10
83.799856
 20
208.865449
 30
0.0
 11
91.299856
 21
208.865449
 31
0.0
  0
LINE
  5
4E
100
AcDbEntity
  8
ALPHA
100
AcDbLine
 10
83.799856
 20
208.815449
 30
0.0
 11
91.299856
 21
208.815449
 31
0.0
  0
LWPOLYLINE
  5
4F
100
AcDbEntity
  8
ALPHA
100
AcDbPolyline
 90
       12
 70
     0
 43
0.0
 10
112.856424
 20
102.465449
 10
112.747919
 20
100.879106
 10
112.424425
 20
99.322313
 10
111.891968
 20
97.824072
 10
111.160467
 20
96.412291
 10
110.24355
 20
95.11327
 10
109.158295
 20
93.951206
 10
107.924921
 20
92.947747
 10
106.566402
 20
92.121585
 10
105.108045
 20
91.488109
 10
103.577017
 20
91.05912
 10
102.001837
 20
90.842609
  0
LWPOLYLINE
  5
5D
100
AcDbEntity
  8
ALPHA
100
AcDbPolyline
 90
       13
 70
     0
 43
0.0
 10
112.799415
 20
102.465449
 10
112.691376
 20
100.885916
 10
112.369272
 20
99.335807
 10
111.839102
 20
97.843997
 10
111.110744
 20
96.438276
 10
110.197765
 20
95.144829
 10
109.117171
 20
93.987752
 10
107.889093
 20
92.988599
 10
106.536408
 20
92.165981
 10
105.084312
 20
91.535223
 10
103.559856
 20
91.108074
 10
101.991438
 20
90.892492
 10
101.199856
 20
90.865544
  0
LINE
  5
6C
100
AcDbEntity
  8
ALPHA
100
AcDbLine
 10
113.18631
 20
74.996927
 30
0.0
 11
113.197654
 21
76.296878
 31
0.0
  0
LINE
  5
6D
100
AcDbEntity
  8
ALPHA
100
AcDbLine
 10
117.199856
 20
173.215777
 30
0.0
 11
117.199856
 21
182.715122
 31
0.0
  0
LINE
  5
6E
100
AcDbEntity
  8
ALPHA
100
AcDbLine
 10
117.199856
 20
116.366532
 30
0.0
 11
117.199856
 21
127.465449
 31
0.0
  0
LINE
  5
6F
100
AcDbEntity
  8
ALPHA
100
AcDbLine
 10
117.199856
 20
78.2163
 30
0.0
 11
117.199856
 21
87.714599
 31
0.0
  0
LINE
  5
70
100
AcDbEntity
  8
ALPHA
100
AcDbLine
 10
117.199856
 20
150.464972
 30
0.0
 11
117.199856
 21
138.465927
 31
0.0
  0
LINE
  5
71
100
AcDbEntity
  8
ALPHA
100
AcDbLine
 10
117.199856
 20
169.464367
 30
0.0
 11
117.199856
 21
163.466532
 31
0.0
  0
LINE
  5
72
100
AcDbEntity
  8
ALPHA
100
AcDbLine
 10
117.099856
 20
137.86545
 30
0.0
 11
117.099856
 21
115.465449
 31
0.0
  0
LINE
  5
73
100
AcDbEntity
  8
ALPHA
100
AcDbLine
 10
117.099856
 20
142.01545
 30
0.0
 11
117.099856
 21
137.965449
 31
0.0
  0
LINE
  5
74
100
AcDbEntity
  8
ALPHA
100
AcDbLine
 10
117.099856
 20
146.965449
 30
0.0
 11
117.099856
 21
142.915449
 31
0.0
  0
LINE
  5
75
100
AcDbEntity
  8
ALPHA
100
AcDbLine
 10
117.099856
 20
170.465449
 30
0.0
 11
117.099856
 21
150.465449
 31
0.0
  0
LINE
  5
76
100
AcDbEntity
  8
ALPHA
100
AcDbLine
 10
117.099856
 20
184.165449
 30
0.0
 11
117.099856
 21
183.565449
 31
0.0
  0
LINE
  5
77
100
AcDbEntity
  8
ALPHA
100
AcDbLine
 10
117.099856
 20
186.965449
 30
0.0
 11
117.099856
 21
186.565449
 31
0.0
  0
LINE
  5
78
100
AcDbEntity
  8
ALPHA
100
AcDbLine
 10
116.799856
 20
76.465449
 30
0.0
 11
116.799856
 21
189.465449
 31
0.0
  0
LINE
  5
79
100
AcDbEntity
  8
ALPHA
100
AcDbLine
 10
116.799856
 20
193.715449
 30
0.0
 11
116.799856
 21
189.965449
 31
0.0
  0
LINE
  5
7A
100
AcDbEntity
  8
ALPHA
100
AcDbLine
 10
116.599856
 20
219.065449
 30
0.0
 11
116.599856
 21
221.465449
 31
0.0
  0
LINE
  5
7B
100
AcDbEntity
  8
ALPHA
100
AcDbLine
 10
116.099856
 20
219.065449
 30
0.0
 11
116.099856
 21
221.965449
 31
0.0
  0
LINE
  5
7C
100
AcDbEntity
  8
ALPHA
100
AcDbLine
 10
114.399856
 20
189.965449
 30
0.0
 11
114.399856
 21
189.444505
 31
0.0
  0
LINE
  5
7D
100
AcDbEntity
  8
ALPHA
100
AcDbLine
 10
116.57863
 20
219.065449
 30
0.0
 11
116.799856
 21
193.715449
 31
0.0
  0
LINE
  5
7E
100
AcDbEntity
  8
ALPHA
100
AcDbLine
 10
115.832544
 20
189.965449
 30
0.0
 11
115.578592
 21
219.065449
 31
0.0
  0
LINE
  5
7F
100
AcDbEntity
  8
ALPHA
100
AcDbLine
 10
83.799856
 20
189.965449
 30
0.0
 11
116.799856
 21
189.965449
 31
0.0
  0
LINE
  5
80
100
AcDbEntity
  8
ALPHA
100
AcDbLine
 10
77.199856
 20
189.465449
 30
0.0
 11
83.199856
 21
189.465449
 31
0.0
  0
LINE
  5
81
100
AcDbEntity
  8
ALPHA
100
AcDbLine
 10
76.699856
 20
187.965449
 30
0.0
 11
83.199856
 21
187.965449
 31
0.0
  0
LINE
  5
82
100
AcDbEntity
  8
ALPHA
100
AcDbLine
 10
73.349856
 20
187.615449
 30
0.0
 11
76.199856
 21
187.615449
 31
0.0
  0
LINE
  5
83
100
AcDbEntity
  8
ALPHA
100
AcDbLine
 10
116.799856
 20
187.165449
 30
0.0
 11
116.899856
 21
187.165449
 31
0.0
  0
LINE
  5
84
100
AcDbEntity
  8
ALPHA
100
AcDbLine
 10
72.849856
 20
186.802749
 30
0.0
 11
72.549856
 21
186.802749
 31
0.0
  0
LINE
  5
85
100
AcDbEntity
  8
ALPHA
100
AcDbLine
 10
72.849856
 20
186.615449
 30
0.0
 11
76.699856
 21
186.615449
 31
0.0
  0
LINE
  5
86
100
AcDbEntity
  8
ALPHA
100
AcDbLine
 10
116.799856
 20
186.365449
 30
0.0
 11
116.899856
 21
186.365449
 31
0.0
  0
LINE
  5
87
100
AcDbEntity
  8
ALPHA
100
AcDbLine
 10
72.849856
 20
186.060008
 30
0.0
 11
72.549856
 21
186.060008
 31
0.0
  0
LINE
  5
88
100
AcDbEntity
  8
ALPHA
100
AcDbLine
 10
72.849856
 20
184.965449
 30
0.0
 11
72.549856
 21
184.965449
 31
0.0
  0
LINE
  5
89
100
AcDbEntity
  8
ALPHA
100
AcDbLine
 10
83.799856
 20
184.665449
 30
0.0
 11
83.199856
 21
184.665449
 31
0.0
  0
LINE
  5
8A
100
AcDbEntity
  8
ALPHA
100
AcDbLine
 10
78.699856
 20
184.465449
 30
0.0
 11
83.199856
 21
184.465449
 31
0.0
  0
LINE
  5
8B
100
AcDbEntity
  8
ALPHA
100
AcDbLine
 10
70.449856
 20
184.215449
 30
0.0
 11
69.449856
 21
184.215449
 31
0.0
  0
LINE
  5
8C
100
AcDbEntity
  8
ALPHA
100
AcDbLine
 10
83.799856
 20
184.165449
 30
0.0
 11
78.699856
 21
184.169056
 31
0.0
  0
LINE
  5
8D
100
AcDbEntity
  8
ALPHA
100
AcDbLine
 10
116.799856
 20
184.165449
 30
0.0
 11
117.099856
 21
184.165449
 31
0.0
  0
LINE
  5
8E
100
AcDbEntity
  8
ALPHA
100
AcDbLine
 10
83.199856
 20
189.172227
 30
0.0
 11
116.799856
 21
189.465449
 31
0.0
  0
LINE
  5
8F
100
AcDbEntity
  8
ALPHA
100
AcDbLine
 10
116.799856
 20
187.965507
 30
0.0
 11
83.199856
 21
187.67217
 31
0.0
  0
LINE
  5
90
100
AcDbEntity
  8
ALPHA
100
AcDbLine
 10
111.899856
 20
234.465449
 30
0.0
 11
111.899856
 21
315.965449
 31
0.0
  0
LINE
  5
91
100
AcDbEntity
  8
ALPHA
100
AcDbLine
 10
109.399856
 20
234.465449
 30
0.0
 11
109.399856
 21
315.965449
 31
0.0
  0
LINE
  5
92
100
AcDbEntity
  8
ALPHA
100
AcDbLine
 10
109.123718
 20
103.215449
 30
0.0
 11
109.123718
 21
101.715449
 31
0.0
  0
LINE
  5
93
100
AcDbEntity
  8
ALPHA
100
AcDbLine
 10
72.849856
 20
184.065449
 30
0.0
 11
72.549856
 21
184.065449
 31
0.0
  0
LINE
  5
94
100
AcDbEntity
  8
ALPHA
100
AcDbLine
 10
71.449856
 20
183.465449
 30
0.0
 11
70.449856
 21
183.465449
 31
0.0
  0
LINE
  5
95
100
AcDbEntity
  8
ALPHA
100
AcDbLine
 10
72.849856
 20
183.465449
 30
0.0
 11
71.849856
 21
183.465449
 31
0.0
  0
LINE
  5
96
100
AcDbEntity
  8
ALPHA
100
AcDbLine
 10
116.799856
 20
183.365449
 30
0.0
 11
116.899856
 21
183.365449
 31
0.0
  0
LINE
  5
97
100
AcDbEntity
  8
ALPHA
100
AcDbLine
 10
117.199856
 20
182.715449
 30
0.0
 11
116.799856
 21
182.715449
 31
0.0
  0
LINE
  5
98
100
AcDbEntity
  8
ALPHA
100
AcDbLine
 10
78.699856
 20
182.669122
 30
0.0
 11
83.799856
 21
182.665449
 31
0.0
  0
LINE
  5
99
100
AcDbEntity
  8
ALPHA
100
AcDbLine
 10
71.849856
 20
180.315449
 30
0.0
 11
71.449856
 21
180.315449
 31
0.0
  0
LINE
  5
9A
100
AcDbEntity
  8
ALPHA
100
AcDbLine
 10
83.799856
 20
176.965449
 30
0.0
 11
76.699856
 21
176.965449
 31
0.0
  0
LWPOLYLINE
  5
9B
100
AcDbEntity
  8
ALPHA
100
AcDbPolyline
 90
       22
 70
     0
 43
0.0
 10
90.087189
 20
102.465449
 10
90.211162
 20
104.119819
 10
90.580312
 20
105.737232
 10
91.186393
 20
107.281559
 10
92.015865
 20
108.718302
 10
93.050201
 20
110.015367
 10
94.266293
 20
111.143779
 10
95.636978
 20
112.078331
 10
97.131636
 20
112.798148
 10
98.716878
 20
113.287149
 10
100.357294
 20
113.534412
 10
102.016239
 20
113.534412
 10
103.656655
 20
113.287149
 10
105.241898
 20
112.798148
 10
106.736555
 20
112.078331
 10
108.10724
 20
111.143779
 10
109.323333
 20
110.015367
 10
110.357668
 20
108.718302
 10
111.18714
 20
107.281559
 10
111.793221
 20
105.737232
 10
112.162371
 20
104.119819
 10
112.286344
 20
102.465449
  0
LWPOLYLINE
  5
B3
100
AcDbEntity
  8
ALPHA
100
AcDbPolyline
 90
       12
 70
     0
 43
0.0
 10
89.591572
 20
102.465449
 10
89.709638
 20
104.116302
 10
90.061435
 20
105.733547
 10
90.6398
 20
107.284264
 10
91.43296
 20
108.736883
 10
92.424769
 20
110.061834
 10
93.595035
 20
111.232145
 10
94.919935
 20
112.22399
 10
96.372499
 20
113.017181
 10
97.923157
 20
113.595568
 10
99.540341
 20
113.947378
 10
101.19113
 20
114.065449
  0
LWPOLYLINE
  5
C1
100
AcDbEntity
  8
ALPHA
100
AcDbPolyline
 90
       12
 70
     0
 43
0.0
 10
89.557251
 20
102.465449
 10
89.665756
 20
104.051793
 10
89.98925
 20
105.608586
 10
90.521707
 20
107.106827
 10
91.253208
 20
108.518608
 10
92.170126
 20
109.817629
 10
93.25538
 20
110.979693
 10
94.488754
 20
111.983152
 10
95.847273
 20
112.809314
 10
97.30563
 20
113.44279
 10
98.836658
 20
113.871779
 10
100.411838
 20
114.08829
  0
LWPOLYLINE
  5
CF
100
AcDbEntity
  8
ALPHA
100
AcDbPolyline
 90
        3
 70
     0
 43
0.0
 10
100.436795
 20
94.528196
 10
100.445233
 20
95.782581
 10
100.46277
 20
101.715449
  0
LINE
  5
D4
100
AcDbEntity
  8
ALPHA
100
AcDbLine
 10
101.962713
 20
103.215449
 30
0.0
 11
101.962713
 21
101.715449
 31
0.0
  0
LINE
  5
D5
100
AcDbEntity
  8
ALPHA
100
AcDbLine
 10
101.936738
 20
103.215449
 30
0.0
 11
101.936738
 21
110.402703
 31
0.0
  0
LINE
  5
D6
100
AcDbEntity
  8
ALPHA
100
AcDbLine
 10
101.936738
 20
94.528196
 30
0.0
 11
101.936738
 21
101.715449
 31
0.0
  0
LINE
  5
D7
100
AcDbEntity
  8
ALPHA
100
AcDbLine
 10
100.45744
 20
106.315135
 30
0.0
 11
100.46277
 21
101.715449
 31
0.0
  0
LINE
  5
D8
100
AcDbEntity
  8
ALPHA
100
AcDbLine
 10
100.436795
 20
103.215449
 30
0.0
 11
100.436795
 21
110.402703
 31
0.0
  0
LINE
  5
D9
100
AcDbEntity
  8
ALPHA
100
AcDbLine
 10
100.436795
 20
94.528196
 30
0.0
 11
100.436795
 21
101.715449
 31
0.0
  0
LINE
  5
DA
100
AcDbEntity
  8
ALPHA
100
AcDbLine
 10
100.45744
 20
106.315135
 30
0.0
 11
100.436795
 21
110.402703
 31
0.0
  0
LINE
  5
DB
100
AcDbEntity
  8
ALPHA
100
AcDbLine
 10
117.199856
 20
173.215449
 30
0.0
 11
116.799856
 21
173.215449
 31
0.0
  0
LINE
  5
DC
100
AcDbEntity
  8
ALPHA
100
AcDbLine
 10
83.799856
 20
171.965449
 30
0.0
 11
77.199856
 21
171.965449
 31
0.0
  0
LINE
  5
DD
100
AcDbEntity
  8
ALPHA
100
AcDbLine
 10
72.849856
 20
170.615449
 30
0.0
 11
76.699856
 21
170.615449
 31
0.0
  0
LINE
  5
DE
100
AcDbEntity
  8
ALPHA
100
AcDbLine
 10
83.799856
 20
170.465449
 30
0.0
 11
76.699856
 21
170.465449
 31
0.0
  0
LINE
  5
DF
100
AcDbEntity
  8
ALPHA
100
AcDbLine
 10
116.799856
 20
170.465449
 30
0.0
 11
117.099856
 21
170.465449
 31
0.0
  0
LINE
  5
E0
100
AcDbEntity
  8
ALPHA
100
AcDbLine
 10
76.199856
 20
170.115449
 30
0.0
 11
73.349856
 21
170.115449
 31
0.0
  0
LINE
  5
E1
100
AcDbEntity
  8
ALPHA
100
AcDbLine
 10
117.099856
 20
169.465449
 30
0.0
 11
117.199856
 21
169.465449
 31
0.0
  0
LINE
  5
E2
100
AcDbEntity
  8
ALPHA
100
AcDbLine
 10
72.849856
 20
169.115449
 30
0.0
 11
76.699856
 21
169.115449
 31
0.0
  0
LINE
  5
E3
100
AcDbEntity
  8
ALPHA
100
AcDbLine
 10
72.849856
 20
169.065449
 30
0.0
 11
72.549856
 21
169.065449
 31
0.0
  0
LINE
  5
E4
100
AcDbEntity
  8
ALPHA
100
AcDbLine
 10
89.187223
 20
75.206364
 30
0.0
 11
89.198568
 21
76.506315
 31
0.0
  0
LINE
  5
E5
100
AcDbEntity
  8
ALPHA
100
AcDbLine
 10
93.249815
 20
103.215449
 30
0.0
 11
93.249815
 21
101.715449
 31
0.0
  0
LINE
  5
E6
100
AcDbEntity
  8
ALPHA
100
AcDbLine
 10
91.299856
 20
208.815449
 30
0.0
 11
91.299856
 21
213.815449
 31
0.0
  0
LINE
  5
E7
100
AcDbEntity
  8
ALPHA
100
AcDbLine
 10
86.899856
 20
219.065449
 30
0.0
 11
86.899856
 21
213.765449
 31
0.0
  0
LINE
  5
E8
100
AcDbEntity
  8
ALPHA
100
AcDbLine
 10
86.199856
 20
189.965449
 30
0.0
 11
86.199856
 21
189.198407
 31
0.0
  0
LINE
  5
E9
100
AcDbEntity
  8
ALPHA
100
AcDbLine
 10
84.799856
 20
189.965449
 30
0.0
 11
84.799856
 21
208.815449
 31
0.0
  0
LWPOLYLINE
  5
EA
100
AcDbEntity
  8
ALPHA
100
AcDbPolyline
 90
       22
 70
     0
 43
0.0
 10
90.087189
 20
102.465449
 10
90.211162
 20
100.81108
 10
90.580312
 20
99.193667
 10
91.186393
 20
97.64934
 10
92.015865
 20
96.212597
 10
93.050201
 20
94.915532
 10
94.266293
 20
93.78712
 10
95.636978
 20
92.852567
 10
97.131636
 20
92.132751
 10
98.716878
 20
91.64375
 10
100.357294
 20
91.396487
 10
102.016239
 20
91.396487
 10
103.656655
 20
91.64375
 10
105.241898
 20
92.132751
 10
106.736555
 20
92.852567
 10
108.10724
 20
93.78712
 10
109.323333
 20
94.915532
 10
110.357668
 20
96.212597
 10
111.18714
 20
97.64934
 10
111.793221
 20
99.193667
 10
112.162371
 20
100.81108
 10
112.286344
 20
102.465449
  0
LINE
  5
102
100
AcDbEntity
  8
ALPHA
100
AcDbLine
 10
71.849856
 20
163.615449
 30
0.0
 11
71.449856
 21
163.615449
 31
0.0
  0
LINE
  5
103
100
AcDbEntity
  8
ALPHA
100
AcDbLine
 10
117.099856
 20
163.465449
 30
0.0
 11
117.199856
 21
163.465449
 31
0.0
  0
LINE
  5
104
100
AcDbEntity
  8
ALPHA
100
AcDbLine
 10
72.549856
 20
161.221149
 30
0.0
 11
71.849856
 21
161.221149
 31
0.0
  0
LINE
  5
105
100
AcDbEntity
  8
ALPHA
100
AcDbLine
 10
71.449856
 20
160.640698
 30
0.0
 11
70.449856
 21
160.640698
 31
0.0
  0
LINE
  5
106
100
AcDbEntity
  8
ALPHA
100
AcDbLine
 10
70.449856
 20
159.715449
 30
0.0
 11
69.449856
 21
159.715449
 31
0.0
  0
LINE
  5
107
100
AcDbEntity
  8
ALPHA
100
AcDbLine
 10
84.299856
 20
208.865449
 30
0.0
 11
84.299856
 21
221.965449
 31
0.0
  0
LINE
  5
108
100
AcDbEntity
  8
ALPHA
100
AcDbLine
 10
83.799856
 20
189.965449
 30
0.0
 11
83.799856
 21
208.815449
 31
0.0
  0
LINE
  5
109
100
AcDbEntity
  8
ALPHA
100
AcDbLine
 10
83.799856
 20
170.465449
 30
0.0
 11
83.799856
 21
189.177463
 31
0.0
  0
LINE
  5
10A
100
AcDbEntity
  8
ALPHA
100
AcDbLine
 10
83.799856
 20
76.753436
 30
0.0
 11
83.799856
 21
90.765449
 31
0.0
  0
LINE
  5
10B
100
AcDbEntity
  8
ALPHA
100
AcDbLine
 10
83.799856
 20
221.465449
 30
0.0
 11
83.799856
 21
208.865449
 31
0.0
  0
LINE
  5
10C
100
AcDbEntity
  8
ALPHA
100
AcDbLine
 10
83.199856
 20
184.465449
 30
0.0
 11
83.199856
 21
189.465449
 31
0.0
  0
LINE
  5
10D
100
AcDbEntity
  8
ALPHA
100
AcDbLine
 10
80.199856
 20
76.465752
 30
0.0
 11
80.199856
 21
184.454521
 31
0.0
  0
LINE
  5
10E
100
AcDbEntity
  8
ALPHA
100
AcDbLine
 10
78.699856
 20
76.465449
 30
0.0
 11
78.699856
 21
184.465449
 31
0.0
  0
LINE
  5
10F
100
AcDbEntity
  8
ALPHA
100
AcDbLine
 10
77.199856
 20
76.465449
 30
0.0
 11
77.199856
 21
189.465449
 31
0.0
  0
LINE
  5
110
100
AcDbEntity
  8
ALPHA
100
AcDbLine
 10
76.699856
 20
76.965449
 30
0.0
 11
76.699856
 21
188.965449
 31
0.0
  0
LINE
  5
111
100
AcDbEntity
  8
ALPHA
100
AcDbLine
 10
76.199856
 20
78.315449
 30
0.0
 11
76.199856
 21
187.615449
 31
0.0
  0
LWPOLYLINE
  5
112
100
AcDbEntity
  8
ALPHA
100
AcDbPolyline
 90
       12
 70
     0
 43
0.0
 10
89.591572
 20
102.465449
 10
89.709638
 20
100.814597
 10
90.061435
 20
99.197352
 10
90.6398
 20
97.646635
 10
91.43296
 20
96.194016
 10
92.424769
 20
94.869065
 10
93.595035
 20
93.698754
 10
94.919935
 20
92.706908
 10
96.372499
 20
91.913718
 10
97.923157
 20
91.335331
 10
99.540341
 20
90.983521
 10
101.19113
 20
90.865449
  0
LINE
  5
120
100
AcDbEntity
  8
ALPHA
100
AcDbLine
 10
69.449856
 20
159.715449
 30
0.0
 11
68.949856
 21
160.215449
 31
0.0
  0
LINE
  5
121
100
AcDbEntity
  8
ALPHA
100
AcDbLine
 10
72.549856
 20
154.465449
 30
0.0
 11
71.849856
 21
154.465449
 31
0.0
  0
LINE
  5
122
100
AcDbEntity
  8
ALPHA
100
AcDbLine
 10
116.799856
 20
150.465449
 30
0.0
 11
117.199856
 21
150.465449
 31
0.0
  0
LINE
  5
123
100
AcDbEntity
  8
ALPHA
100
AcDbLine
 10
116.799856
 20
146.965449
 30
0.0
 11
117.099856
 21
146.965449
 31
0.0
  0
LINE
  5
124
100
AcDbEntity
  8
ALPHA
100
AcDbLine
 10
116.799856
 20
146.740449
 30
0.0
 11
117.099856
 21
146.740449
 31
0.0
  0
LINE
  5
125
100
AcDbEntity
  8
ALPHA
100
AcDbLine
 10
72.849856
 20
186.615449
 30
0.0
 11
73.849856
 21
187.615449
 31
0.0
  0
LINE
  5
126
100
AcDbEntity
  8
ALPHA
100
AcDbLine
 10
69.449856
 20
184.215449
 30
0.0
 11
68.949856
 21
183.715449
 31
0.0
  0
LINE
  5
127
100
AcDbEntity
  8
ALPHA
100
AcDbLine
 10
74.799856
 20
78.315449
 30
0.0
 11
74.799856
 21
78.070449
 31
0.0
  0
LINE
  5
128
100
AcDbEntity
  8
ALPHA
100
AcDbLine
 10
73.349856
 20
78.815449
 30
0.0
 11
73.349856
 21
187.115449
 31
0.0
  0
LINE
  5
129
100
AcDbEntity
  8
ALPHA
100
AcDbLine
 10
72.849856
 20
79.315449
 30
0.0
 11
72.849856
 21
187.115449
 31
0.0
  0
LINE
  5
12A
100
AcDbEntity
  8
ALPHA
100
AcDbLine
 10
72.549856
 20
184.965449
 30
0.0
 11
72.549856
 21
186.802749
 31
0.0
  0
LINE
  5
12B
100
AcDbEntity
  8
ALPHA
100
AcDbLine
 10
72.549856
 20
183.465449
 30
0.0
 11
72.549856
 21
184.065449
 31
0.0
  0
LINE
  5
12C
100
AcDbEntity
  8
ALPHA
100
AcDbLine
 10
72.549856
 20
92.165449
 30
0.0
 11
72.549856
 21
169.065449
 31
0.0
  0
LINE
  5
12D
100
AcDbEntity
  8
ALPHA
100
AcDbLine
 10
71.849856
 20
154.465449
 30
0.0
 11
71.849856
 21
183.464969
 31
0.0
  0
LINE
  5
12E
100
AcDbEntity
  8
ALPHA
100
AcDbLine
 10
71.449856
 20
159.965449
 30
0.0
 11
71.449856
 21
183.465449
 31
0.0
  0
LINE
  5
12F
100
AcDbEntity
  8
ALPHA
100
AcDbLine
 10
70.449856
 20
159.715549
 30
0.0
 11
70.449856
 21
184.21535
 31
0.0
  0
LINE
  5
130
100
AcDbEntity
  8
ALPHA
100
AcDbLine
 10
69.449856
 20
159.715449
 30
0.0
 11
69.449856
 21
184.215449
 31
0.0
  0
LINE
  5
131
100
AcDbEntity
  8
ALPHA
100
AcDbLine
 10
68.949856
 20
160.215587
 30
0.0
 11
68.949856
 21
183.715312
 31
0.0
  0
LINE
  5
132
100
AcDbEntity
  8
ALPHA
100
AcDbLine
 10
116.799856
 20
142.915449
 30
0.0
 11
117.099856
 21
142.915449
 31
0.0
  0
LINE
  5
133
100
AcDbEntity
  8
ALPHA
100
AcDbLine
 10
116.799856
 20
142.01545
 30
0.0
 11
117.099856
 21
142.01545
 31
0.0
  0
LINE
  5
134
100
AcDbEntity
  8
ALPHA
100
AcDbLine
 10
116.799856
 20
141.902949
 30
0.0
 11
117.099856
 21
141.902949
 31
0.0
  0
LINE
  5
135
100
AcDbEntity
  8
ALPHA
100
AcDbLine
 10
116.799856
 20
141.677949
 30
0.0
 11
117.099856
 21
141.677949
 31
0.0
  0
LINE
  5
136
100
AcDbEntity
  8
ALPHA
100
AcDbLine
 10
116.799856
 20
141.340449
 30
0.0
 11
117.099856
 21
141.340449
 31
0.0
  0
LINE
  5
137
100
AcDbEntity
  8
ALPHA
100
AcDbLine
 10
116.799856
 20
140.777949
 30
0.0
 11
117.099856
 21
140.777949
 31
0.0
  0
LINE
  5
138
100
AcDbEntity
  8
ALPHA
100
AcDbLine
 10
116.799856
 20
140.215449
 30
0.0
 11
117.099856
 21
140.215449
 31
0.0
  0
LINE
  5
139
100
AcDbEntity
  8
ALPHA
100
AcDbLine
 10
116.799856
 20
139.652949
 30
0.0
 11
117.099856
 21
139.652949
 31
0.0
  0
LINE
  5
13A
100
AcDbEntity
  8
ALPHA
100
AcDbLine
 10
116.799856
 20
139.090449
 30
0.0
 11
117.099856
 21
139.090449
 31
0.0
  0
LINE
  5
13B
100
AcDbEntity
  8
ALPHA
100
AcDbLine
 10
116.799856
 20
138.527949
 30
0.0
 11
117.099856
 21
138.527949
 31
0.0
  0
LINE
  5
13C
100
AcDbEntity
  8
ALPHA
100
AcDbLine
 10
117.099856
 20
138.465449
 30
0.0
 11
117.199856
 21
138.465449
 31
0.0
  0
LINE
  5
13D
100
AcDbEntity
  8
ALPHA
100
AcDbLine
 10
116.799856
 20
138.190449
 30
0.0
 11
117.099856
 21
138.190449
 31
0.0
  0
LINE
  5
13E
100
AcDbEntity
  8
ALPHA
100
AcDbLine
 10
116.799856
 20
137.965449
 30
0.0
 11
117.099856
 21
137.965449
 31
0.0
  0
LINE
  5
13F
100
AcDbEntity
  8
ALPHA
100
AcDbLine
 10
116.799856
 20
137.86545
 30
0.0
 11
117.099856
 21
137.86545
 31
0.0
  0
LINE
  5
140
100
AcDbEntity
  8
ALPHA
100
AcDbLine
 10
116.799856
 20
137.67396
 30
0.0
 11
117.099856
 21
137.67396
 31
0.0
  0
LINE
  5
141
100
AcDbEntity
  8
ALPHA
100
AcDbLine
 10
116.799856
 20
137.099492
 30
0.0
 11
117.099856
 21
137.099492
 31
0.0
  0
LINE
  5
142
100
AcDbEntity
  8
ALPHA
100
AcDbLine
 10
116.799856
 20
136.525024
 30
0.0
 11
117.099856
 21
136.525024
 31
0.0
  0
LINE
  5
143
100
AcDbEntity
  8
ALPHA
100
AcDbLine
 10
101.962713
 20
101.715449
 30
0.0
 11
100.46277
 21
103.215449
 31
0.0
  0
LINE
  5
144
100
AcDbEntity
  8
ALPHA
100
AcDbLine
 10
116.799856
 20
135.567577
 30
0.0
 11
117.099856
 21
135.567577
 31
0.0
  0
LINE
  5
145
100
AcDbEntity
  8
ALPHA
100
AcDbLine
 10
116.799856
 20
135.465449
 30
0.0
 11
117.099856
 21
135.465449
 31
0.0
  0
LINE
  5
146
100
AcDbEntity
  8
ALPHA
100
AcDbLine
 10
117.099856
 20
127.465449
 30
0.0
 11
117.199856
 21
127.465449
 31
0.0
  0
LINE
  5
147
100
AcDbEntity
  8
ALPHA
100
AcDbLine
 10
117.199856
 20
122.365449
 30
0.0
 11
117.099856
 21
122.365449
 31
0.0
  0
LWPOLYLINE
  5
148
100
AcDbEntity
  8
ALPHA
100
AcDbPolyline
 90
       12
 70
     0
 43
0.0
 10
101.19113
 20
114.065449
 10
102.841919
 20
113.947378
 10
104.459103
 20
113.595568
 10
106.00976
 20
113.017181
 10
107.462325
 20
112.22399
 10
108.787225
 20
111.232145
 10
109.957491
 20
110.061834
 10
110.949299
 20
108.736883
 10
111.742459
 20
107.284264
 10
112.320825
 20
105.733547
 10
112.672621
 20
104.116302
 10
112.790688
 20
102.465449
  0
LWPOLYLINE
  5
156
100
AcDbEntity
  8
ALPHA
100
AcDbPolyline
 90
       13
 70
     0
 43
0.0
 10
101.199856
 20
114.065355
 10
101.991438
 20
114.038407
 10
103.559856
 20
113.822825
 10
105.084312
 20
113.395676
 10
106.536408
 20
112.764918
 10
107.889093
 20
111.9423
 10
109.117171
 20
110.943147
 10
110.197765
 20
109.78607
 10
111.110744
 20
108.492623
 10
111.839102
 20
107.086902
 10
112.369272
 20
105.595092
 10
112.691376
 20
104.044983
 10
112.799415
 20
102.465449
  0
LINE
  5
165
100
AcDbEntity
  8
ALPHA
100
AcDbLine
 10
117.199856
 20
116.365449
 30
0.0
 11
117.099856
 21
116.365449
 31
0.0
  0
LINE
  5
166
100
AcDbEntity
  8
ALPHA
100
AcDbLine
 10
116.799856
 20
115.465449
 30
0.0
 11
117.099856
 21
115.465449
 31
0.0
  0
LWPOLYLINE
  5
167
100
AcDbEntity
  8
ALPHA
100
AcDbPolyline
 90
       13
 70
     0
 43
0.0
 10
100.411838
 20
114.08829
 10
102.001828
 20
114.088291
 10
103.577008
 20
113.871781
 10
105.108038
 20
113.442792
 10
106.566396
 20
112.809317
 10
107.924916
 20
111.983155
 10
109.158292
 20
110.979696
 10
110.243547
 20
109.817632
 10
111.160466
 20
108.51861
 10
111.891968
 20
107.106829
 10
112.424425
 20
105.608587
 10
112.747919
 20
104.051793
 10
112.856424
 20
102.465449
  0
LINE
  5
176
100
AcDbEntity
  8
ALPHA
100
AcDbLine
 10
100.436795
 20
110.402703
 30
0.0
 11
101.936738
 21
110.402703
 31
0.0
  0
LINE
  5
177
100
AcDbEntity
  8
ALPHA
100
AcDbLine
 10
93.249815
 20
103.215449
 30
0.0
 11
109.123718
 21
103.215449
 31
0.0
  0
LINE
  5
178
100
AcDbEntity
  8
ALPHA
100
AcDbLine
 10
93.249815
 20
101.715449
 30
0.0
 11
109.123718
 21
101.715449
 31
0.0
  0
LINE
  5
179
100
AcDbEntity
  8
ALPHA
100
AcDbLine
 10
72.849849
 20
79.315457
 30
0.0
 11
73.849867
 21
78.315438
 31
0.0
  0
LINE
  5
17A
100
AcDbEntity
  8
ALPHA
100
AcDbLine
 10
100.436795
 20
94.528196
 30
0.0
 11
101.936738
 21
94.528196
 31
0.0
  0
LINE
  5
17B
100
AcDbEntity
  8
ALPHA
100
AcDbLine
 10
72.849856
 20
92.165449
 30
0.0
 11
72.549856
 21
92.165449
 31
0.0
  0
LINE
  5
17C
100
AcDbEntity
  8
ALPHA
100
AcDbLine
 10
72.849856
 20
92.115449
 30
0.0
 11
76.699856
 21
92.115449
 31
0.0
  0
LINE
  5
17D
100
AcDbEntity
  8
ALPHA
100
AcDbLine
 10
76.199856
 20
91.115449
 30
0.0
 11
73.349856
 21
91.115449
 31
0.0
  0
LWPOLYLINE
  5
17E
100
AcDbEntity
  8
ALPHA
100
AcDbPolyline
 90
       13
 70
     0
 43
0.0
 10
102.001837
 20
90.842609
 10
100.411847
 20
90.842608
 10
98.836667
 20
91.059118
 10
97.305637
 20
91.488107
 10
95.847279
 20
92.121582
 10
94.488759
 20
92.947744
 10
93.255383
 20
93.951203
 10
92.170128
 20
95.113267
 10
91.253209
 20
96.412289
 10
90.521708
 20
97.82407
 10
89.98925
 20
99.322312
 10
89.665756
 20
100.879106
 10
89.557251
 20
102.465449
  0
LINE
  5
18D
100
AcDbEntity
  8
ALPHA
100
AcDbLine
 10
83.799856
 20
90.765449
 30
0.0
 11
76.699856
 21
90.765449
 31
0.0
  0
LINE
  5
18E
100
AcDbEntity
  8
ALPHA
100
AcDbLine
 10
72.849856
 20
90.615449
 30
0.0
 11
76.699856
 21
90.615449
 31
0.0
  0
LINE
  5
18F
100
AcDbEntity
  8
ALPHA
100
AcDbLine
 10
83.799856
 20
89.265449
 30
0.0
 11
77.199856
 21
89.265449
 31
0.0
  0
LINE
  5
190
100
AcDbEntity
  8
ALPHA
100
AcDbLine
 10
117.199856
 20
87.715449
 30
0.0
 11
116.799856
 21
87.715449
 31
0.0
  0
LWPOLYLINE
  5
191
100
AcDbEntity
  8
ALPHA
100
AcDbPolyline
 90
       12
 70
     0
 43
0.0
 10
101.19113
 20
90.865449
 10
102.841919
 20
90.983521
 10
104.459103
 20
91.335331
 10
106.00976
 20
91.913718
 10
107.462325
 20
92.706908
 10
108.787225
 20
93.698754
 10
109.957491
 20
94.869065
 10
110.949299
 20
96.194016
 10
111.742459
 20
97.646635
 10
112.320825
 20
99.197352
 10
112.672621
 20
100.814597
 10
112.790688
 20
102.465449
  0
LINE
  5
19F
100
AcDbEntity
  8
ALPHA
100
AcDbLine
 10
80.199856
 20
78.28491
 30
0.0
 11
116.799856
 21
77.965392
 31
0.0
  0
LINE
  5
1A0
100
AcDbEntity
  8
ALPHA
100
AcDbLine
 10
83.799856
 20
84.265449
 30
0.0
 11
76.699856
 21
84.265449
 31
0.0
  0
LINE
  5
1A1
100
AcDbEntity
  8
ALPHA
100
AcDbLine
 10
72.849857
 20
79.315449
 30
0.0
 11
76.699856
 21
79.315449
 31
0.0
  0
LINE
  5
1A2
100
AcDbEntity
  8
ALPHA
100
AcDbLine
 10
76.199856
 20
78.315449
 30
0.0
 11
73.849856
 21
78.315449
 31
0.0
  0
LINE
  5
1A3
100
AcDbEntity
  8
ALPHA
100
AcDbLine
 10
117.199856
 20
78.215449
 30
0.0
 11
116.799856
 21
78.215449
 31
0.0
  0
LINE
  5
1A4
100
AcDbEntity
  8
ALPHA
100
AcDbLine
 10
74.799856
 20
78.070449
 30
0.0
 11
76.619261
 21
78.070449
 31
0.0
  0
LINE
  5
1A5
100
AcDbEntity
  8
ALPHA
100
AcDbLine
 10
80.199856
 20
77.969122
 30
0.0
 11
76.699856
 21
77.965449
 31
0.0
  0
LINE
  5
1A6
100
AcDbEntity
  8
ALPHA
100
AcDbLine
 10
80.199856
 20
76.784853
 30
0.0
 11
116.799856
 21
76.465449
 31
0.0
  0
LINE
  5
1A7
100
AcDbEntity
  8
ALPHA
100
AcDbLine
 10
89.198568
 20
76.506315
 30
0.0
 11
113.197654
 21
76.296878
 31
0.0
  0
LINE
  5
1A8
100
AcDbEntity
  8
ALPHA
100
AcDbLine
 10
89.187223
 20
75.206364
 30
0.0
 11
113.18631
 21
74.996927
 31
0.0
  0
LINE
  5
1A9
100
AcDbEntity
  8
ALPHA
100
AcDbLine
 10
77.199856
 20
76.465449
 30
0.0
 11
80.199856
 21
76.465752
 31
0.0
  0
INSERT
  5
229
100
AcDbEntity
  8
0
100
AcDbBlockReference
  2
SCH_ISO
 10
0.0
 20
0.0
 30
0.0
  0
ENDSEC
  0
SECTION
  2
OBJECTS
  0
DICTIONARY
  5
297
100
AcDbDictionary
  3
ACAD_GROUP
350
298
  3
ACAD_MLINESTYLE
350
2A5
  3
ACDBVARIABLEDICTIONARY
350
2E7
  0
DICTIONARY
  5
298
102
{ACAD_REACTORS
330
297
102
}
100
AcDbDictionary
  0
DICTIONARY
  5
2A5
102
{ACAD_REACTORS
330
297
102
}
100
AcDbDictionary
  3
STANDARD
350
2A6
  0
DICTIONARY
  5
2E7
102
{ACAD_REACTORS
330
297
102
}
100
AcDbDictionary
  3
DIMADEC
350
2E8
  0
MLINESTYLE
  5
2A6
102
{ACAD_REACTORS
330
2A5
102
}
100
AcDbMlineStyle
  2
STANDARD
 70
     0
  3

 62
   256
 51
90.0
 52
90.0
 71
     2
 49
0.5
 62
   256
  6
BYLAYER
 49
-0.5
 62
   256
  6
BYLAYER
  0
DICTIONARYVAR
  5
2E8
102
{ACAD_REACTORS
330
2E7
102
}
100
DictionaryVariables
280
     0
  1
0
  0
ENDSEC
  0
EOF
