  0
SECTION
  2
HEADER
  9
$ACADVER
  1
AC1012
  9
$DWGCODEPAGE
  3
ANSI_1252
  9
$INSBASE
 10
0.0
 20
0.0
 30
0.0
  9
$EXTMIN
 10
39.828884
 20
43.450562
 30
-0.001526
  9
$EXTMAX
 10
151.833576
 20
239.265771
 30
0.0
  9
$LIMMIN
 10
20.927405
 20
54.60373
  9
$LIMMAX
 10
116.489703
 20
235.280901
  9
$ORTHOMODE
 70
     1
  9
$REGENMODE
 70
     1
  9
$FILLMODE
 70
     1
  9
$QTEXTMODE
 70
     0
  9
$MIRRTEXT
 70
     1
  9
$DRAGMODE
 70
     2
  9
$LTSCALE
 40
10.0
  9
$OSMODE
 70
    37
  9
$ATTMODE
 70
     1
  9
$TEXTSIZE
 40
0.2
  9
$TRACEWID
 40
0.05
  9
$TEXTSTYLE
  7
STANDARD
  9
$CLAYER
  8
COTATION1
  9
$CELTYPE
  6
CONTINUOUS
  9
$CECOLOR
 62
   256
  9
$CELTSCALE
 40
1.0
  9
$DELOBJ
 70
     1
  9
$DISPSILH
 70
     0
  9
$DIMSCALE
 40
1.0
  9
$DIMASZ
 40
0.18
  9
$DIMEXO
 40
0.0625
  9
$DIMDLI
 40
0.38
  9
$DIMRND
 40
0.0
  9
$DIMDLE
 40
0.0
  9
$DIMEXE
 40
0.18
  9
$DIMTP
 40
0.0
  9
$DIMTM
 40
0.0
  9
$DIMTXT
 40
0.18
  9
$DIMCEN
 40
0.09
  9
$DIMTSZ
 40
0.0
  9
$DIMTOL
 70
     0
  9
$DIMLIM
 70
     0
  9
$DIMTIH
 70
     1
  9
$DIMTOH
 70
     1
  9
$DIMSE1
 70
     0
  9
$DIMSE2
 70
     0
  9
$DIMTAD
 70
     0
  9
$DIMZIN
 70
     0
  9
$DIMBLK
  1

  9
$DIMASO
 70
     1
  9
$DIMSHO
 70
     1
  9
$DIMPOST
  1

  9
$DIMAPOST
  1

  9
$DIMALT
 70
     0
  9
$DIMALTD
 70
     2
  9
$DIMALTF
 40
25.4
  9
$DIMLFAC
 40
1.0
  9
$DIMTOFL
 70
     0
  9
$DIMTVP
 40
0.0
  9
$DIMTIX
 70
     0
  9
$DIMSOXD
 70
     0
  9
$DIMSAH
 70
     0
  9
$DIMBLK1
  1

  9
$DIMBLK2
  1

  9
$DIMSTYLE
  2
STANDARD
  9
$DIMCLRD
 70
     0
  9
$DIMCLRE
 70
     0
  9
$DIMCLRT
 70
     0
  9
$DIMTFAC
 40
1.0
  9
$DIMGAP
 40
0.09
  9
$DIMJUST
 70
     0
  9
$DIMSD1
 70
     0
  9
$DIMSD2
 70
     0
  9
$DIMTOLJ
 70
     1
  9
$DIMTZIN
 70
     0
  9
$DIMALTZ
 70
     0
  9
$DIMALTTZ
 70
     0
  9
$DIMFIT
 70
     3
  9
$DIMUPT
 70
     0
  9
$DIMUNIT
 70
     2
  9
$DIMDEC
 70
     4
  9
$DIMTDEC
 70
     4
  9
$DIMALTU
 70
     2
  9
$DIMALTTD
 70
     2
  9
$DIMTXSTY
  7
STANDARD
  9
$DIMAUNIT
 70
     0
  9
$LUNITS
 70
     2
  9
$LUPREC
 70
     4
  9
$SKETCHINC
 40
0.1
  9
$FILLETRAD
 40
0.0
  9
$AUNITS
 70
     0
  9
$AUPREC
 70
     0
  9
$MENU
  1
acad
  9
$ELEVATION
 40
0.0
  9
$PELEVATION
 40
0.0
  9
$THICKNESS
 40
0.0
  9
$LIMCHECK
 70
     0
  9
$BLIPMODE
 70
     0
  9
$CHAMFERA
 40
0.0
  9
$CHAMFERB
 40
0.0
  9
$CHAMFERC
 40
0.0
  9
$CHAMFERD
 40
0.0
  9
$SKPOLY
 70
     0
  9
$TDCREATE
 40
2453622.520798611
  9
$TDUPDATE
 40
2453644.590923113
  9
$TDINDWG
 40
0.1030585069
  9
$TDUSRTIMER
 40
0.1030585069
  9
$USRTIMER
 70
     1
  9
$ANGBASE
 50
0.0
  9
$ANGDIR
 70
     0
  9
$PDMODE
 70
     0
  9
$PDSIZE
 40
0.0
  9
$PLINEWID
 40
0.0
  9
$COORDS
 70
     1
  9
$SPLFRAME
 70
     0
  9
$SPLINETYPE
 70
     6
  9
$SPLINESEGS
 70
     8
  9
$ATTDIA
 70
     0
  9
$ATTREQ
 70
     1
  9
$HANDLING
 70
     1
  9
$HANDSEED
  5
9A6
  9
$SURFTAB1
 70
     6
  9
$SURFTAB2
 70
     6
  9
$SURFTYPE
 70
     6
  9
$SURFU
 70
     6
  9
$SURFV
 70
     6
  9
$UCSNAME
  2

  9
$UCSORG
 10
0.0
 20
0.0
 30
0.0
  9
$UCSXDIR
 10
1.0
 20
0.0
 30
0.0
  9
$UCSYDIR
 10
0.0
 20
1.0
 30
0.0
  9
$PUCSNAME
  2

  9
$PUCSORG
 10
0.0
 20
0.0
 30
0.0
  9
$PUCSXDIR
 10
1.0
 20
0.0
 30
0.0
  9
$PUCSYDIR
 10
0.0
 20
1.0
 30
0.0
  9
$USERI1
 70
     0
  9
$USERI2
 70
     0
  9
$USERI3
 70
     0
  9
$USERI4
 70
     0
  9
$USERI5
 70
     0
  9
$USERR1
 40
0.0
  9
$USERR2
 40
0.0
  9
$USERR3
 40
0.0
  9
$USERR4
 40
0.0
  9
$USERR5
 40
0.0
  9
$WORLDVIEW
 70
     1
  9
$SHADEDGE
 70
     3
  9
$SHADEDIF
 70
    70
  9
$TILEMODE
 70
     1
  9
$MAXACTVP
 70
    16
  9
$PINSBASE
 10
0.0
 20
0.0
 30
0.0
  9
$PLIMCHECK
 70
     0
  9
$PEXTMIN
 10
1.000000E+20
 20
1.000000E+20
 30
1.000000E+20
  9
$PEXTMAX
 10
-1.000000E+20
 20
-1.000000E+20
 30
-1.000000E+20
  9
$PLIMMIN
 10
0.0
 20
0.0
  9
$PLIMMAX
 10
12.0
 20
9.0
  9
$UNITMODE
 70
     0
  9
$VISRETAIN
 70
     0
  9
$PLINEGEN
 70
     1
  9
$PSLTSCALE
 70
     0
  9
$TREEDEPTH
 70
  3020
  9
$PICKSTYLE
 70
     0
  9
$CMLSTYLE
  2
STANDARD
  9
$CMLJUST
 70
     0
  9
$CMLSCALE
 40
1.0
  9
$SAVEIMAGES
 70
     0
  0
ENDSEC
  0
SECTION
  2
CLASSES
  0
CLASS
  1
LWPOLYLINE
  2
AcDbPolyline
  3
"AutoCAD"
 90
    32768
280
     0
281
     1
  0
CLASS
  1
IMAGE
  2
AcDbRasterImage
  3
ISM
 90
    32895
280
     0
281
     1
  0
CLASS
  1
OLE2FRAME
  2
AcDbOle2Frame
  3
""
 90
    32768
280
     0
281
     1
  0
CLASS
  1
HATCH
  2
AcDbHatch
  3
"ACAD_SEDONA"
 90
    32768
280
     0
281
     1
  0
CLASS
  1
DICTIONARYVAR
  2
AcDbDictionaryVar
  3
"AutoCAD"
 90
    32768
280
     0
281
     0
  0
CLASS
  1
RASTERVARIABLES
  2
AcDbRasterVariables
  3
ISM
 90
    32768
280
     0
281
     0
  0
CLASS
  1
IMAGEDEF
  2
AcDbRasterImageDef
  3
ISM
 90
    32768
280
     0
281
     0
  0
CLASS
  1
IMAGEDEF_REACTOR
  2
AcDbRasterImageDefReactor
  3
ISM
 90
    32769
280
     0
281
     0
  0
CLASS
  1
SPATIAL_FILTER
  2
AcDbSpatialFilter
  3
"Acad"
 90
    32768
280
     0
281
     0
  0
CLASS
  1
XRECORD
  2
AcDbXrecord
  3
"<Built In>"
 90
    32768
280
     0
281
     0
  0
CLASS
  1
SORTENTSTABLE
  2
AcDbSortentsTable
  3
"AutoCAD"
 90
    32768
280
     0
281
     0
  0
CLASS
  1
LAYER_INDEX
  2
AcDbLayerIndex
  3
"Acad"
 90
    32768
280
     0
281
     0
  0
CLASS
  1
SPATIAL_INDEX
  2
AcDbSpatialIndex
  3
"Acad"
 90
    32768
280
     0
281
     0
  0
CLASS
  1
OBJECT_PTR
  2
CAseDLPNTableRecord
  3
"ASE-LPNTableRecord"
 90
    32769
280
     0
281
     0
  0
CLASS
  1
LAYOUT
  2
AcDbLayout
  3
AutoCAD 2000
 90
    32768
280
     0
281
     0
  0
CLASS
  1
PLOTSETTINGS
  2
AcDbPlotSettings
  3
AutoCAD 2000
 90
    32768
280
     0
281
     0
  0
CLASS
  1
ACDBDICTIONARYWDFLT
  2
AcDbDictionaryWithDefault
  3
AutoCAD 2000
 90
    32768
280
     0
281
     0
  0
CLASS
  1
ACDBPLACEHOLDER
  2
AcDbPlaceHolder
  3
AutoCAD 2000
 90
    32768
280
     0
281
     0
  0
CLASS
  1
VBA_PROJECT
  2
AcDbVbaProject
  3
acad
 90
    32768
280
     0
281
     0
  0
CLASS
  1
WIPEOUT
  2
AcDbWipeout
  3
WipeOut|AutoCAD Express Tool|expresstools@autodesk.com
 90
    32895
280
     0
281
     1
  0
CLASS
  1
WIPEOUTVARIABLES
  2
AcDbWipeoutVariables
  3
WipeOut|AutoCAD Express Tool|expresstools@autodesk.com
 90
    32768
280
     0
281
     0
  0
CLASS
  1
RTEXT
  2
RText
  3
RText|AutoCAD Express Tool|expresstools@autodesk.com
 90
    32768
280
     0
281
     1
  0
CLASS
  1
ARCALIGNEDTEXT
  2
AcDbArcAlignedText
  3
ATEXT|AutoCAD Express Tool|expresstools@autodesk.com
 90
    32768
280
     0
281
     1
  0
CLASS
  1
TABLESTYLE
  2
AcDbTableStyle
  3
ObjectDBX Classes
 90
    34815
280
     0
281
     0
  0
CLASS
  1
ACAD_PROXY_OBJECT_WRAPPER
  2
AcDbProxyObjectWrapper
  3
AutoCAD 2000
 90
    32768
280
     0
281
     0
  0
CLASS
  1
LONG_TRANSACTION
  2
AcDbLongTransaction
  3
AutoCAD 2000
 90
    32768
280
     0
281
     0
  0
CLASS
  1
LWPOLYLINE
  2
AcDbPolyline
  3
"AutoCAD"
 90
    32768
280
     0
281
     1
  0
CLASS
  1
HATCH
  2
AcDbHatch
  3
"ACAD_SEDONA"
 90
    32768
280
     0
281
     1
  0
CLASS
  1
XRECORD
  2
AcDbXrecord
  3
"<Built In>"
 90
    32768
280
     0
281
     0
  0
ENDSEC
  0
SECTION
  2
TABLES
  0
TABLE
  2
VPORT
  5
7
100
AcDbSymbolTable
 70
     2
  0
VPORT
  5
9A5
100
AcDbSymbolTableRecord
100
AcDbViewportTableRecord
  2
*ACTIVE
 70
     0
 10
0.0
 20
0.0
 11
1.0
 21
1.0
 12
95.83123
 22
141.358166
 13
0.0
 23
0.0
 14
1.0
 24
1.0
 15
0.0
 25
0.0
 16
0.0
 26
0.0
 36
1.0
 17
0.0
 27
0.0
 37
0.0
 40
197.851416
 41
1.673611
 42
50.0
 43
0.0
 44
0.0
 50
0.0
 51
0.0
 71
     0
 72
   100
 73
     1
 74
     3
 75
     0
 76
     0
 77
     0
 78
     0
  0
ENDTAB
  0
TABLE
  2
LTYPE
  5
4
100
AcDbSymbolTable
 70
     3
  0
LTYPE
  5
11
102
{ACAD_XDICTIONARY
360
966
102
}
100
AcDbSymbolTableRecord
100
AcDbLinetypeTableRecord
  2
BYBLOCK
 70
     0
  3

 72
    65
 73
     0
 40
0.0
  0
LTYPE
  5
12
102
{ACAD_XDICTIONARY
360
968
102
}
100
AcDbSymbolTableRecord
100
AcDbLinetypeTableRecord
  2
BYLAYER
 70
     0
  3

 72
    65
 73
     0
 40
0.0
  0
LTYPE
  5
13
102
{ACAD_XDICTIONARY
360
96A
102
}
100
AcDbSymbolTableRecord
100
AcDbLinetypeTableRecord
  2
CONTINUOUS
 70
     0
  3
Solid line
 72
    65
 73
     0
 40
0.0
  0
LTYPE
  5
69E
100
AcDbSymbolTableRecord
100
AcDbLinetypeTableRecord
  2
AXES2
 70
     0
  3
___ _ ___ _ ___ _ ___ _ ___ _ ___ _ ___ _ ___ _
 72
    65
 73
     4
 40
1.125
 49
0.75
 74
     0
 49
-0.125
 74
     0
 49
0.125
 74
     0
 49
-0.125
 74
     0
  0
LTYPE
  5
69F
100
AcDbSymbolTableRecord
100
AcDbLinetypeTableRecord
  2
CACHE2
 70
     0
  3
Caché (x.5) _ _ _ _ _ _ _ _ _ _ _ _ _ _ _ _ _
 72
    65
 73
     2
 40
0.1875
 49
0.125
 74
     0
 49
-0.0625
 74
     0
  0
ENDTAB
  0
TABLE
  2
LAYER
  5
2
100
AcDbSymbolTable
 70
     6
  0
LAYER
  5
14
100
AcDbSymbolTableRecord
100
AcDbLayerTableRecord
  2
0
 70
     0
 62
     7
  6
CONTINUOUS
  0
LAYER
  5
6A0
100
AcDbSymbolTableRecord
100
AcDbLayerTableRecord
  2
COTATION1
 70
     0
 62
     2
  6
CONTINUOUS
  0
LAYER
  5
6A1
100
AcDbSymbolTableRecord
100
AcDbLayerTableRecord
  2
AXE
 70
     0
 62
    80
  6
AXES2
  0
LAYER
  5
6A2
102
{ACAD_XDICTIONARY
360
99C
102
}
100
AcDbSymbolTableRecord
100
AcDbLayerTableRecord
  2
DEFPOINTS
 70
     0
 62
     7
  6
CONTINUOUS
  0
LAYER
  5
6A3
100
AcDbSymbolTableRecord
100
AcDbLayerTableRecord
  2
ALPHA
 70
     0
 62
   254
  6
CONTINUOUS
  0
LAYER
  5
6A4
100
AcDbSymbolTableRecord
100
AcDbLayerTableRecord
  2
POINTILLE_COURT
 70
     0
 62
    41
  6
CACHE2
  0
ENDTAB
  0
TABLE
  2
STYLE
  5
3
100
AcDbSymbolTable
 70
     2
  0
STYLE
  5
17
102
{ACAD_XDICTIONARY
360
96C
102
}
100
AcDbSymbolTableRecord
100
AcDbTextStyleTableRecord
  2
STANDARD
 70
     0
 40
0.0
 41
1.0
 50
0.0
 71
     0
 42
0.0
  3
txt
  4

  0
STYLE
  5
6A5
100
AcDbSymbolTableRecord
100
AcDbTextStyleTableRecord
  2
ROMANS
 70
     0
 40
0.0
 41
1.0
 50
0.0
 71
     0
 42
6.0
  3
romans
  4

  0
ENDTAB
  0
TABLE
  2
VIEW
  5
5
100
AcDbSymbolTable
 70
     0
  0
ENDTAB
  0
TABLE
  2
UCS
  5
6
100
AcDbSymbolTable
 70
     0
  0
ENDTAB
  0
TABLE
  2
APPID
  5
8
100
AcDbSymbolTable
 70
     1
  0
APPID
  5
16
100
AcDbSymbolTableRecord
100
AcDbRegAppTableRecord
  2
ACAD
 70
     0
  0
ENDTAB
  0
TABLE
  2
DIMSTYLE
  5
9
100
AcDbSymbolTable
 70
     2
  0
DIMSTYLE
105
18
102
{ACAD_XDICTIONARY
360
964
102
}
100
AcDbSymbolTableRecord
100
AcDbDimStyleTableRecord
  2
STANDARD
 70
     0
  3

  4

  5

  6

  7

 40
1.0
 41
0.18
 42
0.0625
 43
0.38
 44
0.18
 45
0.0
 46
0.0
 47
0.0
 48
0.0
140
0.18
141
0.09
142
0.0
143
25.4
144
1.0
145
0.0
146
1.0
147
0.09
 71
     0
 72
     0
 73
     1
 74
     1
 75
     0
 76
     0
 77
     0
 78
     0
170
     0
171
     2
172
     0
173
     0
174
     0
175
     0
176
     0
177
     0
178
     0
270
     2
271
     4
272
     4
273
     2
274
     2
340
17
275
     0
280
     0
281
     0
282
     0
283
     1
284
     0
285
     0
286
     0
287
     3
288
     0
  0
DIMSTYLE
105
6A6
102
{ACAD_XDICTIONARY
360
99E
102
}
102
{ACAD_REACTORS
330
775
330
820
102
}
100
AcDbSymbolTableRecord
100
AcDbDimStyleTableRecord
  2
SC_DEFAUT
 70
     0
  3

  4

  5
OPEN30
  6

  7

 40
1.0
 41
5.0
 42
2.0
 43
0.38
 44
2.5
 45
0.0
 46
0.0
 47
0.0
 48
0.0
140
2.5
141
0.0
142
0.0
143
25.4
144
1.0
145
0.0
146
1.0
147
2.0
 71
     0
 72
     0
 73
     1
 74
     1
 75
     0
 76
     0
 77
     1
 78
    12
170
     0
171
     2
172
     0
173
     0
174
     0
175
     0
176
     0
177
     0
178
     0
270
     2
271
     1
272
     1
273
     2
274
     2
340
6A5
275
     0
280
     0
281
     0
282
     0
283
     1
284
    12
285
    12
286
    12
287
     5
288
     0
  0
ENDTAB
  0
TABLE
  2
BLOCK_RECORD
  5
1
100
AcDbSymbolTable
 70
     3
  0
BLOCK_RECORD
  5
A
102
{ACAD_XDICTIONARY
360
751
102
}
100
AcDbSymbolTableRecord
100
AcDbBlockTableRecord
  2
*MODEL_SPACE
  0
BLOCK_RECORD
  5
B
102
{ACAD_XDICTIONARY
360
992
102
}
100
AcDbSymbolTableRecord
100
AcDbBlockTableRecord
  2
*PAPER_SPACE
  0
BLOCK_RECORD
  5
673
100
AcDbSymbolTableRecord
100
AcDbBlockTableRecord
  2
_OPEN30
  0
BLOCK_RECORD
  5
776
100
AcDbSymbolTableRecord
100
AcDbBlockTableRecord
  2
*D1
  0
BLOCK_RECORD
  5
821
100
AcDbSymbolTableRecord
100
AcDbBlockTableRecord
  2
*D2
  0
ENDTAB
  0
ENDSEC
  0
SECTION
  2
BLOCKS
  0
BLOCK
  5
D
100
AcDbEntity
  8
0
100
AcDbBlockBegin
  2
*MODEL_SPACE
 70
     0
 10
0.0
 20
0.0
 30
0.0
  3
*MODEL_SPACE
  1

  0
ENDBLK
  5
E
100
AcDbEntity
  8
0
100
AcDbBlockEnd
  0
BLOCK
  5
F
100
AcDbEntity
 67
     1
  8
0
100
AcDbBlockBegin
  2
*PAPER_SPACE
 70
     0
 10
0.0
 20
0.0
 30
0.0
  3
*PAPER_SPACE
  1

  0
ENDBLK
  5
10
100
AcDbEntity
 67
     1
  8
0
100
AcDbBlockEnd
  0
BLOCK
  5
674
100
AcDbEntity
  8
0
100
AcDbBlockBegin
  2
_OPEN30
 70
     0
 10
0.0
 20
0.0
 30
0.0
  3
_OPEN30
  1

  0
LINE
  5
675
100
AcDbEntity
  8
COTATION1
 62
     0
100
AcDbLine
 10
-1.0
 20
0.267949
 30
0.0
 11
0.0
 21
0.0
 31
0.0
1001
ACAD
1000
RTLwPs
1070
   158
  0
LINE
  5
676
100
AcDbEntity
  8
COTATION1
 62
     0
100
AcDbLine
 10
0.0
 20
0.0
 30
0.0
 11
-1.0
 21
-0.267949
 31
0.0
1001
ACAD
1000
RTLwPs
1070
   158
  0
LINE
  5
677
100
AcDbEntity
  8
COTATION1
 62
     0
100
AcDbLine
 10
0.0
 20
0.0
 30
0.0
 11
-1.0
 21
0.0
 31
0.0
1001
ACAD
1000
RTLwPs
1070
   158
  0
ENDBLK
  5
678
100
AcDbEntity
  8
0
100
AcDbBlockEnd
  0
BLOCK
  5
781
100
AcDbEntity
  8
0
100
AcDbBlockBegin
  2
*D1
 70
     1
 10
0.0
 20
0.0
 30
0.0
  3
*D1
  1

1001
ACAD
1000
RTLwPs
1070
   128
  0
LINE
  5
950
100
AcDbEntity
  8
COTATION1
 62
     0
100
AcDbLine
 10
49.829621
 20
218.956388
 30
0.0
 11
49.829621
 21
237.259795
 31
0.0
1001
ACAD
1000
RTLwPs
1070
   158
  0
LINE
  5
951
100
AcDbEntity
  8
COTATION1
 62
     0
100
AcDbLine
 10
132.831748
 20
191.920832
 30
0.0
 11
132.831748
 21
237.259795
 31
0.0
1001
ACAD
1000
RTLwPs
1070
   158
  0
LINE
  5
952
100
AcDbEntity
  8
COTATION1
 62
     0
100
AcDbLine
 10
54.829621
 20
234.759795
 30
0.0
 11
127.831748
 21
234.759795
 31
0.0
1001
ACAD
1000
RTLwPs
1070
   158
  0
INSERT
  5
953
100
AcDbEntity
  8
COTATION1
 62
     0
100
AcDbBlockReference
  2
_OPEN30
 10
49.829621
 20
234.759795
 30
0.0
 41
5.0
 42
5.0
 43
5.0
 50
180.0
1001
ACAD
1000
RTLwPs
1070
   158
  0
INSERT
  5
954
100
AcDbEntity
  8
COTATION1
 62
     0
100
AcDbBlockReference
  2
_OPEN30
 10
132.831748
 20
234.759795
 30
0.0
 41
5.0
 42
5.0
 43
5.0
1001
ACAD
1000
RTLwPs
1070
   158
  0
MTEXT
  5
955
100
AcDbEntity
  8
COTATION1
 62
     0
100
AcDbMText
 10
91.330684
 20
238.009795
 30
0.0
 40
2.5
 41
0.0
 71
     5
 72
     1
  1
\A1;P=83
  7
ROMANS
1001
ACAD
1000
MTEXTBEGIN
1070
    73
1070
     1
1070
    44
1040
1.0
1070
    74
1070
     0
1000
MTEXTEND
1000
MTEXTBEGIN
1070
    73
1070
     1
1070
    44
1040
1.0
1070
    74
1070
     0
1000
MTEXTEND
  0
POINT
  5
956
100
AcDbEntity
  8
DEFPOINTS
 62
     0
100
AcDbPoint
 10
49.829621
 20
216.956388
 30
0.0
1001
ACAD
1000
RTLwPs
1070
   128
  0
POINT
  5
957
100
AcDbEntity
  8
DEFPOINTS
 62
     0
100
AcDbPoint
 10
132.831748
 20
189.920832
 30
0.0
1001
ACAD
1000
RTLwPs
1070
   128
  0
POINT
  5
958
100
AcDbEntity
  8
DEFPOINTS
 62
     0
100
AcDbPoint
 10
132.831748
 20
234.759795
 30
0.0
1001
ACAD
1000
RTLwPs
1070
   128
  0
ENDBLK
  5
782
100
AcDbEntity
  8
0
100
AcDbBlockEnd
1001
ACAD
1000
RTLwPs
1070
   128
  0
BLOCK
  5
82B
100
AcDbEntity
  8
0
100
AcDbBlockBegin
  2
*D2
 70
     1
 10
0.0
 20
0.0
 30
0.0
  3
*D2
  1

1001
ACAD
1000
RTLwPs
1070
   128
  0
LINE
  5
8D5
100
AcDbEntity
  8
COTATION1
 62
     0
100
AcDbLine
 10
49.829621
 20
68.956536
 30
0.0
 11
49.829621
 21
43.456536
 31
0.0
1001
ACAD
1000
RTLwPs
1070
   158
  0
LINE
  5
8D6
100
AcDbEntity
  8
COTATION1
 62
     0
100
AcDbLine
 10
136.829581
 20
71.253748
 30
0.0
 11
136.829581
 21
43.456536
 31
0.0
1001
ACAD
1000
RTLwPs
1070
   158
  0
LINE
  5
8D7
100
AcDbEntity
  8
COTATION1
 62
     0
100
AcDbLine
 10
54.829621
 20
45.956536
 30
0.0
 11
131.829581
 21
45.956536
 31
0.0
1001
ACAD
1000
RTLwPs
1070
   158
  0
INSERT
  5
8D8
100
AcDbEntity
  8
COTATION1
 62
     0
100
AcDbBlockReference
  2
_OPEN30
 10
49.829621
 20
45.956536
 30
0.0
 41
5.0
 42
5.0
 43
5.0
 50
180.0
1001
ACAD
1000
RTLwPs
1070
   158
  0
INSERT
  5
8D9
100
AcDbEntity
  8
COTATION1
 62
     0
100
AcDbBlockReference
  2
_OPEN30
 10
136.829581
 20
45.956536
 30
0.0
 41
5.0
 42
5.0
 43
5.0
1001
ACAD
1000
RTLwPs
1070
   158
  0
MTEXT
  5
8DA
100
AcDbEntity
  8
COTATION1
 62
     0
100
AcDbMText
 10
93.329601
 20
49.206536
 30
0.0
 40
2.5
 41
0.0
 71
     5
 72
     1
  1
\A1;87
  7
ROMANS
1001
ACAD
1000
MTEXTBEGIN
1070
    73
1070
     1
1070
    44
1040
1.0
1070
    74
1070
     0
1000
MTEXTEND
1000
MTEXTBEGIN
1070
    73
1070
     1
1070
    44
1040
1.0
1070
    74
1070
     0
1000
MTEXTEND
  0
POINT
  5
8DB
100
AcDbEntity
  8
DEFPOINTS
 62
     0
100
AcDbPoint
 10
49.829621
 20
70.956536
 30
0.0
1001
ACAD
1000
RTLwPs
1070
   128
  0
POINT
  5
8DC
100
AcDbEntity
  8
DEFPOINTS
 62
     0
100
AcDbPoint
 10
136.829581
 20
73.253748
 30
0.0
1001
ACAD
1000
RTLwPs
1070
   128
  0
POINT
  5
8DD
100
AcDbEntity
  8
DEFPOINTS
 62
     0
100
AcDbPoint
 10
136.829581
 20
45.956536
 30
0.0
1001
ACAD
1000
RTLwPs
1070
   128
  0
ENDBLK
  5
82C
100
AcDbEntity
  8
0
100
AcDbBlockEnd
1001
ACAD
1000
RTLwPs
1070
   128
  0
ENDSEC
  0
SECTION
  2
ENTITIES
  0
LINE
  5
4FA
100
AcDbEntity
  8
POINTILLE_COURT
100
AcDbLine
 10
132.831748
 20
189.920832
 30
0.0
 11
132.831748
 21
97.989404
 31
0.0
  0
LINE
  5
4D7
100
AcDbEntity
  8
ALPHA
100
AcDbLine
 10
82.938505
 20
216.956388
 30
0.0
 11
82.938505
 21
70.956536
 31
0.0
  0
LINE
  5
74B
100
AcDbEntity
  8
ALPHA
100
AcDbLine
 10
49.829621
 20
216.956388
 30
0.0
 11
49.829621
 21
70.956536
 31
0.0
  0
LINE
  5
74C
100
AcDbEntity
  8
ALPHA
100
AcDbLine
 10
49.829621
 20
70.956536
 30
0.0
 11
82.938505
 21
70.956536
 31
0.0
  0
LINE
  5
74D
100
AcDbEntity
  8
ALPHA
100
AcDbLine
 10
82.938505
 20
70.956536
 30
0.0
 11
136.829581
 21
73.253748
 31
0.0
  0
LINE
  5
74E
100
AcDbEntity
  8
ALPHA
100
AcDbLine
 10
136.829581
 20
73.253748
 30
0.0
 11
136.829581
 21
214.659184
 31
0.0
  0
LINE
  5
74F
100
AcDbEntity
  8
ALPHA
100
AcDbLine
 10
136.829581
 20
214.659184
 30
0.0
 11
82.938505
 21
216.956388
 31
0.0
  0
LINE
  5
750
100
AcDbEntity
  8
ALPHA
100
AcDbLine
 10
82.938505
 20
216.956388
 30
0.0
 11
49.829621
 21
216.956388
 31
0.0
  0
LINE
  5
753
100
AcDbEntity
  8
ALPHA
100
AcDbLine
 10
49.829621
 20
216.956388
 30
0.0
 11
49.829621
 21
70.956536
 31
0.0
  0
LINE
  5
754
100
AcDbEntity
  8
ALPHA
100
AcDbLine
 10
49.829621
 20
70.956536
 30
0.0
 11
82.938505
 21
70.956536
 31
0.0
  0
LINE
  5
755
100
AcDbEntity
  8
ALPHA
100
AcDbLine
 10
82.938505
 20
70.956536
 30
0.0
 11
136.829581
 21
73.253748
 31
0.0
  0
LINE
  5
756
100
AcDbEntity
  8
ALPHA
100
AcDbLine
 10
136.829581
 20
73.253748
 30
0.0
 11
136.829581
 21
214.659184
 31
0.0
  0
LINE
  5
757
100
AcDbEntity
  8
ALPHA
100
AcDbLine
 10
136.829581
 20
214.659184
 30
0.0
 11
82.938505
 21
216.956388
 31
0.0
  0
LINE
  5
758
100
AcDbEntity
  8
ALPHA
100
AcDbLine
 10
82.938505
 20
216.956388
 30
0.0
 11
49.829621
 21
216.956388
 31
0.0
  0
DIMENSION
  5
775
100
AcDbEntity
  8
COTATION1
100
AcDbDimension
  2
*D1
 10
132.831748
 20
234.759795
 30
0.0
 11
91.330684
 21
238.009795
 31
0.0
 70
    32
  1
P=83
  3
SC_DEFAUT
100
AcDbAlignedDimension
 13
49.829621
 23
216.956388
 33
0.0
 14
132.831748
 24
189.920832
 34
0.0
100
AcDbRotatedDimension
  0
DIMENSION
  5
820
100
AcDbEntity
  8
COTATION1
100
AcDbDimension
  2
*D2
 10
136.829581
 20
45.956536
 30
0.0
 11
93.329601
 21
49.206536
 31
0.0
 70
    32
  3
SC_DEFAUT
100
AcDbAlignedDimension
 13
49.829621
 23
70.956536
 33
0.0
 14
136.829581
 24
73.253748
 34
0.0
100
AcDbRotatedDimension
  0
LINE
  5
863
100
AcDbEntity
  8
AXE
100
AcDbLine
 10
69.723497
 20
55.95654
 30
0.0
 11
69.723497
 21
226.956389
 31
0.0
  0
TEXT
  5
864
100
AcDbEntity
  8
AXE
100
AcDbText
 10
62.247306
 20
55.95654
 30
0.0
 40
8.0
  1
Y
  7
ROMANS
 72
     2
 11
68.723497
 21
55.95654
 31
0.0
100
AcDbText
  0
LINE
  5
865
100
AcDbEntity
  8
AXE
100
AcDbLine
 10
151.829581
 20
143.956464
 30
0.0
 11
39.829621
 21
143.956462
 31
0.0
  0
TEXT
  5
866
100
AcDbEntity
  8
AXE
100
AcDbText
 10
145.35339
 20
144.956464
 30
0.0
 40
8.0
  1
Z
  7
ROMANS
 72
     2
 11
151.829581
 21
144.956464
 31
0.0
100
AcDbText
  0
LINE
  5
8C0
100
AcDbEntity
  8
AXE
100
AcDbLine
 10
125.346433
 20
196.456464
 30
0.0
 11
148.312729
 21
196.456464
 31
0.0
  0
LINE
  5
8C1
100
AcDbEntity
  8
AXE
100
AcDbLine
 10
125.346434
 20
91.456463
 30
0.0
 11
148.312731
 21
91.456464
 31
0.0
  0
ENDSEC
  0
SECTION
  2
OBJECTS
  0
DICTIONARY
  5
19
102
{ACAD_XDICTIONARY
360
994
102
}
100
AcDbDictionary
  3
ACAD_COLOR
350
66C
  3
ACAD_GROUP
350
1A
  3
ACAD_LAYOUT
350
1E
  3
ACAD_MATERIAL
350
66B
  3
ACAD_MLINESTYLE
350
1B
  3
ACAD_PLOTSETTINGS
350
22
  3
ACAD_PLOTSTYLENAME
350
1F
  3
ACAD_TABLESTYLE
350
66D
  3
ACAD_WIPEOUT_VARS
350
23
  3
ACDBHEADERROUNDTRIPXREC
350
970
  3
ACDBVARIABLEDICTIONARY
350
749
  0
DICTIONARY
  5
966
100
AcDbDictionary
  3
ACAD_XREC_ROUNDTRIP
360
967
  0
DICTIONARY
  5
968
100
AcDbDictionary
  3
ACAD_XREC_ROUNDTRIP
360
969
  0
DICTIONARY
  5
96A
100
AcDbDictionary
  3
ACAD_XREC_ROUNDTRIP
360
96B
  0
DICTIONARY
  5
99C
100
AcDbDictionary
  3
ACAD_XREC_ROUNDTRIP
360
99D
  0
DICTIONARY
  5
96C
100
AcDbDictionary
  3
ACAD_XREC_ROUNDTRIP
360
96D
  0
DICTIONARY
  5
964
100
AcDbDictionary
  3
ACAD_XREC_ROUNDTRIP
360
965
  0
DICTIONARY
  5
99E
100
AcDbDictionary
  3
ACAD_XREC_ROUNDTRIP
360
99F
  0
DICTIONARY
  5
751
100
AcDbDictionary
  3
ACAD_LAYOUTSELFREF
360
991
  3
ACAD_SORTENTS
360
752
  0
DICTIONARY
  5
992
100
AcDbDictionary
  3
ACAD_LAYOUTSELFREF
360
993
  0
DICTIONARY
  5
994
100
AcDbDictionary
  3
ACAD_XREC_ROUNDTRIP
360
995
  0
DICTIONARY
  5
66C
102
{ACAD_REACTORS
330
19
102
}
100
AcDbDictionary
  0
DICTIONARY
  5
1A
102
{ACAD_REACTORS
330
19
102
}
100
AcDbDictionary
  0
DICTIONARY
  5
1E
102
{ACAD_XDICTIONARY
360
998
102
}
102
{ACAD_REACTORS
330
19
102
}
100
AcDbDictionary
  3
LAYOUT1
350
21
  3
MODEL
350
20
  0
DICTIONARY
  5
66B
102
{ACAD_REACTORS
330
19
102
}
100
AcDbDictionary
  0
DICTIONARY
  5
1B
102
{ACAD_XDICTIONARY
360
996
102
}
102
{ACAD_REACTORS
330
19
102
}
100
AcDbDictionary
  3
STANDARD
350
1C
  0
DICTIONARY
  5
22
102
{ACAD_REACTORS
330
19
102
}
100
AcDbDictionary
  0
ACAD_ZOMBIE_OBJECT
  5
1F
102
{ACAD_REACTORS
330
19
102
}
100
AcDbZombieObject
 90
      499
 91
      517
 93
       86
310
405010041939BDC9B585B0
350
1D
340
1D
 94
        0
  0
DICTIONARY
  5
66D
102
{ACAD_XDICTIONARY
360
99A
102
}
102
{ACAD_REACTORS
330
19
102
}
100
AcDbDictionary
  3
STANDARD
350
66E
  0
ACAD_ZOMBIE_OBJECT
  5
23
102
{ACAD_REACTORS
330
19
102
}
100
AcDbZombieObject
 90
      499
 91
      521
 93
       10
310
406A
 94
        0
  0
DICTIONARY
  5
970
102
{ACAD_REACTORS
330
19
102
}
100
AcDbDictionary
  3
CEPSNTYPE
350
97A
  3
DIMSTYLEDATA
350
97E
  3
FINGERPRINTGUID
350
97B
  3
HYPERLINKBASE
350
973
  3
INSUNITS
350
979
  3
LAYOUTDICT
350
975
  3
LWETCUNION
350
978
  3
PLOTSETDICT
350
976
  3
PLOTSTYLNAMDICT
350
977
  3
PSVPSCALE
350
97D
  3
PUCSBASE
350
981
  3
PUCSORGBACK
350
987
  3
PUCSORGBOTTOM
350
983
  3
PUCSORGFRONT
350
986
  3
PUCSORGLEFT
350
984
  3
PUCSORGRIGHT
350
985
  3
PUCSORGTOP
350
982
  3
PUCSORTHOREF
350
97F
  3
PUCSORTHOVIEW
350
980
  3
STYLESHEET
350
974
  3
TSTACKALIGN
350
971
  3
TSTACKSIZE
350
972
  3
UCSBASE
350
98A
  3
UCSORGBACK
350
990
  3
UCSORGBOTTOM
350
98C
  3
UCSORGFRONT
350
98F
  3
UCSORGLEFT
350
98D
  3
UCSORGRIGHT
350
98E
  3
UCSORGTOP
350
98B
  3
UCSORTHOREF
350
988
  3
UCSORTHOVIEW
350
989
  3
VERSIONGUID
350
97C
  0
DICTIONARY
  5
749
102
{ACAD_REACTORS
330
19
102
}
100
AcDbDictionary
  3
CTABLESTYLE
350
74A
  3
DIMASSOC
350
914
  3
PROJECTNAME
350
915
  0
XRECORD
  5
967
102
{ACAD_REACTORS
330
966
102
}
100
AcDbXrecord
102
EXTNAMES
  1
BYBLOCK
  2
ByBlock
  0
XRECORD
  5
969
102
{ACAD_REACTORS
330
968
102
}
100
AcDbXrecord
102
EXTNAMES
  1
BYLAYER
  2
ByLayer
  0
XRECORD
  5
96B
102
{ACAD_REACTORS
330
96A
102
}
100
AcDbXrecord
102
EXTNAMES
  1
CONTINUOUS
  2
Continuous
  0
XRECORD
  5
99D
102
{ACAD_REACTORS
330
99C
102
}
100
AcDbXrecord
102
PLOTBIT
280
     0
  0
XRECORD
  5
96D
102
{ACAD_REACTORS
330
96C
102
}
100
AcDbXrecord
102
EXTNAMES
  1
STANDARD
  2
Standard
  0
XRECORD
  5
965
102
{ACAD_REACTORS
330
964
102
}
100
AcDbXrecord
102
EXTNAMES
  1
STANDARD
  2
Standard
  0
XRECORD
  5
99F
102
{ACAD_REACTORS
330
99E
102
}
100
AcDbXrecord
102
ACADR14ROUNDTRIP
1000
DSTYLE
1002
{
1070
   279
 70
     2
1070
   341
340
673
1070
   342
340
673
1002
}
  0
XRECORD
  5
991
102
{ACAD_REACTORS
330
751
102
}
100
AcDbXrecord
340
A
  0
SORTENTSTABLE
  5
752
102
{ACAD_REACTORS
330
751
102
}
100
AcDbSortentsTable
330
A
331
4D7
  5
4D7
331
753
  5
53E
331
755
  5
575
331
757
  5
577
331
74C
  5
57A
331
74E
  5
57C
331
750
  5
57E
331
754
  5
574
331
4FA
  5
4FA
331
756
  5
576
331
758
  5
578
331
74B
  5
579
331
74D
  5
57B
331
74F
  5
57D
331
775
  5
7B3
  0
XRECORD
  5
993
102
{ACAD_REACTORS
330
992
102
}
100
AcDbXrecord
340
B
  0
XRECORD
  5
995
102
{ACAD_REACTORS
330
994
102
}
100
AcDbXrecord
102
EXTNAMES
  1
ACDBVARIABLEDICTIONARY
  2
AcDbVariableDictionary
  0
DICTIONARY
  5
998
100
AcDbDictionary
  3
ACAD_XREC_ROUNDTRIP
360
999
  0
ACAD_ZOMBIE_OBJECT
  5
21
102
{ACAD_XDICTIONARY
360
95D
102
}
102
{ACAD_REACTORS
330
1E
102
}
100
AcDbZombieObject
 90
      499
 91
      515
 93
      812
310
AAAAAAAAAA5A69074C61796F757431406A800000000000000000000000000000000000000000000A1000000000000008902A6A6A10232D5E076BC5510408CB5781DAF154410232D5E076BC5510408CB5781DAF15C410232D5E076BC5710408CB5781DAF15C45
330
B
330
0
340
0
340
0
 94
        0
  0
ACAD_ZOMBIE_OBJECT
  5
20
102
{ACAD_XDICTIONARY
360
95B
102
}
102
{ACAD_REACTORS
330
1E
102
}
100
AcDbZombieObject
 90
      499
 91
      515
 93
      420
310
A00012AAAAAAAA5A69054D6F64656CAA80000000000000000000000000000000000000000000000000000000000000002AAAAAAAA0
330
A
330
0
340
0
340
0
 94
        0
  0
DICTIONARY
  5
996
100
AcDbDictionary
  3
ACAD_XREC_ROUNDTRIP
360
997
  0
MLINESTYLE
  5
1C
102
{ACAD_REACTORS
330
1B
102
}
100
AcDbMlineStyle
  2
STANDARD
 70
     0
  3

 62
     0
 51
90.0
 52
90.0
 71
     2
 49
0.5
 62
   256
  6
BYLAYER
 49
-0.5
 62
   256
  6
BYLAYER
  0
ACAD_ZOMBIE_OBJECT
  5
1D
102
{ACAD_REACTORS
330
1F
102
}
100
AcDbZombieObject
 90
      499
 91
      518
 93
        0
 94
        0
  0
DICTIONARY
  5
99A
100
AcDbDictionary
  3
ACAD_XREC_ROUNDTRIP
360
99B
  0
ACAD_ZOMBIE_OBJECT
  5
66E
102
{ACAD_REACTORS
330
66D
102
}
100
AcDbZombieObject
 90
      499
 91
      525
 93
     1841
310
4214DD185B99185C9928000000000000F83F0000000000003E0FC00000000000004901028000000C1008070000C3001FDFF8000000C1003FBFF000000182007F7FE00000030400FEFFC00000060801FDFF8000000C1003FBFF000000182000000000000000C2020B0000001820100E000186003FBFF000000182007F7FE000
310
00030400FEFFC00000060801FDFF8000000C1003FBFF000000182007F7FE0000003040000000000000012404160000003040201C00030C007F7FE00000030400FEFFC00000060801FDFF8000000C1003FBFF000000182007F7FE00000030400FEFFC000000608000
340
17
340
17
340
17
 94
        0
1001
ACAD
1000
AcadProxyRoundTripData
1071
      524
1071
   393239
1070
     0
  0
XRECORD
  5
97A
102
{ACAD_REACTORS
330
970
102
}
100
AcDbXrecord
 90
        0
  0
XRECORD
  5
97E
102
{ACAD_REACTORS
330
970
102
}
100
AcDbXrecord
1000
DSTYLE
1002
{
1070
   278
 70
     0
1070
   371
 70
     0
1070
   372
 70
     0
1002
}
  0
XRECORD
  5
97B
102
{ACAD_REACTORS
330
970
102
}
100
AcDbXrecord
  1

  0
XRECORD
  5
973
102
{ACAD_REACTORS
330
970
102
}
100
AcDbXrecord
  1

  0
XRECORD
  5
979
102
{ACAD_REACTORS
330
970
102
}
100
AcDbXrecord
 90
        0
  0
XRECORD
  5
975
102
{ACAD_REACTORS
330
970
102
}
100
AcDbXrecord
340
1E
  0
XRECORD
  5
978
102
{ACAD_REACTORS
330
970
102
}
100
AcDbXrecord
 90
    10752
  0
XRECORD
  5
976
102
{ACAD_REACTORS
330
970
102
}
100
AcDbXrecord
340
22
  0
XRECORD
  5
977
102
{ACAD_REACTORS
330
970
102
}
100
AcDbXrecord
340
1F
  0
XRECORD
  5
97D
102
{ACAD_REACTORS
330
970
102
}
100
AcDbXrecord
 40
0.0
  0
XRECORD
  5
981
102
{ACAD_REACTORS
330
970
102
}
100
AcDbXrecord
340
0
  0
XRECORD
  5
987
102
{ACAD_REACTORS
330
970
102
}
100
AcDbXrecord
 10
0.0
 20
0.0
 30
0.0
  0
XRECORD
  5
983
102
{ACAD_REACTORS
330
970
102
}
100
AcDbXrecord
 10
0.0
 20
0.0
 30
0.0
  0
XRECORD
  5
986
102
{ACAD_REACTORS
330
970
102
}
100
AcDbXrecord
 10
0.0
 20
0.0
 30
0.0
  0
XRECORD
  5
984
102
{ACAD_REACTORS
330
970
102
}
100
AcDbXrecord
 10
0.0
 20
0.0
 30
0.0
  0
XRECORD
  5
985
102
{ACAD_REACTORS
330
970
102
}
100
AcDbXrecord
 10
0.0
 20
0.0
 30
0.0
  0
XRECORD
  5
982
102
{ACAD_REACTORS
330
970
102
}
100
AcDbXrecord
 10
0.0
 20
0.0
 30
0.0
  0
XRECORD
  5
97F
102
{ACAD_REACTORS
330
970
102
}
100
AcDbXrecord
340
0
  0
XRECORD
  5
980
102
{ACAD_REACTORS
330
970
102
}
100
AcDbXrecord
 70
     0
  0
XRECORD
  5
974
102
{ACAD_REACTORS
330
970
102
}
100
AcDbXrecord
  1

  0
XRECORD
  5
971
102
{ACAD_REACTORS
330
970
102
}
100
AcDbXrecord
 90
        1
  0
XRECORD
  5
972
102
{ACAD_REACTORS
330
970
102
}
100
AcDbXrecord
 90
       70
  0
XRECORD
  5
98A
102
{ACAD_REACTORS
330
970
102
}
100
AcDbXrecord
340
0
  0
XRECORD
  5
990
102
{ACAD_REACTORS
330
970
102
}
100
AcDbXrecord
 10
0.0
 20
0.0
 30
0.0
  0
XRECORD
  5
98C
102
{ACAD_REACTORS
330
970
102
}
100
AcDbXrecord
 10
0.0
 20
0.0
 30
0.0
  0
XRECORD
  5
98F
102
{ACAD_REACTORS
330
970
102
}
100
AcDbXrecord
 10
0.0
 20
0.0
 30
0.0
  0
XRECORD
  5
98D
102
{ACAD_REACTORS
330
970
102
}
100
AcDbXrecord
 10
0.0
 20
0.0
 30
0.0
  0
XRECORD
  5
98E
102
{ACAD_REACTORS
330
970
102
}
100
AcDbXrecord
 10
0.0
 20
0.0
 30
0.0
  0
XRECORD
  5
98B
102
{ACAD_REACTORS
330
970
102
}
100
AcDbXrecord
 10
0.0
 20
0.0
 30
0.0
  0
XRECORD
  5
988
102
{ACAD_REACTORS
330
970
102
}
100
AcDbXrecord
340
0
  0
XRECORD
  5
989
102
{ACAD_REACTORS
330
970
102
}
100
AcDbXrecord
 70
     0
  0
XRECORD
  5
97C
102
{ACAD_REACTORS
330
970
102
}
100
AcDbXrecord
  1
{58C33169-1E93-47CD-92FF-1C4F13574118}
  0
DICTIONARYVAR
  5
74A
102
{ACAD_REACTORS
330
749
102
}
100
DictionaryVariables
280
     0
  1
STANDARD
  0
DICTIONARYVAR
  5
914
102
{ACAD_REACTORS
330
749
102
}
100
DictionaryVariables
280
     0
  1
1
  0
DICTIONARYVAR
  5
915
102
{ACAD_REACTORS
330
749
102
}
100
DictionaryVariables
280
     0
  1

  0
XRECORD
  5
999
102
{ACAD_REACTORS
330
998
102
}
100
AcDbXrecord
102
EXTNAMES
  1
LAYOUT1
  2
Layout1
  1
MODEL
  2
Model
  0
DICTIONARY
  5
95D
100
AcDbDictionary
  3
ACAD_XREC_ROUNDTRIP
360
95E
  0
DICTIONARY
  5
95B
100
AcDbDictionary
  3
ACAD_XREC_ROUNDTRIP
360
95C
  0
XRECORD
  5
997
102
{ACAD_REACTORS
330
996
102
}
100
AcDbXrecord
102
EXTNAMES
  1
STANDARD
  2
Standard
  0
XRECORD
  5
99B
102
{ACAD_REACTORS
330
99A
102
}
100
AcDbXrecord
102
EXTNAMES
  1
STANDARD
  2
Standard
  0
XRECORD
  5
95E
102
{ACAD_REACTORS
330
95D
102
}
100
AcDbXrecord
102
SHADEPLOT
 70
     0
102
SHADEPLOTRESLEVEL
 70
     2
102
SHADEPLOTCUSTOMDPI
 70
   300
  0
XRECORD
  5
95C
102
{ACAD_REACTORS
330
95B
102
}
100
AcDbXrecord
102
SHADEPLOT
 70
     0
102
SHADEPLOTRESLEVEL
 70
     2
102
SHADEPLOTCUSTOMDPI
 70
   300
  0
ENDSEC
  0
EOF
