  0
SECTION
  2
HEADER
  9
$ACADVER
  1
AC1014
  9
$ACADMAINTVER
 70
     0
  9
$DWGCODEPAGE
  3
ANSI_1252
  9
$INSBASE
 10
93.894301
 20
236.06014
 30
0.0
  9
$EXTMIN
 10
1.300036
 20
-7.711061
 30
0.0
  9
$EXTMAX
 10
272.357663
 20
50.465172
 30
0.0
  9
$LIMMIN
 10
0.0
 20
0.0
  9
$LIMMAX
 10
210.0
 20
297.0
  9
$ORTHOMODE
 70
     0
  9
$REGENMODE
 70
     1
  9
$FILLMODE
 70
     1
  9
$QTEXTMODE
 70
     0
  9
$MIRRTEXT
 70
     0
  9
$DRAGMODE
 70
     1
  9
$LTSCALE
 40
7.0
  9
$OSMODE
 70
  4095
  9
$ATTMODE
 70
     1
  9
$TEXTSIZE
 40
2.5
  9
$TRACEWID
 40
0.05
  9
$TEXTSTYLE
  7
STANDARD
  9
$CLAYER
  8
COTATION1
  9
$CELTYPE
  6
BYLAYER
  9
$CECOLOR
 62
   256
  9
$CELTSCALE
 40
1.0
  9
$DELOBJ
 70
     1
  9
$DISPSILH
 70
     0
  9
$DIMSCALE
 40
1.0
  9
$DIMASZ
 40
3.0
  9
$DIMEXO
 40
0.0625
  9
$DIMDLI
 40
0.38
  9
$DIMRND
 40
0.01
  9
$DIMDLE
 40
0.0
  9
$DIMEXE
 40
0.18
  9
$DIMTP
 40
0.0
  9
$DIMTM
 40
0.0
  9
$DIMTXT
 40
2.5
  9
$DIMCEN
 40
0.09
  9
$DIMTSZ
 40
0.0
  9
$DIMTOL
 70
     0
  9
$DIMLIM
 70
     0
  9
$DIMTIH
 70
     0
  9
$DIMTOH
 70
     0
  9
$DIMSE1
 70
     0
  9
$DIMSE2
 70
     0
  9
$DIMTAD
 70
     1
  9
$DIMZIN
 70
    12
  9
$DIMBLK
  1

  9
$DIMASO
 70
     1
  9
$DIMSHO
 70
     0
  9
$DIMPOST
  1

  9
$DIMAPOST
  1

  9
$DIMALT
 70
     0
  9
$DIMALTD
 70
     2
  9
$DIMALTF
 40
25.4
  9
$DIMLFAC
 40
1.0
  9
$DIMTOFL
 70
     1
  9
$DIMTVP
 40
0.0
  9
$DIMTIX
 70
     0
  9
$DIMSOXD
 70
     0
  9
$DIMSAH
 70
     0
  9
$DIMBLK1
  1

  9
$DIMBLK2
  1

  9
$DIMSTYLE
  2
SC_STAND
  9
$DIMCLRD
 70
     0
  9
$DIMCLRE
 70
     0
  9
$DIMCLRT
 70
     0
  9
$DIMTFAC
 40
1.0
  9
$DIMGAP
 40
1.0
  9
$DIMJUST
 70
     0
  9
$DIMSD1
 70
     0
  9
$DIMSD2
 70
     0
  9
$DIMTOLJ
 70
     1
  9
$DIMTZIN
 70
    12
  9
$DIMALTZ
 70
    12
  9
$DIMALTTZ
 70
    12
  9
$DIMFIT
 70
     5
  9
$DIMUPT
 70
     0
  9
$DIMUNIT
 70
     2
  9
$DIMDEC
 70
     3
  9
$DIMTDEC
 70
     3
  9
$DIMALTU
 70
     2
  9
$DIMALTTD
 70
     2
  9
$DIMTXSTY
  7
STANDARD
  9
$DIMAUNIT
 70
     0
  9
$LUNITS
 70
     2
  9
$LUPREC
 70
     3
  9
$SKETCHINC
 40
0.1
  9
$FILLETRAD
 40
0.0625
  9
$AUNITS
 70
     0
  9
$AUPREC
 70
     0
  9
$MENU
  1
ACAD
  9
$ELEVATION
 40
0.0
  9
$PELEVATION
 40
0.0
  9
$THICKNESS
 40
0.0
  9
$LIMCHECK
 70
     0
  9
$BLIPMODE
 70
     1
  9
$CHAMFERA
 40
0.0
  9
$CHAMFERB
 40
0.0
  9
$CHAMFERC
 40
0.0
  9
$CHAMFERD
 40
0.0
  9
$SKPOLY
 70
     0
  9
$TDCREATE
 40
2450953.590960648
  9
$TDUPDATE
 40
2453880.696505891
  9
$TDINDWG
 40
0.0039265856
  9
$TDUSRTIMER
 40
0.0039265856
  9
$USRTIMER
 70
     1
  9
$ANGBASE
 50
0.0
  9
$ANGDIR
 70
     0
  9
$PDMODE
 70
     0
  9
$PDSIZE
 40
0.0
  9
$PLINEWID
 40
0.0
  9
$COORDS
 70
     0
  9
$SPLFRAME
 70
     0
  9
$SPLINETYPE
 70
     6
  9
$SPLINESEGS
 70
     8
  9
$ATTDIA
 70
     0
  9
$ATTREQ
 70
     1
  9
$HANDLING
 70
     1
  9
$HANDSEED
  5
D8A
  9
$SURFTAB1
 70
     6
  9
$SURFTAB2
 70
     6
  9
$SURFTYPE
 70
     6
  9
$SURFU
 70
     6
  9
$SURFV
 70
     6
  9
$UCSNAME
  2

  9
$UCSORG
 10
0.0
 20
0.0
 30
0.0
  9
$UCSXDIR
 10
1.0
 20
0.0
 30
0.0
  9
$UCSYDIR
 10
0.0
 20
1.0
 30
0.0
  9
$PUCSNAME
  2

  9
$PUCSORG
 10
0.0
 20
0.0
 30
0.0
  9
$PUCSXDIR
 10
1.0
 20
0.0
 30
0.0
  9
$PUCSYDIR
 10
0.0
 20
1.0
 30
0.0
  9
$USERI1
 70
     0
  9
$USERI2
 70
     0
  9
$USERI3
 70
     0
  9
$USERI4
 70
     0
  9
$USERI5
 70
     0
  9
$USERR1
 40
0.0
  9
$USERR2
 40
0.0
  9
$USERR3
 40
0.0
  9
$USERR4
 40
0.0
  9
$USERR5
 40
0.0
  9
$WORLDVIEW
 70
     1
  9
$SHADEDGE
 70
     3
  9
$SHADEDIF
 70
    70
  9
$TILEMODE
 70
     1
  9
$MAXACTVP
 70
    32
  9
$PINSBASE
 10
0.0
 20
0.0
 30
0.0
  9
$PLIMCHECK
 70
     0
  9
$PEXTMIN
 10
-3.174999
 20
-3.175
 30
0.0
  9
$PEXTMAX
 10
203.812116
 20
370.276807
 30
0.0
  9
$PLIMMIN
 10
-3.175
 20
-3.175
  9
$PLIMMAX
 10
203.812115
 20
370.276807
  9
$UNITMODE
 70
     0
  9
$VISRETAIN
 70
     0
  9
$PLINEGEN
 70
     0
  9
$PSLTSCALE
 70
     1
  9
$TREEDEPTH
 70
  3020
  9
$PICKSTYLE
 70
     1
  9
$CMLSTYLE
  2
STANDARD
  9
$CMLJUST
 70
     0
  9
$CMLSCALE
 40
1.0
  9
$PROXYGRAPHICS
 70
     1
  9
$MEASUREMENT
 70
     0
  0
ENDSEC
  0
SECTION
  2
CLASSES
  0
CLASS
  1
DICTIONARYVAR
  2
AcDbDictionaryVar
  3
"AutoCAD"
 90
        0
280
     0
281
     0
  0
CLASS
  1
HATCH
  2
AcDbHatch
  3
"ACAD_SEDONA"
 90
        0
280
     0
281
     1
  0
ENDSEC
  0
SECTION
  2
TABLES
  0
TABLE
  2
VPORT
  5
F4
100
AcDbSymbolTable
 70
     2
  0
VPORT
  5
D89
100
AcDbSymbolTableRecord
100
AcDbViewportTableRecord
  2
*ACTIVE
 70
     0
 10
0.0
 20
0.0
 11
1.0
 21
1.0
 12
136.827164
 22
21.381318
 13
0.0
 23
0.0
 14
1.0
 24
1.0
 15
10.0
 25
10.0
 16
0.0
 26
0.0
 36
1.0
 17
0.0
 27
0.0
 37
0.0
 40
138.655941
 41
1.966667
 42
50.0
 43
0.0
 44
0.0
 50
0.0
 51
0.0
 71
     0
 72
   100
 73
     1
 74
     1
 75
     0
 76
     1
 77
     0
 78
     0
  0
ENDTAB
  0
TABLE
  2
LTYPE
  5
F1
100
AcDbSymbolTable
 70
     5
  0
LTYPE
  5
FD
100
AcDbSymbolTableRecord
100
AcDbLinetypeTableRecord
  2
BYBLOCK
 70
     0
  3

 72
    65
 73
     0
 40
0.0
  0
LTYPE
  5
FE
100
AcDbSymbolTableRecord
100
AcDbLinetypeTableRecord
  2
BYLAYER
 70
     0
  3

 72
    65
 73
     0
 40
0.0
  0
LTYPE
  5
FF
100
AcDbSymbolTableRecord
100
AcDbLinetypeTableRecord
  2
CONTINUOUS
 70
     0
  3
Solid line
 72
    65
 73
     0
 40
0.0
  0
ENDTAB
  0
TABLE
  2
LAYER
  5
EE
100
AcDbSymbolTable
 70
     5
  0
LAYER
  5
FA
100
AcDbSymbolTableRecord
100
AcDbLayerTableRecord
  2
0
 70
     0
 62
     7
  6
CONTINUOUS
  0
LAYER
  5
12C
100
AcDbSymbolTableRecord
100
AcDbLayerTableRecord
  2
ALPHA
 70
     0
 62
   255
  6
CONTINUOUS
  0
LAYER
  5
12F
100
AcDbSymbolTableRecord
100
AcDbLayerTableRecord
  2
COTATION1
 70
     0
 62
     2
  6
CONTINUOUS
  0
LAYER
  5
13B
100
AcDbSymbolTableRecord
100
AcDbLayerTableRecord
  2
ASHADE
 70
     0
 62
     7
  6
CONTINUOUS
  0
LAYER
  5
13E
100
AcDbSymbolTableRecord
100
AcDbLayerTableRecord
  2
DEFPOINTS
 70
     0
 62
     7
  6
CONTINUOUS
  0
ENDTAB
  0
TABLE
  2
STYLE
  5
EF
100
AcDbSymbolTable
 70
     2
  0
STYLE
  5
FB
100
AcDbSymbolTableRecord
100
AcDbTextStyleTableRecord
  2
STANDARD
 70
     0
 40
0.0
 41
1.0
 50
0.0
 71
     0
 42
2.5
  3
txt
  4

  0
ENDTAB
  0
TABLE
  2
VIEW
  5
F2
100
AcDbSymbolTable
 70
     0
  0
ENDTAB
  0
TABLE
  2
UCS
  5
F3
100
AcDbSymbolTable
 70
     0
  0
ENDTAB
  0
TABLE
  2
APPID
  5
F5
100
AcDbSymbolTable
 70
     3
  0
APPID
  5
FC
100
AcDbSymbolTableRecord
100
AcDbRegAppTableRecord
  2
ACAD
 70
     0
  0
APPID
  5
127
100
AcDbSymbolTableRecord
100
AcDbRegAppTableRecord
  2
AVE_RENDER
 70
     0
  0
APPID
  5
128
100
AcDbSymbolTableRecord
100
AcDbRegAppTableRecord
  2
AVE_MATERIAL
 70
     0
  0
ENDTAB
  0
TABLE
  2
DIMSTYLE
  5
F6
100
AcDbSymbolTable
 70
     2
  0
DIMSTYLE
105
129
100
AcDbSymbolTableRecord
100
AcDbDimStyleTableRecord
  2
STANDARD
 70
     0
  3

  4

  5

  6

  7

 40
1.0
 41
0.18
 42
0.0625
 43
0.38
 44
0.18
 45
0.0
 46
0.0
 47
0.0
 48
0.0
140
0.18
141
0.09
142
0.0
143
25.4
144
1.0
145
0.0
146
1.0
147
0.09
 71
     0
 72
     0
 73
     1
 74
     1
 75
     0
 76
     0
 77
     0
 78
     0
170
     0
171
     2
172
     0
173
     0
174
     0
175
     0
176
     0
177
     0
178
     0
270
     2
271
     3
272
     3
273
     2
274
     2
340
FB
275
     0
280
     0
281
     0
282
     0
283
     1
284
    12
285
    12
286
    12
287
     5
288
     0
  0
DIMSTYLE
105
12A
102
{ACAD_REACTORS
330
D38
330
D47
102
}
100
AcDbSymbolTableRecord
100
AcDbDimStyleTableRecord
  2
SC_STAND
 70
     0
  3

  4

  5

  6

  7

 40
1.0
 41
3.0
 42
0.0625
 43
0.38
 44
0.18
 45
0.01
 46
0.0
 47
0.0
 48
0.0
140
2.5
141
0.09
142
0.0
143
25.4
144
1.0
145
0.0
146
1.0
147
1.0
 71
     0
 72
     0
 73
     0
 74
     0
 75
     0
 76
     0
 77
     1
 78
    12
170
     0
171
     2
172
     1
173
     0
174
     0
175
     0
176
     0
177
     0
178
     0
270
     2
271
     3
272
     3
273
     2
274
     2
340
FB
275
     0
280
     0
281
     0
282
     0
283
     1
284
    12
285
    12
286
    12
287
     5
288
     0
  0
ENDTAB
  0
TABLE
  2
BLOCK_RECORD
  5
ED
100
AcDbSymbolTable
 70
     9
  0
BLOCK_RECORD
  5
103
100
AcDbSymbolTableRecord
100
AcDbBlockTableRecord
  2
*MODEL_SPACE
  0
BLOCK_RECORD
  5
100
100
AcDbSymbolTableRecord
100
AcDbBlockTableRecord
  2
*PAPER_SPACE
  0
BLOCK_RECORD
  5
108
100
AcDbSymbolTableRecord
100
AcDbBlockTableRecord
  2
AVE_RENDER
  0
BLOCK_RECORD
  5
109
100
AcDbSymbolTableRecord
100
AcDbBlockTableRecord
  2
AVE_GLOBAL
  0
BLOCK_RECORD
  5
10A
100
AcDbSymbolTableRecord
100
AcDbBlockTableRecord
  2
SCH_IS
  0
BLOCK_RECORD
  5
D2C
100
AcDbSymbolTableRecord
100
AcDbBlockTableRecord
  2
*D7
  0
BLOCK_RECORD
  5
D39
100
AcDbSymbolTableRecord
100
AcDbBlockTableRecord
  2
*D8
  0
ENDTAB
  0
ENDSEC
  0
SECTION
  2
BLOCKS
  0
BLOCK
  5
141
100
AcDbEntity
  8
0
100
AcDbBlockBegin
  2
*MODEL_SPACE
 70
     0
 10
0.0
 20
0.0
 30
0.0
  3
*MODEL_SPACE
  1

  0
ENDBLK
  5
142
100
AcDbEntity
  8
0
100
AcDbBlockEnd
  0
BLOCK
  5
13F
100
AcDbEntity
 67
     1
  8
0
100
AcDbBlockBegin
  2
*PAPER_SPACE
 70
     0
 10
0.0
 20
0.0
 30
0.0
  3
*PAPER_SPACE
  1

  0
ENDBLK
  5
140
100
AcDbEntity
 67
     1
  8
0
100
AcDbBlockEnd
  0
BLOCK
  5
8D
100
AcDbEntity
  8
0
100
AcDbBlockBegin
  2
AVE_RENDER
 70
     0
 10
0.0
 20
0.0
 30
0.0
  3
AVE_RENDER
  1
AVE_RENDER
  0
ENDBLK
  5
8E
100
AcDbEntity
  8
0
100
AcDbBlockEnd
  0
BLOCK
  5
90
100
AcDbEntity
  8
0
100
AcDbBlockBegin
  2
AVE_GLOBAL
 70
     0
 10
0.0
 20
0.0
 30
0.0
  3
AVE_GLOBAL
  1
AVE_GLOBAL
  0
ENDBLK
  5
91
100
AcDbEntity
  8
0
100
AcDbBlockEnd
  0
BLOCK
  5
C9
100
AcDbEntity
  8
0
100
AcDbBlockBegin
  2
SCH_IS
 70
     0
 10
0.0
 20
0.0
 30
0.0
  3
SCH_IS
  1

  0
INSERT
  5
C0
100
AcDbEntity
  8
ASHADE
 62
     1
100
AcDbBlockReference
  2
AVE_RENDER
 10
0.0
 20
0.0
 30
0.0
1001
AVE_RENDER
1002
{
1070
     6
1000
Pref
1070
    50
1070
    20
1070
     1
1070
     0
1000

1070
    10
1070
     1
1070
    30
1040
25.4
1070
     1
1040
0.3
1040
0.7
1040
0.0
1040
10.0
1010
-1.0
1020
-1.0
1030
-1.0
1040
0.3
1070
    49
1070
     0
1070
     0
1010
1.0
1020
1.0
1030
1.0
1040
45.0
1070
     1
1070
     0
1000
WCS
1040
0.0
1002
}
  0
INSERT
  5
C1
100
AcDbEntity
  8
ASHADE
 62
     3
100
AcDbBlockReference
  2
AVE_RENDER
 10
0.0
 20
0.0
 30
0.0
1001
AVE_RENDER
1002
{
1070
     0
1000
Full Opt
1070
     0
1070
     1
1070
     1
1070
     1
1070
     0
1070
     0
1070
     0
1070
     1
1070
     1
1040
0.0001
1040
0.0001
1002
}
  0
INSERT
  5
C2
100
AcDbEntity
  8
ASHADE
 62
     4
100
AcDbBlockReference
  2
AVE_RENDER
 10
0.0
 20
0.0
 30
0.0
1001
AVE_RENDER
1002
{
1070
     0
1000
Quick Opt
1070
     0
1070
     1
1070
     1
1070
     1
1070
     0
1070
     0
1070
     1
1002
}
  0
INSERT
  5
C3
100
AcDbEntity
  8
ASHADE
 62
     5
100
AcDbBlockReference
  2
AVE_RENDER
 10
0.0
 20
0.0
 30
0.0
1001
AVE_RENDER
1002
{
1070
     1
1000
Scanl Opt
1070
     2
1070
     0
1070
     2
1040
2.0
1040
4.0
1070
     0
1070
     1
1070
     0
1040
0.03
1002
}
  0
INSERT
  5
C4
100
AcDbEntity
  8
ASHADE
 62
     6
100
AcDbBlockReference
  2
AVE_RENDER
 10
0.0
 20
0.0
 30
0.0
1001
AVE_RENDER
1002
{
1070
     2
1000
Raytr Opt
1070
     2
1070
     0
1070
     2
1040
2.0
1040
4.0
1070
     0
1070
     1
1070
     1
1040
0.03
1070
     3
1040
0.03
1002
}
  0
INSERT
  5
C5
100
AcDbEntity
  8
ASHADE
 62
     7
100
AcDbBlockReference
  2
AVE_RENDER
 10
0.0
 20
0.0
 30
0.0
1001
AVE_RENDER
1002
{
1070
     0
1000
RFile Opt
1070
     5
1070
   640
1070
   480
1070
 10000
1070
     3
1070
    32
1070
    24
1070
     0
1070
     0
1070
     0
1070
     1
1070
     0
1070
     0
1070
     0
1002
}
  0
INSERT
  5
C6
100
AcDbEntity
  8
ASHADE
 62
     8
100
AcDbBlockReference
  2
AVE_RENDER
 10
0.0
 20
0.0
 30
0.0
1001
AVE_RENDER
1002
{
1070
     0
1000
Fog Opt
1070
     0
1070
     0
1040
0.0
1040
1.0
1040
0.0
1040
1.0
1010
0.5
1020
0.5
1030
0.5
1002
}
  0
INSERT
  5
C7
100
AcDbEntity
  8
ASHADE
 62
     9
100
AcDbBlockReference
  2
AVE_RENDER
 10
0.0
 20
0.0
 30
0.0
1001
AVE_RENDER
1002
{
1070
     0
1000
BG Opt
1070
     0
1070
     1
1010
0.0
1020
0.0
1030
0.0
1010
1.0
1020
0.0
1030
0.0
1010
0.0
1020
1.0
1030
0.0
1010
0.0
1020
0.0
1030
1.0
1040
0.5
1040
0.33
1040
0.0
1000

1070
     1
1000

1070
     1
1070
     1
1040
1.0
1040
1.0
1040
0.0
1040
0.0
1070
     0
1002
}
  0
INSERT
  5
C8
100
AcDbEntity
  8
ASHADE
 62
     1
100
AcDbBlockReference
  2
AVE_GLOBAL
 10
0.0
 20
0.0
 30
0.0
1001
AVE_MATERIAL
1002
{
1000
*GLOBAL*
1000
1
1000
Finition globale.
1002
{
1002
}
1002
{
1070
    63
1002
{
1002
{
1010
-1.0
1020
-1.0
1030
-1.0
1002
}
1040
0.1
1000

1040
0.0
1002
{
1002
}
1040
0.0
1002
{
1002
}
1040
0.0
1002
}
1002
{
1002
{
1010
-1.0
1020
-1.0
1030
-1.0
1002
}
1040
0.7
1000

1040
0.0
1002
{
1002
}
1040
0.0
1002
{
1002
}
1040
0.0
1002
}
1002
{
1002
{
1010
-1.0
1020
-1.0
1030
-1.0
1002
}
1040
0.2
1000

1040
0.0
1002
{
1002
}
1040
0.0
1002
{
1002
}
1040
0.0
1002
}
1002
{
1070
     0
1002
{
1070
     1
1002
{
1040
1.0
1040
1.0
1000

1040
0.0
1002
{
1002
}
1040
0.0
1002
{
1002
}
1040
0.0
1002
}
1002
}
1040
1.0
1040
0.0
1040
0.0
1002
}
1002
{
1040
1.0
1040
1.0
1000

1040
0.0
1002
{
1002
}
1040
0.0
1002
{
1002
}
1040
0.0
1002
}
1002
{
1040
0.5
1040
1.0
1000

1040
0.0
1002
{
1002
}
1040
0.0
1002
{
1002
}
1040
0.0
1002
}
1002
{
1070
     0
1040
0.0
1002
{
1002
}
1040
1.0
1002
{
1002
}
1040
0.0
1002
}
1002
{
1040
0.0
1002
{
1002
{
1010
0.0
1020
0.0
1030
0.0
1002
}
1040
1.0
1000

1040
0.0
1002
{
1002
}
1040
0.0
1002
{
1002
}
1040
0.0
1002
}
1002
}
1002
{
1002
{
1070
     1
1002
{
1040
0.0
1040
1.0
1000

1040
0.0
1002
{
1002
}
1040
0.0
1002
{
1002
}
1040
0.0
1002
}
1002
}
1040
0.0
1002
{
1002
}
1010
1.0
1020
0.0
1030
0.0
1010
0.0
1020
1.0
1030
0.0
1010
0.0
1020
0.0
1030
1.0
1070
     0
1002
}
1002
{
1002
{
1040
1.0
1040
1.0
1002
{
1070
     1
1002
{
1040
1.0
1040
1.0
1000

1040
0.0
1002
{
1002
}
1040
0.0
1002
{
1002
}
1040
0.0
1002
}
1002
}
1002
}
1070
     0
1040
0.0
1002
{
1002
}
1002
}
1002
{
1002
}
1002
}
1002
{
1071
        3
1070
     3
1070
     0
1002
{
1070
     2
1070
     0
1070
     0
1040
0.0
1002
}
1070
     0
1070
     2
1002
{
1002
}
1002
}
1002
{
1040
8030.0
1040
190.300003
1040
0.305
1040
228.0
1040
545.0
1040
14.0
1040
17.4
1040
0.456
1002
}
1002
}
  0
ENDBLK
  5
CA
100
AcDbEntity
  8
0
100
AcDbBlockEnd
  0
BLOCK
  5
D2D
100
AcDbEntity
  8
0
100
AcDbBlockBegin
  2
*D7
 70
     1
 10
0.0
 20
0.0
 30
0.0
  3
*D7
  1

  0
LINE
  5
D2E
100
AcDbEntity
  8
0
  6
BYBLOCK
 62
     0
100
AcDbLine
 10
1.300036
 20
2.402501
 30
0.0
 11
1.300036
 21
-7.391061
 31
0.0
  0
LINE
  5
D2F
100
AcDbEntity
  8
0
  6
BYBLOCK
 62
     0
100
AcDbLine
 10
261.300187
 20
21.402547
 30
0.0
 11
261.300187
 21
-7.391061
 31
0.0
  0
LINE
  5
D30
100
AcDbEntity
  8
0
  6
BYBLOCK
 62
     0
100
AcDbLine
 10
4.300036
 20
-7.211061
 30
0.0
 11
258.300187
 21
-7.211061
 31
0.0
  0
SOLID
  5
D31
100
AcDbEntity
  8
0
  6
BYBLOCK
 62
     0
100
AcDbTrace
 10
4.300036
 20
-6.711061
 30
0.0
 11
4.300036
 21
-7.711061
 31
0.0
 12
1.300036
 22
-7.211061
 32
0.0
 13
1.300036
 23
-7.211061
 33
0.0
  0
SOLID
  5
D32
100
AcDbEntity
  8
0
  6
BYBLOCK
 62
     0
100
AcDbTrace
 10
258.300187
 20
-6.711061
 30
0.0
 11
258.300187
 21
-7.711061
 31
0.0
 12
261.300187
 22
-7.211061
 32
0.0
 13
261.300187
 23
-7.211061
 33
0.0
  0
MTEXT
  5
D33
100
AcDbEntity
  8
0
  6
BYBLOCK
 62
     0
100
AcDbMText
 10
131.300112
 20
-4.961061
 30
0.0
 40
2.5
 41
0.0
 71
     5
 72
     1
  1
\A1;260
  0
POINT
  5
D34
100
AcDbEntity
  8
DEFPOINTS
  6
BYBLOCK
 62
     0
100
AcDbPoint
 10
1.300036
 20
2.465001
 30
0.0
  0
POINT
  5
D35
100
AcDbEntity
  8
DEFPOINTS
  6
BYBLOCK
 62
     0
100
AcDbPoint
 10
261.300187
 20
21.465047
 30
0.0
  0
POINT
  5
D36
100
AcDbEntity
  8
DEFPOINTS
  6
BYBLOCK
 62
     0
100
AcDbPoint
 10
261.300187
 20
-7.211061
 30
0.0
  0
ENDBLK
  5
D37
100
AcDbEntity
  8
0
100
AcDbBlockEnd
  0
BLOCK
  5
D70
100
AcDbEntity
  8
0
100
AcDbBlockBegin
  2
*D8
 70
     1
 10
0.0
 20
0.0
 30
0.0
  3
*D8
  1

  0
LINE
  5
D71
100
AcDbEntity
  8
0
  6
BYBLOCK
 62
     0
100
AcDbLine
 10
261.362687
 20
29.464903
 30
0.0
 11
272.037663
 21
29.464903
 31
0.0
  0
LINE
  5
D72
100
AcDbEntity
  8
0
  6
BYBLOCK
 62
     0
100
AcDbLine
 10
261.362687
 20
21.465047
 30
0.0
 11
272.037663
 21
21.465047
 31
0.0
  0
LINE
  5
D73
100
AcDbEntity
  8
0
  6
BYBLOCK
 62
     0
100
AcDbLine
 10
271.857663
 20
32.464903
 30
0.0
 11
271.857663
 21
35.464903
 31
0.0
  0
LINE
  5
D74
100
AcDbEntity
  8
0
  6
BYBLOCK
 62
     0
100
AcDbLine
 10
271.857663
 20
18.465047
 30
0.0
 11
271.857663
 21
15.465047
 31
0.0
  0
LINE
  5
D75
100
AcDbEntity
  8
0
  6
BYBLOCK
 62
     0
100
AcDbLine
 10
271.857663
 20
29.464903
 30
0.0
 11
271.857663
 21
21.465047
 31
0.0
  0
SOLID
  5
D76
100
AcDbEntity
  8
0
  6
BYBLOCK
 62
     0
100
AcDbTrace
 10
271.357663
 20
32.464903
 30
0.0
 11
272.357663
 21
32.464903
 31
0.0
 12
271.857663
 22
29.464903
 32
0.0
 13
271.857663
 23
29.464903
 33
0.0
  0
SOLID
  5
D77
100
AcDbEntity
  8
0
  6
BYBLOCK
 62
     0
100
AcDbTrace
 10
271.357663
 20
18.465047
 30
0.0
 11
272.357663
 21
18.465047
 31
0.0
 12
271.857663
 22
21.465047
 32
0.0
 13
271.857663
 23
21.465047
 33
0.0
  0
MTEXT
  5
D78
100
AcDbEntity
  8
0
  6
BYBLOCK
 62
     0
100
AcDbMText
 10
269.583657
 20
25.464975
 30
0.0
 40
2.5
 41
0.0
 71
     5
 72
     1
  1
\A1;\fGraphSch|b0|i0|c0|p0;\C256;U\Ftxt.shx;\H2.5;\C0;8
 11
0.0
 21
1.0
 31
0.0
  0
POINT
  5
D79
100
AcDbEntity
  8
DEFPOINTS
  6
BYBLOCK
 62
     0
100
AcDbPoint
 10
261.300187
 20
29.464903
 30
0.0
  0
POINT
  5
D7A
100
AcDbEntity
  8
DEFPOINTS
  6
BYBLOCK
 62
     0
100
AcDbPoint
 10
261.300187
 20
21.465047
 30
0.0
  0
POINT
  5
D7B
100
AcDbEntity
  8
DEFPOINTS
  6
BYBLOCK
 62
     0
100
AcDbPoint
 10
271.857663
 20
21.465047
 30
0.0
  0
ENDBLK
  5
D7C
100
AcDbEntity
  8
0
100
AcDbBlockEnd
  0
ENDSEC
  0
SECTION
  2
ENTITIES
  0
INSERT
  5
CC
100
AcDbEntity
  8
0
100
AcDbBlockReference
  2
SCH_IS
 10
-68.718396
 20
-140.042541
 30
0.0
  0
INSERT
  5
EC
100
AcDbEntity
  8
COTATION1
100
AcDbBlockReference
  2
SCH_IS
 10
0.0
 20
0.0
 30
0.0
  0
LINE
  5
CFB
100
AcDbEntity
  8
ALPHA
100
AcDbLine
 10
61.299992
 20
21.465047
 30
0.0
 11
234.050171
 21
21.465047
 31
0.0
  0
LINE
  5
CFC
100
AcDbEntity
  8
ALPHA
100
AcDbLine
 10
234.050171
 20
29.464903
 30
0.0
 11
61.299992
 21
29.464903
 31
0.0
  0
LINE
  5
CFD
100
AcDbEntity
  8
ALPHA
100
AcDbLine
 10
3.300087
 20
50.465172
 30
0.0
 11
3.300087
 21
0.465123
 31
0.0
  0
LINE
  5
CFE
100
AcDbEntity
  8
ALPHA
100
AcDbLine
 10
58.300002
 20
33.465348
 30
0.0
 11
58.300002
 21
17.465291
 31
0.0
  0
LINE
  5
CFF
100
AcDbEntity
  8
ALPHA
100
AcDbLine
 10
50.300146
 20
17.465291
 30
0.0
 11
50.300146
 21
33.465348
 31
0.0
  0
CIRCLE
  5
D00
100
AcDbEntity
  8
ALPHA
100
AcDbCircle
 10
54.300074
 20
25.465147
 30
0.0
 40
3.999928
  0
CIRCLE
  5
D01
100
AcDbEntity
  8
ALPHA
100
AcDbCircle
 10
54.300247
 20
25.465147
 30
0.0
 40
2.999989
  0
LINE
  5
D02
100
AcDbEntity
  8
ALPHA
100
AcDbLine
 10
52.178757
 20
23.343657
 30
0.0
 11
56.421392
 21
27.586292
 31
0.0
  0
LINE
  5
D03
100
AcDbEntity
  8
ALPHA
100
AcDbLine
 10
48.300268
 20
33.465348
 30
0.0
 11
48.300268
 21
17.465291
 31
0.0
  0
LINE
  5
D04
100
AcDbEntity
  8
ALPHA
100
AcDbLine
 10
40.300412
 20
17.465291
 30
0.0
 11
40.300412
 21
33.465348
 31
0.0
  0
CIRCLE
  5
D05
100
AcDbEntity
  8
ALPHA
100
AcDbCircle
 10
44.30034
 20
25.465147
 30
0.0
 40
3.999928
  0
CIRCLE
  5
D06
100
AcDbEntity
  8
ALPHA
100
AcDbCircle
 10
44.300512
 20
25.465147
 30
0.0
 40
2.999989
  0
CIRCLE
  5
D07
100
AcDbEntity
  8
ALPHA
100
AcDbCircle
 10
44.30034
 20
25.465147
 30
0.0
 40
0.999939
  0
LINE
  5
D08
100
AcDbEntity
  8
ALPHA
100
AcDbLine
 10
38.300534
 20
33.465348
 30
0.0
 11
38.300534
 21
17.465291
 31
0.0
  0
LINE
  5
D09
100
AcDbEntity
  8
ALPHA
100
AcDbLine
 10
30.300678
 20
17.465291
 30
0.0
 11
30.300678
 21
33.465348
 31
0.0
  0
CIRCLE
  5
D0A
100
AcDbEntity
  8
ALPHA
100
AcDbCircle
 10
34.300606
 20
25.465147
 30
0.0
 40
3.999928
  0
CIRCLE
  5
D0B
100
AcDbEntity
  8
ALPHA
100
AcDbCircle
 10
34.300778
 20
25.465147
 30
0.0
 40
2.999989
  0
CIRCLE
  5
D0C
100
AcDbEntity
  8
ALPHA
100
AcDbCircle
 10
34.300606
 20
25.465147
 30
0.0
 40
0.999939
  0
LINE
  5
D0D
100
AcDbEntity
  8
ALPHA
100
AcDbLine
 10
61.299992
 20
33.465348
 30
0.0
 11
61.299992
 21
17.465291
 31
0.0
  0
LINE
  5
D0E
100
AcDbEntity
  8
ALPHA
100
AcDbLine
 10
9.300065
 20
36.464993
 30
0.0
 11
9.300065
 21
14.464957
 31
0.0
  0
LINE
  5
D0F
100
AcDbEntity
  8
ALPHA
100
AcDbLine
 10
7.300015
 20
50.465172
 30
0.0
 11
7.300015
 21
0.465123
 31
0.0
  0
LINE
  5
D10
100
AcDbEntity
  8
ALPHA
100
AcDbLine
 10
1.300036
 20
2.465001
 30
0.0
 11
1.300036
 21
48.465294
 31
0.0
  0
LINE
  5
D11
100
AcDbEntity
  8
ALPHA
100
AcDbLine
 10
61.299992
 20
17.465291
 30
0.0
 11
9.300065
 21
17.465291
 31
0.0
  0
LINE
  5
D12
100
AcDbEntity
  8
ALPHA
100
AcDbLine
 10
3.300087
 20
0.465123
 30
0.0
 11
1.300036
 21
2.465001
 31
0.0
  0
LINE
  5
D13
100
AcDbEntity
  8
ALPHA
100
AcDbLine
 10
7.300015
 20
0.465123
 30
0.0
 11
3.300087
 21
0.465123
 31
0.0
  0
LINE
  5
D14
100
AcDbEntity
  8
ALPHA
100
AcDbLine
 10
9.300065
 20
14.464957
 30
0.0
 11
7.300015
 21
14.464957
 31
0.0
  0
LINE
  5
D15
100
AcDbEntity
  8
ALPHA
100
AcDbLine
 10
9.300065
 20
33.465348
 30
0.0
 11
61.299992
 21
33.465348
 31
0.0
  0
LINE
  5
D16
100
AcDbEntity
  8
ALPHA
100
AcDbLine
 10
7.300015
 20
36.464993
 30
0.0
 11
9.300065
 21
36.464993
 31
0.0
  0
LINE
  5
D17
100
AcDbEntity
  8
ALPHA
100
AcDbLine
 10
1.300036
 20
48.465294
 30
0.0
 11
3.300087
 21
50.465172
 31
0.0
  0
LINE
  5
D18
100
AcDbEntity
  8
ALPHA
100
AcDbLine
 10
3.300087
 20
50.465172
 30
0.0
 11
7.300015
 21
50.465172
 31
0.0
  0
LINE
  5
D19
100
AcDbEntity
  8
ALPHA
100
AcDbLine
 10
236.550276
 20
18.465058
 30
0.0
 11
236.550276
 21
32.464892
 31
0.0
  0
LINE
  5
D1A
100
AcDbEntity
  8
ALPHA
100
AcDbLine
 10
261.300187
 20
21.465047
 30
0.0
 11
261.300187
 21
29.464903
 31
0.0
  0
LINE
  5
D1B
100
AcDbEntity
  8
ALPHA
100
AcDbLine
 10
237.300274
 20
5.965218
 30
0.0
 11
237.300274
 21
44.965077
 31
0.0
  0
LINE
  5
D1C
100
AcDbEntity
  8
ALPHA
100
AcDbLine
 10
241.30003
 20
44.965077
 30
0.0
 11
241.30003
 21
5.965218
 31
0.0
  0
LINE
  5
D1D
100
AcDbEntity
  8
ALPHA
100
AcDbLine
 10
234.050171
 20
6.465101
 30
0.0
 11
234.050171
 21
44.465193
 31
0.0
  0
LINE
  5
D1E
100
AcDbEntity
  8
ALPHA
100
AcDbLine
 10
235.050282
 20
44.465193
 30
0.0
 11
235.050282
 21
6.465101
 31
0.0
  0
LINE
  5
D1F
100
AcDbEntity
  8
ALPHA
100
AcDbLine
 10
241.30003
 20
5.965218
 30
0.0
 11
237.300274
 21
5.965218
 31
0.0
  0
LINE
  5
D20
100
AcDbEntity
  8
ALPHA
100
AcDbLine
 10
235.050282
 20
6.465101
 30
0.0
 11
234.050171
 21
6.465101
 31
0.0
  0
LINE
  5
D21
100
AcDbEntity
  8
ALPHA
100
AcDbLine
 10
241.30003
 20
21.465047
 30
0.0
 11
261.300187
 21
21.465047
 31
0.0
  0
LINE
  5
D22
100
AcDbEntity
  8
ALPHA
100
AcDbLine
 10
237.300274
 20
11.331298
 30
0.0
 11
241.30003
 21
11.331298
 31
0.0
  0
LINE
  5
D23
100
AcDbEntity
  8
ALPHA
100
AcDbLine
 10
237.300274
 20
18.465058
 30
0.0
 11
236.550276
 21
18.465058
 31
0.0
  0
LINE
  5
D24
100
AcDbEntity
  8
ALPHA
100
AcDbLine
 10
236.550276
 20
19.465169
 30
0.0
 11
235.050282
 21
19.465169
 31
0.0
  0
LINE
  5
D25
100
AcDbEntity
  8
ALPHA
100
AcDbLine
 10
261.300187
 20
29.464903
 30
0.0
 11
241.30003
 21
29.464903
 31
0.0
  0
LINE
  5
D26
100
AcDbEntity
  8
ALPHA
100
AcDbLine
 10
235.050282
 20
31.465125
 30
0.0
 11
236.550276
 21
31.465125
 31
0.0
  0
LINE
  5
D27
100
AcDbEntity
  8
ALPHA
100
AcDbLine
 10
236.550276
 20
32.464892
 30
0.0
 11
237.300274
 21
32.464892
 31
0.0
  0
LINE
  5
D28
100
AcDbEntity
  8
ALPHA
100
AcDbLine
 10
237.300274
 20
38.331201
 30
0.0
 11
241.30003
 21
38.331201
 31
0.0
  0
LINE
  5
D29
100
AcDbEntity
  8
ALPHA
100
AcDbLine
 10
237.300274
 20
44.965077
 30
0.0
 11
241.30003
 21
44.965077
 31
0.0
  0
LINE
  5
D2A
100
AcDbEntity
  8
ALPHA
100
AcDbLine
 10
234.050171
 20
44.465193
 30
0.0
 11
235.050282
 21
44.465193
 31
0.0
  0
DIMENSION
  5
D38
100
AcDbEntity
  8
COTATION1
100
AcDbDimension
  2
*D7
 10
261.300187
 20
-7.211061
 30
0.0
 11
131.300112
 21
-4.961061
 31
0.0
 70
    32
  3
SC_STAND
100
AcDbAlignedDimension
 13
1.300036
 23
2.465001
 33
0.0
 14
261.300187
 24
21.465047
 34
0.0
100
AcDbRotatedDimension
  0
DIMENSION
  5
D47
100
AcDbEntity
  8
COTATION1
100
AcDbDimension
  2
*D8
 10
271.857663
 20
21.465047
 30
0.0
 11
269.583657
 21
25.464975
 31
0.0
 70
    32
  1
\fGraphSch|b0|i0|c0|p0;\C256;U\Ftxt.shx;\H2.5;\C0;<>
  3
SC_STAND
100
AcDbAlignedDimension
 13
261.300187
 23
29.464903
 33
0.0
 14
261.300187
 24
21.465047
 34
0.0
 50
90.0
100
AcDbRotatedDimension
  0
ENDSEC
  0
SECTION
  2
OBJECTS
  0
DICTIONARY
  5
F8
100
AcDbDictionary
  3
ACAD_GROUP
350
F9
  3
ACAD_MLINESTYLE
350
106
  3
ACDBVARIABLEDICTIONARY
350
143
  0
DICTIONARY
  5
F9
102
{ACAD_REACTORS
330
F8
102
}
100
AcDbDictionary
  0
DICTIONARY
  5
106
102
{ACAD_REACTORS
330
F8
102
}
100
AcDbDictionary
  3
STANDARD
350
107
  0
DICTIONARY
  5
143
102
{ACAD_REACTORS
330
F8
102
}
100
AcDbDictionary
  3
DIMADEC
350
144
  0
MLINESTYLE
  5
107
102
{ACAD_REACTORS
330
106
102
}
100
AcDbMlineStyle
  2
STANDARD
 70
     0
  3

 62
   256
 51
90.0
 52
90.0
 71
     2
 49
0.5
 62
   256
  6
BYLAYER
 49
-0.5
 62
   256
  6
BYLAYER
  0
DICTIONARYVAR
  5
144
102
{ACAD_REACTORS
330
143
102
}
100
DictionaryVariables
280
     0
  1
0
  0
ENDSEC
  0
EOF
