  0
SECTION
  2
HEADER
  9
$ACADVER
  1
AC1014
  9
$ACADMAINTVER
 70
     0
  9
$DWGCODEPAGE
  3
ANSI_1252
  9
$INSBASE
 10
-121.956618
 20
-286.506969
 30
0.0
  9
$EXTMIN
 10
-132.963775
 20
-298.399914
 30
0.0
  9
$EXTMAX
 10
58.211397
 20
-100.79051
 30
64.15
  9
$LIMMIN
 10
0.0
 20
0.0
  9
$LIMMAX
 10
12.0
 20
9.0
  9
$ORTHOMODE
 70
     1
  9
$REGENMODE
 70
     1
  9
$FILLMODE
 70
     1
  9
$QTEXTMODE
 70
     0
  9
$MIRRTEXT
 70
     1
  9
$DRAGMODE
 70
     2
  9
$LTSCALE
 40
11.8638
  9
$OSMODE
 70
    32
  9
$ATTMODE
 70
     1
  9
$TEXTSIZE
 40
0.2
  9
$TRACEWID
 40
0.05
  9
$TEXTSTYLE
  7
STANDARD
  9
$CLAYER
  8
ALPHA
  9
$CELTYPE
  6
BYLAYER
  9
$CECOLOR
 62
   256
  9
$CELTSCALE
 40
1.0
  9
$DELOBJ
 70
     1
  9
$DISPSILH
 70
     0
  9
$DIMSCALE
 40
1.0
  9
$DIMASZ
 40
3.0
  9
$DIMEXO
 40
0.0625
  9
$DIMDLI
 40
0.38
  9
$DIMRND
 40
0.01
  9
$DIMDLE
 40
0.0
  9
$DIMEXE
 40
0.18
  9
$DIMTP
 40
0.0
  9
$DIMTM
 40
0.0
  9
$DIMTXT
 40
2.5
  9
$DIMCEN
 40
0.09
  9
$DIMTSZ
 40
0.0
  9
$DIMTOL
 70
     0
  9
$DIMLIM
 70
     0
  9
$DIMTIH
 70
     0
  9
$DIMTOH
 70
     0
  9
$DIMSE1
 70
     0
  9
$DIMSE2
 70
     0
  9
$DIMTAD
 70
     1
  9
$DIMZIN
 70
    12
  9
$DIMBLK
  1

  9
$DIMASO
 70
     1
  9
$DIMSHO
 70
     1
  9
$DIMPOST
  1

  9
$DIMAPOST
  1

  9
$DIMALT
 70
     0
  9
$DIMALTD
 70
     2
  9
$DIMALTF
 40
25.4
  9
$DIMLFAC
 40
1.0
  9
$DIMTOFL
 70
     1
  9
$DIMTVP
 40
0.0
  9
$DIMTIX
 70
     0
  9
$DIMSOXD
 70
     0
  9
$DIMSAH
 70
     0
  9
$DIMBLK1
  1

  9
$DIMBLK2
  1

  9
$DIMSTYLE
  2
SC_STAND
  9
$DIMCLRD
 70
     0
  9
$DIMCLRE
 70
     0
  9
$DIMCLRT
 70
     0
  9
$DIMTFAC
 40
1.0
  9
$DIMGAP
 40
1.0
  9
$DIMJUST
 70
     0
  9
$DIMSD1
 70
     0
  9
$DIMSD2
 70
     0
  9
$DIMTOLJ
 70
     1
  9
$DIMTZIN
 70
    12
  9
$DIMALTZ
 70
    12
  9
$DIMALTTZ
 70
    12
  9
$DIMFIT
 70
     5
  9
$DIMUPT
 70
     0
  9
$DIMUNIT
 70
     2
  9
$DIMDEC
 70
     4
  9
$DIMTDEC
 70
     4
  9
$DIMALTU
 70
     2
  9
$DIMALTTD
 70
     2
  9
$DIMTXSTY
  7
STANDARD
  9
$DIMAUNIT
 70
     0
  9
$LUNITS
 70
     2
  9
$LUPREC
 70
     4
  9
$SKETCHINC
 40
0.1
  9
$FILLETRAD
 40
0.0
  9
$AUNITS
 70
     0
  9
$AUPREC
 70
     0
  9
$MENU
  1
acad
  9
$ELEVATION
 40
0.0
  9
$PELEVATION
 40
0.0
  9
$THICKNESS
 40
0.0
  9
$LIMCHECK
 70
     0
  9
$BLIPMODE
 70
     1
  9
$CHAMFERA
 40
0.0
  9
$CHAMFERB
 40
0.0
  9
$CHAMFERC
 40
0.0
  9
$CHAMFERD
 40
0.0
  9
$SKPOLY
 70
     0
  9
$TDCREATE
 40
2451295.699137268
  9
$TDUPDATE
 40
2451387.894614687
  9
$TDINDWG
 40
0.0115318403
  9
$TDUSRTIMER
 40
0.0115318403
  9
$USRTIMER
 70
     1
  9
$ANGBASE
 50
0.0
  9
$ANGDIR
 70
     0
  9
$PDMODE
 70
     0
  9
$PDSIZE
 40
0.0
  9
$PLINEWID
 40
0.0
  9
$COORDS
 70
     1
  9
$SPLFRAME
 70
     0
  9
$SPLINETYPE
 70
     6
  9
$SPLINESEGS
 70
     8
  9
$ATTDIA
 70
     0
  9
$ATTREQ
 70
     1
  9
$HANDLING
 70
     1
  9
$HANDSEED
  5
814
  9
$SURFTAB1
 70
     6
  9
$SURFTAB2
 70
     6
  9
$SURFTYPE
 70
     6
  9
$SURFU
 70
     6
  9
$SURFV
 70
     6
  9
$UCSNAME
  2

  9
$UCSORG
 10
0.0
 20
0.0
 30
0.0
  9
$UCSXDIR
 10
1.0
 20
0.0
 30
0.0
  9
$UCSYDIR
 10
0.0
 20
1.0
 30
0.0
  9
$PUCSNAME
  2

  9
$PUCSORG
 10
0.0
 20
0.0
 30
0.0
  9
$PUCSXDIR
 10
1.0
 20
0.0
 30
0.0
  9
$PUCSYDIR
 10
0.0
 20
1.0
 30
0.0
  9
$USERI1
 70
     0
  9
$USERI2
 70
     0
  9
$USERI3
 70
     0
  9
$USERI4
 70
     0
  9
$USERI5
 70
     0
  9
$USERR1
 40
0.0
  9
$USERR2
 40
0.0
  9
$USERR3
 40
0.0
  9
$USERR4
 40
0.0
  9
$USERR5
 40
0.0
  9
$WORLDVIEW
 70
     1
  9
$SHADEDGE
 70
     3
  9
$SHADEDIF
 70
    70
  9
$TILEMODE
 70
     1
  9
$MAXACTVP
 70
    16
  9
$PINSBASE
 10
0.0
 20
0.0
 30
0.0
  9
$PLIMCHECK
 70
     0
  9
$PEXTMIN
 10
1.000000E+20
 20
1.000000E+20
 30
1.000000E+20
  9
$PEXTMAX
 10
-1.000000E+20
 20
-1.000000E+20
 30
-1.000000E+20
  9
$PLIMMIN
 10
0.0
 20
0.0
  9
$PLIMMAX
 10
12.0
 20
9.0
  9
$UNITMODE
 70
     0
  9
$VISRETAIN
 70
     0
  9
$PLINEGEN
 70
     0
  9
$PSLTSCALE
 70
     1
  9
$TREEDEPTH
 70
  3020
  9
$PICKSTYLE
 70
     1
  9
$CMLSTYLE
  2
STANDARD
  9
$CMLJUST
 70
     0
  9
$CMLSCALE
 40
1.0
  9
$PROXYGRAPHICS
 70
     1
  9
$MEASUREMENT
 70
     0
  0
ENDSEC
  0
SECTION
  2
CLASSES
  0
CLASS
  1
DICTIONARYVAR
  2
AcDbDictionaryVar
  3
"AutoCAD"
 90
        0
280
     0
281
     0
  0
CLASS
  1
LWPOLYLINE
  2
AcDbPolyline
  3
"AutoCAD"
 90
        0
280
     0
281
     1
  0
ENDSEC
  0
SECTION
  2
TABLES
  0
TABLE
  2
VPORT
  5
7B7
100
AcDbSymbolTable
 70
     1
  0
VPORT
  5
80F
100
AcDbSymbolTableRecord
100
AcDbViewportTableRecord
  2
*ACTIVE
 70
     0
 10
0.0
 20
0.0
 11
1.0
 21
1.0
 12
-34.368789
 22
-193.536662
 13
0.0
 23
0.0
 14
1.0
 24
1.0
 15
0.0
 25
0.0
 16
0.0
 26
0.0
 36
1.0
 17
0.0
 27
0.0
 37
0.0
 40
212.011216
 41
1.671053
 42
50.0
 43
0.0
 44
0.0
 50
0.0
 51
0.0
 71
     0
 72
   100
 73
     1
 74
     1
 75
     0
 76
     0
 77
     0
 78
     0
  0
ENDTAB
  0
TABLE
  2
LTYPE
  5
7B4
100
AcDbSymbolTable
 70
    23
  0
LTYPE
  5
7C0
100
AcDbSymbolTableRecord
100
AcDbLinetypeTableRecord
  2
BYBLOCK
 70
     0
  3

 72
    65
 73
     0
 40
0.0
  0
LTYPE
  5
7C1
100
AcDbSymbolTableRecord
100
AcDbLinetypeTableRecord
  2
BYLAYER
 70
     0
  3

 72
    65
 73
     0
 40
0.0
  0
LTYPE
  5
7C2
100
AcDbSymbolTableRecord
100
AcDbLinetypeTableRecord
  2
CONTINUOUS
 70
     0
  3
Ligne solide
 72
    65
 73
     0
 40
0.0
  0
LTYPE
  5
7D7
100
AcDbSymbolTableRecord
100
AcDbLinetypeTableRecord
  2
AXES
 70
     0
  3
____ _ ____ _ ____ _ ____ _ ____ _ ____ _ ____ 
 72
    65
 73
     4
 40
2.0
 49
1.25
 74
     0
 49
-0.25
 74
     0
 49
0.25
 74
     0
 49
-0.25
 74
     0
  0
LTYPE
  5
7D8
100
AcDbSymbolTableRecord
100
AcDbLinetypeTableRecord
  2
AXES2
 70
     0
  3
___ _ ___ _ ___ _ ___ _ ___ _ ___ _ ___ _ ___ _
 72
    65
 73
     4
 40
1.125
 49
0.75
 74
     0
 49
-0.125
 74
     0
 49
0.125
 74
     0
 49
-0.125
 74
     0
  0
LTYPE
  5
7D9
100
AcDbSymbolTableRecord
100
AcDbLinetypeTableRecord
  2
AXESX2
 70
     0
  3
________  __  ________  __  ________  __  _____
 72
    65
 73
     4
 40
4.0
 49
2.5
 74
     0
 49
-0.5
 74
     0
 49
0.5
 74
     0
 49
-0.5
 74
     0
  0
LTYPE
  5
7DA
100
AcDbSymbolTableRecord
100
AcDbLinetypeTableRecord
  2
TIRETPT
 70
     0
  3
__ . __ . __ . __ . __ . __ . __ . __ . __ . __
 72
    65
 73
     4
 40
1.0
 49
0.5
 74
     0
 49
-0.25
 74
     0
 49
0.0
 74
     0
 49
-0.25
 74
     0
  0
LTYPE
  5
7DB
100
AcDbSymbolTableRecord
100
AcDbLinetypeTableRecord
  2
TIRETPT2
 70
     0
  3
_._._._._._._._._._._._._._._._._._._._._._._._
 72
    65
 73
     4
 40
0.5
 49
0.25
 74
     0
 49
-0.125
 74
     0
 49
0.0
 74
     0
 49
-0.125
 74
     0
  0
LTYPE
  5
7DC
100
AcDbSymbolTableRecord
100
AcDbLinetypeTableRecord
  2
TIRETPTX2
 70
     0
  3
____  .  ____  .  ____  .  ____  .  ____  .  __
 72
    65
 73
     4
 40
2.0
 49
1.0
 74
     0
 49
-0.5
 74
     0
 49
0.0
 74
     0
 49
-0.5
 74
     0
  0
LTYPE
  5
7DD
100
AcDbSymbolTableRecord
100
AcDbLinetypeTableRecord
  2
DISCONTINU
 70
     0
  3
__ __ __ __ __ __ __ __ __ __ __ __ __ __ __ __
 72
    65
 73
     2
 40
0.75
 49
0.5
 74
     0
 49
-0.25
 74
     0
  0
LTYPE
  5
7DE
100
AcDbSymbolTableRecord
100
AcDbLinetypeTableRecord
  2
DISCONTINU2
 70
     0
  3
_ _ _ _ _ _ _ _ _ _ _ _ _ _ _ _ _ _ _ _ _ _ _ _
 72
    65
 73
     2
 40
0.375
 49
0.25
 74
     0
 49
-0.125
 74
     0
  0
LTYPE
  5
7DF
100
AcDbSymbolTableRecord
100
AcDbLinetypeTableRecord
  2
DISCONTINUX2
 70
     0
  3
____  ____  ____  ____  ____  ____  ____  ____ 
 72
    65
 73
     2
 40
1.5
 49
1.0
 74
     0
 49
-0.5
 74
     0
  0
LTYPE
  5
7E0
100
AcDbSymbolTableRecord
100
AcDbLinetypeTableRecord
  2
DIVISE
 70
     0
  3
____ . . ____ . . ____ . . ____ . . ____ . . __
 72
    65
 73
     6
 40
1.25
 49
0.5
 74
     0
 49
-0.25
 74
     0
 49
0.0
 74
     0
 49
-0.25
 74
     0
 49
0.0
 74
     0
 49
-0.25
 74
     0
  0
LTYPE
  5
7E1
100
AcDbSymbolTableRecord
100
AcDbLinetypeTableRecord
  2
DIVISE2
 70
     0
  3
__..__..__..__..__..__..__..__..__..__..__..__.
 72
    65
 73
     6
 40
0.625
 49
0.25
 74
     0
 49
-0.125
 74
     0
 49
0.0
 74
     0
 49
-0.125
 74
     0
 49
0.0
 74
     0
 49
-0.125
 74
     0
  0
LTYPE
  5
7E2
100
AcDbSymbolTableRecord
100
AcDbLinetypeTableRecord
  2
DIVISEX2
 70
     0
  3
________  .  .  ________  .  .  ________  .  . 
 72
    65
 73
     6
 40
2.5
 49
1.0
 74
     0
 49
-0.5
 74
     0
 49
0.0
 74
     0
 49
-0.5
 74
     0
 49
0.0
 74
     0
 49
-0.5
 74
     0
  0
LTYPE
  5
7E3
100
AcDbSymbolTableRecord
100
AcDbLinetypeTableRecord
  2
POINTILLE
 70
     0
  3
. . . . . . . . . . . . . . . . . . . . . . . .
 72
    65
 73
     2
 40
0.25
 49
0.0
 74
     0
 49
-0.25
 74
     0
  0
LTYPE
  5
7E4
100
AcDbSymbolTableRecord
100
AcDbLinetypeTableRecord
  2
POINTILLE2
 70
     0
  3
...............................................
 72
    65
 73
     2
 40
0.125
 49
0.0
 74
     0
 49
-0.125
 74
     0
  0
LTYPE
  5
7E5
100
AcDbSymbolTableRecord
100
AcDbLinetypeTableRecord
  2
POINTILLEX2
 70
     0
  3
.  .  .  .  .  .  .  .  .  .  .  .  .  .  .  . 
 72
    65
 73
     2
 40
0.5
 49
0.0
 74
     0
 49
-0.5
 74
     0
  0
LTYPE
  5
7E6
100
AcDbSymbolTableRecord
100
AcDbLinetypeTableRecord
  2
CACHE
 70
     0
  3
__ __ __ __ __ __ __ __ __ __ __ __ __ __ __ __
 72
    65
 73
     2
 40
0.375
 49
0.25
 74
     0
 49
-0.125
 74
     0
  0
LTYPE
  5
7E7
100
AcDbSymbolTableRecord
100
AcDbLinetypeTableRecord
  2
CACHE2
 70
     0
  3
_ _ _ _ _ _ _ _ _ _ _ _ _ _ _ _ _ _ _ _ _ _ _ _
 72
    65
 73
     2
 40
0.1875
 49
0.125
 74
     0
 49
-0.0625
 74
     0
  0
LTYPE
  5
7E8
100
AcDbSymbolTableRecord
100
AcDbLinetypeTableRecord
  2
CACHEX2
 70
     0
  3
____ ____ ____ ____ ____ ____ ____ ____ ____ __
 72
    65
 73
     2
 40
0.75
 49
0.5
 74
     0
 49
-0.25
 74
     0
  0
LTYPE
  5
7E9
100
AcDbSymbolTableRecord
100
AcDbLinetypeTableRecord
  2
FANTOME
 70
     0
  3
______  __  __  ______  __  __  ______  __  __ 
 72
    65
 73
     6
 40
2.5
 49
1.25
 74
     0
 49
-0.25
 74
     0
 49
0.25
 74
     0
 49
-0.25
 74
     0
 49
0.25
 74
     0
 49
-0.25
 74
     0
  0
LTYPE
  5
7EA
100
AcDbSymbolTableRecord
100
AcDbLinetypeTableRecord
  2
FANTOME2
 70
     0
  3
___ _ _ ___ _ _ ___ _ _ ___ _ _ ___ _ _ ___ _ _
 72
    65
 73
     6
 40
1.25
 49
0.625
 74
     0
 49
-0.125
 74
     0
 49
0.125
 74
     0
 49
-0.125
 74
     0
 49
0.125
 74
     0
 49
-0.125
 74
     0
  0
LTYPE
  5
7EB
100
AcDbSymbolTableRecord
100
AcDbLinetypeTableRecord
  2
FANTOMEX2
 70
     0
  3
____________    ____    ____    ____________   
 72
    65
 73
     6
 40
5.0
 49
2.5
 74
     0
 49
-0.5
 74
     0
 49
0.5
 74
     0
 49
-0.5
 74
     0
 49
0.5
 74
     0
 49
-0.5
 74
     0
  0
LTYPE
  5
7EC
100
AcDbSymbolTableRecord
100
AcDbLinetypeTableRecord
  2
0
 70
     0
  3
MEDUSA PEN 0
 72
    65
 73
     0
 40
0.0
  0
ENDTAB
  0
TABLE
  2
LAYER
  5
7B1
100
AcDbSymbolTable
 70
    21
  0
LAYER
  5
7BD
100
AcDbSymbolTableRecord
100
AcDbLayerTableRecord
  2
0
 70
     0
 62
     7
  6
CONTINUOUS
  0
LAYER
  5
7F2
100
AcDbSymbolTableRecord
100
AcDbLayerTableRecord
  2
COTATION1
 70
     0
 62
     2
  6
CONTINUOUS
  0
LAYER
  5
7F3
100
AcDbSymbolTableRecord
100
AcDbLayerTableRecord
  2
ALPHA
 70
     0
 62
   255
  6
CONTINUOUS
  0
LAYER
  5
7F4
100
AcDbSymbolTableRecord
100
AcDbLayerTableRecord
  2
DEFPOINTS
 70
     0
 62
     7
  6
CONTINUOUS
  0
LAYER
  5
7F5
100
AcDbSymbolTableRecord
100
AcDbLayerTableRecord
  2
AXE
 70
     0
 62
    80
  6
AXES2
  0
LAYER
  5
7F6
100
AcDbSymbolTableRecord
100
AcDbLayerTableRecord
  2
CONSTRUCTION
 70
     0
 62
     6
  6
CONTINUOUS
  0
LAYER
  5
7F7
100
AcDbSymbolTableRecord
100
AcDbLayerTableRecord
  2
HACHURES
 70
     0
 62
     9
  6
CONTINUOUS
  0
LAYER
  5
7F8
100
AcDbSymbolTableRecord
100
AcDbLayerTableRecord
  2
FMULT
 70
     0
 62
     6
  6
CONTINUOUS
  0
LAYER
  5
7F9
100
AcDbSymbolTableRecord
100
AcDbLayerTableRecord
  2
TEXTE
 70
     0
 62
   131
  6
CONTINUOUS
  0
LAYER
  5
7FA
100
AcDbSymbolTableRecord
100
AcDbLayerTableRecord
  2
FDP_CARTOUCHE
 70
     0
 62
     4
  6
CONTINUOUS
  0
LAYER
  5
7FB
100
AcDbSymbolTableRecord
100
AcDbLayerTableRecord
  2
FDP_TEXTES
 70
     0
 62
     5
  6
CONTINUOUS
  0
LAYER
  5
7FC
100
AcDbSymbolTableRecord
100
AcDbLayerTableRecord
  2
FDP_LOGO_MG
 70
     0
 62
    30
  6
CONTINUOUS
  0
LAYER
  5
7FD
100
AcDbSymbolTableRecord
100
AcDbLayerTableRecord
  2
FDP_LOGO_SCH
 70
     0
 62
     3
  6
CONTINUOUS
  0
LAYER
  5
7FE
100
AcDbSymbolTableRecord
100
AcDbLayerTableRecord
  2
FDP_FDP
 70
     0
 62
     5
  6
CONTINUOUS
  0
LAYER
  5
7FF
100
AcDbSymbolTableRecord
100
AcDbLayerTableRecord
  2
COTATION2
 70
     0
 62
     2
  6
CONTINUOUS
  0
LAYER
  5
800
100
AcDbSymbolTableRecord
100
AcDbLayerTableRecord
  2
COTATION3
 70
     0
 62
     2
  6
CONTINUOUS
  0
LAYER
  5
801
100
AcDbSymbolTableRecord
100
AcDbLayerTableRecord
  2
COTATION4
 70
     0
 62
     2
  6
CONTINUOUS
  0
LAYER
  5
802
100
AcDbSymbolTableRecord
100
AcDbLayerTableRecord
  2
ASHADE
 70
     0
 62
     7
  6
CONTINUOUS
  0
LAYER
  5
803
100
AcDbSymbolTableRecord
100
AcDbLayerTableRecord
  2
POINTILLE_COURT
 70
     0
 62
    40
  6
CACHE2
  0
LAYER
  5
804
100
AcDbSymbolTableRecord
100
AcDbLayerTableRecord
  2
POINTILLE_MOYEN
 70
     0
 62
   140
  6
CACHE
  0
LAYER
  5
805
100
AcDbSymbolTableRecord
100
AcDbLayerTableRecord
  2
POINTILLE_LONG
 70
     0
 62
   240
  6
CACHEX2
  0
ENDTAB
  0
TABLE
  2
STYLE
  5
7B2
100
AcDbSymbolTable
 70
     4
  0
STYLE
  5
7BE
100
AcDbSymbolTableRecord
100
AcDbTextStyleTableRecord
  2
STANDARD
 70
     0
 40
0.0
 41
1.0
 50
0.0
 71
     0
 42
0.2
  3
txt
  4

  0
STYLE
  5
7D4
100
AcDbSymbolTableRecord
100
AcDbTextStyleTableRecord
  2
ROMANS
 70
     0
 40
0.0
 41
1.0
 50
0.0
 71
     0
 42
2.9
  3
romans.shx
  4

  0
STYLE
  5
7D5
100
AcDbSymbolTableRecord
100
AcDbTextStyleTableRecord
  2
INFOCAR
 70
     0
 40
0.0
 41
1.34
 50
0.0
 71
     0
 42
2.0
  3
ROMANS.SHX
  4

  0
STYLE
  5
7D6
100
AcDbSymbolTableRecord
100
AcDbTextStyleTableRecord
  2
CARTOUCHE
 70
     0
 40
0.0
 41
1.0
 50
0.0
 71
     0
 42
0.2
  3
ROMANS.SHX
  4

  0
ENDTAB
  0
TABLE
  2
VIEW
  5
7B5
100
AcDbSymbolTable
 70
     0
  0
ENDTAB
  0
TABLE
  2
UCS
  5
7B6
100
AcDbSymbolTable
 70
     0
  0
ENDTAB
  0
TABLE
  2
APPID
  5
7B8
100
AcDbSymbolTable
 70
     3
  0
APPID
  5
7BF
100
AcDbSymbolTableRecord
100
AcDbRegAppTableRecord
  2
ACAD
 70
     0
  0
APPID
  5
7EE
100
AcDbSymbolTableRecord
100
AcDbRegAppTableRecord
  2
AVE_RENDER
 70
     0
  0
APPID
  5
7EF
100
AcDbSymbolTableRecord
100
AcDbRegAppTableRecord
  2
AVE_MATERIAL
 70
     0
  0
ENDTAB
  0
TABLE
  2
DIMSTYLE
  5
7B9
100
AcDbSymbolTable
 70
     2
  0
DIMSTYLE
105
7F0
102
{ACAD_REACTORS
330
1F
330
2E
330
59
102
}
100
AcDbSymbolTableRecord
100
AcDbDimStyleTableRecord
  2
SC_STAND
 70
     0
  3

  4

  5

  6

  7

 40
1.0
 41
3.0
 42
0.0625
 43
0.38
 44
0.18
 45
0.01
 46
0.0
 47
0.0
 48
0.0
140
2.5
141
0.09
142
0.0
143
25.4
144
1.0
145
0.0
146
1.0
147
1.0
 71
     0
 72
     0
 73
     0
 74
     0
 75
     0
 76
     0
 77
     1
 78
    12
170
     0
171
     2
172
     1
173
     0
174
     0
175
     0
176
     0
177
     0
178
     0
270
     2
271
     4
272
     4
273
     2
274
     2
340
7BE
275
     0
280
     0
281
     0
282
     0
283
     1
284
    12
285
    12
286
    12
287
     5
288
     0
  0
DIMSTYLE
105
7F1
100
AcDbSymbolTableRecord
100
AcDbDimStyleTableRecord
  2
STANDARD
 70
     0
  3

  4

  5

  6

  7

 40
1.0
 41
0.18
 42
0.0625
 43
0.38
 44
0.18
 45
0.0
 46
0.0
 47
0.0
 48
0.0
140
0.18
141
0.09
142
0.0
143
25.4
144
1.0
145
0.0
146
1.0
147
0.09
 71
     0
 72
     0
 73
     1
 74
     1
 75
     0
 76
     0
 77
     0
 78
     0
170
     0
171
     2
172
     0
173
     0
174
     0
175
     0
176
     0
177
     0
178
     0
270
     2
271
     4
272
     4
273
     2
274
     2
340
7BE
275
     0
280
     0
281
     0
282
     0
283
     1
284
    12
285
    12
286
    12
287
     5
288
     0
  0
ENDTAB
  0
TABLE
  2
BLOCK_RECORD
  5
7B0
100
AcDbSymbolTable
 70
     6
  0
BLOCK_RECORD
  5
7C6
100
AcDbSymbolTableRecord
100
AcDbBlockTableRecord
  2
*MODEL_SPACE
  0
BLOCK_RECORD
  5
7C3
100
AcDbSymbolTableRecord
100
AcDbBlockTableRecord
  2
*PAPER_SPACE
  0
BLOCK_RECORD
  5
7CE
100
AcDbSymbolTableRecord
100
AcDbBlockTableRecord
  2
AVE_RENDER
  0
BLOCK_RECORD
  5
7CF
100
AcDbSymbolTableRecord
100
AcDbBlockTableRecord
  2
AVE_GLOBAL
  0
BLOCK_RECORD
  5
7D0
100
AcDbSymbolTableRecord
100
AcDbBlockTableRecord
  2
SCH_ISO
  0
BLOCK_RECORD
  5
7D1
100
AcDbSymbolTableRecord
100
AcDbBlockTableRecord
  2
*D3
  0
BLOCK_RECORD
  5
7D2
100
AcDbSymbolTableRecord
100
AcDbBlockTableRecord
  2
*D4
  0
BLOCK_RECORD
  5
7D3
100
AcDbSymbolTableRecord
100
AcDbBlockTableRecord
  2
*D5
  0
ENDTAB
  0
ENDSEC
  0
SECTION
  2
BLOCKS
  0
BLOCK
  5
808
100
AcDbEntity
  8
0
100
AcDbBlockBegin
  2
*MODEL_SPACE
 70
     0
 10
0.0
 20
0.0
 30
0.0
  3
*MODEL_SPACE
  1

  0
ENDBLK
  5
809
100
AcDbEntity
  8
0
100
AcDbBlockEnd
  0
BLOCK
  5
806
100
AcDbEntity
 67
     1
  8
0
100
AcDbBlockBegin
  2
*PAPER_SPACE
 70
     0
 10
0.0
 20
0.0
 30
0.0
  3
*PAPER_SPACE
  1

  0
ENDBLK
  5
807
100
AcDbEntity
 67
     1
  8
0
100
AcDbBlockEnd
  0
BLOCK
  5
498
100
AcDbEntity
  8
0
100
AcDbBlockBegin
  2
AVE_RENDER
 70
     0
 10
0.0
 20
0.0
 30
0.0
  3
AVE_RENDER
  1
AVE_RENDER
  0
ENDBLK
  5
499
100
AcDbEntity
  8
0
100
AcDbBlockEnd
  0
BLOCK
  5
49B
100
AcDbEntity
  8
0
100
AcDbBlockBegin
  2
AVE_GLOBAL
 70
     0
 10
0.0
 20
0.0
 30
0.0
  3
AVE_GLOBAL
  1
AVE_GLOBAL
  0
ENDBLK
  5
49C
100
AcDbEntity
  8
0
100
AcDbBlockEnd
  0
BLOCK
  5
4D3
100
AcDbEntity
  8
0
100
AcDbBlockBegin
  2
SCH_ISO
 70
     0
 10
0.0
 20
0.0
 30
0.0
  3
SCH_ISO
  1

  0
INSERT
  5
4CA
100
AcDbEntity
  8
ASHADE
 62
     1
100
AcDbBlockReference
  2
AVE_RENDER
 10
0.0
 20
0.0
 30
0.0
1001
AVE_RENDER
1002
{
1070
     6
1000
Pref
1070
    50
1070
    20
1070
     1
1070
     0
1000

1070
    10
1070
     1
1070
    30
1040
25.4
1070
     1
1040
0.3
1040
0.7
1040
0.0
1040
10.0
1010
-1.0
1020
-1.0
1030
-1.0
1040
0.3
1070
    49
1070
     0
1070
     0
1010
1.0
1020
1.0
1030
1.0
1040
45.0
1070
     1
1070
     0
1000
WCS
1040
0.0
1002
}
  0
INSERT
  5
4CB
100
AcDbEntity
  8
ASHADE
 62
     3
100
AcDbBlockReference
  2
AVE_RENDER
 10
0.0
 20
0.0
 30
0.0
1001
AVE_RENDER
1002
{
1070
     0
1000
Full Opt
1070
     0
1070
     1
1070
     1
1070
     1
1070
     0
1070
     0
1070
     0
1070
     1
1070
     1
1040
0.0001
1040
0.0001
1002
}
  0
INSERT
  5
4CC
100
AcDbEntity
  8
ASHADE
 62
     4
100
AcDbBlockReference
  2
AVE_RENDER
 10
0.0
 20
0.0
 30
0.0
1001
AVE_RENDER
1002
{
1070
     0
1000
Quick Opt
1070
     0
1070
     1
1070
     1
1070
     1
1070
     0
1070
     0
1070
     1
1002
}
  0
INSERT
  5
4CD
100
AcDbEntity
  8
ASHADE
 62
     5
100
AcDbBlockReference
  2
AVE_RENDER
 10
0.0
 20
0.0
 30
0.0
1001
AVE_RENDER
1002
{
1070
     1
1000
Scanl Opt
1070
     2
1070
     0
1070
     2
1040
2.0
1040
4.0
1070
     0
1070
     1
1070
     0
1040
0.03
1002
}
  0
INSERT
  5
4CE
100
AcDbEntity
  8
ASHADE
 62
     6
100
AcDbBlockReference
  2
AVE_RENDER
 10
0.0
 20
0.0
 30
0.0
1001
AVE_RENDER
1002
{
1070
     2
1000
Raytr Opt
1070
     2
1070
     0
1070
     2
1040
2.0
1040
4.0
1070
     0
1070
     1
1070
     1
1040
0.03
1070
     3
1040
0.03
1002
}
  0
INSERT
  5
4CF
100
AcDbEntity
  8
ASHADE
 62
     7
100
AcDbBlockReference
  2
AVE_RENDER
 10
0.0
 20
0.0
 30
0.0
1001
AVE_RENDER
1002
{
1070
     0
1000
RFile Opt
1070
     5
1070
   640
1070
   480
1070
 10000
1070
     3
1070
    32
1070
    24
1070
     0
1070
     0
1070
     0
1070
     1
1070
     0
1070
     0
1070
     0
1002
}
  0
INSERT
  5
4D0
100
AcDbEntity
  8
ASHADE
 62
     8
100
AcDbBlockReference
  2
AVE_RENDER
 10
0.0
 20
0.0
 30
0.0
1001
AVE_RENDER
1002
{
1070
     0
1000
Fog Opt
1070
     0
1070
     0
1040
0.0
1040
1.0
1040
0.0
1040
1.0
1010
0.5
1020
0.5
1030
0.5
1002
}
  0
INSERT
  5
4D1
100
AcDbEntity
  8
ASHADE
 62
     9
100
AcDbBlockReference
  2
AVE_RENDER
 10
0.0
 20
0.0
 30
0.0
1001
AVE_RENDER
1002
{
1070
     0
1000
BG Opt
1070
     0
1070
     1
1010
0.0
1020
0.0
1030
0.0
1010
1.0
1020
0.0
1030
0.0
1010
0.0
1020
1.0
1030
0.0
1010
0.0
1020
0.0
1030
1.0
1040
0.5
1040
0.33
1040
0.0
1000

1070
     1
1000

1070
     1
1070
     1
1040
1.0
1040
1.0
1040
0.0
1040
0.0
1070
     0
1002
}
  0
INSERT
  5
4D2
100
AcDbEntity
  8
ASHADE
 62
     1
100
AcDbBlockReference
  2
AVE_GLOBAL
 10
0.0
 20
0.0
 30
0.0
1001
AVE_MATERIAL
1002
{
1000
*GLOBAL*
1000
1
1000
Finition globale.
1002
{
1002
}
1002
{
1070
    63
1002
{
1002
{
1010
-1.0
1020
-1.0
1030
-1.0
1002
}
1040
0.1
1000

1040
0.0
1002
{
1002
}
1040
0.0
1002
{
1002
}
1040
0.0
1002
}
1002
{
1002
{
1010
-1.0
1020
-1.0
1030
-1.0
1002
}
1040
0.7
1000

1040
0.0
1002
{
1002
}
1040
0.0
1002
{
1002
}
1040
0.0
1002
}
1002
{
1002
{
1010
-1.0
1020
-1.0
1030
-1.0
1002
}
1040
0.2
1000

1040
0.0
1002
{
1002
}
1040
0.0
1002
{
1002
}
1040
0.0
1002
}
1002
{
1070
     0
1002
{
1070
     1
1002
{
1040
1.0
1040
1.0
1000

1040
0.0
1002
{
1002
}
1040
0.0
1002
{
1002
}
1040
0.0
1002
}
1002
}
1040
1.0
1040
0.0
1040
0.0
1002
}
1002
{
1040
1.0
1040
1.0
1000

1040
0.0
1002
{
1002
}
1040
0.0
1002
{
1002
}
1040
0.0
1002
}
1002
{
1040
0.5
1040
1.0
1000

1040
0.0
1002
{
1002
}
1040
0.0
1002
{
1002
}
1040
0.0
1002
}
1002
{
1070
     0
1040
0.0
1002
{
1002
}
1040
1.0
1002
{
1002
}
1040
0.0
1002
}
1002
{
1040
0.0
1002
{
1002
{
1010
0.0
1020
0.0
1030
0.0
1002
}
1040
1.0
1000

1040
0.0
1002
{
1002
}
1040
0.0
1002
{
1002
}
1040
0.0
1002
}
1002
}
1002
{
1002
{
1070
     1
1002
{
1040
0.0
1040
1.0
1000

1040
0.0
1002
{
1002
}
1040
0.0
1002
{
1002
}
1040
0.0
1002
}
1002
}
1040
0.0
1002
{
1002
}
1010
1.0
1020
0.0
1030
0.0
1010
0.0
1020
1.0
1030
0.0
1010
0.0
1020
0.0
1030
1.0
1070
     0
1002
}
1002
{
1002
{
1040
1.0
1040
1.0
1002
{
1070
     1
1002
{
1040
1.0
1040
1.0
1000

1040
0.0
1002
{
1002
}
1040
0.0
1002
{
1002
}
1040
0.0
1002
}
1002
}
1002
}
1070
     0
1040
0.0
1002
{
1002
}
1002
}
1002
{
1002
}
1002
}
1002
{
1071
        3
1070
     3
1070
     0
1002
{
1070
     2
1070
     0
1070
     0
1040
0.0
1002
}
1070
     0
1070
     2
1002
{
1002
}
1002
}
1002
{
1040
8030.0
1040
190.300003
1040
0.305
1040
228.0
1040
545.0
1040
14.0
1040
17.4
1040
0.456
1002
}
1002
}
  0
ENDBLK
  5
4D4
100
AcDbEntity
  8
0
100
AcDbBlockEnd
  0
BLOCK
  5
4D7
100
AcDbEntity
  8
0
100
AcDbBlockBegin
  2
*D3
 70
     1
 10
0.0
 20
0.0
 30
0.0
  3
*D3
  1

  0
LINE
  5
4D8
100
AcDbEntity
  8
0
  6
BYBLOCK
 62
     0
100
AcDbLine
 10
-81.336136
 20
-235.65301
 30
0.0
 11
-81.336136
 21
-284.697342
 31
0.0
  0
LINE
  5
4D9
100
AcDbEntity
  8
0
  6
BYBLOCK
 62
     0
100
AcDbLine
 10
46.463864
 20
-235.65301
 30
0.0
 11
46.463864
 21
-284.697342
 31
0.0
  0
LINE
  5
4DA
100
AcDbEntity
  8
0
  6
BYBLOCK
 62
     0
100
AcDbLine
 10
-78.336136
 20
-284.517342
 30
0.0
 11
43.463864
 21
-284.517342
 31
0.0
  0
SOLID
  5
4DB
100
AcDbEntity
  8
0
  6
BYBLOCK
 62
     0
100
AcDbTrace
 10
-78.336136
 20
-284.017342
 30
0.0
 11
-78.336136
 21
-285.017342
 31
0.0
 12
-81.336136
 22
-284.517342
 32
0.0
 13
-81.336136
 23
-284.517342
 33
0.0
  0
SOLID
  5
4DC
100
AcDbEntity
  8
0
  6
BYBLOCK
 62
     0
100
AcDbTrace
 10
43.463864
 20
-284.017342
 30
0.0
 11
43.463864
 21
-285.017342
 31
0.0
 12
46.463864
 22
-284.517342
 32
0.0
 13
46.463864
 23
-284.517342
 33
0.0
  0
TEXT
  5
4DD
100
AcDbEntity
  8
0
  6
BYBLOCK
 62
     0
100
AcDbText
 10
-22.97185
 20
-283.517342
 30
0.0
 40
2.5
  1
127.8
  7
ROMANS
100
AcDbText
  0
POINT
  5
4DE
100
AcDbEntity
  8
DEFPOINTS
  6
BYBLOCK
 62
     0
100
AcDbPoint
 10
-81.336136
 20
-235.59051
 30
0.0
  0
POINT
  5
4DF
100
AcDbEntity
  8
DEFPOINTS
  6
BYBLOCK
 62
     0
100
AcDbPoint
 10
46.463864
 20
-235.59051
 30
0.0
  0
POINT
  5
4E0
100
AcDbEntity
  8
DEFPOINTS
  6
BYBLOCK
 62
     0
100
AcDbPoint
 10
46.463864
 20
-284.517342
 30
0.0
  0
ENDBLK
  5
4E1
100
AcDbEntity
  8
0
100
AcDbBlockEnd
  0
BLOCK
  5
4E3
100
AcDbEntity
  8
0
100
AcDbBlockBegin
  2
*D4
 70
     1
 10
0.0
 20
0.0
 30
0.0
  3
*D4
  1

  0
LINE
  5
4E4
100
AcDbEntity
  8
0
  6
BYBLOCK
 62
     0
100
AcDbLine
 10
-93.08367
 20
-211.95301
 30
0.0
 11
-93.08367
 21
-298.079914
 31
0.0
  0
LINE
  5
4E5
100
AcDbEntity
  8
0
  6
BYBLOCK
 62
     0
100
AcDbLine
 10
58.211397
 20
-211.95301
 30
0.0
 11
58.211397
 21
-298.079914
 31
0.0
  0
LINE
  5
4E6
100
AcDbEntity
  8
0
  6
BYBLOCK
 62
     0
100
AcDbLine
 10
-90.08367
 20
-297.899914
 30
0.0
 11
55.211397
 21
-297.899914
 31
0.0
  0
SOLID
  5
4E7
100
AcDbEntity
  8
0
  6
BYBLOCK
 62
     0
100
AcDbTrace
 10
-90.08367
 20
-297.399914
 30
0.0
 11
-90.08367
 21
-298.399914
 31
0.0
 12
-93.08367
 22
-297.899914
 32
0.0
 13
-93.08367
 23
-297.899914
 33
0.0
  0
SOLID
  5
4E8
100
AcDbEntity
  8
0
  6
BYBLOCK
 62
     0
100
AcDbTrace
 10
55.211397
 20
-297.399914
 30
0.0
 11
55.211397
 21
-298.399914
 31
0.0
 12
58.211397
 22
-297.899914
 32
0.0
 13
58.211397
 23
-297.899914
 33
0.0
  0
TEXT
  5
4E9
100
AcDbEntity
  8
0
  6
BYBLOCK
 62
     0
100
AcDbText
 10
-22.971851
 20
-296.899914
 30
0.0
 40
2.5
  1
151.3
  7
ROMANS
100
AcDbText
  0
POINT
  5
4EA
100
AcDbEntity
  8
DEFPOINTS
  6
BYBLOCK
 62
     0
100
AcDbPoint
 10
-93.08367
 20
-211.89051
 30
0.0
  0
POINT
  5
4EB
100
AcDbEntity
  8
DEFPOINTS
  6
BYBLOCK
 62
     0
100
AcDbPoint
 10
58.211397
 20
-211.89051
 30
0.0
  0
POINT
  5
4EC
100
AcDbEntity
  8
DEFPOINTS
  6
BYBLOCK
 62
     0
100
AcDbPoint
 10
58.211397
 20
-297.899914
 30
0.0
  0
ENDBLK
  5
4ED
100
AcDbEntity
  8
0
100
AcDbBlockEnd
  0
BLOCK
  5
4EF
100
AcDbEntity
  8
0
100
AcDbBlockBegin
  2
*D5
 70
     1
 10
0.0
 20
0.0
 30
0.0
  3
*D5
  1

  0
LINE
  5
4F0
100
AcDbEntity
  8
0
  6
BYBLOCK
 62
     0
100
AcDbLine
 10
-85.498636
 20
-100.79051
 30
0.0
 11
-129.643775
 21
-100.79051
 31
0.0
  0
LINE
  5
4F1
100
AcDbEntity
  8
0
  6
BYBLOCK
 62
     0
100
AcDbLine
 10
-79.398636
 20
-237.59051
 30
0.0
 11
-129.643775
 21
-237.59051
 31
0.0
  0
LINE
  5
4F2
100
AcDbEntity
  8
0
  6
BYBLOCK
 62
     0
100
AcDbLine
 10
-129.463775
 20
-103.79051
 30
0.0
 11
-129.463775
 21
-234.59051
 31
0.0
  0
SOLID
  5
4F3
100
AcDbEntity
  8
0
  6
BYBLOCK
 62
     0
100
AcDbTrace
 10
-129.963775
 20
-103.79051
 30
0.0
 11
-128.963775
 21
-103.79051
 31
0.0
 12
-129.463775
 22
-100.79051
 32
0.0
 13
-129.463775
 23
-100.79051
 33
0.0
  0
SOLID
  5
4F4
100
AcDbEntity
  8
0
  6
BYBLOCK
 62
     0
100
AcDbTrace
 10
-129.963775
 20
-234.59051
 30
0.0
 11
-128.963775
 21
-234.59051
 31
0.0
 12
-129.463775
 22
-237.59051
 32
0.0
 13
-129.463775
 23
-237.59051
 33
0.0
  0
TEXT
  5
4F5
100
AcDbEntity
  8
0
  6
BYBLOCK
 62
     0
100
AcDbText
 10
-130.463775
 20
-174.726224
 30
0.0
 40
2.5
  1
136.8
 50
90.0
  7
ROMANS
100
AcDbText
  0
POINT
  5
4F6
100
AcDbEntity
  8
DEFPOINTS
  6
BYBLOCK
 62
     0
100
AcDbPoint
 10
-85.436136
 20
-100.79051
 30
0.0
  0
POINT
  5
4F7
100
AcDbEntity
  8
DEFPOINTS
  6
BYBLOCK
 62
     0
100
AcDbPoint
 10
-79.336136
 20
-237.59051
 30
0.0
  0
POINT
  5
4F8
100
AcDbEntity
  8
DEFPOINTS
  6
BYBLOCK
 62
     0
100
AcDbPoint
 10
-129.463775
 20
-237.59051
 30
0.0
  0
ENDBLK
  5
4F9
100
AcDbEntity
  8
0
100
AcDbBlockEnd
  0
ENDSEC
  0
SECTION
  2
ENTITIES
  0
DIMENSION
  5
1F
100
AcDbEntity
  8
COTATION1
100
AcDbDimension
  2
*D3
 10
46.463864
 20
-284.517342
 30
0.0
 11
-17.436136
 21
-282.267342
 31
0.0
  3
SC_STAND
100
AcDbAlignedDimension
 13
-81.336136
 23
-235.59051
 33
0.0
 14
46.463864
 24
-235.59051
 34
0.0
100
AcDbRotatedDimension
  0
DIMENSION
  5
2E
100
AcDbEntity
  8
COTATION1
100
AcDbDimension
  2
*D4
 10
58.211397
 20
-297.899914
 30
0.0
 11
-17.436136
 21
-295.649914
 31
0.0
  3
SC_STAND
100
AcDbAlignedDimension
 13
-93.08367
 23
-211.89051
 33
0.0
 14
58.211397
 24
-211.89051
 34
0.0
100
AcDbRotatedDimension
  0
LINE
  5
3B
100
AcDbEntity
  8
ALPHA
100
AcDbLine
 10
-37.436136
 20
-200.19051
 30
0.0
 11
-32.336136
 21
-200.19051
 31
0.0
  0
LINE
  5
3C
100
AcDbEntity
  8
ALPHA
100
AcDbLine
 10
-32.30988
 20
-192.081783
 30
0.0
 11
-35.444825
 21
-192.081783
 31
0.0
  0
LINE
  5
3D
100
AcDbEntity
  8
ALPHA
100
AcDbLine
 10
-91.436098
 20
-191.09051
 30
0.0
 11
56.563826
 21
-191.09051
 31
0.0
  0
LINE
  5
3E
100
AcDbEntity
  8
ALPHA
100
AcDbLine
 10
-23.420918
 20
-183.624466
 30
0.0
 11
-58.38688
 21
-183.624466
 31
0.0
  0
LINE
  5
3F
100
AcDbEntity
  8
ALPHA
100
AcDbLine
 10
-55.158135
 20
-183.39051
 30
0.0
 11
-4.736136
 21
-183.39051
 31
0.0
  0
LINE
  5
40
100
AcDbEntity
  8
ALPHA
100
AcDbLine
 10
-60.91195
 20
-182.39051
 30
0.0
 11
-4.736136
 21
-182.39051
 31
0.0
  0
LINE
  5
41
100
AcDbEntity
  8
ALPHA
100
AcDbLine
 10
-50.267872
 20
-181.59051
 30
0.0
 11
-5.336136
 21
-181.59051
 31
0.0
  0
LINE
  5
42
100
AcDbEntity
  8
ALPHA
100
AcDbLine
 10
-56.067117
 20
-162.99051
 30
0.0
 11
-4.66668
 21
-162.99051
 31
0.0
  0
LINE
  5
43
100
AcDbEntity
  8
ALPHA
100
AcDbLine
 10
-73.236136
 20
-148.19051
 30
0.0
 11
-5.236136
 21
-148.19051
 31
0.0
  0
LINE
  5
44
100
AcDbEntity
  8
ALPHA
100
AcDbLine
 10
-73.822317
 20
-147.39051
 30
0.0
 11
2.128014
 21
-147.39051
 31
0.0
  0
LINE
  5
45
100
AcDbEntity
  8
ALPHA
100
AcDbLine
 10
-73.677269
 20
-146.39051
 30
0.0
 11
39.004997
 21
-146.39051
 31
0.0
  0
LINE
  5
46
100
AcDbEntity
  8
ALPHA
100
AcDbLine
 10
39.844032
 20
-145.564342
 30
0.0
 11
-74.516305
 21
-145.564342
 31
0.0
  0
LINE
  5
47
100
AcDbEntity
  8
ALPHA
100
AcDbLine
 10
38.993652
 20
-145.09051
 30
0.0
 11
-73.665924
 21
-145.09051
 31
0.0
  0
LINE
  5
48
100
AcDbEntity
  8
ALPHA
100
AcDbLine
 10
-32.336136
 20
-137.19051
 30
0.0
 11
-37.436136
 21
-137.19051
 31
0.0
  0
ARC
  5
49
100
AcDbEntity
  8
ALPHA
100
AcDbCircle
 10
-37.436136
 20
-142.29051
 30
0.0
 40
5.1
100
AcDbArc
 50
0.0
 51
180.0
  0
ARC
  5
4A
100
AcDbEntity
  8
ALPHA
100
AcDbCircle
 10
-37.436136
 20
-195.09051
 30
0.0
 40
5.1
100
AcDbArc
 50
180.0
 51
0.0
  0
LINE
  5
4B
100
AcDbEntity
  8
ALPHA
100
AcDbLine
 10
-93.066216
 20
-195.49051
 30
0.0
 11
-93.066216
 21
-148.29051
 31
0.0
  0
LINE
  5
4C
100
AcDbEntity
  8
ALPHA
100
AcDbLine
 10
-92.444787
 20
-147.29051
 30
0.0
 11
-92.444787
 21
-190.09051
 31
0.0
  0
LINE
  5
4D
100
AcDbEntity
  8
ALPHA
100
AcDbLine
 10
-91.444825
 20
-146.29051
 30
0.0
 11
-91.444825
 21
-191.09051
 31
0.0
  0
LINE
  5
4E
100
AcDbEntity
  8
ALPHA
100
AcDbLine
 10
-74.722252
 20
-190.099237
 30
0.0
 11
-74.958826
 21
-162.99051
 31
0.0
  0
LINE
  5
4F
100
AcDbEntity
  8
ALPHA
100
AcDbLine
 10
-74.104611
 20
-162.99051
 30
0.0
 11
-73.934587
 21
-182.39051
 31
0.0
  0
LINE
  5
50
100
AcDbEntity
  8
ALPHA
100
AcDbLine
 10
-73.336136
 20
-163.243634
 30
0.0
 11
-73.336136
 21
-162.99051
 31
0.0
  0
LINE
  5
51
100
AcDbEntity
  8
ALPHA
100
AcDbLine
 10
-68.100033
 20
-163.221339
 30
0.0
 11
-68.119066
 21
-161.221491
 31
0.0
  0
LINE
  5
52
100
AcDbEntity
  8
ALPHA
100
AcDbLine
 10
-66.866348
 20
-162.604514
 30
0.0
 11
-66.847314
 21
-164.604362
 31
0.0
  0
LINE
  5
53
100
AcDbEntity
  8
ALPHA
100
AcDbLine
 10
-57.654087
 20
-162.523759
 30
0.0
 11
-57.635053
 21
-164.523607
 31
0.0
  0
LINE
  5
54
100
AcDbEntity
  8
ALPHA
100
AcDbLine
 10
-56.167851
 20
-161.100028
 30
0.0
 11
-56.148817
 21
-163.099875
 31
0.0
  0
LINE
  5
55
100
AcDbEntity
  8
ALPHA
100
AcDbLine
 10
-50.507744
 20
-163.050178
 30
0.0
 11
-50.31458
 21
-183.345607
 31
0.0
  0
LINE
  5
56
100
AcDbEntity
  8
ALPHA
100
AcDbLine
 10
-50.444402
 20
-163.042854
 30
0.0
 11
-50.267872
 21
-181.59051
 31
0.0
  0
LINE
  5
57
100
AcDbEntity
  8
ALPHA
100
AcDbLine
 10
-50.501561
 20
-163.048097
 30
0.0
 11
-56.145823
 21
-163.099246
 31
0.0
  0
LINE
  5
58
100
AcDbEntity
  8
ALPHA
100
AcDbLine
 10
-56.088716
 20
-163.094009
 30
0.0
 11
-50.444402
 21
-163.042854
 31
0.0
  0
DIMENSION
  5
59
100
AcDbEntity
  8
COTATION1
100
AcDbDimension
  2
*D5
 10
-129.463775
 20
-237.59051
 30
0.0
 11
-131.713775
 21
-169.19051
 31
0.0
  3
SC_STAND
100
AcDbAlignedDimension
 13
-85.436136
 23
-100.79051
 33
0.0
 14
-79.336136
 24
-237.59051
 34
0.0
 50
90.0
100
AcDbRotatedDimension
  0
LINE
  5
66
100
AcDbEntity
  8
ALPHA
100
AcDbLine
 10
-93.08367
 20
-211.89051
 30
0.0
 11
-93.08367
 21
-195.49051
 31
0.0
  0
LINE
  5
67
100
AcDbEntity
  8
ALPHA
100
AcDbLine
 10
-92.89609
 20
-196.49051
 30
0.0
 11
-93.030484
 21
-211.89051
 31
0.0
  0
LINE
  5
68
100
AcDbEntity
  8
ALPHA
100
AcDbLine
 10
-91.898684
 20
-197.49051
 30
0.0
 11
-92.033078
 21
-212.89051
 31
0.0
  0
LINE
  5
69
100
AcDbEntity
  8
ALPHA
100
AcDbLine
 10
-89.936136
 20
-198.49051
 30
0.0
 11
-89.936136
 21
-212.89051
 31
0.0
  0
LINE
  5
6A
100
AcDbEntity
  8
ALPHA
100
AcDbLine
 10
-83.836136
 20
-191.09051
 30
0.0
 11
-83.836136
 21
-205.09051
 31
0.0
  0
LINE
  5
6B
100
AcDbEntity
  8
ALPHA
100
AcDbLine
 10
-54.036136
 20
-191.09051
 30
0.0
 11
-54.036136
 21
-205.09051
 31
0.0
  0
CIRCLE
  5
6C
100
AcDbEntity
  8
ALPHA
100
AcDbCircle
 10
-68.936136
 20
-197.09051
 30
0.0
 40
4.25
  0
ARC
  5
6D
100
AcDbEntity
  8
ALPHA
100
AcDbCircle
 10
-68.936136
 20
-197.09051
 30
0.0
 40
5.75
100
AcDbArc
 50
180.0
 51
0.0
  0
LINE
  5
6E
100
AcDbEntity
  8
ALPHA
100
AcDbLine
 10
-58.536136
 20
-237.59051
 30
0.0
 11
-79.336136
 21
-237.59051
 31
0.0
  0
LINE
  5
6F
100
AcDbEntity
  8
ALPHA
100
AcDbLine
 10
-57.536136
 20
-236.59051
 30
0.0
 11
-80.336136
 21
-236.59051
 31
0.0
  0
LINE
  5
70
100
AcDbEntity
  8
ALPHA
100
AcDbLine
 10
-83.836136
 20
-205.09051
 30
0.0
 11
-54.036136
 21
-205.09051
 31
0.0
  0
CIRCLE
  5
71
100
AcDbEntity
  8
ALPHA
100
AcDbCircle
 10
-68.936136
 20
-223.59051
 30
0.0
 40
5.5
  0
CIRCLE
  5
72
100
AcDbEntity
  8
ALPHA
100
AcDbCircle
 10
-68.936136
 20
-223.59051
 30
0.0
 40
6.0
  0
LINE
  5
73
100
AcDbEntity
  8
ALPHA
100
AcDbLine
 10
-81.336136
 20
-205.09051
 30
0.0
 11
-81.336136
 21
-235.59051
 31
0.0
  0
LINE
  5
74
100
AcDbEntity
  8
ALPHA
100
AcDbLine
 10
-79.336136
 20
-237.59051
 30
0.0
 11
-81.336136
 21
-235.59051
 31
0.0
  0
ARC
  5
75
100
AcDbEntity
  8
ALPHA
100
AcDbCircle
 10
-83.436136
 20
-206.89051
 30
0.0
 40
2.75
100
AcDbArc
 50
98.367499
 51
180.0
  0
LINE
  5
76
100
AcDbEntity
  8
ALPHA
100
AcDbLine
 10
-86.186136
 20
-211.89051
 30
0.0
 11
-86.186136
 21
-206.89051
 31
0.0
  0
LINE
  5
77
100
AcDbEntity
  8
ALPHA
100
AcDbLine
 10
-92.026907
 20
-212.89051
 30
0.0
 11
-87.186136
 21
-212.89051
 31
0.0
  0
LINE
  5
78
100
AcDbEntity
  8
ALPHA
100
AcDbLine
 10
-93.030484
 20
-211.89051
 30
0.0
 11
-93.08367
 21
-211.89051
 31
0.0
  0
LINE
  5
79
100
AcDbEntity
  8
ALPHA
100
AcDbLine
 10
-87.186136
 20
-212.89051
 30
0.0
 11
-86.186136
 21
-211.89051
 31
0.0
  0
ARC
  5
7A
100
AcDbEntity
  8
ALPHA
100
AcDbCircle
 10
-83.436136
 20
-206.89051
 30
0.0
 40
2.75
100
AcDbArc
 50
39.532272
 51
41.395465
  0
LINE
  5
7B
100
AcDbEntity
  8
ALPHA
100
AcDbLine
 10
-56.536136
 20
-205.09051
 30
0.0
 11
-56.536136
 21
-235.59051
 31
0.0
  0
LINE
  5
7C
100
AcDbEntity
  8
ALPHA
100
AcDbLine
 10
-56.536136
 20
-235.59051
 30
0.0
 11
-58.536136
 21
-237.59051
 31
0.0
  0
LINE
  5
7D
100
AcDbEntity
  8
ALPHA
100
AcDbLine
 10
-63.186136
 20
-191.39051
 30
0.0
 11
-69.511023
 21
-191.39051
 31
0.0
  0
LINE
  5
7E
100
AcDbEntity
  8
ALPHA
100
AcDbLine
 10
-65.420477
 20
-183.624466
 30
0.0
 11
-73.785404
 21
-183.624466
 31
0.0
  0
LINE
  5
7F
100
AcDbEntity
  8
ALPHA
100
AcDbLine
 10
-66.847314
 20
-164.604362
 30
0.0
 11
-72.487792
 21
-164.652392
 31
0.0
  0
LINE
  5
80
100
AcDbEntity
  8
ALPHA
100
AcDbLine
 10
-68.10018
 20
-163.204036
 30
0.0
 11
-73.694794
 21
-163.25141
 31
0.0
  0
CIRCLE
  5
81
100
AcDbEntity
  8
ALPHA
100
AcDbCircle
 10
-68.936136
 20
-197.09051
 30
0.0
 40
2.0
  0
CIRCLE
  5
82
100
AcDbEntity
  8
ALPHA
100
AcDbCircle
 10
-68.936136
 20
-197.09051
 30
0.0
 40
2.1
  0
LINE
  5
83
100
AcDbEntity
  8
ALPHA
100
AcDbLine
 10
-73.514341
 20
-183.531447
 30
0.0
 11
-73.707152
 21
-163.27318
 31
0.0
  0
LINE
  5
84
100
AcDbEntity
  8
ALPHA
100
AcDbLine
 10
-72.487792
 20
-164.652392
 30
0.0
 11
-72.321246
 21
-182.15106
 31
0.0
  0
LINE
  5
85
100
AcDbEntity
  8
ALPHA
100
AcDbLine
 10
-83.836136
 20
-198.49051
 30
0.0
 11
-89.936136
 21
-198.49051
 31
0.0
  0
LINE
  5
86
100
AcDbEntity
  8
ALPHA
100
AcDbLine
 10
-91.662997
 20
-197.49051
 30
0.0
 11
-83.836136
 21
-197.49051
 31
0.0
  0
LINE
  5
87
100
AcDbEntity
  8
ALPHA
100
AcDbLine
 10
-92.671686
 20
-190.09051
 30
0.0
 11
-92.671686
 21
-196.49051
 31
0.0
  0
LINE
  5
88
100
AcDbEntity
  8
ALPHA
100
AcDbLine
 10
-91.671724
 20
-191.09051
 30
0.0
 11
-91.671724
 21
-197.49051
 31
0.0
  0
LINE
  5
89
100
AcDbEntity
  8
ALPHA
100
AcDbLine
 10
-92.89609
 20
-196.49051
 30
0.0
 11
-92.671686
 21
-196.49051
 31
0.0
  0
LINE
  5
8A
100
AcDbEntity
  8
ALPHA
100
AcDbLine
 10
-93.08367
 20
-195.49051
 30
0.0
 11
-93.066216
 21
-195.49051
 31
0.0
  0
LINE
  5
8B
100
AcDbEntity
  8
ALPHA
100
AcDbLine
 10
-92.444787
 20
-190.09051
 30
0.0
 11
-92.671686
 21
-190.09051
 31
0.0
  0
LINE
  5
8C
100
AcDbEntity
  8
ALPHA
100
AcDbLine
 10
-74.686136
 20
-191.09051
 30
0.0
 11
-74.686136
 21
-197.09051
 31
0.0
  0
LINE
  5
8D
100
AcDbEntity
  8
ALPHA
100
AcDbLine
 10
-73.789487
 20
-183.39051
 30
0.0
 11
-73.785404
 21
-183.624466
 31
0.0
  0
LINE
  5
8E
100
AcDbEntity
  8
ALPHA
100
AcDbLine
 10
-73.720248
 20
-191.09051
 30
0.0
 11
-73.785404
 21
-183.624466
 31
0.0
  0
LINE
  5
8F
100
AcDbEntity
  8
ALPHA
100
AcDbLine
 10
-73.507812
 20
-183.54892
 30
0.0
 11
-73.514278
 21
-183.537953
 31
0.0
  0
LINE
  5
90
100
AcDbEntity
  8
ALPHA
100
AcDbLine
 10
-69.511023
 20
-191.09051
 30
0.0
 11
-69.511023
 21
-191.39051
 31
0.0
  0
LINE
  5
91
100
AcDbEntity
  8
ALPHA
100
AcDbLine
 10
-68.636136
 20
-191.39051
 30
0.0
 11
-68.636136
 21
-191.09051
 31
0.0
  0
LINE
  5
92
100
AcDbEntity
  8
ALPHA
100
AcDbLine
 10
-73.514278
 20
-183.537953
 30
0.0
 11
-73.508644
 21
-183.514568
 31
0.0
  0
LINE
  5
93
100
AcDbEntity
  8
ALPHA
100
AcDbLine
 10
-74.093144
 20
-183.588398
 30
0.0
 11
-73.785404
 21
-183.624466
 31
0.0
  0
LINE
  5
94
100
AcDbEntity
  8
ALPHA
100
AcDbLine
 10
-73.789487
 20
-183.39051
 30
0.0
 11
-73.514341
 21
-183.39051
 31
0.0
  0
LINE
  5
95
100
AcDbEntity
  8
ALPHA
100
AcDbLine
 10
-73.934587
 20
-182.39051
 30
0.0
 11
-73.5252
 21
-182.39051
 31
0.0
  0
LINE
  5
96
100
AcDbEntity
  8
ALPHA
100
AcDbLine
 10
-74.789449
 20
-182.399237
 30
0.0
 11
-73.934587
 21
-182.39051
 31
0.0
  0
ARC
  5
97
100
AcDbEntity
  8
ALPHA
100
AcDbCircle
 10
-73.789487
 20
-182.39051
 30
0.0
 40
1.0
100
AcDbArc
 50
180.500027
 51
270.0
  0
ARC
  5
98
100
AcDbEntity
  8
ALPHA
100
AcDbCircle
 10
-73.72229
 20
-190.09051
 30
0.0
 40
1.0
100
AcDbArc
 50
180.500027
 51
270.0
  0
LINE
  5
99
100
AcDbEntity
  8
ALPHA
100
AcDbLine
 10
-73.700977
 20
-163.25349
 30
0.0
 11
-73.707213
 21
-163.266649
 31
0.0
  0
LINE
  5
9A
100
AcDbEntity
  8
ALPHA
100
AcDbLine
 10
-73.694794
 20
-163.25141
 30
0.0
 11
-73.637635
 21
-163.246167
 31
0.0
  0
LINE
  5
9B
100
AcDbEntity
  8
ALPHA
100
AcDbLine
 10
-64.702824
 20
-178.284917
 30
0.0
 11
-64.66664
 21
-182.086608
 31
0.0
  0
LINE
  5
9C
100
AcDbEntity
  8
ALPHA
100
AcDbLine
 10
-60.91195
 20
-182.39051
 30
0.0
 11
-60.918904
 21
-181.59051
 31
0.0
  0
LINE
  5
9D
100
AcDbEntity
  8
ALPHA
100
AcDbLine
 10
-64.441958
 20
-182.033949
 30
0.0
 11
-64.66664
 21
-182.086608
 31
0.0
  0
LINE
  5
9E
100
AcDbEntity
  8
ALPHA
100
AcDbLine
 10
-54.036136
 20
-197.49051
 30
0.0
 11
-41.936136
 21
-197.49051
 31
0.0
  0
LINE
  5
9F
100
AcDbEntity
  8
ALPHA
100
AcDbLine
 10
-63.186136
 20
-197.09051
 30
0.0
 11
-63.186136
 21
-191.09051
 31
0.0
  0
LINE
  5
A0
100
AcDbEntity
  8
ALPHA
100
AcDbLine
 10
-59.916136
 20
-191.29051
 30
0.0
 11
-62.136136
 21
-191.29051
 31
0.0
  0
LINE
  5
A1
100
AcDbEntity
  8
ALPHA
100
AcDbLine
 10
-65.405788
 20
-185.167716
 30
0.0
 11
-65.421841
 21
-183.481148
 31
0.0
  0
LINE
  5
A2
100
AcDbEntity
  8
ALPHA
100
AcDbLine
 10
-64.180839
 20
-182.081397
 30
0.0
 11
-64.16466
 21
-183.781268
 31
0.0
  0
LINE
  5
A3
100
AcDbEntity
  8
ALPHA
100
AcDbLine
 10
-59.975242
 20
-182.044531
 30
0.0
 11
-59.959063
 21
-183.744401
 31
0.0
  0
LINE
  5
A4
100
AcDbEntity
  8
ALPHA
100
AcDbLine
 10
-62.136136
 20
-191.09051
 30
0.0
 11
-62.136136
 21
-191.29051
 31
0.0
  0
LINE
  5
A5
100
AcDbEntity
  8
ALPHA
100
AcDbLine
 10
-62.07447
 20
-191.09051
 30
0.0
 11
-62.07447
 21
-191.29051
 31
0.0
  0
LINE
  5
A6
100
AcDbEntity
  8
ALPHA
100
AcDbLine
 10
-62.012803
 20
-191.09051
 30
0.0
 11
-62.012803
 21
-191.29051
 31
0.0
  0
LINE
  5
A7
100
AcDbEntity
  8
ALPHA
100
AcDbLine
 10
-61.766136
 20
-191.09051
 30
0.0
 11
-61.766136
 21
-191.29051
 31
0.0
  0
LINE
  5
A8
100
AcDbEntity
  8
ALPHA
100
AcDbLine
 10
-61.519469
 20
-191.09051
 30
0.0
 11
-61.519469
 21
-191.29051
 31
0.0
  0
LINE
  5
A9
100
AcDbEntity
  8
ALPHA
100
AcDbLine
 10
-61.087803
 20
-191.09051
 30
0.0
 11
-61.087803
 21
-191.29051
 31
0.0
  0
LINE
  5
AA
100
AcDbEntity
  8
ALPHA
100
AcDbLine
 10
-60.841136
 20
-191.09051
 30
0.0
 11
-60.841136
 21
-191.29051
 31
0.0
  0
LINE
  5
AB
100
AcDbEntity
  8
ALPHA
100
AcDbLine
 10
-60.471136
 20
-191.09051
 30
0.0
 11
-60.471136
 21
-191.29051
 31
0.0
  0
LINE
  5
AC
100
AcDbEntity
  8
ALPHA
100
AcDbLine
 10
-60.224469
 20
-191.09051
 30
0.0
 11
-60.224469
 21
-191.29051
 31
0.0
  0
LINE
  5
AD
100
AcDbEntity
  8
ALPHA
100
AcDbLine
 10
-59.977803
 20
-191.09051
 30
0.0
 11
-59.977803
 21
-191.29051
 31
0.0
  0
LINE
  5
AE
100
AcDbEntity
  8
ALPHA
100
AcDbLine
 10
-65.405723
 20
-185.174512
 30
0.0
 11
-65.399386
 21
-185.154182
 31
0.0
  0
LINE
  5
AF
100
AcDbEntity
  8
ALPHA
100
AcDbLine
 10
-65.3993
 20
-185.180953
 30
0.0
 11
-65.405723
 21
-185.174512
 31
0.0
  0
LINE
  5
B0
100
AcDbEntity
  8
ALPHA
100
AcDbLine
 10
-59.959063
 20
-183.744401
 30
0.0
 11
-64.16466
 21
-183.781268
 31
0.0
  0
LINE
  5
B1
100
AcDbEntity
  8
ALPHA
100
AcDbLine
 10
-64.180829
 20
-182.082472
 30
0.0
 11
-64.66664
 21
-182.086608
 31
0.0
  0
LINE
  5
B2
100
AcDbEntity
  8
ALPHA
100
AcDbLine
 10
-58.447555
 20
-183.420001
 30
0.0
 11
-58.431376
 21
-185.119872
 31
0.0
  0
LINE
  5
B3
100
AcDbEntity
  8
ALPHA
100
AcDbLine
 10
-58.388831
 20
-183.419489
 30
0.0
 11
-58.372697
 21
-185.114589
 31
0.0
  0
LINE
  5
B4
100
AcDbEntity
  8
ALPHA
100
AcDbLine
 10
-59.916136
 20
-191.09051
 30
0.0
 11
-59.916136
 21
-191.29051
 31
0.0
  0
LINE
  5
B5
100
AcDbEntity
  8
ALPHA
100
AcDbLine
 10
-56.462803
 20
-191.09051
 30
0.0
 11
-56.462803
 21
-191.29051
 31
0.0
  0
LINE
  5
B6
100
AcDbEntity
  8
ALPHA
100
AcDbLine
 10
-54.119469
 20
-191.09051
 30
0.0
 11
-54.119469
 21
-191.29051
 31
0.0
  0
LINE
  5
B7
100
AcDbEntity
  8
ALPHA
100
AcDbLine
 10
-53.626137
 20
-191.09051
 30
0.0
 11
-53.626137
 21
-191.29051
 31
0.0
  0
LINE
  5
B8
100
AcDbEntity
  8
ALPHA
100
AcDbLine
 10
-53.256136
 20
-191.09051
 30
0.0
 11
-53.256136
 21
-191.29051
 31
0.0
  0
LINE
  5
B9
100
AcDbEntity
  8
ALPHA
100
AcDbLine
 10
-52.886137
 20
-191.09051
 30
0.0
 11
-52.886137
 21
-191.29051
 31
0.0
  0
LINE
  5
BA
100
AcDbEntity
  8
ALPHA
100
AcDbLine
 10
-52.886137
 20
-191.29051
 30
0.0
 11
-53.626137
 21
-191.29051
 31
0.0
  0
LINE
  5
BB
100
AcDbEntity
  8
ALPHA
100
AcDbLine
 10
-54.119469
 20
-191.29051
 30
0.0
 11
-56.462803
 21
-191.29051
 31
0.0
  0
LINE
  5
BC
100
AcDbEntity
  8
ALPHA
100
AcDbLine
 10
-58.431376
 20
-185.119872
 30
0.0
 11
-58.429792
 21
-185.119826
 31
0.0
  0
LINE
  5
BD
100
AcDbEntity
  8
ALPHA
100
AcDbLine
 10
-56.666588
 20
-183.404138
 30
0.0
 11
-58.447021
 21
-183.420008
 31
0.0
  0
LINE
  5
BE
100
AcDbEntity
  8
ALPHA
100
AcDbLine
 10
-58.447555
 20
-183.420001
 30
0.0
 11
-58.447021
 21
-183.420008
 31
0.0
  0
LINE
  5
BF
100
AcDbEntity
  8
ALPHA
100
AcDbLine
 10
-58.372697
 20
-185.114589
 30
0.0
 11
-58.429792
 21
-185.119826
 31
0.0
  0
LINE
  5
C0
100
AcDbEntity
  8
ALPHA
100
AcDbLine
 10
-42.571044
 20
-191.09051
 30
0.0
 11
-42.536136
 21
-195.09051
 31
0.0
  0
LINE
  5
C1
100
AcDbEntity
  8
ALPHA
100
AcDbLine
 10
-39.427448
 20
-192.081783
 30
0.0
 11
-39.427448
 21
-191.09051
 31
0.0
  0
LINE
  5
C2
100
AcDbEntity
  8
ALPHA
100
AcDbLine
 10
-35.444825
 20
-191.09051
 30
0.0
 11
-35.444825
 21
-192.081783
 31
0.0
  0
ARC
  5
C3
100
AcDbEntity
  8
ALPHA
100
AcDbCircle
 10
-35.444825
 20
-192.09051
 30
0.0
 40
1.0
100
AcDbArc
 50
90.0
 51
179.499973
  0
ARC
  5
C4
100
AcDbEntity
  8
ALPHA
100
AcDbCircle
 10
-39.427448
 20
-192.09051
 30
0.0
 40
1.0
100
AcDbArc
 50
0.500027
 51
90.0
  0
CIRCLE
  5
C5
100
AcDbEntity
  8
ALPHA
100
AcDbCircle
 10
-47.936136
 20
-194.09051
 30
0.0
 40
1.75
  0
LINE
  5
C6
100
AcDbEntity
  8
ALPHA
100
AcDbLine
 10
-35.509705
 20
-199.516246
 30
0.0
 11
-39.362568
 21
-199.516246
 31
0.0
  0
LINE
  5
C7
100
AcDbEntity
  8
ALPHA
100
AcDbLine
 10
-39.362568
 20
-199.516246
 30
0.0
 11
-39.427448
 21
-192.081783
 31
0.0
  0
LINE
  5
C8
100
AcDbEntity
  8
ALPHA
100
AcDbLine
 10
-38.36567
 20
-199.165187
 30
0.0
 11
-38.427486
 21
-192.081783
 31
0.0
  0
LINE
  5
C9
100
AcDbEntity
  8
ALPHA
100
AcDbLine
 10
-39.427448
 20
-192.081783
 30
0.0
 11
-42.562393
 21
-192.081783
 31
0.0
  0
LINE
  5
CA
100
AcDbEntity
  8
ALPHA
100
AcDbLine
 10
-36.506603
 20
-199.165187
 30
0.0
 11
-36.444787
 21
-192.081783
 31
0.0
  0
LINE
  5
CB
100
AcDbEntity
  8
ALPHA
100
AcDbLine
 10
-35.509705
 20
-199.516246
 30
0.0
 11
-35.444825
 21
-192.081783
 31
0.0
  0
LINE
  5
CC
100
AcDbEntity
  8
ALPHA
100
AcDbLine
 10
-50.363939
 20
-183.311681
 30
0.0
 11
-50.31458
 21
-183.345607
 31
0.0
  0
LINE
  5
CD
100
AcDbEntity
  8
ALPHA
100
AcDbLine
 10
-50.309417
 20
-183.346604
 30
0.0
 11
-50.308367
 21
-183.346551
 31
0.0
  0
LINE
  5
CE
100
AcDbEntity
  8
ALPHA
100
AcDbLine
 10
-51.96047
 20
-164.472449
 30
0.0
 11
-51.793924
 21
-181.971116
 31
0.0
  0
LINE
  5
CF
100
AcDbEntity
  8
ALPHA
100
AcDbLine
 10
-59.524514
 20
-178.258632
 30
0.0
 11
-60.591931
 21
-178.267907
 31
0.0
  0
LINE
  5
D0
100
AcDbEntity
  8
ALPHA
100
AcDbLine
 10
-59.52468
 20
-178.239525
 30
0.0
 11
-61.119493
 21
-178.253389
 31
0.0
  0
LINE
  5
D1
100
AcDbEntity
  8
ALPHA
100
AcDbLine
 10
-60.918904
 20
-181.59051
 30
0.0
 11
-59.492787
 21
-181.59051
 31
0.0
  0
LINE
  5
D2
100
AcDbEntity
  8
ALPHA
100
AcDbLine
 10
-64.477476
 20
-178.302064
 30
0.0
 11
-64.441958
 21
-182.033949
 31
0.0
  0
LINE
  5
D3
100
AcDbEntity
  8
ALPHA
100
AcDbLine
 10
-63.110329
 20
-178.270841
 30
0.0
 11
-63.096054
 21
-179.770726
 31
0.0
  0
LINE
  5
D4
100
AcDbEntity
  8
ALPHA
100
AcDbLine
 10
-62.69275
 20
-179.822635
 30
0.0
 11
-62.692893
 21
-179.807641
 31
0.0
  0
LINE
  5
D5
100
AcDbEntity
  8
ALPHA
100
AcDbLine
 10
-62.543437
 20
-179.821326
 30
0.0
 11
-62.523452
 21
-181.921166
 31
0.0
  0
LINE
  5
D6
100
AcDbEntity
  8
ALPHA
100
AcDbLine
 10
-61.119493
 20
-178.253389
 30
0.0
 11
-61.105218
 21
-179.753275
 31
0.0
  0
LINE
  5
D7
100
AcDbEntity
  8
ALPHA
100
AcDbLine
 10
-60.928865
 20
-178.270843
 30
0.0
 11
-60.928234
 21
-178.33713
 31
0.0
  0
LINE
  5
D8
100
AcDbEntity
  8
ALPHA
100
AcDbLine
 10
-60.919212
 20
-178.270759
 30
0.0
 11
-60.890358
 21
-181.59051
 31
0.0
  0
LINE
  5
D9
100
AcDbEntity
  8
ALPHA
100
AcDbLine
 10
-63.12675
 20
-182.022688
 30
0.0
 11
-63.111875
 21
-180.129524
 31
0.0
  0
LINE
  5
DA
100
AcDbEntity
  8
ALPHA
100
AcDbLine
 10
-62.933145
 20
-179.772006
 30
0.0
 11
-62.950808
 21
-182.020072
 31
0.0
  0
LINE
  5
DB
100
AcDbEntity
  8
ALPHA
100
AcDbLine
 10
-63.174948
 20
-178.290546
 30
0.0
 11
-63.186099
 21
-179.59051
 31
0.0
  0
LINE
  5
DC
100
AcDbEntity
  8
ALPHA
100
AcDbLine
 10
-63.477363
 20
-182.02571
 30
0.0
 11
-63.473584
 21
-181.59051
 31
0.0
  0
LINE
  5
DD
100
AcDbEntity
  8
ALPHA
100
AcDbLine
 10
-63.416404
 20
-178.292675
 30
0.0
 11
-63.445038
 21
-181.59051
 31
0.0
  0
LINE
  5
DE
100
AcDbEntity
  8
ALPHA
100
AcDbLine
 10
-63.314795
 20
-182.024311
 30
0.0
 11
-63.296761
 21
-180.129524
 31
0.0
  0
LINE
  5
DF
100
AcDbEntity
  8
ALPHA
100
AcDbLine
 10
-63.096054
 20
-179.770726
 30
0.0
 11
-62.568201
 21
-179.819058
 31
0.0
  0
LINE
  5
E0
100
AcDbEntity
  8
ALPHA
100
AcDbLine
 10
-60.906168
 20
-179.7715
 30
0.0
 11
-61.105218
 21
-179.753275
 31
0.0
  0
LINE
  5
E1
100
AcDbEntity
  8
ALPHA
100
AcDbLine
 10
-60.928865
 20
-178.270843
 30
0.0
 11
-61.119493
 21
-178.253389
 31
0.0
  0
LINE
  5
E2
100
AcDbEntity
  8
ALPHA
100
AcDbLine
 10
-62.568201
 20
-179.819058
 30
0.0
 11
-62.69275
 21
-179.822635
 31
0.0
  0
LINE
  5
E3
100
AcDbEntity
  8
ALPHA
100
AcDbLine
 10
-60.916152
 20
-181.907076
 30
0.0
 11
-62.523452
 21
-181.921166
 31
0.0
  0
LINE
  5
E4
100
AcDbEntity
  8
ALPHA
100
AcDbLine
 10
-62.543437
 20
-179.821326
 30
0.0
 11
-60.90586
 21
-179.806971
 31
0.0
  0
LINE
  5
E5
100
AcDbEntity
  8
ALPHA
100
AcDbLine
 10
-61.105218
 20
-179.753275
 30
0.0
 11
-63.096054
 21
-179.770726
 31
0.0
  0
LINE
  5
E6
100
AcDbEntity
  8
ALPHA
100
AcDbLine
 10
-60.918897
 20
-178.307027
 30
0.0
 11
-60.928547
 21
-178.307112
 31
0.0
  0
LINE
  5
E7
100
AcDbEntity
  8
ALPHA
100
AcDbLine
 10
-60.591931
 20
-178.267907
 30
0.0
 11
-60.928865
 21
-178.270843
 31
0.0
  0
LINE
  5
E8
100
AcDbEntity
  8
ALPHA
100
AcDbLine
 10
-63.11016
 20
-178.289975
 30
0.0
 11
-64.477476
 21
-178.302064
 31
0.0
  0
LINE
  5
E9
100
AcDbEntity
  8
ALPHA
100
AcDbLine
 10
-63.110329
 20
-178.270841
 30
0.0
 11
-64.702824
 21
-178.284917
 31
0.0
  0
LINE
  5
EA
100
AcDbEntity
  8
ALPHA
100
AcDbLine
 10
-62.884178
 20
-182.020595
 30
0.0
 11
-64.441958
 21
-182.033949
 31
0.0
  0
LINE
  5
EB
100
AcDbEntity
  8
ALPHA
100
AcDbLine
 10
-64.446178
 20
-181.59051
 30
0.0
 11
-63.445038
 21
-181.59051
 31
0.0
  0
LINE
  5
EC
100
AcDbEntity
  8
ALPHA
100
AcDbLine
 10
-63.244752
 20
-179.621136
 30
0.0
 11
-63.155052
 21
-179.621136
 31
0.0
  0
LINE
  5
ED
100
AcDbEntity
  8
ALPHA
100
AcDbLine
 10
-63.097769
 20
-179.59051
 30
0.0
 11
-63.186099
 21
-179.59051
 31
0.0
  0
LINE
  5
EE
100
AcDbEntity
  8
ALPHA
100
AcDbLine
 10
-62.69275
 20
-179.822635
 30
0.0
 11
-62.543507
 21
-179.825268
 31
0.0
  0
LINE
  5
EF
100
AcDbEntity
  8
ALPHA
100
AcDbLine
 10
-64.477476
 20
-178.302064
 30
0.0
 11
-64.702824
 21
-178.284917
 31
0.0
  0
LINE
  5
F0
100
AcDbEntity
  8
ALPHA
100
AcDbLine
 10
-63.29734
 20
-180.190319
 30
0.0
 11
-63.111873
 21
-180.129255
 31
0.0
  0
LINE
  5
F1
100
AcDbEntity
  8
ALPHA
100
AcDbLine
 10
-62.884178
 20
-182.020595
 30
0.0
 11
-62.523452
 21
-181.921166
 31
0.0
  0
LINE
  5
F2
100
AcDbEntity
  8
ALPHA
100
AcDbLine
 10
-63.245686
 20
-179.621335
 30
0.0
 11
-63.244752
 21
-179.621136
 31
0.0
  0
LINE
  5
F3
100
AcDbEntity
  8
ALPHA
100
AcDbLine
 10
-60.928234
 20
-178.33713
 30
0.0
 11
-60.918643
 21
-178.336251
 31
0.0
  0
LINE
  5
F4
100
AcDbEntity
  8
ALPHA
100
AcDbLine
 10
-59.52468
 20
-178.239525
 30
0.0
 11
-59.488497
 21
-182.041216
 31
0.0
  0
LINE
  5
F5
100
AcDbEntity
  8
ALPHA
100
AcDbLine
 10
-51.793924
 20
-181.971116
 30
0.0
 11
-59.488502
 21
-182.040721
 31
0.0
  0
LINE
  5
F6
100
AcDbEntity
  8
ALPHA
100
AcDbLine
 10
-51.96047
 20
-164.472449
 30
0.0
 11
-57.635053
 21
-164.523607
 31
0.0
  0
LINE
  5
F7
100
AcDbEntity
  8
ALPHA
100
AcDbLine
 10
-56.148817
 20
-163.099875
 30
0.0
 11
-56.145823
 21
-163.099246
 31
0.0
  0
LINE
  5
F8
100
AcDbEntity
  8
ALPHA
100
AcDbLine
 10
-56.08649
 20
-163.093804
 30
0.0
 11
-56.145823
 21
-163.099246
 31
0.0
  0
LINE
  5
F9
100
AcDbEntity
  8
ALPHA
100
AcDbLine
 10
-87.436136
 20
-102.79051
 30
0.0
 11
-87.436136
 21
-133.29051
 31
0.0
  0
LINE
  5
FA
100
AcDbEntity
  8
ALPHA
100
AcDbLine
 10
-57.436136
 20
-133.29051
 30
0.0
 11
-57.436136
 21
-102.79051
 31
0.0
  0
LINE
  5
FB
100
AcDbEntity
  8
ALPHA
100
AcDbLine
 10
-74.958826
 20
-162.99051
 30
0.0
 11
-68.102229
 21
-162.99051
 31
0.0
  0
LINE
  5
FC
100
AcDbEntity
  8
ALPHA
100
AcDbLine
 10
-87.436136
 20
-133.29051
 30
0.0
 11
-54.036136
 21
-133.29051
 31
0.0
  0
CIRCLE
  5
FD
100
AcDbEntity
  8
ALPHA
100
AcDbCircle
 10
-68.936136
 20
-141.29051
 30
0.0
 40
2.0
  0
CIRCLE
  5
FE
100
AcDbEntity
  8
ALPHA
100
AcDbCircle
 10
-68.936136
 20
-141.29051
 30
0.0
 40
2.1
  0
ARC
  5
FF
100
AcDbEntity
  8
ALPHA
100
AcDbCircle
 10
-68.936136
 20
-141.29051
 30
0.0
 40
4.249999
100
AcDbArc
 50
295.797187
 51
244.202801
  0
ARC
  5
100
100
AcDbEntity
  8
ALPHA
100
AcDbCircle
 10
-68.936136
 20
-141.29051
 30
0.0
 40
5.75
100
AcDbArc
 50
0.0
 51
180.0
  0
LINE
  5
101
100
AcDbEntity
  8
ALPHA
100
AcDbLine
 10
-93.030484
 20
-131.89051
 30
0.0
 11
-92.89609
 21
-147.29051
 31
0.0
  0
LINE
  5
102
100
AcDbEntity
  8
ALPHA
100
AcDbLine
 10
-92.033078
 20
-130.89051
 30
0.0
 11
-91.898684
 21
-146.29051
 31
0.0
  0
LINE
  5
103
100
AcDbEntity
  8
ALPHA
100
AcDbLine
 10
-93.08367
 20
-148.29051
 30
0.0
 11
-93.08367
 21
-131.89051
 31
0.0
  0
LINE
  5
104
100
AcDbEntity
  8
ALPHA
100
AcDbLine
 10
-89.936136
 20
-130.89051
 30
0.0
 11
-89.936136
 21
-145.29051
 31
0.0
  0
LINE
  5
105
100
AcDbEntity
  8
ALPHA
100
AcDbLine
 10
-83.836136
 20
-133.29051
 30
0.0
 11
-83.836136
 21
-146.29051
 31
0.0
  0
LINE
  5
106
100
AcDbEntity
  8
ALPHA
100
AcDbLine
 10
-74.686136
 20
-141.29051
 30
0.0
 11
-74.686136
 21
-146.29051
 31
0.0
  0
LINE
  5
107
100
AcDbEntity
  8
ALPHA
100
AcDbLine
 10
-91.892514
 20
-146.29051
 30
0.0
 11
-74.667708
 21
-146.29051
 31
0.0
  0
LINE
  5
108
100
AcDbEntity
  8
ALPHA
100
AcDbLine
 10
-83.836136
 20
-145.29051
 30
0.0
 11
-89.936136
 21
-145.29051
 31
0.0
  0
LINE
  5
109
100
AcDbEntity
  8
ALPHA
100
AcDbLine
 10
-93.066216
 20
-148.29051
 30
0.0
 11
-93.08367
 21
-148.29051
 31
0.0
  0
LINE
  5
10A
100
AcDbEntity
  8
ALPHA
100
AcDbLine
 10
-92.444787
 20
-147.29051
 30
0.0
 11
-92.89609
 21
-147.29051
 31
0.0
  0
LINE
  5
10B
100
AcDbEntity
  8
ALPHA
100
AcDbLine
 10
-91.436098
 20
-146.29051
 30
0.0
 11
-91.725292
 21
-146.33313
 31
0.0
  0
LINE
  5
10C
100
AcDbEntity
  8
ALPHA
100
AcDbLine
 10
-73.236136
 20
-162.99051
 30
0.0
 11
-73.236136
 21
-148.19051
 31
0.0
  0
LINE
  5
10D
100
AcDbEntity
  8
ALPHA
100
AcDbLine
 10
-74.91345
 20
-162.990906
 30
0.0
 11
-74.767708
 21
-146.29051
 31
0.0
  0
LINE
  5
10E
100
AcDbEntity
  8
ALPHA
100
AcDbLine
 10
-74.813447
 20
-162.99051
 30
0.0
 11
-74.665886
 21
-146.081783
 31
0.0
  0
LINE
  5
10F
100
AcDbEntity
  8
ALPHA
100
AcDbLine
 10
-73.959038
 20
-162.99051
 30
0.0
 11
-73.822317
 21
-147.39051
 31
0.0
  0
LINE
  5
110
100
AcDbEntity
  8
ALPHA
100
AcDbLine
 10
-73.822317
 20
-147.39051
 30
0.0
 11
-74.677231
 21
-147.381783
 31
0.0
  0
ARC
  5
111
100
AcDbEntity
  8
ALPHA
100
AcDbCircle
 10
-73.665924
 20
-146.09051
 30
0.0
 40
1.0
100
AcDbArc
 50
90.0
 51
179.499973
  0
ARC
  5
112
100
AcDbEntity
  8
ALPHA
100
AcDbCircle
 10
-73.677269
 20
-147.39051
 30
0.0
 40
1.0
100
AcDbArc
 50
90.0
 51
179.499973
  0
ARC
  5
113
100
AcDbEntity
  8
ALPHA
100
AcDbCircle
 10
-83.436136
 20
-136.89051
 30
0.0
 40
2.75
100
AcDbArc
 50
98.367499
 51
261.632501
  0
LINE
  5
114
100
AcDbEntity
  8
ALPHA
100
AcDbLine
 10
-93.08367
 20
-131.89051
 30
0.0
 11
-93.030484
 21
-131.89051
 31
0.0
  0
LINE
  5
115
100
AcDbEntity
  8
ALPHA
100
AcDbLine
 10
-92.026907
 20
-130.89051
 30
0.0
 11
-87.436136
 21
-130.89051
 31
0.0
  0
LINE
  5
116
100
AcDbEntity
  8
ALPHA
100
AcDbLine
 10
-63.186136
 20
-145.09051
 30
0.0
 11
-63.186136
 21
-141.29051
 31
0.0
  0
LINE
  5
117
100
AcDbEntity
  8
ALPHA
100
AcDbLine
 10
-54.036136
 20
-133.29051
 30
0.0
 11
-54.036136
 21
-145.09051
 31
0.0
  0
LINE
  5
118
100
AcDbEntity
  8
ALPHA
100
AcDbLine
 10
-42.536136
 20
-142.29051
 30
0.0
 11
-42.560572
 21
-145.09051
 31
0.0
  0
LINE
  5
119
100
AcDbEntity
  8
ALPHA
100
AcDbLine
 10
-39.425626
 20
-145.09051
 30
0.0
 11
-39.361388
 21
-137.729596
 31
0.0
  0
LINE
  5
11A
100
AcDbEntity
  8
ALPHA
100
AcDbLine
 10
-38.425664
 20
-145.09051
 30
0.0
 11
-38.380582
 21
-139.924619
 31
0.0
  0
LINE
  5
11B
100
AcDbEntity
  8
ALPHA
100
AcDbLine
 10
-36.446609
 20
-145.09051
 30
0.0
 11
-36.491691
 21
-139.924619
 31
0.0
  0
LINE
  5
11C
100
AcDbEntity
  8
ALPHA
100
AcDbLine
 10
-35.446647
 20
-145.09051
 30
0.0
 11
-35.510884
 21
-137.729596
 31
0.0
  0
LINE
  5
11D
100
AcDbEntity
  8
ALPHA
100
AcDbLine
 10
-68.021993
 20
-161.196049
 30
0.0
 11
-56.07698
 21
-161.091339
 31
0.0
  0
LINE
  5
11E
100
AcDbEntity
  8
ALPHA
100
AcDbLine
 10
-67.969788
 20
-160.89051
 30
0.0
 11
-56.067226
 21
-160.89051
 31
0.0
  0
LINE
  5
11F
100
AcDbEntity
  8
ALPHA
100
AcDbLine
 10
-67.991172
 20
-159.89051
 30
0.0
 11
-56.187748
 21
-159.89051
 31
0.0
  0
LINE
  5
120
100
AcDbEntity
  8
ALPHA
100
AcDbLine
 10
-67.991172
 20
-158.59051
 30
0.0
 11
-56.187748
 21
-158.59051
 31
0.0
  0
LINE
  5
121
100
AcDbEntity
  8
ALPHA
100
AcDbLine
 10
-68.054254
 20
-158.49051
 30
0.0
 11
-56.06711
 21
-158.49051
 31
0.0
  0
LINE
  5
122
100
AcDbEntity
  8
ALPHA
100
AcDbLine
 10
-68.054252
 20
-161.196034
 30
0.0
 11
-68.054254
 21
-158.490503
 31
0.0
  0
LINE
  5
123
100
AcDbEntity
  8
ALPHA
100
AcDbLine
 10
-67.991172
 20
-159.89051
 30
0.0
 11
-67.991172
 21
-158.59051
 31
0.0
  0
LINE
  5
124
100
AcDbEntity
  8
ALPHA
100
AcDbLine
 10
-68.112863
 20
-161.204738
 30
0.0
 11
-68.11913
 21
-161.214761
 31
0.0
  0
LINE
  5
125
100
AcDbEntity
  8
ALPHA
100
AcDbLine
 10
-68.054254
 20
-158.490503
 30
0.0
 11
-67.991172
 21
-158.59051
 31
0.0
  0
LINE
  5
126
100
AcDbEntity
  8
ALPHA
100
AcDbLine
 10
-68.021993
 20
-161.196049
 30
0.0
 11
-68.109869
 21
-161.204109
 31
0.0
  0
LINE
  5
127
100
AcDbEntity
  8
ALPHA
100
AcDbLine
 10
-56.187748
 20
-159.89051
 30
0.0
 11
-56.187748
 21
-158.59051
 31
0.0
  0
LINE
  5
128
100
AcDbEntity
  8
ALPHA
100
AcDbLine
 10
-56.067117
 20
-162.99051
 30
0.0
 11
-56.06711
 21
-158.490503
 31
0.0
  0
LINE
  5
129
100
AcDbEntity
  8
ALPHA
100
AcDbLine
 10
-56.06711
 20
-158.490503
 30
0.0
 11
-56.187748
 21
-158.59051
 31
0.0
  0
LINE
  5
12A
100
AcDbEntity
  8
ALPHA
100
AcDbLine
 10
-56.07698
 20
-161.091339
 30
0.0
 11
-56.164857
 21
-161.099399
 31
0.0
  0
LINE
  5
12B
100
AcDbEntity
  8
ALPHA
100
AcDbLine
 10
-50.444402
 20
-163.042854
 30
0.0
 11
-50.501561
 21
-163.048097
 31
0.0
  0
LINE
  5
12C
100
AcDbEntity
  8
ALPHA
100
AcDbLine
 10
-35.510884
 20
-137.729596
 30
0.0
 11
-39.361388
 21
-137.729596
 31
0.0
  0
LINE
  5
12D
100
AcDbEntity
  8
ALPHA
100
AcDbLine
 10
-86.436136
 20
-101.79051
 30
0.0
 11
-58.436136
 21
-101.79051
 31
0.0
  0
LINE
  5
12E
100
AcDbEntity
  8
ALPHA
100
AcDbLine
 10
-85.436136
 20
-100.79051
 30
0.0
 11
-59.436136
 21
-100.79051
 31
0.0
  0
CIRCLE
  5
12F
100
AcDbEntity
  8
ALPHA
100
AcDbCircle
 10
-72.436136
 20
-114.79051
 30
0.0
 40
5.5
  0
CIRCLE
  5
130
100
AcDbEntity
  8
ALPHA
100
AcDbCircle
 10
-72.436136
 20
-114.79051
 30
0.0
 40
6.0
  0
LINE
  5
131
100
AcDbEntity
  8
ALPHA
100
AcDbLine
 10
-87.436136
 20
-102.79051
 30
0.0
 11
-85.436136
 21
-100.79051
 31
0.0
  0
LINE
  5
132
100
AcDbEntity
  8
ALPHA
100
AcDbLine
 10
-59.436136
 20
-100.79051
 30
0.0
 11
-57.436136
 21
-102.79051
 31
0.0
  0
LINE
  5
133
100
AcDbEntity
  8
ALPHA
100
AcDbLine
 10
-4.758826
 20
-162.99051
 30
0.0
 11
-4.736136
 21
-165.59051
 31
0.0
  0
LINE
  5
134
100
AcDbEntity
  8
ALPHA
100
AcDbLine
 10
-4.643991
 20
-165.59051
 30
0.0
 11
-4.66668
 21
-162.99051
 31
0.0
  0
LINE
  5
135
100
AcDbEntity
  8
ALPHA
100
AcDbLine
 10
-5.336136
 20
-181.59051
 30
0.0
 11
-5.336136
 21
-162.99051
 31
0.0
  0
LINE
  5
136
100
AcDbEntity
  8
ALPHA
100
AcDbLine
 10
9.963864
 20
-165.59051
 30
0.0
 11
10.194458
 21
-161.19051
 31
0.0
  0
LINE
  5
137
100
AcDbEntity
  8
ALPHA
100
AcDbLine
 10
10.209968
 20
-161.14051
 30
0.0
 11
9.976753
 21
-165.59051
 31
0.0
  0
LINE
  5
138
100
AcDbEntity
  8
ALPHA
100
AcDbLine
 10
19.750974
 20
-165.59051
 30
0.0
 11
19.51776
 21
-161.14051
 31
0.0
  0
LINE
  5
139
100
AcDbEntity
  8
ALPHA
100
AcDbLine
 10
19.963864
 20
-165.59051
 30
0.0
 11
19.733269
 21
-161.19051
 31
0.0
  0
LINE
  5
13A
100
AcDbEntity
  8
ALPHA
100
AcDbLine
 10
40.163864
 20
-165.59051
 30
0.0
 11
39.993614
 21
-146.081783
 31
0.0
  0
LINE
  5
13B
100
AcDbEntity
  8
ALPHA
100
AcDbLine
 10
56.572552
 20
-146.29051
 30
0.0
 11
56.572552
 21
-191.09051
 31
0.0
  0
LINE
  5
13C
100
AcDbEntity
  8
ALPHA
100
AcDbLine
 10
57.572514
 20
-147.29051
 30
0.0
 11
57.572514
 21
-190.09051
 31
0.0
  0
LINE
  5
13D
100
AcDbEntity
  8
ALPHA
100
AcDbLine
 10
58.193943
 20
-148.29051
 30
0.0
 11
58.193943
 21
-195.49051
 31
0.0
  0
LINE
  5
13E
100
AcDbEntity
  8
ALPHA
100
AcDbLine
 10
23.663864
 20
-237.59051
 30
0.0
 11
44.463864
 21
-237.59051
 31
0.0
  0
LINE
  5
13F
100
AcDbEntity
  8
ALPHA
100
AcDbLine
 10
22.663864
 20
-236.59051
 30
0.0
 11
45.463864
 21
-236.59051
 31
0.0
  0
LINE
  5
140
100
AcDbEntity
  8
ALPHA
100
AcDbLine
 10
19.163864
 20
-205.09051
 30
0.0
 11
48.963864
 21
-205.09051
 31
0.0
  0
LINE
  5
141
100
AcDbEntity
  8
ALPHA
100
AcDbLine
 10
34.63875
 20
-191.39051
 30
0.0
 11
28.313864
 21
-191.39051
 31
0.0
  0
LINE
  5
142
100
AcDbEntity
  8
ALPHA
100
AcDbLine
 10
-3.02589
 20
-183.39051
 30
0.0
 11
38.353618
 21
-183.39051
 31
0.0
  0
LINE
  5
143
100
AcDbEntity
  8
ALPHA
100
AcDbLine
 10
29.454264
 20
-182.49051
 30
0.0
 11
37.502519
 21
-182.49051
 31
0.0
  0
LINE
  5
144
100
AcDbEntity
  8
ALPHA
100
AcDbLine
 10
34.563864
 20
-179.39051
 30
0.0
 11
32.563864
 21
-179.39051
 31
0.0
  0
LINE
  5
145
100
AcDbEntity
  8
ALPHA
100
AcDbLine
 10
39.802519
 20
-171.99051
 30
0.0
 11
19.452519
 21
-171.99051
 31
0.0
  0
LINE
  5
146
100
AcDbEntity
  8
ALPHA
100
AcDbLine
 10
19.246769
 20
-171.89051
 30
0.0
 11
40.008884
 21
-171.89051
 31
0.0
  0
LINE
  5
147
100
AcDbEntity
  8
ALPHA
100
AcDbLine
 10
40.025465
 20
-169.99051
 30
0.0
 11
-4.736136
 21
-169.99051
 31
0.0
  0
LINE
  5
148
100
AcDbEntity
  8
ALPHA
100
AcDbLine
 10
38.864138
 20
-169.49051
 30
0.0
 11
28.76359
 21
-169.49051
 31
0.0
  0
LINE
  5
149
100
AcDbEntity
  8
ALPHA
100
AcDbLine
 10
38.769255
 20
-169.395627
 30
0.0
 11
28.858472
 21
-169.395627
 31
0.0
  0
LINE
  5
14A
100
AcDbEntity
  8
ALPHA
100
AcDbLine
 10
28.658746
 20
-169.195902
 30
0.0
 11
38.968981
 21
-169.195902
 31
0.0
  0
LINE
  5
14B
100
AcDbEntity
  8
ALPHA
100
AcDbLine
 10
28.658746
 20
-163.785118
 30
0.0
 11
38.968981
 21
-163.785118
 31
0.0
  0
LINE
  5
14C
100
AcDbEntity
  8
ALPHA
100
AcDbLine
 10
28.858472
 20
-163.585393
 30
0.0
 11
38.769255
 21
-163.585393
 31
0.0
  0
LINE
  5
14D
100
AcDbEntity
  8
ALPHA
100
AcDbLine
 10
28.76359
 20
-163.49051
 30
0.0
 11
38.864138
 21
-163.49051
 31
0.0
  0
CIRCLE
  5
14E
100
AcDbEntity
  8
ALPHA
100
AcDbCircle
 10
33.563864
 20
-176.39051
 30
0.0
 40
1.5
  0
CIRCLE
  5
14F
100
AcDbEntity
  8
ALPHA
100
AcDbCircle
 10
33.563864
 20
-176.39051
 30
0.0
 40
2.0
  0
CIRCLE
  5
150
100
AcDbEntity
  8
ALPHA
100
AcDbCircle
 10
33.702519
 20
-176.49051
 30
0.0
 40
3.25
  0
CIRCLE
  5
151
100
AcDbEntity
  8
ALPHA
100
AcDbCircle
 10
34.063864
 20
-197.09051
 30
0.0
 40
2.0
  0
CIRCLE
  5
152
100
AcDbEntity
  8
ALPHA
100
AcDbCircle
 10
34.063864
 20
-223.59051
 30
0.0
 40
5.5
  0
CIRCLE
  5
153
100
AcDbEntity
  8
ALPHA
100
AcDbCircle
 10
34.063864
 20
-223.59051
 30
0.0
 40
6.0
  0
CIRCLE
  5
154
100
AcDbEntity
  8
ALPHA
100
AcDbCircle
 10
34.063864
 20
-197.09051
 30
0.0
 40
2.1
  0
CIRCLE
  5
155
100
AcDbEntity
  8
ALPHA
100
AcDbCircle
 10
34.063864
 20
-197.09051
 30
0.0
 40
4.25
  0
ARC
  5
156
100
AcDbEntity
  8
ALPHA
100
AcDbCircle
 10
34.063864
 20
-197.09051
 30
0.0
 40
5.75
100
AcDbArc
 50
180.0
 51
0.0
  0
LINE
  5
157
100
AcDbEntity
  8
ALPHA
100
AcDbLine
 10
-32.336136
 20
-200.19051
 30
0.0
 11
-32.336136
 21
-205.09051
 31
0.0
  0
LINE
  5
158
100
AcDbEntity
  8
ALPHA
100
AcDbLine
 10
-2.536136
 20
-200.19051
 30
0.0
 11
-2.536136
 21
-205.09051
 31
0.0
  0
LINE
  5
159
100
AcDbEntity
  8
ALPHA
100
AcDbLine
 10
19.163864
 20
-191.29051
 30
0.0
 11
19.163864
 21
-205.09051
 31
0.0
  0
CIRCLE
  5
15A
100
AcDbEntity
  8
ALPHA
100
AcDbCircle
 10
-17.436136
 20
-197.09051
 30
0.0
 40
4.25
  0
ARC
  5
15B
100
AcDbEntity
  8
ALPHA
100
AcDbCircle
 10
-17.436136
 20
-197.09051
 30
0.0
 40
5.75
100
AcDbArc
 50
180.0
 51
0.0
  0
LINE
  5
15C
100
AcDbEntity
  8
ALPHA
100
AcDbLine
 10
-29.836136
 20
-205.09051
 30
0.0
 11
-29.836136
 21
-235.59051
 31
0.0
  0
LINE
  5
15D
100
AcDbEntity
  8
ALPHA
100
AcDbLine
 10
-5.036136
 20
-205.09051
 30
0.0
 11
-5.036136
 21
-235.59051
 31
0.0
  0
CIRCLE
  5
15E
100
AcDbEntity
  8
ALPHA
100
AcDbCircle
 10
-17.436136
 20
-223.59051
 30
0.0
 40
5.5
  0
CIRCLE
  5
15F
100
AcDbEntity
  8
ALPHA
100
AcDbCircle
 10
-17.436136
 20
-223.59051
 30
0.0
 40
6.0
  0
LINE
  5
160
100
AcDbEntity
  8
ALPHA
100
AcDbLine
 10
-7.036136
 20
-237.59051
 30
0.0
 11
-27.836136
 21
-237.59051
 31
0.0
  0
LINE
  5
161
100
AcDbEntity
  8
ALPHA
100
AcDbLine
 10
-6.036136
 20
-236.59051
 30
0.0
 11
-28.836136
 21
-236.59051
 31
0.0
  0
LINE
  5
162
100
AcDbEntity
  8
ALPHA
100
AcDbLine
 10
-29.836136
 20
-235.59051
 30
0.0
 11
-27.836136
 21
-237.59051
 31
0.0
  0
LINE
  5
163
100
AcDbEntity
  8
ALPHA
100
AcDbLine
 10
-5.036136
 20
-235.59051
 30
0.0
 11
-7.036136
 21
-237.59051
 31
0.0
  0
LINE
  5
164
100
AcDbEntity
  8
ALPHA
100
AcDbLine
 10
-32.336136
 20
-205.09051
 30
0.0
 11
-2.536136
 21
-205.09051
 31
0.0
  0
LINE
  5
165
100
AcDbEntity
  8
ALPHA
100
AcDbLine
 10
21.663864
 20
-205.09051
 30
0.0
 11
21.663864
 21
-235.59051
 31
0.0
  0
LINE
  5
166
100
AcDbEntity
  8
ALPHA
100
AcDbLine
 10
21.663864
 20
-235.59051
 30
0.0
 11
23.663864
 21
-237.59051
 31
0.0
  0
LINE
  5
167
100
AcDbEntity
  8
ALPHA
100
AcDbLine
 10
-2.536136
 20
-200.19051
 30
0.0
 11
2.563863
 21
-200.19051
 31
0.0
  0
LINE
  5
168
100
AcDbEntity
  8
ALPHA
100
AcDbLine
 10
0.572552
 20
-192.081783
 30
0.0
 11
-2.562393
 21
-192.081783
 31
0.0
  0
LINE
  5
169
100
AcDbEntity
  8
ALPHA
100
AcDbLine
 10
-1.897481
 20
-182.49051
 30
0.0
 11
6.002519
 21
-182.49051
 31
0.0
  0
LINE
  5
16A
100
AcDbEntity
  8
ALPHA
100
AcDbLine
 10
-4.197481
 20
-171.99051
 30
0.0
 11
16.152519
 21
-171.99051
 31
0.0
  0
LINE
  5
16B
100
AcDbEntity
  8
ALPHA
100
AcDbLine
 10
-4.736136
 20
-171.89051
 30
0.0
 11
16.080958
 21
-171.89051
 31
0.0
  0
LINE
  5
16C
100
AcDbEntity
  8
ALPHA
100
AcDbLine
 10
-4.736136
 20
-165.59051
 30
0.0
 11
9.976753
 21
-165.59051
 31
0.0
  0
LINE
  5
16D
100
AcDbEntity
  8
ALPHA
100
AcDbLine
 10
-0.834065
 20
-174.737338
 30
0.0
 11
-0.573951
 21
-174.887514
 31
0.0
  0
CIRCLE
  5
16E
100
AcDbEntity
  8
ALPHA
100
AcDbCircle
 10
-0.236136
 20
-179.39051
 30
0.0
 40
0.5
  0
ARC
  5
16F
100
AcDbEntity
  8
ALPHA
100
AcDbCircle
 10
1.902519
 20
-176.49051
 30
0.0
 40
2.95
100
AcDbArc
 50
147.085393
 51
152.914603
  0
CIRCLE
  5
170
100
AcDbEntity
  8
ALPHA
100
AcDbCircle
 10
1.902519
 20
-176.49051
 30
0.0
 40
3.25
  0
ARC
  5
171
100
AcDbEntity
  8
ALPHA
100
AcDbCircle
 10
2.563864
 20
-195.09051
 30
0.0
 40
5.1
100
AcDbArc
 50
180.0
 51
0.0
  0
LINE
  5
172
100
AcDbEntity
  8
ALPHA
100
AcDbLine
 10
-4.736136
 20
-182.39051
 30
0.0
 11
-4.736136
 21
-165.59051
 31
0.0
  0
LINE
  5
173
100
AcDbEntity
  8
ALPHA
100
AcDbLine
 10
-1.897481
 20
-180.99051
 30
0.0
 11
-1.897481
 21
-182.49051
 31
0.0
  0
LINE
  5
174
100
AcDbEntity
  8
ALPHA
100
AcDbLine
 10
-3.066037
 20
-185.69051
 30
0.0
 11
-2.983998
 21
-180.99051
 31
0.0
  0
LINE
  5
175
100
AcDbEntity
  8
ALPHA
100
AcDbLine
 10
-11.686136
 20
-191.39051
 30
0.0
 11
-23.186136
 21
-191.39051
 31
0.0
  0
LINE
  5
176
100
AcDbEntity
  8
ALPHA
100
AcDbLine
 10
-4.071569
 20
-190.871218
 30
0.0
 11
-23.800704
 21
-190.871218
 31
0.0
  0
CIRCLE
  5
177
100
AcDbEntity
  8
ALPHA
100
AcDbCircle
 10
-17.436136
 20
-197.09051
 30
0.0
 40
2.0
  0
CIRCLE
  5
178
100
AcDbEntity
  8
ALPHA
100
AcDbCircle
 10
-17.436136
 20
-197.09051
 30
0.0
 40
2.1
  0
LINE
  5
179
100
AcDbEntity
  8
ALPHA
100
AcDbLine
 10
-32.336136
 20
-195.09051
 30
0.0
 11
-32.301229
 21
-191.09051
 31
0.0
  0
LINE
  5
17A
100
AcDbEntity
  8
ALPHA
100
AcDbLine
 10
-23.186136
 20
-191.09051
 30
0.0
 11
-23.186136
 21
-197.09051
 31
0.0
  0
LINE
  5
17B
100
AcDbEntity
  8
ALPHA
100
AcDbLine
 10
-20.469469
 20
-191.29051
 30
0.0
 11
-22.936136
 21
-191.29051
 31
0.0
  0
LINE
  5
17C
100
AcDbEntity
  8
ALPHA
100
AcDbLine
 10
-22.936136
 20
-191.09051
 30
0.0
 11
-22.936136
 21
-191.29051
 31
0.0
  0
LINE
  5
17D
100
AcDbEntity
  8
ALPHA
100
AcDbLine
 10
-21.456137
 20
-191.09051
 30
0.0
 11
-21.456137
 21
-191.29051
 31
0.0
  0
LINE
  5
17E
100
AcDbEntity
  8
ALPHA
100
AcDbLine
 10
-21.086138
 20
-191.09051
 30
0.0
 11
-21.086138
 21
-191.29051
 31
0.0
  0
LINE
  5
17F
100
AcDbEntity
  8
ALPHA
100
AcDbLine
 10
-20.469469
 20
-191.09051
 30
0.0
 11
-20.469469
 21
-191.29051
 31
0.0
  0
LINE
  5
180
100
AcDbEntity
  8
ALPHA
100
AcDbLine
 10
-23.408657
 20
-183.39051
 30
0.0
 11
-23.800704
 21
-190.871218
 31
0.0
  0
LINE
  5
181
100
AcDbEntity
  8
ALPHA
100
AcDbLine
 10
-11.686136
 20
-197.09051
 30
0.0
 11
-11.686136
 21
-191.09051
 31
0.0
  0
LINE
  5
182
100
AcDbEntity
  8
ALPHA
100
AcDbLine
 10
-2.571044
 20
-191.09051
 30
0.0
 11
-2.536136
 21
-195.09051
 31
0.0
  0
LINE
  5
183
100
AcDbEntity
  8
ALPHA
100
AcDbLine
 10
-11.959471
 20
-191.29051
 30
0.0
 11
-14.179468
 21
-191.29051
 31
0.0
  0
LINE
  5
184
100
AcDbEntity
  8
ALPHA
100
AcDbLine
 10
-14.672804
 20
-191.29051
 30
0.0
 11
-17.016138
 21
-191.29051
 31
0.0
  0
LINE
  5
185
100
AcDbEntity
  8
ALPHA
100
AcDbLine
 10
-17.016138
 20
-191.09051
 30
0.0
 11
-17.016138
 21
-191.29051
 31
0.0
  0
LINE
  5
186
100
AcDbEntity
  8
ALPHA
100
AcDbLine
 10
-14.672804
 20
-191.09051
 30
0.0
 11
-14.672804
 21
-191.29051
 31
0.0
  0
LINE
  5
187
100
AcDbEntity
  8
ALPHA
100
AcDbLine
 10
-14.179468
 20
-191.09051
 30
0.0
 11
-14.179468
 21
-191.29051
 31
0.0
  0
LINE
  5
188
100
AcDbEntity
  8
ALPHA
100
AcDbLine
 10
-14.117804
 20
-191.09051
 30
0.0
 11
-14.117804
 21
-191.29051
 31
0.0
  0
LINE
  5
189
100
AcDbEntity
  8
ALPHA
100
AcDbLine
 10
-14.056135
 20
-191.09051
 30
0.0
 11
-14.056135
 21
-191.29051
 31
0.0
  0
LINE
  5
18A
100
AcDbEntity
  8
ALPHA
100
AcDbLine
 10
-13.809469
 20
-191.09051
 30
0.0
 11
-13.809469
 21
-191.29051
 31
0.0
  0
LINE
  5
18B
100
AcDbEntity
  8
ALPHA
100
AcDbLine
 10
-13.562803
 20
-191.09051
 30
0.0
 11
-13.562803
 21
-191.29051
 31
0.0
  0
LINE
  5
18C
100
AcDbEntity
  8
ALPHA
100
AcDbLine
 10
-13.131136
 20
-191.09051
 30
0.0
 11
-13.131136
 21
-191.29051
 31
0.0
  0
LINE
  5
18D
100
AcDbEntity
  8
ALPHA
100
AcDbLine
 10
-12.88447
 20
-191.09051
 30
0.0
 11
-12.88447
 21
-191.29051
 31
0.0
  0
LINE
  5
18E
100
AcDbEntity
  8
ALPHA
100
AcDbLine
 10
-12.514471
 20
-191.09051
 30
0.0
 11
-12.514471
 21
-191.29051
 31
0.0
  0
LINE
  5
18F
100
AcDbEntity
  8
ALPHA
100
AcDbLine
 10
-12.267801
 20
-191.09051
 30
0.0
 11
-12.267801
 21
-191.29051
 31
0.0
  0
LINE
  5
190
100
AcDbEntity
  8
ALPHA
100
AcDbLine
 10
-12.021135
 20
-191.09051
 30
0.0
 11
-12.021135
 21
-191.29051
 31
0.0
  0
LINE
  5
191
100
AcDbEntity
  8
ALPHA
100
AcDbLine
 10
-11.959471
 20
-191.09051
 30
0.0
 11
-11.959471
 21
-191.29051
 31
0.0
  0
LINE
  5
192
100
AcDbEntity
  8
ALPHA
100
AcDbLine
 10
-4.736136
 20
-185.69051
 30
0.0
 11
-3.066037
 21
-185.69051
 31
0.0
  0
LINE
  5
193
100
AcDbEntity
  8
ALPHA
100
AcDbLine
 10
-4.736136
 20
-185.199236
 30
0.0
 11
-3.057462
 21
-185.199236
 31
0.0
  0
LINE
  5
194
100
AcDbEntity
  8
ALPHA
100
AcDbLine
 10
-3.038109
 20
-184.09051
 30
0.0
 11
-4.036136
 21
-184.09051
 31
0.0
  0
LINE
  5
195
100
AcDbEntity
  8
ALPHA
100
AcDbLine
 10
-1.897481
 20
-182.39051
 30
0.0
 11
-3.008435
 21
-182.39051
 31
0.0
  0
LINE
  5
196
100
AcDbEntity
  8
ALPHA
100
AcDbLine
 10
-5.327001
 20
-182.799645
 30
0.0
 11
-4.036136
 21
-184.09051
 31
0.0
  0
LINE
  5
197
100
AcDbEntity
  8
ALPHA
100
AcDbLine
 10
-4.343078
 20
-185.69051
 30
0.0
 11
-4.071569
 21
-190.871218
 31
0.0
  0
LINE
  5
198
100
AcDbEntity
  8
ALPHA
100
AcDbLine
 10
-4.736136
 20
-185.69051
 30
0.0
 11
-4.736136
 21
-183.39051
 31
0.0
  0
LINE
  5
199
100
AcDbEntity
  8
ALPHA
100
AcDbLine
 10
-4.197481
 20
-180.99051
 30
0.0
 11
-4.197481
 21
-171.99051
 31
0.0
  0
LINE
  5
19A
100
AcDbEntity
  8
ALPHA
100
AcDbLine
 10
-1.897481
 20
-181.39051
 30
0.0
 11
-2.608724
 21
-181.39051
 31
0.0
  0
LINE
  5
19B
100
AcDbEntity
  8
ALPHA
100
AcDbLine
 10
-1.897481
 20
-180.99051
 30
0.0
 11
-4.197481
 21
-180.99051
 31
0.0
  0
LINE
  5
19C
100
AcDbEntity
  8
ALPHA
100
AcDbLine
 10
-4.736136
 20
-179.19051
 30
0.0
 11
-4.197481
 21
-179.19051
 31
0.0
  0
LINE
  5
19D
100
AcDbEntity
  8
ALPHA
100
AcDbLine
 10
-0.78614
 20
-178.29051
 30
0.0
 11
-0.736136
 21
-178.29051
 31
0.0
  0
LINE
  5
19E
100
AcDbEntity
  8
ALPHA
100
AcDbLine
 10
-0.858087
 20
-178.19051
 30
0.0
 11
-0.736136
 21
-178.19051
 31
0.0
  0
LINE
  5
19F
100
AcDbEntity
  8
ALPHA
100
AcDbLine
 10
-0.923346
 20
-178.09051
 30
0.0
 11
-0.736136
 21
-178.09051
 31
0.0
  0
LINE
  5
1A0
100
AcDbEntity
  8
ALPHA
100
AcDbLine
 10
-1.103628
 20
-177.69051
 30
0.0
 11
-0.736136
 21
-177.69051
 31
0.0
  0
LINE
  5
1A1
100
AcDbEntity
  8
ALPHA
100
AcDbLine
 10
-1.148699
 20
-177.59051
 30
0.0
 11
-0.736136
 21
-177.59051
 31
0.0
  0
LINE
  5
1A2
100
AcDbEntity
  8
ALPHA
100
AcDbLine
 10
-1.186479
 20
-177.49051
 30
0.0
 11
-0.736136
 21
-177.49051
 31
0.0
  0
LINE
  5
1A3
100
AcDbEntity
  8
ALPHA
100
AcDbLine
 10
-1.277274
 20
-177.09051
 30
0.0
 11
-0.736136
 21
-177.09051
 31
0.0
  0
LINE
  5
1A4
100
AcDbEntity
  8
ALPHA
100
AcDbLine
 10
-1.299973
 20
-176.99051
 30
0.0
 11
-0.736136
 21
-176.99051
 31
0.0
  0
LINE
  5
1A5
100
AcDbEntity
  8
ALPHA
100
AcDbLine
 10
-1.322671
 20
-176.89051
 30
0.0
 11
-0.736136
 21
-176.89051
 31
0.0
  0
LINE
  5
1A6
100
AcDbEntity
  8
ALPHA
100
AcDbLine
 10
-4.197481
 20
-176.765639
 30
0.0
 11
-4.736136
 21
-176.765639
 31
0.0
  0
LINE
  5
1A7
100
AcDbEntity
  8
ALPHA
100
AcDbLine
 10
-1.332064
 20
-176.49051
 30
0.0
 11
-0.736136
 21
-176.49051
 31
0.0
  0
LINE
  5
1A8
100
AcDbEntity
  8
ALPHA
100
AcDbLine
 10
-1.334363
 20
-176.39051
 30
0.0
 11
-0.736136
 21
-176.39051
 31
0.0
  0
LINE
  5
1A9
100
AcDbEntity
  8
ALPHA
100
AcDbLine
 10
-1.336661
 20
-176.29051
 30
0.0
 11
-0.736136
 21
-176.29051
 31
0.0
  0
LINE
  5
1AA
100
AcDbEntity
  8
ALPHA
100
AcDbLine
 10
-1.275215
 20
-175.89051
 30
0.0
 11
-0.736136
 21
-175.89051
 31
0.0
  0
LINE
  5
1AB
100
AcDbEntity
  8
ALPHA
100
AcDbLine
 10
-1.257306
 20
-175.79051
 30
0.0
 11
-0.736136
 21
-175.79051
 31
0.0
  0
LINE
  5
1AC
100
AcDbEntity
  8
ALPHA
100
AcDbLine
 10
-1.239398
 20
-175.69051
 30
0.0
 11
-0.736136
 21
-175.69051
 31
0.0
  0
LINE
  5
1AD
100
AcDbEntity
  8
ALPHA
100
AcDbLine
 10
-4.197481
 20
-175.54051
 30
0.0
 11
-4.736136
 21
-175.54051
 31
0.0
  0
LINE
  5
1AE
100
AcDbEntity
  8
ALPHA
100
AcDbLine
 10
-1.100343
 20
-175.29051
 30
0.0
 11
-0.736136
 21
-175.29051
 31
0.0
  0
LINE
  5
1AF
100
AcDbEntity
  8
ALPHA
100
AcDbLine
 10
-1.06071
 20
-175.19051
 30
0.0
 11
-0.736136
 21
-175.19051
 31
0.0
  0
LINE
  5
1B0
100
AcDbEntity
  8
ALPHA
100
AcDbLine
 10
-1.021076
 20
-175.09051
 30
0.0
 11
-0.822352
 21
-175.09051
 31
0.0
  0
LINE
  5
1B1
100
AcDbEntity
  8
ALPHA
100
AcDbLine
 10
-4.197481
 20
-175.04051
 30
0.0
 11
-4.736136
 21
-175.04051
 31
0.0
  0
LINE
  5
1B2
100
AcDbEntity
  8
ALPHA
100
AcDbLine
 10
-0.797675
 20
-174.69051
 30
0.0
 11
-0.736136
 21
-174.69051
 31
0.0
  0
LINE
  5
1B3
100
AcDbEntity
  8
ALPHA
100
AcDbLine
 10
-0.984065
 20
-174.997145
 30
0.0
 11
-0.723951
 21
-175.147322
 31
0.0
  0
LINE
  5
1B4
100
AcDbEntity
  8
ALPHA
100
AcDbLine
 10
-2.612215
 20
-180.99051
 30
0.0
 11
-2.608724
 21
-181.39051
 31
0.0
  0
LINE
  5
1B5
100
AcDbEntity
  8
ALPHA
100
AcDbLine
 10
-0.736136
 20
-174.611354
 30
0.0
 11
-0.736136
 21
-174.69051
 31
0.0
  0
LINE
  5
1B6
100
AcDbEntity
  8
ALPHA
100
AcDbLine
 10
-0.736136
 20
-175.69051
 30
0.0
 11
-0.736136
 21
-175.89051
 31
0.0
  0
LINE
  5
1B7
100
AcDbEntity
  8
ALPHA
100
AcDbLine
 10
-0.736136
 20
-175.147322
 30
0.0
 11
-0.736136
 21
-175.29051
 31
0.0
  0
LINE
  5
1B8
100
AcDbEntity
  8
ALPHA
100
AcDbLine
 10
-0.736136
 20
-176.29051
 30
0.0
 11
-0.736136
 21
-176.49051
 31
0.0
  0
LINE
  5
1B9
100
AcDbEntity
  8
ALPHA
100
AcDbLine
 10
-0.736136
 20
-176.89051
 30
0.0
 11
-0.736136
 21
-177.09051
 31
0.0
  0
LINE
  5
1BA
100
AcDbEntity
  8
ALPHA
100
AcDbLine
 10
-0.736136
 20
-178.09051
 30
0.0
 11
-0.736136
 21
-178.29051
 31
0.0
  0
LINE
  5
1BB
100
AcDbEntity
  8
ALPHA
100
AcDbLine
 10
-0.736136
 20
-177.49051
 30
0.0
 11
-0.736136
 21
-177.69051
 31
0.0
  0
LINE
  5
1BC
100
AcDbEntity
  8
ALPHA
100
AcDbLine
 10
-4.753567
 20
-169.99051
 30
0.0
 11
-4.753567
 21
-171.89051
 31
0.0
  0
LINE
  5
1BD
100
AcDbEntity
  8
ALPHA
100
AcDbLine
 10
-1.41519
 20
-171.89051
 30
0.0
 11
-1.413445
 21
-171.99051
 31
0.0
  0
LINE
  5
1BE
100
AcDbEntity
  8
ALPHA
100
AcDbLine
 10
-2.691629
 20
-171.89051
 30
0.0
 11
-2.690757
 21
-171.99051
 31
0.0
  0
LINE
  5
1BF
100
AcDbEntity
  8
ALPHA
100
AcDbLine
 10
-1.136136
 20
-171.99051
 30
0.0
 11
-1.136136
 21
-171.89051
 31
0.0
  0
LINE
  5
1C0
100
AcDbEntity
  8
ALPHA
100
AcDbLine
 10
-2.826903
 20
-171.99051
 30
0.0
 11
-2.825157
 21
-171.89051
 31
0.0
  0
LINE
  5
1C1
100
AcDbEntity
  8
ALPHA
100
AcDbLine
 10
6.002519
 20
-182.49051
 30
0.0
 11
6.002519
 21
-180.99051
 31
0.0
  0
LINE
  5
1C2
100
AcDbEntity
  8
ALPHA
100
AcDbLine
 10
8.102519
 20
-182.49051
 30
0.0
 11
8.102519
 21
-180.99051
 31
0.0
  0
LINE
  5
1C3
100
AcDbEntity
  8
ALPHA
100
AcDbLine
 10
7.94641
 20
-183.39051
 30
0.0
 11
7.967365
 21
-180.989331
 31
0.0
  0
LINE
  5
1C4
100
AcDbEntity
  8
ALPHA
100
AcDbLine
 10
27.502519
 20
-182.49051
 30
0.0
 11
27.502519
 21
-180.99051
 31
0.0
  0
LINE
  5
1C5
100
AcDbEntity
  8
ALPHA
100
AcDbLine
 10
29.602519
 20
-182.49051
 30
0.0
 11
29.602519
 21
-180.99051
 31
0.0
  0
LINE
  5
1C6
100
AcDbEntity
  8
ALPHA
100
AcDbLine
 10
29.44641
 20
-183.39051
 30
0.0
 11
29.467365
 21
-180.989331
 31
0.0
  0
LINE
  5
1C7
100
AcDbEntity
  8
ALPHA
100
AcDbLine
 10
7.063864
 20
-197.49051
 30
0.0
 11
19.163864
 21
-197.49051
 31
0.0
  0
LINE
  5
1C8
100
AcDbEntity
  8
ALPHA
100
AcDbLine
 10
19.150773
 20
-182.89051
 30
0.0
 11
16.176954
 21
-182.89051
 31
0.0
  0
LINE
  5
1C9
100
AcDbEntity
  8
ALPHA
100
AcDbLine
 10
7.954264
 20
-182.49051
 30
0.0
 11
27.502519
 21
-182.49051
 31
0.0
  0
LINE
  5
1CA
100
AcDbEntity
  8
ALPHA
100
AcDbLine
 10
0.572552
 20
-192.081783
 30
0.0
 11
0.572552
 21
-191.09051
 31
0.0
  0
LINE
  5
1CB
100
AcDbEntity
  8
ALPHA
100
AcDbLine
 10
4.555175
 20
-191.09051
 30
0.0
 11
4.555175
 21
-192.081783
 31
0.0
  0
LINE
  5
1CC
100
AcDbEntity
  8
ALPHA
100
AcDbLine
 10
7.663864
 20
-195.09051
 30
0.0
 11
7.698771
 21
-191.09051
 31
0.0
  0
ARC
  5
1CD
100
AcDbEntity
  8
ALPHA
100
AcDbCircle
 10
4.555175
 20
-192.09051
 30
0.0
 40
1.0
100
AcDbArc
 50
90.0
 51
179.499973
  0
ARC
  5
1CE
100
AcDbEntity
  8
ALPHA
100
AcDbCircle
 10
0.572552
 20
-192.09051
 30
0.0
 40
1.0
100
AcDbArc
 50
0.500027
 51
90.0
  0
LINE
  5
1CF
100
AcDbEntity
  8
ALPHA
100
AcDbLine
 10
4.490295
 20
-199.516246
 30
0.0
 11
0.637432
 21
-199.516246
 31
0.0
  0
LINE
  5
1D0
100
AcDbEntity
  8
ALPHA
100
AcDbLine
 10
7.69012
 20
-192.081783
 30
0.0
 11
4.555175
 21
-192.081783
 31
0.0
  0
LINE
  5
1D1
100
AcDbEntity
  8
ALPHA
100
AcDbLine
 10
0.637432
 20
-199.516246
 30
0.0
 11
0.572552
 21
-192.081783
 31
0.0
  0
LINE
  5
1D2
100
AcDbEntity
  8
ALPHA
100
AcDbLine
 10
1.63433
 20
-199.165187
 30
0.0
 11
1.572514
 21
-192.081783
 31
0.0
  0
LINE
  5
1D3
100
AcDbEntity
  8
ALPHA
100
AcDbLine
 10
3.493397
 20
-199.165187
 30
0.0
 11
3.555213
 21
-192.081783
 31
0.0
  0
LINE
  5
1D4
100
AcDbEntity
  8
ALPHA
100
AcDbLine
 10
4.490295
 20
-199.516246
 30
0.0
 11
4.555175
 21
-192.081783
 31
0.0
  0
CIRCLE
  5
1D5
100
AcDbEntity
  8
ALPHA
100
AcDbCircle
 10
13.063864
 20
-194.09051
 30
0.0
 40
1.75
  0
LINE
  5
1D6
100
AcDbEntity
  8
ALPHA
100
AcDbLine
 10
5.881317
 20
-183.39051
 30
0.0
 11
5.873473
 21
-182.491636
 31
0.0
  0
LINE
  5
1D7
100
AcDbEntity
  8
ALPHA
100
AcDbLine
 10
16.181317
 20
-183.39051
 30
0.0
 11
16.173463
 21
-182.49051
 31
0.0
  0
LINE
  5
1D8
100
AcDbEntity
  8
ALPHA
100
AcDbLine
 10
28.313864
 20
-191.09051
 30
0.0
 11
28.313864
 21
-197.09051
 31
0.0
  0
LINE
  5
1D9
100
AcDbEntity
  8
ALPHA
100
AcDbLine
 10
25.380529
 20
-191.29051
 30
0.0
 11
23.037199
 21
-191.29051
 31
0.0
  0
LINE
  5
1DA
100
AcDbEntity
  8
ALPHA
100
AcDbLine
 10
19.58386
 20
-191.29051
 30
0.0
 11
17.363867
 21
-191.29051
 31
0.0
  0
LINE
  5
1DB
100
AcDbEntity
  8
ALPHA
100
AcDbLine
 10
17.363867
 20
-191.09051
 30
0.0
 11
17.363867
 21
-191.29051
 31
0.0
  0
LINE
  5
1DC
100
AcDbEntity
  8
ALPHA
100
AcDbLine
 10
17.425527
 20
-191.09051
 30
0.0
 11
17.425527
 21
-191.29051
 31
0.0
  0
LINE
  5
1DD
100
AcDbEntity
  8
ALPHA
100
AcDbLine
 10
17.548864
 20
-191.09051
 30
0.0
 11
17.548864
 21
-191.29051
 31
0.0
  0
LINE
  5
1DE
100
AcDbEntity
  8
ALPHA
100
AcDbLine
 10
17.733862
 20
-191.09051
 30
0.0
 11
17.733862
 21
-191.29051
 31
0.0
  0
LINE
  5
1DF
100
AcDbEntity
  8
ALPHA
100
AcDbLine
 10
18.042196
 20
-191.09051
 30
0.0
 11
18.042196
 21
-191.29051
 31
0.0
  0
LINE
  5
1E0
100
AcDbEntity
  8
ALPHA
100
AcDbLine
 10
18.35053
 20
-191.09051
 30
0.0
 11
18.35053
 21
-191.29051
 31
0.0
  0
LINE
  5
1E1
100
AcDbEntity
  8
ALPHA
100
AcDbLine
 10
18.597196
 20
-191.09051
 30
0.0
 11
18.597196
 21
-191.29051
 31
0.0
  0
LINE
  5
1E2
100
AcDbEntity
  8
ALPHA
100
AcDbLine
 10
18.905531
 20
-191.09051
 30
0.0
 11
18.905531
 21
-191.29051
 31
0.0
  0
LINE
  5
1E3
100
AcDbEntity
  8
ALPHA
100
AcDbLine
 10
19.213865
 20
-191.09051
 30
0.0
 11
19.213865
 21
-191.29051
 31
0.0
  0
LINE
  5
1E4
100
AcDbEntity
  8
ALPHA
100
AcDbLine
 10
19.398863
 20
-191.09051
 30
0.0
 11
19.398863
 21
-191.29051
 31
0.0
  0
LINE
  5
1E5
100
AcDbEntity
  8
ALPHA
100
AcDbLine
 10
19.460531
 20
-191.09051
 30
0.0
 11
19.460531
 21
-191.29051
 31
0.0
  0
LINE
  5
1E6
100
AcDbEntity
  8
ALPHA
100
AcDbLine
 10
19.58386
 20
-191.09051
 30
0.0
 11
19.58386
 21
-191.29051
 31
0.0
  0
LINE
  5
1E7
100
AcDbEntity
  8
ALPHA
100
AcDbLine
 10
23.037199
 20
-191.09051
 30
0.0
 11
23.037199
 21
-191.29051
 31
0.0
  0
LINE
  5
1E8
100
AcDbEntity
  8
ALPHA
100
AcDbLine
 10
19.14641
 20
-183.39051
 30
0.0
 11
19.154264
 21
-182.49051
 31
0.0
  0
LINE
  5
1E9
100
AcDbEntity
  8
ALPHA
100
AcDbLine
 10
28.093862
 20
-191.29051
 30
0.0
 11
25.873861
 21
-191.29051
 31
0.0
  0
LINE
  5
1EA
100
AcDbEntity
  8
ALPHA
100
AcDbLine
 10
27.381317
 20
-183.39051
 30
0.0
 11
27.373473
 21
-182.491636
 31
0.0
  0
LINE
  5
1EB
100
AcDbEntity
  8
ALPHA
100
AcDbLine
 10
25.380529
 20
-191.09051
 30
0.0
 11
25.380529
 21
-191.29051
 31
0.0
  0
LINE
  5
1EC
100
AcDbEntity
  8
ALPHA
100
AcDbLine
 10
25.873861
 20
-191.09051
 30
0.0
 11
25.873861
 21
-191.29051
 31
0.0
  0
LINE
  5
1ED
100
AcDbEntity
  8
ALPHA
100
AcDbLine
 10
25.93553
 20
-191.09051
 30
0.0
 11
25.93553
 21
-191.29051
 31
0.0
  0
LINE
  5
1EE
100
AcDbEntity
  8
ALPHA
100
AcDbLine
 10
25.997198
 20
-191.09051
 30
0.0
 11
25.997198
 21
-191.29051
 31
0.0
  0
LINE
  5
1EF
100
AcDbEntity
  8
ALPHA
100
AcDbLine
 10
26.243864
 20
-191.09051
 30
0.0
 11
26.243864
 21
-191.29051
 31
0.0
  0
LINE
  5
1F0
100
AcDbEntity
  8
ALPHA
100
AcDbLine
 10
26.49053
 20
-191.09051
 30
0.0
 11
26.49053
 21
-191.29051
 31
0.0
  0
LINE
  5
1F1
100
AcDbEntity
  8
ALPHA
100
AcDbLine
 10
26.922193
 20
-191.09051
 30
0.0
 11
26.922193
 21
-191.29051
 31
0.0
  0
LINE
  5
1F2
100
AcDbEntity
  8
ALPHA
100
AcDbLine
 10
27.04553
 20
-191.09051
 30
0.0
 11
27.04553
 21
-191.29051
 31
0.0
  0
LINE
  5
1F3
100
AcDbEntity
  8
ALPHA
100
AcDbLine
 10
27.477194
 20
-191.09051
 30
0.0
 11
27.477194
 21
-191.29051
 31
0.0
  0
LINE
  5
1F4
100
AcDbEntity
  8
ALPHA
100
AcDbLine
 10
27.723867
 20
-191.09051
 30
0.0
 11
27.723867
 21
-191.29051
 31
0.0
  0
LINE
  5
1F5
100
AcDbEntity
  8
ALPHA
100
AcDbLine
 10
27.970533
 20
-191.09051
 30
0.0
 11
27.970533
 21
-191.29051
 31
0.0
  0
LINE
  5
1F6
100
AcDbEntity
  8
ALPHA
100
AcDbLine
 10
28.032194
 20
-191.09051
 30
0.0
 11
28.032194
 21
-191.29051
 31
0.0
  0
LINE
  5
1F7
100
AcDbEntity
  8
ALPHA
100
AcDbLine
 10
28.093862
 20
-191.09051
 30
0.0
 11
28.093862
 21
-191.29051
 31
0.0
  0
LINE
  5
1F8
100
AcDbEntity
  8
ALPHA
100
AcDbLine
 10
16.152519
 20
-180.09051
 30
0.0
 11
19.452519
 21
-180.09051
 31
0.0
  0
LINE
  5
1F9
100
AcDbEntity
  8
ALPHA
100
AcDbLine
 10
16.152519
 20
-171.99051
 30
0.0
 11
16.152519
 21
-180.09051
 31
0.0
  0
ARC
  5
1FA
100
AcDbEntity
  8
ALPHA
100
AcDbCircle
 10
9.502519
 20
-171.99051
 30
0.0
 40
1.15
100
AcDbArc
 50
180.0
 51
0.0
  0
LINE
  5
1FB
100
AcDbEntity
  8
ALPHA
100
AcDbLine
 10
6.002519
 20
-182.021244
 30
0.0
 11
7.958359
 21
-182.021244
 31
0.0
  0
LINE
  5
1FC
100
AcDbEntity
  8
ALPHA
100
AcDbLine
 10
6.002519
 20
-181.39051
 30
0.0
 11
7.963864
 21
-181.39051
 31
0.0
  0
LINE
  5
1FD
100
AcDbEntity
  8
ALPHA
100
AcDbLine
 10
8.102519
 20
-180.99051
 30
0.0
 11
6.002519
 21
-180.99051
 31
0.0
  0
LINE
  5
1FE
100
AcDbEntity
  8
ALPHA
100
AcDbLine
 10
0.763864
 20
-179.39051
 30
0.0
 11
2.763864
 21
-179.39051
 31
0.0
  0
LINE
  5
1FF
100
AcDbEntity
  8
ALPHA
100
AcDbLine
 10
-0.236136
 20
-178.89051
 30
0.0
 11
0.263864
 21
-178.89051
 31
0.0
  0
LINE
  5
200
100
AcDbEntity
  8
ALPHA
100
AcDbLine
 10
3.263864
 20
-178.89051
 30
0.0
 11
3.763864
 21
-178.89051
 31
0.0
  0
LINE
  5
201
100
AcDbEntity
  8
ALPHA
100
AcDbLine
 10
4.286166
 20
-178.69051
 30
0.0
 11
4.263864
 21
-178.69051
 31
0.0
  0
LINE
  5
202
100
AcDbEntity
  8
ALPHA
100
AcDbLine
 10
4.591178
 20
-178.29051
 30
0.0
 11
4.263864
 21
-178.29051
 31
0.0
  0
LINE
  5
203
100
AcDbEntity
  8
ALPHA
100
AcDbLine
 10
4.263864
 20
-178.19051
 30
0.0
 11
4.663124
 21
-178.19051
 31
0.0
  0
LINE
  5
204
100
AcDbEntity
  8
ALPHA
100
AcDbLine
 10
4.728384
 20
-178.09051
 30
0.0
 11
4.263864
 21
-178.09051
 31
0.0
  0
LINE
  5
205
100
AcDbEntity
  8
ALPHA
100
AcDbLine
 10
4.908666
 20
-177.69051
 30
0.0
 11
4.263864
 21
-177.69051
 31
0.0
  0
LINE
  5
206
100
AcDbEntity
  8
ALPHA
100
AcDbLine
 10
4.263864
 20
-177.59051
 30
0.0
 11
4.953736
 21
-177.59051
 31
0.0
  0
LINE
  5
207
100
AcDbEntity
  8
ALPHA
100
AcDbLine
 10
4.991516
 20
-177.49051
 30
0.0
 11
4.263864
 21
-177.49051
 31
0.0
  0
LINE
  5
208
100
AcDbEntity
  8
ALPHA
100
AcDbLine
 10
5.082311
 20
-177.09051
 30
0.0
 11
4.263864
 21
-177.09051
 31
0.0
  0
LINE
  5
209
100
AcDbEntity
  8
ALPHA
100
AcDbLine
 10
4.263864
 20
-176.99051
 30
0.0
 11
5.10501
 21
-176.99051
 31
0.0
  0
LINE
  5
20A
100
AcDbEntity
  8
ALPHA
100
AcDbLine
 10
5.127709
 20
-176.89051
 30
0.0
 11
4.263864
 21
-176.89051
 31
0.0
  0
LINE
  5
20B
100
AcDbEntity
  8
ALPHA
100
AcDbLine
 10
5.137101
 20
-176.49051
 30
0.0
 11
4.263864
 21
-176.49051
 31
0.0
  0
LINE
  5
20C
100
AcDbEntity
  8
ALPHA
100
AcDbLine
 10
4.263864
 20
-176.39051
 30
0.0
 11
5.1394
 21
-176.39051
 31
0.0
  0
LINE
  5
20D
100
AcDbEntity
  8
ALPHA
100
AcDbLine
 10
5.141698
 20
-176.29051
 30
0.0
 11
4.263864
 21
-176.29051
 31
0.0
  0
LINE
  5
20E
100
AcDbEntity
  8
ALPHA
100
AcDbLine
 10
5.080252
 20
-175.89051
 30
0.0
 11
4.263864
 21
-175.89051
 31
0.0
  0
LINE
  5
20F
100
AcDbEntity
  8
ALPHA
100
AcDbLine
 10
4.263864
 20
-175.79051
 30
0.0
 11
5.062344
 21
-175.79051
 31
0.0
  0
LINE
  5
210
100
AcDbEntity
  8
ALPHA
100
AcDbLine
 10
5.044435
 20
-175.69051
 30
0.0
 11
4.263864
 21
-175.69051
 31
0.0
  0
LINE
  5
211
100
AcDbEntity
  8
ALPHA
100
AcDbLine
 10
4.905381
 20
-175.29051
 30
0.0
 11
4.263864
 21
-175.29051
 31
0.0
  0
LINE
  5
212
100
AcDbEntity
  8
ALPHA
100
AcDbLine
 10
4.263864
 20
-175.19051
 30
0.0
 11
4.865747
 21
-175.19051
 31
0.0
  0
LINE
  5
213
100
AcDbEntity
  8
ALPHA
100
AcDbLine
 10
4.826113
 20
-175.09051
 30
0.0
 11
4.62739
 21
-175.09051
 31
0.0
  0
LINE
  5
214
100
AcDbEntity
  8
ALPHA
100
AcDbLine
 10
4.498709
 20
-175.09051
 30
0.0
 11
4.263864
 21
-175.09051
 31
0.0
  0
LINE
  5
215
100
AcDbEntity
  8
ALPHA
100
AcDbLine
 10
4.602713
 20
-174.69051
 30
0.0
 11
4.263864
 21
-174.69051
 31
0.0
  0
LINE
  5
216
100
AcDbEntity
  8
ALPHA
100
AcDbLine
 10
4.263864
 20
-174.59051
 30
0.0
 11
4.524968
 21
-174.59051
 31
0.0
  0
LINE
  5
217
100
AcDbEntity
  8
ALPHA
100
AcDbLine
 10
4.447224
 20
-174.49051
 30
0.0
 11
4.263864
 21
-174.49051
 31
0.0
  0
LINE
  5
218
100
AcDbEntity
  8
ALPHA
100
AcDbLine
 10
0.763864
 20
-179.39051
 30
0.0
 11
0.763864
 21
-179.517443
 31
0.0
  0
LINE
  5
219
100
AcDbEntity
  8
ALPHA
100
AcDbLine
 10
1.752519
 20
-179.737047
 30
0.0
 11
1.752519
 21
-179.436694
 31
0.0
  0
LINE
  5
21A
100
AcDbEntity
  8
ALPHA
100
AcDbLine
 10
2.052519
 20
-179.737047
 30
0.0
 11
2.052519
 21
-179.436694
 31
0.0
  0
LINE
  5
21B
100
AcDbEntity
  8
ALPHA
100
AcDbLine
 10
2.763864
 20
-179.39051
 30
0.0
 11
2.763864
 21
-179.617552
 31
0.0
  0
LINE
  5
21C
100
AcDbEntity
  8
ALPHA
100
AcDbLine
 10
4.639102
 20
-174.737338
 30
0.0
 11
4.378989
 21
-174.887514
 31
0.0
  0
LINE
  5
21D
100
AcDbEntity
  8
ALPHA
100
AcDbLine
 10
4.789102
 20
-174.997145
 30
0.0
 11
4.528989
 21
-175.147322
 31
0.0
  0
LINE
  5
21E
100
AcDbEntity
  8
ALPHA
100
AcDbLine
 10
4.263864
 20
-174.49051
 30
0.0
 11
4.263864
 21
-174.69051
 31
0.0
  0
LINE
  5
21F
100
AcDbEntity
  8
ALPHA
100
AcDbLine
 10
4.263864
 20
-175.09051
 30
0.0
 11
4.263864
 21
-175.29051
 31
0.0
  0
LINE
  5
220
100
AcDbEntity
  8
ALPHA
100
AcDbLine
 10
4.263864
 20
-175.69051
 30
0.0
 11
4.263864
 21
-175.89051
 31
0.0
  0
LINE
  5
221
100
AcDbEntity
  8
ALPHA
100
AcDbLine
 10
4.263864
 20
-176.29051
 30
0.0
 11
4.263864
 21
-176.49051
 31
0.0
  0
LINE
  5
222
100
AcDbEntity
  8
ALPHA
100
AcDbLine
 10
4.263864
 20
-176.89051
 30
0.0
 11
4.263864
 21
-177.09051
 31
0.0
  0
LINE
  5
223
100
AcDbEntity
  8
ALPHA
100
AcDbLine
 10
4.263864
 20
-177.49051
 30
0.0
 11
4.263864
 21
-177.69051
 31
0.0
  0
LINE
  5
224
100
AcDbEntity
  8
ALPHA
100
AcDbLine
 10
4.263864
 20
-178.09051
 30
0.0
 11
4.263864
 21
-178.29051
 31
0.0
  0
LINE
  5
225
100
AcDbEntity
  8
ALPHA
100
AcDbLine
 10
4.263864
 20
-178.69051
 30
0.0
 11
4.263864
 21
-178.711157
 31
0.0
  0
CIRCLE
  5
226
100
AcDbEntity
  8
ALPHA
100
AcDbCircle
 10
1.763864
 20
-176.39051
 30
0.0
 40
2.0
  0
ARC
  5
227
100
AcDbEntity
  8
ALPHA
100
AcDbCircle
 10
3.263864
 20
-179.39051
 30
0.0
 40
0.5
100
AcDbArc
 50
90.0
 51
180.0
  0
ARC
  5
228
100
AcDbEntity
  8
ALPHA
100
AcDbCircle
 10
3.763864
 20
-179.39051
 30
0.0
 40
0.5
100
AcDbArc
 50
61.370893
 51
90.0
  0
ARC
  5
229
100
AcDbEntity
  8
ALPHA
100
AcDbCircle
 10
0.263864
 20
-179.39051
 30
0.0
 40
0.5
100
AcDbArc
 50
0.0
 51
90.0
  0
CIRCLE
  5
22A
100
AcDbEntity
  8
ALPHA
100
AcDbCircle
 10
1.763864
 20
-176.39051
 30
0.0
 40
1.5
  0
ARC
  5
22B
100
AcDbEntity
  8
ALPHA
100
AcDbCircle
 10
1.902519
 20
-176.49051
 30
0.0
 40
2.95
100
AcDbArc
 50
267.085398
 51
272.914602
  0
ARC
  5
22C
100
AcDbEntity
  8
ALPHA
100
AcDbCircle
 10
1.902519
 20
-176.49051
 30
0.0
 40
2.95
100
AcDbArc
 50
27.085397
 51
32.914607
  0
LINE
  5
22D
100
AcDbEntity
  8
ALPHA
100
AcDbLine
 10
11.063864
 20
-179.39051
 30
0.0
 11
13.063864
 21
-179.39051
 31
0.0
  0
LINE
  5
22E
100
AcDbEntity
  8
ALPHA
100
AcDbLine
 10
10.063864
 20
-178.89051
 30
0.0
 11
10.563864
 21
-178.89051
 31
0.0
  0
LINE
  5
22F
100
AcDbEntity
  8
ALPHA
100
AcDbLine
 10
13.563864
 20
-178.89051
 30
0.0
 11
14.063864
 21
-178.89051
 31
0.0
  0
LINE
  5
230
100
AcDbEntity
  8
ALPHA
100
AcDbLine
 10
14.586166
 20
-178.69051
 30
0.0
 11
14.563864
 21
-178.69051
 31
0.0
  0
LINE
  5
231
100
AcDbEntity
  8
ALPHA
100
AcDbLine
 10
14.891178
 20
-178.29051
 30
0.0
 11
14.563864
 21
-178.29051
 31
0.0
  0
LINE
  5
232
100
AcDbEntity
  8
ALPHA
100
AcDbLine
 10
9.51386
 20
-178.29051
 30
0.0
 11
9.563864
 21
-178.29051
 31
0.0
  0
LINE
  5
233
100
AcDbEntity
  8
ALPHA
100
AcDbLine
 10
9.441913
 20
-178.19051
 30
0.0
 11
9.563864
 21
-178.19051
 31
0.0
  0
LINE
  5
234
100
AcDbEntity
  8
ALPHA
100
AcDbLine
 10
14.563864
 20
-178.19051
 30
0.0
 11
14.963124
 21
-178.19051
 31
0.0
  0
LINE
  5
235
100
AcDbEntity
  8
ALPHA
100
AcDbLine
 10
15.028384
 20
-178.09051
 30
0.0
 11
14.563864
 21
-178.09051
 31
0.0
  0
LINE
  5
236
100
AcDbEntity
  8
ALPHA
100
AcDbLine
 10
9.376654
 20
-178.09051
 30
0.0
 11
9.563864
 21
-178.09051
 31
0.0
  0
LINE
  5
237
100
AcDbEntity
  8
ALPHA
100
AcDbLine
 10
15.208666
 20
-177.69051
 30
0.0
 11
14.563864
 21
-177.69051
 31
0.0
  0
LINE
  5
238
100
AcDbEntity
  8
ALPHA
100
AcDbLine
 10
9.196372
 20
-177.69051
 30
0.0
 11
9.563864
 21
-177.69051
 31
0.0
  0
LINE
  5
239
100
AcDbEntity
  8
ALPHA
100
AcDbLine
 10
9.151301
 20
-177.59051
 30
0.0
 11
9.563864
 21
-177.59051
 31
0.0
  0
LINE
  5
23A
100
AcDbEntity
  8
ALPHA
100
AcDbLine
 10
14.563864
 20
-177.59051
 30
0.0
 11
15.253736
 21
-177.59051
 31
0.0
  0
LINE
  5
23B
100
AcDbEntity
  8
ALPHA
100
AcDbLine
 10
15.291516
 20
-177.49051
 30
0.0
 11
14.563864
 21
-177.49051
 31
0.0
  0
LINE
  5
23C
100
AcDbEntity
  8
ALPHA
100
AcDbLine
 10
9.113521
 20
-177.49051
 30
0.0
 11
9.563864
 21
-177.49051
 31
0.0
  0
LINE
  5
23D
100
AcDbEntity
  8
ALPHA
100
AcDbLine
 10
15.382311
 20
-177.09051
 30
0.0
 11
14.563864
 21
-177.09051
 31
0.0
  0
LINE
  5
23E
100
AcDbEntity
  8
ALPHA
100
AcDbLine
 10
9.022726
 20
-177.09051
 30
0.0
 11
9.563864
 21
-177.09051
 31
0.0
  0
LINE
  5
23F
100
AcDbEntity
  8
ALPHA
100
AcDbLine
 10
9.000027
 20
-176.99051
 30
0.0
 11
9.563864
 21
-176.99051
 31
0.0
  0
LINE
  5
240
100
AcDbEntity
  8
ALPHA
100
AcDbLine
 10
14.563864
 20
-176.99051
 30
0.0
 11
15.40501
 21
-176.99051
 31
0.0
  0
LINE
  5
241
100
AcDbEntity
  8
ALPHA
100
AcDbLine
 10
15.427709
 20
-176.89051
 30
0.0
 11
14.563864
 21
-176.89051
 31
0.0
  0
LINE
  5
242
100
AcDbEntity
  8
ALPHA
100
AcDbLine
 10
8.977329
 20
-176.89051
 30
0.0
 11
9.563864
 21
-176.89051
 31
0.0
  0
LINE
  5
243
100
AcDbEntity
  8
ALPHA
100
AcDbLine
 10
15.437101
 20
-176.49051
 30
0.0
 11
14.563864
 21
-176.49051
 31
0.0
  0
LINE
  5
244
100
AcDbEntity
  8
ALPHA
100
AcDbLine
 10
8.967936
 20
-176.49051
 30
0.0
 11
9.563864
 21
-176.49051
 31
0.0
  0
LINE
  5
245
100
AcDbEntity
  8
ALPHA
100
AcDbLine
 10
8.965637
 20
-176.39051
 30
0.0
 11
9.563864
 21
-176.39051
 31
0.0
  0
LINE
  5
246
100
AcDbEntity
  8
ALPHA
100
AcDbLine
 10
14.563864
 20
-176.39051
 30
0.0
 11
15.4394
 21
-176.39051
 31
0.0
  0
LINE
  5
247
100
AcDbEntity
  8
ALPHA
100
AcDbLine
 10
15.441698
 20
-176.29051
 30
0.0
 11
14.563864
 21
-176.29051
 31
0.0
  0
LINE
  5
248
100
AcDbEntity
  8
ALPHA
100
AcDbLine
 10
8.963339
 20
-176.29051
 30
0.0
 11
9.563864
 21
-176.29051
 31
0.0
  0
LINE
  5
249
100
AcDbEntity
  8
ALPHA
100
AcDbLine
 10
15.380252
 20
-175.89051
 30
0.0
 11
14.563864
 21
-175.89051
 31
0.0
  0
LINE
  5
24A
100
AcDbEntity
  8
ALPHA
100
AcDbLine
 10
9.024785
 20
-175.89051
 30
0.0
 11
9.563864
 21
-175.89051
 31
0.0
  0
LINE
  5
24B
100
AcDbEntity
  8
ALPHA
100
AcDbLine
 10
9.042694
 20
-175.79051
 30
0.0
 11
9.563864
 21
-175.79051
 31
0.0
  0
LINE
  5
24C
100
AcDbEntity
  8
ALPHA
100
AcDbLine
 10
14.563864
 20
-175.79051
 30
0.0
 11
15.362344
 21
-175.79051
 31
0.0
  0
LINE
  5
24D
100
AcDbEntity
  8
ALPHA
100
AcDbLine
 10
15.344435
 20
-175.69051
 30
0.0
 11
14.563864
 21
-175.69051
 31
0.0
  0
LINE
  5
24E
100
AcDbEntity
  8
ALPHA
100
AcDbLine
 10
9.060602
 20
-175.69051
 30
0.0
 11
9.563864
 21
-175.69051
 31
0.0
  0
LINE
  5
24F
100
AcDbEntity
  8
ALPHA
100
AcDbLine
 10
15.205381
 20
-175.29051
 30
0.0
 11
14.563864
 21
-175.29051
 31
0.0
  0
LINE
  5
250
100
AcDbEntity
  8
ALPHA
100
AcDbLine
 10
9.199657
 20
-175.29051
 30
0.0
 11
9.563864
 21
-175.29051
 31
0.0
  0
LINE
  5
251
100
AcDbEntity
  8
ALPHA
100
AcDbLine
 10
9.23929
 20
-175.19051
 30
0.0
 11
9.563864
 21
-175.19051
 31
0.0
  0
LINE
  5
252
100
AcDbEntity
  8
ALPHA
100
AcDbLine
 10
14.563864
 20
-175.19051
 30
0.0
 11
15.165747
 21
-175.19051
 31
0.0
  0
LINE
  5
253
100
AcDbEntity
  8
ALPHA
100
AcDbLine
 10
15.126113
 20
-175.09051
 30
0.0
 11
14.92739
 21
-175.09051
 31
0.0
  0
LINE
  5
254
100
AcDbEntity
  8
ALPHA
100
AcDbLine
 10
14.798709
 20
-175.09051
 30
0.0
 11
14.563864
 21
-175.09051
 31
0.0
  0
LINE
  5
255
100
AcDbEntity
  8
ALPHA
100
AcDbLine
 10
9.278924
 20
-175.09051
 30
0.0
 11
9.477648
 21
-175.09051
 31
0.0
  0
LINE
  5
256
100
AcDbEntity
  8
ALPHA
100
AcDbLine
 10
14.902713
 20
-174.69051
 30
0.0
 11
14.563864
 21
-174.69051
 31
0.0
  0
LINE
  5
257
100
AcDbEntity
  8
ALPHA
100
AcDbLine
 10
9.502325
 20
-174.69051
 30
0.0
 11
9.563864
 21
-174.69051
 31
0.0
  0
LINE
  5
258
100
AcDbEntity
  8
ALPHA
100
AcDbLine
 10
14.563864
 20
-174.59051
 30
0.0
 11
14.824968
 21
-174.59051
 31
0.0
  0
LINE
  5
259
100
AcDbEntity
  8
ALPHA
100
AcDbLine
 10
14.747224
 20
-174.49051
 30
0.0
 11
14.563864
 21
-174.49051
 31
0.0
  0
LINE
  5
25A
100
AcDbEntity
  8
ALPHA
100
AcDbLine
 10
9.315935
 20
-174.997145
 30
0.0
 11
9.576049
 21
-175.147322
 31
0.0
  0
LINE
  5
25B
100
AcDbEntity
  8
ALPHA
100
AcDbLine
 10
9.465935
 20
-174.737338
 30
0.0
 11
9.726049
 21
-174.887514
 31
0.0
  0
LINE
  5
25C
100
AcDbEntity
  8
ALPHA
100
AcDbLine
 10
14.939102
 20
-174.737338
 30
0.0
 11
14.678989
 21
-174.887514
 31
0.0
  0
LINE
  5
25D
100
AcDbEntity
  8
ALPHA
100
AcDbLine
 10
15.089102
 20
-174.997145
 30
0.0
 11
14.828989
 21
-175.147322
 31
0.0
  0
LINE
  5
25E
100
AcDbEntity
  8
ALPHA
100
AcDbLine
 10
9.563864
 20
-174.611354
 30
0.0
 11
9.563864
 21
-174.69051
 31
0.0
  0
LINE
  5
25F
100
AcDbEntity
  8
ALPHA
100
AcDbLine
 10
9.563864
 20
-175.69051
 30
0.0
 11
9.563864
 21
-175.89051
 31
0.0
  0
LINE
  5
260
100
AcDbEntity
  8
ALPHA
100
AcDbLine
 10
9.563864
 20
-175.147322
 30
0.0
 11
9.563864
 21
-175.29051
 31
0.0
  0
LINE
  5
261
100
AcDbEntity
  8
ALPHA
100
AcDbLine
 10
9.563864
 20
-176.29051
 30
0.0
 11
9.563864
 21
-176.49051
 31
0.0
  0
LINE
  5
262
100
AcDbEntity
  8
ALPHA
100
AcDbLine
 10
9.563864
 20
-176.89051
 30
0.0
 11
9.563864
 21
-177.09051
 31
0.0
  0
LINE
  5
263
100
AcDbEntity
  8
ALPHA
100
AcDbLine
 10
9.563864
 20
-178.09051
 30
0.0
 11
9.563864
 21
-178.29051
 31
0.0
  0
LINE
  5
264
100
AcDbEntity
  8
ALPHA
100
AcDbLine
 10
9.563864
 20
-177.49051
 30
0.0
 11
9.563864
 21
-177.69051
 31
0.0
  0
LINE
  5
265
100
AcDbEntity
  8
ALPHA
100
AcDbLine
 10
10.763864
 20
-177.123223
 30
0.0
 11
10.763864
 21
-175.657797
 31
0.0
  0
LINE
  5
266
100
AcDbEntity
  8
ALPHA
100
AcDbLine
 10
11.063864
 20
-179.39051
 30
0.0
 11
11.063864
 21
-179.517443
 31
0.0
  0
LINE
  5
267
100
AcDbEntity
  8
ALPHA
100
AcDbLine
 10
12.052519
 20
-179.737047
 30
0.0
 11
12.052519
 21
-179.436694
 31
0.0
  0
LINE
  5
268
100
AcDbEntity
  8
ALPHA
100
AcDbLine
 10
12.063864
 20
-174.89051
 30
0.0
 11
12.063864
 21
-177.89051
 31
0.0
  0
LINE
  5
269
100
AcDbEntity
  8
ALPHA
100
AcDbLine
 10
12.352519
 20
-179.737047
 30
0.0
 11
12.352519
 21
-179.436694
 31
0.0
  0
LINE
  5
26A
100
AcDbEntity
  8
ALPHA
100
AcDbLine
 10
13.063864
 20
-179.39051
 30
0.0
 11
13.063864
 21
-179.617552
 31
0.0
  0
LINE
  5
26B
100
AcDbEntity
  8
ALPHA
100
AcDbLine
 10
14.563864
 20
-174.49051
 30
0.0
 11
14.563864
 21
-174.69051
 31
0.0
  0
LINE
  5
26C
100
AcDbEntity
  8
ALPHA
100
AcDbLine
 10
14.563864
 20
-175.09051
 30
0.0
 11
14.563864
 21
-175.29051
 31
0.0
  0
LINE
  5
26D
100
AcDbEntity
  8
ALPHA
100
AcDbLine
 10
14.563864
 20
-175.69051
 30
0.0
 11
14.563864
 21
-175.89051
 31
0.0
  0
LINE
  5
26E
100
AcDbEntity
  8
ALPHA
100
AcDbLine
 10
14.563864
 20
-176.29051
 30
0.0
 11
14.563864
 21
-176.49051
 31
0.0
  0
LINE
  5
26F
100
AcDbEntity
  8
ALPHA
100
AcDbLine
 10
14.563864
 20
-176.89051
 30
0.0
 11
14.563864
 21
-177.09051
 31
0.0
  0
LINE
  5
270
100
AcDbEntity
  8
ALPHA
100
AcDbLine
 10
14.563864
 20
-177.49051
 30
0.0
 11
14.563864
 21
-177.69051
 31
0.0
  0
LINE
  5
271
100
AcDbEntity
  8
ALPHA
100
AcDbLine
 10
14.563864
 20
-178.09051
 30
0.0
 11
14.563864
 21
-178.29051
 31
0.0
  0
LINE
  5
272
100
AcDbEntity
  8
ALPHA
100
AcDbLine
 10
14.563864
 20
-178.69051
 30
0.0
 11
14.563864
 21
-178.711157
 31
0.0
  0
CIRCLE
  5
273
100
AcDbEntity
  8
ALPHA
100
AcDbCircle
 10
12.063864
 20
-176.39051
 30
0.0
 40
2.0
  0
CIRCLE
  5
274
100
AcDbEntity
  8
ALPHA
100
AcDbCircle
 10
10.063864
 20
-179.39051
 30
0.0
 40
0.5
  0
ARC
  5
275
100
AcDbEntity
  8
ALPHA
100
AcDbCircle
 10
13.563864
 20
-179.39051
 30
0.0
 40
0.5
100
AcDbArc
 50
90.0
 51
180.0
  0
ARC
  5
276
100
AcDbEntity
  8
ALPHA
100
AcDbCircle
 10
14.063864
 20
-179.39051
 30
0.0
 40
0.5
100
AcDbArc
 50
61.370893
 51
90.0
  0
ARC
  5
277
100
AcDbEntity
  8
ALPHA
100
AcDbCircle
 10
10.563864
 20
-179.39051
 30
0.0
 40
0.5
100
AcDbArc
 50
0.0
 51
90.0
  0
CIRCLE
  5
278
100
AcDbEntity
  8
ALPHA
100
AcDbCircle
 10
12.063864
 20
-176.39051
 30
0.0
 40
1.5
  0
ARC
  5
279
100
AcDbEntity
  8
ALPHA
100
AcDbCircle
 10
12.202519
 20
-176.49051
 30
0.0
 40
2.95
100
AcDbArc
 50
147.085393
 51
152.914603
  0
ARC
  5
27A
100
AcDbEntity
  8
ALPHA
100
AcDbCircle
 10
12.202519
 20
-176.49051
 30
0.0
 40
2.95
100
AcDbArc
 50
267.085398
 51
272.914602
  0
ARC
  5
27B
100
AcDbEntity
  8
ALPHA
100
AcDbCircle
 10
12.202519
 20
-176.49051
 30
0.0
 40
2.95
100
AcDbArc
 50
27.085397
 51
32.914607
  0
CIRCLE
  5
27C
100
AcDbEntity
  8
ALPHA
100
AcDbCircle
 10
12.202519
 20
-176.49051
 30
0.0
 40
3.25
  0
LINE
  5
27D
100
AcDbEntity
  8
ALPHA
100
AcDbLine
 10
6.663864
 20
-168.59051
 30
0.0
 11
3.863864
 21
-168.59051
 31
0.0
  0
LINE
  5
27E
100
AcDbEntity
  8
ALPHA
100
AcDbLine
 10
3.863864
 20
-168.46551
 30
0.0
 11
6.663864
 21
-168.46551
 31
0.0
  0
LINE
  5
27F
100
AcDbEntity
  8
ALPHA
100
AcDbLine
 10
3.863864
 20
-166.49051
 30
0.0
 11
3.963864
 21
-166.49051
 31
0.0
  0
LINE
  5
280
100
AcDbEntity
  8
ALPHA
100
AcDbLine
 10
6.663864
 20
-166.36551
 30
0.0
 11
3.963864
 21
-166.36551
 31
0.0
  0
LINE
  5
281
100
AcDbEntity
  8
ALPHA
100
AcDbLine
 10
3.863864
 20
-165.59051
 30
0.0
 11
3.863864
 21
-168.59051
 31
0.0
  0
LINE
  5
282
100
AcDbEntity
  8
ALPHA
100
AcDbLine
 10
5.781831
 20
-171.99051
 30
0.0
 11
5.780958
 21
-171.89051
 31
0.0
  0
LINE
  5
283
100
AcDbEntity
  8
ALPHA
100
AcDbLine
 10
3.963864
 20
-165.59051
 30
0.0
 11
3.963864
 21
-166.49051
 31
0.0
  0
LINE
  5
284
100
AcDbEntity
  8
ALPHA
100
AcDbLine
 10
4.0757
 20
-166.36551
 30
0.0
 11
4.0757
 21
-168.46551
 31
0.0
  0
LINE
  5
285
100
AcDbEntity
  8
ALPHA
100
AcDbLine
 10
4.163864
 20
-166.36551
 30
0.0
 11
4.163864
 21
-168.46551
 31
0.0
  0
LINE
  5
286
100
AcDbEntity
  8
ALPHA
100
AcDbLine
 10
6.363864
 20
-166.36551
 30
0.0
 11
6.363864
 21
-168.46551
 31
0.0
  0
LINE
  5
287
100
AcDbEntity
  8
ALPHA
100
AcDbLine
 10
6.413864
 20
-168.59051
 30
0.0
 11
6.413864
 21
-168.46551
 31
0.0
  0
LINE
  5
288
100
AcDbEntity
  8
ALPHA
100
AcDbLine
 10
6.452027
 20
-166.36551
 30
0.0
 11
6.452027
 21
-168.46551
 31
0.0
  0
LINE
  5
289
100
AcDbEntity
  8
ALPHA
100
AcDbLine
 10
6.663864
 20
-165.59051
 30
0.0
 11
6.663864
 21
-168.59051
 31
0.0
  0
LINE
  5
28A
100
AcDbEntity
  8
ALPHA
100
AcDbLine
 10
4.995611
 20
-171.89051
 30
0.0
 11
4.992119
 21
-171.99051
 31
0.0
  0
ARC
  5
28B
100
AcDbEntity
  8
ALPHA
100
AcDbCircle
 10
3.263864
 20
-171.89051
 30
0.0
 40
0.5
100
AcDbArc
 50
180.0
 51
191.597659
  0
ARC
  5
28C
100
AcDbEntity
  8
ALPHA
100
AcDbCircle
 10
0.263864
 20
-171.89051
 30
0.0
 40
0.499999
100
AcDbArc
 50
348.402318
 51
0.0
  0
ARC
  5
28D
100
AcDbEntity
  8
ALPHA
100
AcDbCircle
 10
2.263864
 20
-172.39051
 30
0.0
 40
1.699999
100
AcDbArc
 50
13.654085
 51
17.189714
  0
ARC
  5
28E
100
AcDbEntity
  8
ALPHA
100
AcDbCircle
 10
4.463864
 20
-172.39051
 30
0.0
 40
0.499999
100
AcDbArc
 50
53.992964
 51
90.0
  0
LINE
  5
28F
100
AcDbEntity
  8
ALPHA
100
AcDbLine
 10
8.832116
 20
-171.89051
 30
0.0
 11
8.835608
 21
-171.99051
 31
0.0
  0
LINE
  5
290
100
AcDbEntity
  8
ALPHA
100
AcDbLine
 10
10.388864
 20
-171.943996
 30
0.0
 11
10.388864
 21
-171.89051
 31
0.0
  0
LINE
  5
291
100
AcDbEntity
  8
ALPHA
100
AcDbLine
 10
8.045896
 20
-171.99051
 30
0.0
 11
8.046769
 21
-171.89051
 31
0.0
  0
LINE
  5
292
100
AcDbEntity
  8
ALPHA
100
AcDbLine
 10
16.081836
 20
-171.991127
 30
0.0
 11
16.080958
 21
-171.89051
 31
0.0
  0
LINE
  5
293
100
AcDbEntity
  8
ALPHA
100
AcDbLine
 10
11.063864
 20
-171.99051
 30
0.0
 11
11.063864
 21
-171.89051
 31
0.0
  0
LINE
  5
294
100
AcDbEntity
  8
ALPHA
100
AcDbLine
 10
13.063864
 20
-171.99051
 30
0.0
 11
13.063864
 21
-171.89051
 31
0.0
  0
LINE
  5
295
100
AcDbEntity
  8
ALPHA
100
AcDbLine
 10
14.513864
 20
-171.99051
 30
0.0
 11
14.513864
 21
-171.89051
 31
0.0
  0
LINE
  5
296
100
AcDbEntity
  8
ALPHA
100
AcDbLine
 10
15.295611
 20
-171.89051
 30
0.0
 11
15.292119
 21
-171.99051
 31
0.0
  0
ARC
  5
297
100
AcDbEntity
  8
ALPHA
100
AcDbCircle
 10
10.613864
 20
-172.39051
 30
0.0
 40
1.7
100
AcDbArc
 50
162.803378
 51
166.351122
  0
ARC
  5
298
100
AcDbEntity
  8
ALPHA
100
AcDbCircle
 10
10.613864
 20
-172.39051
 30
0.0
 40
0.5
100
AcDbArc
 50
98.577676
 51
126.215612
  0
LINE
  5
299
100
AcDbEntity
  8
ALPHA
100
AcDbLine
 10
19.452519
 20
-171.99051
 30
0.0
 11
19.452519
 21
-180.09051
 31
0.0
  0
LINE
  5
29A
100
AcDbEntity
  8
ALPHA
100
AcDbLine
 10
19.175209
 20
-180.09051
 30
0.0
 11
19.246769
 21
-171.89051
 31
0.0
  0
ARC
  5
29B
100
AcDbEntity
  8
ALPHA
100
AcDbCircle
 10
19.763864
 20
-172.89051
 30
0.0
 40
0.5
100
AcDbArc
 50
128.617323
 51
180.0
  0
CIRCLE
  5
29C
100
AcDbEntity
  8
ALPHA
100
AcDbCircle
 10
23.263864
 20
-176.39051
 30
0.0
 40
2.0
  0
CIRCLE
  5
29D
100
AcDbEntity
  8
ALPHA
100
AcDbCircle
 10
23.263864
 20
-176.39051
 30
0.0
 40
1.5
  0
ARC
  5
29E
100
AcDbEntity
  8
ALPHA
100
AcDbCircle
 10
24.763864
 20
-179.39051
 30
0.0
 40
0.5
100
AcDbArc
 50
90.0
 51
180.0
  0
CIRCLE
  5
29F
100
AcDbEntity
  8
ALPHA
100
AcDbCircle
 10
23.402519
 20
-176.49051
 30
0.0
 40
3.25
  0
LINE
  5
2A0
100
AcDbEntity
  8
ALPHA
100
AcDbLine
 10
19.273966
 20
-179.99051
 30
0.0
 11
19.452519
 21
-179.99051
 31
0.0
  0
LINE
  5
2A1
100
AcDbEntity
  8
ALPHA
100
AcDbLine
 10
19.263864
 20
-179.89051
 30
0.0
 11
19.452519
 21
-179.89051
 31
0.0
  0
LINE
  5
2A2
100
AcDbEntity
  8
ALPHA
100
AcDbLine
 10
19.263864
 20
-179.49051
 30
0.0
 11
19.452519
 21
-179.49051
 31
0.0
  0
LINE
  5
2A3
100
AcDbEntity
  8
ALPHA
100
AcDbLine
 10
19.263864
 20
-179.39051
 30
0.0
 11
19.452519
 21
-179.39051
 31
0.0
  0
LINE
  5
2A4
100
AcDbEntity
  8
ALPHA
100
AcDbLine
 10
22.263864
 20
-179.39051
 30
0.0
 11
24.263864
 21
-179.39051
 31
0.0
  0
LINE
  5
2A5
100
AcDbEntity
  8
ALPHA
100
AcDbLine
 10
19.263864
 20
-179.29051
 30
0.0
 11
19.452519
 21
-179.29051
 31
0.0
  0
LINE
  5
2A6
100
AcDbEntity
  8
ALPHA
100
AcDbLine
 10
19.263864
 20
-178.89051
 30
0.0
 11
19.452519
 21
-178.89051
 31
0.0
  0
LINE
  5
2A7
100
AcDbEntity
  8
ALPHA
100
AcDbLine
 10
21.263864
 20
-178.89051
 30
0.0
 11
21.763864
 21
-178.89051
 31
0.0
  0
LINE
  5
2A8
100
AcDbEntity
  8
ALPHA
100
AcDbLine
 10
19.263864
 20
-178.79051
 30
0.0
 11
19.452519
 21
-178.79051
 31
0.0
  0
LINE
  5
2A9
100
AcDbEntity
  8
ALPHA
100
AcDbLine
 10
19.263864
 20
-178.69051
 30
0.0
 11
19.452519
 21
-178.69051
 31
0.0
  0
LINE
  5
2AA
100
AcDbEntity
  8
ALPHA
100
AcDbLine
 10
19.263864
 20
-178.29051
 30
0.0
 11
19.452519
 21
-178.29051
 31
0.0
  0
LINE
  5
2AB
100
AcDbEntity
  8
ALPHA
100
AcDbLine
 10
20.71386
 20
-178.29051
 30
0.0
 11
20.763864
 21
-178.29051
 31
0.0
  0
LINE
  5
2AC
100
AcDbEntity
  8
ALPHA
100
AcDbLine
 10
19.263864
 20
-178.19051
 30
0.0
 11
19.452519
 21
-178.19051
 31
0.0
  0
LINE
  5
2AD
100
AcDbEntity
  8
ALPHA
100
AcDbLine
 10
20.641913
 20
-178.19051
 30
0.0
 11
20.763864
 21
-178.19051
 31
0.0
  0
LINE
  5
2AE
100
AcDbEntity
  8
ALPHA
100
AcDbLine
 10
19.263864
 20
-178.09051
 30
0.0
 11
19.452519
 21
-178.09051
 31
0.0
  0
LINE
  5
2AF
100
AcDbEntity
  8
ALPHA
100
AcDbLine
 10
20.576654
 20
-178.09051
 30
0.0
 11
20.763864
 21
-178.09051
 31
0.0
  0
LINE
  5
2B0
100
AcDbEntity
  8
ALPHA
100
AcDbLine
 10
22.74511
 20
-177.79051
 30
0.0
 11
23.782617
 21
-177.79051
 31
0.0
  0
LINE
  5
2B1
100
AcDbEntity
  8
ALPHA
100
AcDbLine
 10
19.263864
 20
-177.69051
 30
0.0
 11
19.452519
 21
-177.69051
 31
0.0
  0
LINE
  5
2B2
100
AcDbEntity
  8
ALPHA
100
AcDbLine
 10
20.396372
 20
-177.69051
 30
0.0
 11
20.763864
 21
-177.69051
 31
0.0
  0
LINE
  5
2B3
100
AcDbEntity
  8
ALPHA
100
AcDbLine
 10
19.263864
 20
-177.59051
 30
0.0
 11
19.452519
 21
-177.59051
 31
0.0
  0
LINE
  5
2B4
100
AcDbEntity
  8
ALPHA
100
AcDbLine
 10
20.351301
 20
-177.59051
 30
0.0
 11
20.763864
 21
-177.59051
 31
0.0
  0
LINE
  5
2B5
100
AcDbEntity
  8
ALPHA
100
AcDbLine
 10
19.263864
 20
-177.49051
 30
0.0
 11
19.452519
 21
-177.49051
 31
0.0
  0
LINE
  5
2B6
100
AcDbEntity
  8
ALPHA
100
AcDbLine
 10
20.313521
 20
-177.49051
 30
0.0
 11
20.763864
 21
-177.49051
 31
0.0
  0
LINE
  5
2B7
100
AcDbEntity
  8
ALPHA
100
AcDbLine
 10
19.263864
 20
-177.09051
 30
0.0
 11
19.452519
 21
-177.09051
 31
0.0
  0
LINE
  5
2B8
100
AcDbEntity
  8
ALPHA
100
AcDbLine
 10
20.222726
 20
-177.09051
 30
0.0
 11
20.763864
 21
-177.09051
 31
0.0
  0
LINE
  5
2B9
100
AcDbEntity
  8
ALPHA
100
AcDbLine
 10
19.263864
 20
-176.99051
 30
0.0
 11
19.452519
 21
-176.99051
 31
0.0
  0
LINE
  5
2BA
100
AcDbEntity
  8
ALPHA
100
AcDbLine
 10
20.200027
 20
-176.99051
 30
0.0
 11
20.763864
 21
-176.99051
 31
0.0
  0
LINE
  5
2BB
100
AcDbEntity
  8
ALPHA
100
AcDbLine
 10
19.263864
 20
-176.89051
 30
0.0
 11
19.452519
 21
-176.89051
 31
0.0
  0
LINE
  5
2BC
100
AcDbEntity
  8
ALPHA
100
AcDbLine
 10
20.177329
 20
-176.89051
 30
0.0
 11
20.763864
 21
-176.89051
 31
0.0
  0
LINE
  5
2BD
100
AcDbEntity
  8
ALPHA
100
AcDbLine
 10
19.263864
 20
-176.49051
 30
0.0
 11
19.452519
 21
-176.49051
 31
0.0
  0
LINE
  5
2BE
100
AcDbEntity
  8
ALPHA
100
AcDbLine
 10
20.167936
 20
-176.49051
 30
0.0
 11
20.763864
 21
-176.49051
 31
0.0
  0
LINE
  5
2BF
100
AcDbEntity
  8
ALPHA
100
AcDbLine
 10
19.263864
 20
-176.39051
 30
0.0
 11
19.452519
 21
-176.39051
 31
0.0
  0
LINE
  5
2C0
100
AcDbEntity
  8
ALPHA
100
AcDbLine
 10
20.165637
 20
-176.39051
 30
0.0
 11
20.763864
 21
-176.39051
 31
0.0
  0
LINE
  5
2C1
100
AcDbEntity
  8
ALPHA
100
AcDbLine
 10
19.263864
 20
-176.29051
 30
0.0
 11
19.452519
 21
-176.29051
 31
0.0
  0
LINE
  5
2C2
100
AcDbEntity
  8
ALPHA
100
AcDbLine
 10
20.163339
 20
-176.29051
 30
0.0
 11
20.763864
 21
-176.29051
 31
0.0
  0
LINE
  5
2C3
100
AcDbEntity
  8
ALPHA
100
AcDbLine
 10
19.263864
 20
-175.89051
 30
0.0
 11
19.452519
 21
-175.89051
 31
0.0
  0
LINE
  5
2C4
100
AcDbEntity
  8
ALPHA
100
AcDbLine
 10
20.224785
 20
-175.89051
 30
0.0
 11
20.763864
 21
-175.89051
 31
0.0
  0
LINE
  5
2C5
100
AcDbEntity
  8
ALPHA
100
AcDbLine
 10
19.263864
 20
-175.79051
 30
0.0
 11
19.452519
 21
-175.79051
 31
0.0
  0
LINE
  5
2C6
100
AcDbEntity
  8
ALPHA
100
AcDbLine
 10
20.242694
 20
-175.79051
 30
0.0
 11
20.763864
 21
-175.79051
 31
0.0
  0
LINE
  5
2C7
100
AcDbEntity
  8
ALPHA
100
AcDbLine
 10
19.263864
 20
-175.69051
 30
0.0
 11
19.452519
 21
-175.69051
 31
0.0
  0
LINE
  5
2C8
100
AcDbEntity
  8
ALPHA
100
AcDbLine
 10
20.260602
 20
-175.69051
 30
0.0
 11
20.763864
 21
-175.69051
 31
0.0
  0
LINE
  5
2C9
100
AcDbEntity
  8
ALPHA
100
AcDbLine
 10
19.263864
 20
-175.29051
 30
0.0
 11
19.452519
 21
-175.29051
 31
0.0
  0
LINE
  5
2CA
100
AcDbEntity
  8
ALPHA
100
AcDbLine
 10
20.399657
 20
-175.29051
 30
0.0
 11
20.763864
 21
-175.29051
 31
0.0
  0
LINE
  5
2CB
100
AcDbEntity
  8
ALPHA
100
AcDbLine
 10
19.263864
 20
-175.19051
 30
0.0
 11
19.452519
 21
-175.19051
 31
0.0
  0
LINE
  5
2CC
100
AcDbEntity
  8
ALPHA
100
AcDbLine
 10
20.43929
 20
-175.19051
 30
0.0
 11
20.763864
 21
-175.19051
 31
0.0
  0
LINE
  5
2CD
100
AcDbEntity
  8
ALPHA
100
AcDbLine
 10
23.995763
 20
-175.09051
 30
0.0
 11
22.531964
 21
-175.09051
 31
0.0
  0
LINE
  5
2CE
100
AcDbEntity
  8
ALPHA
100
AcDbLine
 10
19.263864
 20
-175.09051
 30
0.0
 11
19.452519
 21
-175.09051
 31
0.0
  0
LINE
  5
2CF
100
AcDbEntity
  8
ALPHA
100
AcDbLine
 10
20.478924
 20
-175.09051
 30
0.0
 11
20.677648
 21
-175.09051
 31
0.0
  0
LINE
  5
2D0
100
AcDbEntity
  8
ALPHA
100
AcDbLine
 10
19.263864
 20
-174.69051
 30
0.0
 11
19.452519
 21
-174.69051
 31
0.0
  0
LINE
  5
2D1
100
AcDbEntity
  8
ALPHA
100
AcDbLine
 10
20.702325
 20
-174.69051
 30
0.0
 11
20.763864
 21
-174.69051
 31
0.0
  0
LINE
  5
2D2
100
AcDbEntity
  8
ALPHA
100
AcDbLine
 10
19.263864
 20
-174.59051
 30
0.0
 11
19.452519
 21
-174.59051
 31
0.0
  0
LINE
  5
2D3
100
AcDbEntity
  8
ALPHA
100
AcDbLine
 10
19.263864
 20
-174.49051
 30
0.0
 11
19.452519
 21
-174.49051
 31
0.0
  0
LINE
  5
2D4
100
AcDbEntity
  8
ALPHA
100
AcDbLine
 10
19.263864
 20
-174.09051
 30
0.0
 11
19.452519
 21
-174.09051
 31
0.0
  0
LINE
  5
2D5
100
AcDbEntity
  8
ALPHA
100
AcDbLine
 10
19.263864
 20
-173.99051
 30
0.0
 11
19.452519
 21
-173.99051
 31
0.0
  0
LINE
  5
2D6
100
AcDbEntity
  8
ALPHA
100
AcDbLine
 10
19.263864
 20
-173.89051
 30
0.0
 11
19.452519
 21
-173.89051
 31
0.0
  0
LINE
  5
2D7
100
AcDbEntity
  8
ALPHA
100
AcDbLine
 10
19.263864
 20
-173.49051
 30
0.0
 11
19.452519
 21
-173.49051
 31
0.0
  0
LINE
  5
2D8
100
AcDbEntity
  8
ALPHA
100
AcDbLine
 10
19.263864
 20
-173.39051
 30
0.0
 11
19.452519
 21
-173.39051
 31
0.0
  0
LINE
  5
2D9
100
AcDbEntity
  8
ALPHA
100
AcDbLine
 10
19.263864
 20
-173.29051
 30
0.0
 11
19.452519
 21
-173.29051
 31
0.0
  0
LINE
  5
2DA
100
AcDbEntity
  8
ALPHA
100
AcDbLine
 10
19.263864
 20
-172.89051
 30
0.0
 11
19.452519
 21
-172.89051
 31
0.0
  0
LINE
  5
2DB
100
AcDbEntity
  8
ALPHA
100
AcDbLine
 10
19.273966
 20
-172.79051
 30
0.0
 11
19.452519
 21
-172.79051
 31
0.0
  0
LINE
  5
2DC
100
AcDbEntity
  8
ALPHA
100
AcDbLine
 10
19.305606
 20
-172.69051
 30
0.0
 11
19.452519
 21
-172.69051
 31
0.0
  0
LINE
  5
2DD
100
AcDbEntity
  8
ALPHA
100
AcDbLine
 10
20.515935
 20
-174.997145
 30
0.0
 11
20.776049
 21
-175.147322
 31
0.0
  0
LINE
  5
2DE
100
AcDbEntity
  8
ALPHA
100
AcDbLine
 10
20.665935
 20
-174.737338
 30
0.0
 11
20.926049
 21
-174.887514
 31
0.0
  0
LINE
  5
2DF
100
AcDbEntity
  8
ALPHA
100
AcDbLine
 10
19.263864
 20
-172.89051
 30
0.0
 11
19.263864
 21
-179.89051
 31
0.0
  0
LINE
  5
2E0
100
AcDbEntity
  8
ALPHA
100
AcDbLine
 10
20.763864
 20
-174.611354
 30
0.0
 11
20.763864
 21
-174.69051
 31
0.0
  0
LINE
  5
2E1
100
AcDbEntity
  8
ALPHA
100
AcDbLine
 10
20.763864
 20
-175.69051
 30
0.0
 11
20.763864
 21
-175.89051
 31
0.0
  0
LINE
  5
2E2
100
AcDbEntity
  8
ALPHA
100
AcDbLine
 10
20.763864
 20
-175.147322
 30
0.0
 11
20.763864
 21
-175.29051
 31
0.0
  0
LINE
  5
2E3
100
AcDbEntity
  8
ALPHA
100
AcDbLine
 10
20.763864
 20
-176.29051
 30
0.0
 11
20.763864
 21
-176.49051
 31
0.0
  0
LINE
  5
2E4
100
AcDbEntity
  8
ALPHA
100
AcDbLine
 10
20.763864
 20
-176.89051
 30
0.0
 11
20.763864
 21
-177.09051
 31
0.0
  0
LINE
  5
2E5
100
AcDbEntity
  8
ALPHA
100
AcDbLine
 10
20.763864
 20
-178.09051
 30
0.0
 11
20.763864
 21
-178.29051
 31
0.0
  0
LINE
  5
2E6
100
AcDbEntity
  8
ALPHA
100
AcDbLine
 10
20.763864
 20
-177.49051
 30
0.0
 11
20.763864
 21
-177.69051
 31
0.0
  0
LINE
  5
2E7
100
AcDbEntity
  8
ALPHA
100
AcDbLine
 10
22.263864
 20
-179.39051
 30
0.0
 11
22.263864
 21
-179.517443
 31
0.0
  0
LINE
  5
2E8
100
AcDbEntity
  8
ALPHA
100
AcDbLine
 10
23.252519
 20
-179.737047
 30
0.0
 11
23.252519
 21
-179.436694
 31
0.0
  0
LINE
  5
2E9
100
AcDbEntity
  8
ALPHA
100
AcDbLine
 10
23.552519
 20
-179.737047
 30
0.0
 11
23.552519
 21
-179.436694
 31
0.0
  0
LINE
  5
2EA
100
AcDbEntity
  8
ALPHA
100
AcDbLine
 10
24.263864
 20
-179.39051
 30
0.0
 11
24.263864
 21
-179.617552
 31
0.0
  0
LINE
  5
2EB
100
AcDbEntity
  8
ALPHA
100
AcDbLine
 10
24.363864
 20
-177.407457
 30
0.0
 11
24.363864
 21
-175.373563
 31
0.0
  0
ARC
  5
2EC
100
AcDbEntity
  8
ALPHA
100
AcDbCircle
 10
19.763864
 20
-179.89051
 30
0.0
 40
0.5
100
AcDbArc
 50
180.0
 51
203.578159
  0
CIRCLE
  5
2ED
100
AcDbEntity
  8
ALPHA
100
AcDbCircle
 10
21.263864
 20
-179.39051
 30
0.0
 40
0.5
  0
ARC
  5
2EE
100
AcDbEntity
  8
ALPHA
100
AcDbCircle
 10
21.763864
 20
-179.39051
 30
0.0
 40
0.5
100
AcDbArc
 50
0.0
 51
90.0
  0
ARC
  5
2EF
100
AcDbEntity
  8
ALPHA
100
AcDbCircle
 10
23.402519
 20
-176.49051
 30
0.0
 40
2.95
100
AcDbArc
 50
147.085393
 51
152.914603
  0
ARC
  5
2F0
100
AcDbEntity
  8
ALPHA
100
AcDbCircle
 10
23.402519
 20
-176.49051
 30
0.0
 40
2.95
100
AcDbArc
 50
267.085398
 51
272.914602
  0
LINE
  5
2F1
100
AcDbEntity
  8
ALPHA
100
AcDbLine
 10
27.502519
 20
-182.021244
 30
0.0
 11
29.458359
 21
-182.021244
 31
0.0
  0
LINE
  5
2F2
100
AcDbEntity
  8
ALPHA
100
AcDbLine
 10
27.502519
 20
-181.39051
 30
0.0
 11
29.463864
 21
-181.39051
 31
0.0
  0
LINE
  5
2F3
100
AcDbEntity
  8
ALPHA
100
AcDbLine
 10
29.602519
 20
-180.99051
 30
0.0
 11
27.502519
 21
-180.99051
 31
0.0
  0
LINE
  5
2F4
100
AcDbEntity
  8
ALPHA
100
AcDbLine
 10
32.063864
 20
-178.89051
 30
0.0
 11
31.563864
 21
-178.89051
 31
0.0
  0
LINE
  5
2F5
100
AcDbEntity
  8
ALPHA
100
AcDbLine
 10
24.763864
 20
-178.89051
 30
0.0
 11
25.263864
 21
-178.89051
 31
0.0
  0
LINE
  5
2F6
100
AcDbEntity
  8
ALPHA
100
AcDbLine
 10
25.786166
 20
-178.69051
 30
0.0
 11
25.763864
 21
-178.69051
 31
0.0
  0
LINE
  5
2F7
100
AcDbEntity
  8
ALPHA
100
AcDbLine
 10
26.091178
 20
-178.29051
 30
0.0
 11
25.763864
 21
-178.29051
 31
0.0
  0
LINE
  5
2F8
100
AcDbEntity
  8
ALPHA
100
AcDbLine
 10
31.01386
 20
-178.29051
 30
0.0
 11
31.063864
 21
-178.29051
 31
0.0
  0
LINE
  5
2F9
100
AcDbEntity
  8
ALPHA
100
AcDbLine
 10
31.063864
 20
-178.19051
 30
0.0
 11
30.941913
 21
-178.19051
 31
0.0
  0
LINE
  5
2FA
100
AcDbEntity
  8
ALPHA
100
AcDbLine
 10
25.763864
 20
-178.19051
 30
0.0
 11
26.163124
 21
-178.19051
 31
0.0
  0
LINE
  5
2FB
100
AcDbEntity
  8
ALPHA
100
AcDbLine
 10
26.228384
 20
-178.09051
 30
0.0
 11
25.763864
 21
-178.09051
 31
0.0
  0
LINE
  5
2FC
100
AcDbEntity
  8
ALPHA
100
AcDbLine
 10
30.876654
 20
-178.09051
 30
0.0
 11
31.063864
 21
-178.09051
 31
0.0
  0
LINE
  5
2FD
100
AcDbEntity
  8
ALPHA
100
AcDbLine
 10
26.408666
 20
-177.69051
 30
0.0
 11
25.763864
 21
-177.69051
 31
0.0
  0
LINE
  5
2FE
100
AcDbEntity
  8
ALPHA
100
AcDbLine
 10
30.696372
 20
-177.69051
 30
0.0
 11
31.063864
 21
-177.69051
 31
0.0
  0
LINE
  5
2FF
100
AcDbEntity
  8
ALPHA
100
AcDbLine
 10
31.063864
 20
-177.59051
 30
0.0
 11
30.651301
 21
-177.59051
 31
0.0
  0
LINE
  5
300
100
AcDbEntity
  8
ALPHA
100
AcDbLine
 10
25.763864
 20
-177.59051
 30
0.0
 11
26.453736
 21
-177.59051
 31
0.0
  0
LINE
  5
301
100
AcDbEntity
  8
ALPHA
100
AcDbLine
 10
26.491516
 20
-177.49051
 30
0.0
 11
25.763864
 21
-177.49051
 31
0.0
  0
LINE
  5
302
100
AcDbEntity
  8
ALPHA
100
AcDbLine
 10
30.613521
 20
-177.49051
 30
0.0
 11
31.063864
 21
-177.49051
 31
0.0
  0
LINE
  5
303
100
AcDbEntity
  8
ALPHA
100
AcDbLine
 10
26.582311
 20
-177.09051
 30
0.0
 11
25.763864
 21
-177.09051
 31
0.0
  0
LINE
  5
304
100
AcDbEntity
  8
ALPHA
100
AcDbLine
 10
30.522726
 20
-177.09051
 30
0.0
 11
31.063864
 21
-177.09051
 31
0.0
  0
LINE
  5
305
100
AcDbEntity
  8
ALPHA
100
AcDbLine
 10
31.063864
 20
-176.99051
 30
0.0
 11
30.500027
 21
-176.99051
 31
0.0
  0
LINE
  5
306
100
AcDbEntity
  8
ALPHA
100
AcDbLine
 10
25.763864
 20
-176.99051
 30
0.0
 11
26.60501
 21
-176.99051
 31
0.0
  0
LINE
  5
307
100
AcDbEntity
  8
ALPHA
100
AcDbLine
 10
26.627709
 20
-176.89051
 30
0.0
 11
25.763864
 21
-176.89051
 31
0.0
  0
LINE
  5
308
100
AcDbEntity
  8
ALPHA
100
AcDbLine
 10
30.477329
 20
-176.89051
 30
0.0
 11
31.063864
 21
-176.89051
 31
0.0
  0
LINE
  5
309
100
AcDbEntity
  8
ALPHA
100
AcDbLine
 10
26.637101
 20
-176.49051
 30
0.0
 11
25.763864
 21
-176.49051
 31
0.0
  0
LINE
  5
30A
100
AcDbEntity
  8
ALPHA
100
AcDbLine
 10
30.467936
 20
-176.49051
 30
0.0
 11
31.063864
 21
-176.49051
 31
0.0
  0
LINE
  5
30B
100
AcDbEntity
  8
ALPHA
100
AcDbLine
 10
31.063864
 20
-176.39051
 30
0.0
 11
30.465637
 21
-176.39051
 31
0.0
  0
LINE
  5
30C
100
AcDbEntity
  8
ALPHA
100
AcDbLine
 10
25.763864
 20
-176.39051
 30
0.0
 11
26.6394
 21
-176.39051
 31
0.0
  0
LINE
  5
30D
100
AcDbEntity
  8
ALPHA
100
AcDbLine
 10
26.641698
 20
-176.29051
 30
0.0
 11
25.763864
 21
-176.29051
 31
0.0
  0
LINE
  5
30E
100
AcDbEntity
  8
ALPHA
100
AcDbLine
 10
30.463339
 20
-176.29051
 30
0.0
 11
31.063864
 21
-176.29051
 31
0.0
  0
LINE
  5
30F
100
AcDbEntity
  8
ALPHA
100
AcDbLine
 10
26.580252
 20
-175.89051
 30
0.0
 11
25.763864
 21
-175.89051
 31
0.0
  0
LINE
  5
310
100
AcDbEntity
  8
ALPHA
100
AcDbLine
 10
30.524785
 20
-175.89051
 30
0.0
 11
31.063864
 21
-175.89051
 31
0.0
  0
LINE
  5
311
100
AcDbEntity
  8
ALPHA
100
AcDbLine
 10
31.063864
 20
-175.79051
 30
0.0
 11
30.542694
 21
-175.79051
 31
0.0
  0
LINE
  5
312
100
AcDbEntity
  8
ALPHA
100
AcDbLine
 10
25.763864
 20
-175.79051
 30
0.0
 11
26.562344
 21
-175.79051
 31
0.0
  0
LINE
  5
313
100
AcDbEntity
  8
ALPHA
100
AcDbLine
 10
26.544435
 20
-175.69051
 30
0.0
 11
25.763864
 21
-175.69051
 31
0.0
  0
LINE
  5
314
100
AcDbEntity
  8
ALPHA
100
AcDbLine
 10
30.560602
 20
-175.69051
 30
0.0
 11
31.063864
 21
-175.69051
 31
0.0
  0
LINE
  5
315
100
AcDbEntity
  8
ALPHA
100
AcDbLine
 10
26.405381
 20
-175.29051
 30
0.0
 11
25.763864
 21
-175.29051
 31
0.0
  0
LINE
  5
316
100
AcDbEntity
  8
ALPHA
100
AcDbLine
 10
30.699657
 20
-175.29051
 30
0.0
 11
31.063864
 21
-175.29051
 31
0.0
  0
LINE
  5
317
100
AcDbEntity
  8
ALPHA
100
AcDbLine
 10
31.063864
 20
-175.19051
 30
0.0
 11
30.73929
 21
-175.19051
 31
0.0
  0
LINE
  5
318
100
AcDbEntity
  8
ALPHA
100
AcDbLine
 10
25.763864
 20
-175.19051
 30
0.0
 11
26.365747
 21
-175.19051
 31
0.0
  0
LINE
  5
319
100
AcDbEntity
  8
ALPHA
100
AcDbLine
 10
26.326113
 20
-175.09051
 30
0.0
 11
26.12739
 21
-175.09051
 31
0.0
  0
LINE
  5
31A
100
AcDbEntity
  8
ALPHA
100
AcDbLine
 10
25.998709
 20
-175.09051
 30
0.0
 11
25.763864
 21
-175.09051
 31
0.0
  0
LINE
  5
31B
100
AcDbEntity
  8
ALPHA
100
AcDbLine
 10
30.778924
 20
-175.09051
 30
0.0
 11
30.977648
 21
-175.09051
 31
0.0
  0
LINE
  5
31C
100
AcDbEntity
  8
ALPHA
100
AcDbLine
 10
26.102713
 20
-174.69051
 30
0.0
 11
25.763864
 21
-174.69051
 31
0.0
  0
LINE
  5
31D
100
AcDbEntity
  8
ALPHA
100
AcDbLine
 10
31.002325
 20
-174.69051
 30
0.0
 11
31.063864
 21
-174.69051
 31
0.0
  0
LINE
  5
31E
100
AcDbEntity
  8
ALPHA
100
AcDbLine
 10
25.763864
 20
-174.59051
 30
0.0
 11
26.024968
 21
-174.59051
 31
0.0
  0
LINE
  5
31F
100
AcDbEntity
  8
ALPHA
100
AcDbLine
 10
25.947224
 20
-174.49051
 30
0.0
 11
25.763864
 21
-174.49051
 31
0.0
  0
LINE
  5
320
100
AcDbEntity
  8
ALPHA
100
AcDbLine
 10
30.815935
 20
-174.997145
 30
0.0
 11
31.076049
 21
-175.147322
 31
0.0
  0
LINE
  5
321
100
AcDbEntity
  8
ALPHA
100
AcDbLine
 10
30.965935
 20
-174.737338
 30
0.0
 11
31.226049
 21
-174.887514
 31
0.0
  0
LINE
  5
322
100
AcDbEntity
  8
ALPHA
100
AcDbLine
 10
26.139102
 20
-174.737338
 30
0.0
 11
25.878989
 21
-174.887514
 31
0.0
  0
LINE
  5
323
100
AcDbEntity
  8
ALPHA
100
AcDbLine
 10
26.289102
 20
-174.997145
 30
0.0
 11
26.028989
 21
-175.147322
 31
0.0
  0
LINE
  5
324
100
AcDbEntity
  8
ALPHA
100
AcDbLine
 10
25.763864
 20
-174.49051
 30
0.0
 11
25.763864
 21
-174.69051
 31
0.0
  0
LINE
  5
325
100
AcDbEntity
  8
ALPHA
100
AcDbLine
 10
25.763864
 20
-175.09051
 30
0.0
 11
25.763864
 21
-175.29051
 31
0.0
  0
LINE
  5
326
100
AcDbEntity
  8
ALPHA
100
AcDbLine
 10
25.763864
 20
-175.69051
 30
0.0
 11
25.763864
 21
-175.89051
 31
0.0
  0
LINE
  5
327
100
AcDbEntity
  8
ALPHA
100
AcDbLine
 10
25.763864
 20
-176.29051
 30
0.0
 11
25.763864
 21
-176.49051
 31
0.0
  0
LINE
  5
328
100
AcDbEntity
  8
ALPHA
100
AcDbLine
 10
25.763864
 20
-176.89051
 30
0.0
 11
25.763864
 21
-177.09051
 31
0.0
  0
LINE
  5
329
100
AcDbEntity
  8
ALPHA
100
AcDbLine
 10
25.763864
 20
-177.49051
 30
0.0
 11
25.763864
 21
-177.69051
 31
0.0
  0
LINE
  5
32A
100
AcDbEntity
  8
ALPHA
100
AcDbLine
 10
25.763864
 20
-178.09051
 30
0.0
 11
25.763864
 21
-178.29051
 31
0.0
  0
LINE
  5
32B
100
AcDbEntity
  8
ALPHA
100
AcDbLine
 10
25.763864
 20
-178.69051
 30
0.0
 11
25.763864
 21
-178.711157
 31
0.0
  0
LINE
  5
32C
100
AcDbEntity
  8
ALPHA
100
AcDbLine
 10
31.063864
 20
-174.611354
 30
0.0
 11
31.063864
 21
-174.69051
 31
0.0
  0
LINE
  5
32D
100
AcDbEntity
  8
ALPHA
100
AcDbLine
 10
31.063864
 20
-175.147322
 30
0.0
 11
31.063864
 21
-175.29051
 31
0.0
  0
LINE
  5
32E
100
AcDbEntity
  8
ALPHA
100
AcDbLine
 10
31.063864
 20
-175.69051
 30
0.0
 11
31.063864
 21
-175.89051
 31
0.0
  0
LINE
  5
32F
100
AcDbEntity
  8
ALPHA
100
AcDbLine
 10
31.063864
 20
-176.29051
 30
0.0
 11
31.063864
 21
-176.49051
 31
0.0
  0
LINE
  5
330
100
AcDbEntity
  8
ALPHA
100
AcDbLine
 10
31.063864
 20
-176.89051
 30
0.0
 11
31.063864
 21
-177.09051
 31
0.0
  0
LINE
  5
331
100
AcDbEntity
  8
ALPHA
100
AcDbLine
 10
31.063864
 20
-177.49051
 30
0.0
 11
31.063864
 21
-177.69051
 31
0.0
  0
LINE
  5
332
100
AcDbEntity
  8
ALPHA
100
AcDbLine
 10
31.063864
 20
-178.09051
 30
0.0
 11
31.063864
 21
-178.29051
 31
0.0
  0
LINE
  5
333
100
AcDbEntity
  8
ALPHA
100
AcDbLine
 10
32.563864
 20
-179.39051
 30
0.0
 11
32.563864
 21
-179.517443
 31
0.0
  0
ARC
  5
334
100
AcDbEntity
  8
ALPHA
100
AcDbCircle
 10
25.263864
 20
-179.39051
 30
0.0
 40
0.5
100
AcDbArc
 50
61.370893
 51
90.0
  0
CIRCLE
  5
335
100
AcDbEntity
  8
ALPHA
100
AcDbCircle
 10
31.563864
 20
-179.39051
 30
0.0
 40
0.5
  0
ARC
  5
336
100
AcDbEntity
  8
ALPHA
100
AcDbCircle
 10
32.063864
 20
-179.39051
 30
0.0
 40
0.5
100
AcDbArc
 50
0.0
 51
90.0
  0
ARC
  5
337
100
AcDbEntity
  8
ALPHA
100
AcDbCircle
 10
23.402519
 20
-176.49051
 30
0.0
 40
2.95
100
AcDbArc
 50
27.085397
 51
32.914607
  0
ARC
  5
338
100
AcDbEntity
  8
ALPHA
100
AcDbCircle
 10
33.702519
 20
-176.49051
 30
0.0
 40
2.95
100
AcDbArc
 50
147.085393
 51
152.914603
  0
LINE
  5
339
100
AcDbEntity
  8
ALPHA
100
AcDbLine
 10
26.063864
 20
-169.49051
 30
0.0
 11
20.063864
 21
-169.49051
 31
0.0
  0
LINE
  5
33A
100
AcDbEntity
  8
ALPHA
100
AcDbLine
 10
26.063864
 20
-163.49051
 30
0.0
 11
20.063864
 21
-163.49051
 31
0.0
  0
LINE
  5
33B
100
AcDbEntity
  8
ALPHA
100
AcDbLine
 10
20.063864
 20
-165.59051
 30
0.0
 11
19.750974
 21
-165.59051
 31
0.0
  0
LINE
  5
33C
100
AcDbEntity
  8
ALPHA
100
AcDbLine
 10
20.032116
 20
-171.89051
 30
0.0
 11
20.035608
 21
-171.99051
 31
0.0
  0
LINE
  5
33D
100
AcDbEntity
  8
ALPHA
100
AcDbLine
 10
20.063864
 20
-163.49051
 30
0.0
 11
20.063864
 21
-169.49051
 31
0.0
  0
LINE
  5
33E
100
AcDbEntity
  8
ALPHA
100
AcDbLine
 10
20.513864
 20
-171.99051
 30
0.0
 11
20.513864
 21
-171.89051
 31
0.0
  0
LINE
  5
33F
100
AcDbEntity
  8
ALPHA
100
AcDbLine
 10
21.013864
 20
-171.89051
 30
0.0
 11
21.013864
 21
-171.99051
 31
0.0
  0
LINE
  5
340
100
AcDbEntity
  8
ALPHA
100
AcDbLine
 10
21.163864
 20
-171.99051
 30
0.0
 11
21.163864
 21
-171.89051
 31
0.0
  0
LINE
  5
341
100
AcDbEntity
  8
ALPHA
100
AcDbLine
 10
22.263864
 20
-171.99051
 30
0.0
 11
22.263864
 21
-171.89051
 31
0.0
  0
LINE
  5
342
100
AcDbEntity
  8
ALPHA
100
AcDbLine
 10
24.263864
 20
-171.99051
 30
0.0
 11
24.263864
 21
-171.89051
 31
0.0
  0
LINE
  5
343
100
AcDbEntity
  8
ALPHA
100
AcDbLine
 10
28.563864
 20
-165.59051
 30
0.0
 11
26.063864
 21
-165.59051
 31
0.0
  0
LINE
  5
344
100
AcDbEntity
  8
ALPHA
100
AcDbLine
 10
28.563864
 20
-169.290784
 30
0.0
 11
28.658746
 21
-169.195902
 31
0.0
  0
LINE
  5
345
100
AcDbEntity
  8
ALPHA
100
AcDbLine
 10
28.76359
 20
-169.49051
 30
0.0
 11
28.858472
 21
-169.395627
 31
0.0
  0
LINE
  5
346
100
AcDbEntity
  8
ALPHA
100
AcDbLine
 10
28.563864
 20
-163.690236
 30
0.0
 11
28.658746
 21
-163.785118
 31
0.0
  0
LINE
  5
347
100
AcDbEntity
  8
ALPHA
100
AcDbLine
 10
28.76359
 20
-163.49051
 30
0.0
 11
28.858472
 21
-163.585393
 31
0.0
  0
LINE
  5
348
100
AcDbEntity
  8
ALPHA
100
AcDbLine
 10
30.332116
 20
-171.89051
 30
0.0
 11
30.335608
 21
-171.99051
 31
0.0
  0
LINE
  5
349
100
AcDbEntity
  8
ALPHA
100
AcDbLine
 10
27.281831
 20
-171.99051
 30
0.0
 11
27.280958
 21
-171.89051
 31
0.0
  0
LINE
  5
34A
100
AcDbEntity
  8
ALPHA
100
AcDbLine
 10
24.863864
 20
-171.99051
 30
0.0
 11
24.863864
 21
-171.903675
 31
0.0
  0
LINE
  5
34B
100
AcDbEntity
  8
ALPHA
100
AcDbLine
 10
26.063864
 20
-163.49051
 30
0.0
 11
26.063864
 21
-169.49051
 31
0.0
  0
LINE
  5
34C
100
AcDbEntity
  8
ALPHA
100
AcDbLine
 10
28.563864
 20
-169.290784
 30
0.0
 11
28.563864
 21
-163.690236
 31
0.0
  0
LINE
  5
34D
100
AcDbEntity
  8
ALPHA
100
AcDbLine
 10
28.658746
 20
-169.195902
 30
0.0
 11
28.658746
 21
-163.785118
 31
0.0
  0
LINE
  5
34E
100
AcDbEntity
  8
ALPHA
100
AcDbLine
 10
28.858472
 20
-169.395627
 30
0.0
 11
28.858472
 21
-163.585393
 31
0.0
  0
LINE
  5
34F
100
AcDbEntity
  8
ALPHA
100
AcDbLine
 10
29.545896
 20
-171.99051
 30
0.0
 11
29.546769
 21
-171.89051
 31
0.0
  0
LINE
  5
350
100
AcDbEntity
  8
ALPHA
100
AcDbLine
 10
26.495611
 20
-171.89051
 30
0.0
 11
26.492119
 21
-171.99051
 31
0.0
  0
ARC
  5
351
100
AcDbEntity
  8
ALPHA
100
AcDbCircle
 10
24.763864
 20
-172.39051
 30
0.0
 40
1.7
100
AcDbArc
 50
13.658417
 51
17.161773
  0
ARC
  5
352
100
AcDbEntity
  8
ALPHA
100
AcDbCircle
 10
24.763864
 20
-172.39051
 30
0.0
 40
0.5
100
AcDbArc
 50
53.778406
 51
90.0
  0
ARC
  5
353
100
AcDbEntity
  8
ALPHA
100
AcDbCircle
 10
33.063864
 20
-172.39051
 30
0.0
 40
1.7
100
AcDbArc
 50
162.810296
 51
166.345923
  0
ARC
  5
354
100
AcDbEntity
  8
ALPHA
100
AcDbCircle
 10
32.063864
 20
-171.89051
 30
0.0
 40
0.499999
100
AcDbArc
 50
348.402318
 51
0.0
  0
ARC
  5
355
100
AcDbEntity
  8
ALPHA
100
AcDbCircle
 10
30.863864
 20
-172.39051
 30
0.0
 40
0.5
100
AcDbArc
 50
90.0
 51
126.007128
  0
LINE
  5
356
100
AcDbEntity
  8
ALPHA
100
AcDbLine
 10
48.963864
 20
-191.09051
 30
0.0
 11
48.963864
 21
-205.09051
 31
0.0
  0
LINE
  5
357
100
AcDbEntity
  8
ALPHA
100
AcDbLine
 10
57.160805
 20
-212.89051
 30
0.0
 11
57.026412
 21
-197.49051
 31
0.0
  0
LINE
  5
358
100
AcDbEntity
  8
ALPHA
100
AcDbLine
 10
58.158211
 20
-211.89051
 30
0.0
 11
58.023817
 21
-196.49051
 31
0.0
  0
LINE
  5
359
100
AcDbEntity
  8
ALPHA
100
AcDbLine
 10
55.063864
 20
-212.89051
 30
0.0
 11
55.063864
 21
-198.49051
 31
0.0
  0
LINE
  5
35A
100
AcDbEntity
  8
ALPHA
100
AcDbLine
 10
58.211397
 20
-211.89051
 30
0.0
 11
58.211397
 21
-195.49051
 31
0.0
  0
LINE
  5
35B
100
AcDbEntity
  8
ALPHA
100
AcDbLine
 10
46.463864
 20
-205.09051
 30
0.0
 11
46.463864
 21
-235.59051
 31
0.0
  0
LINE
  5
35C
100
AcDbEntity
  8
ALPHA
100
AcDbLine
 10
44.463864
 20
-237.59051
 30
0.0
 11
46.463864
 21
-235.59051
 31
0.0
  0
ARC
  5
35D
100
AcDbEntity
  8
ALPHA
100
AcDbCircle
 10
48.563864
 20
-206.89051
 30
0.0
 40
2.75
100
AcDbArc
 50
0.0
 51
81.632522
  0
LINE
  5
35E
100
AcDbEntity
  8
ALPHA
100
AcDbLine
 10
51.313864
 20
-211.89051
 30
0.0
 11
51.313864
 21
-206.89051
 31
0.0
  0
LINE
  5
35F
100
AcDbEntity
  8
ALPHA
100
AcDbLine
 10
52.313864
 20
-212.89051
 30
0.0
 11
57.154634
 21
-212.89051
 31
0.0
  0
LINE
  5
360
100
AcDbEntity
  8
ALPHA
100
AcDbLine
 10
58.158211
 20
-211.89051
 30
0.0
 11
58.211397
 21
-211.89051
 31
0.0
  0
LINE
  5
361
100
AcDbEntity
  8
ALPHA
100
AcDbLine
 10
52.313864
 20
-212.89051
 30
0.0
 11
51.313864
 21
-211.89051
 31
0.0
  0
LINE
  5
362
100
AcDbEntity
  8
ALPHA
100
AcDbLine
 10
37.502519
 20
-180.99051
 30
0.0
 11
37.502519
 21
-182.49051
 31
0.0
  0
LINE
  5
363
100
AcDbEntity
  8
ALPHA
100
AcDbLine
 10
38.311726
 20
-180.99051
 30
0.0
 11
38.393764
 21
-185.69051
 31
0.0
  0
LINE
  5
364
100
AcDbEntity
  8
ALPHA
100
AcDbLine
 10
39.849979
 20
-190.099237
 30
0.0
 11
40.063864
 21
-165.59051
 31
0.0
  0
LINE
  5
365
100
AcDbEntity
  8
ALPHA
100
AcDbLine
 10
48.963864
 20
-198.49051
 30
0.0
 11
55.063864
 21
-198.49051
 31
0.0
  0
LINE
  5
366
100
AcDbEntity
  8
ALPHA
100
AcDbLine
 10
48.963864
 20
-197.49051
 30
0.0
 11
56.790724
 21
-197.49051
 31
0.0
  0
LINE
  5
367
100
AcDbEntity
  8
ALPHA
100
AcDbLine
 10
39.813864
 20
-197.09051
 30
0.0
 11
39.813864
 21
-191.09051
 31
0.0
  0
LINE
  5
368
100
AcDbEntity
  8
ALPHA
100
AcDbLine
 10
38.393764
 20
-185.69051
 30
0.0
 11
39.888454
 21
-185.69051
 31
0.0
  0
LINE
  5
369
100
AcDbEntity
  8
ALPHA
100
AcDbLine
 10
38.385189
 20
-185.199236
 30
0.0
 11
39.892741
 21
-185.199236
 31
0.0
  0
LINE
  5
36A
100
AcDbEntity
  8
ALPHA
100
AcDbLine
 10
39.363864
 20
-184.09051
 30
0.0
 11
38.365836
 21
-184.09051
 31
0.0
  0
LINE
  5
36B
100
AcDbEntity
  8
ALPHA
100
AcDbLine
 10
38.336163
 20
-182.39051
 30
0.0
 11
37.502519
 21
-182.39051
 31
0.0
  0
LINE
  5
36C
100
AcDbEntity
  8
ALPHA
100
AcDbLine
 10
33.763864
 20
-191.39051
 30
0.0
 11
33.763864
 21
-191.09051
 31
0.0
  0
LINE
  5
36D
100
AcDbEntity
  8
ALPHA
100
AcDbLine
 10
34.63875
 20
-191.09051
 30
0.0
 11
34.63875
 21
-191.39051
 31
0.0
  0
LINE
  5
36E
100
AcDbEntity
  8
ALPHA
100
AcDbLine
 10
39.363864
 20
-184.09051
 30
0.0
 11
39.907158
 21
-183.547216
 31
0.0
  0
LINE
  5
36F
100
AcDbEntity
  8
ALPHA
100
AcDbLine
 10
38.847976
 20
-191.09051
 30
0.0
 11
38.895101
 21
-185.69051
 31
0.0
  0
ARC
  5
370
100
AcDbEntity
  8
ALPHA
100
AcDbCircle
 10
38.850017
 20
-190.09051
 30
0.0
 40
1.0
100
AcDbArc
 50
270.0
 51
359.499973
  0
LINE
  5
371
100
AcDbEntity
  8
ALPHA
100
AcDbLine
 10
56.799451
 20
-191.09051
 30
0.0
 11
56.799451
 21
-197.49051
 31
0.0
  0
LINE
  5
372
100
AcDbEntity
  8
ALPHA
100
AcDbLine
 10
57.799413
 20
-190.09051
 30
0.0
 11
57.799413
 21
-196.49051
 31
0.0
  0
LINE
  5
373
100
AcDbEntity
  8
ALPHA
100
AcDbLine
 10
57.799413
 20
-196.49051
 30
0.0
 11
58.023817
 21
-196.49051
 31
0.0
  0
LINE
  5
374
100
AcDbEntity
  8
ALPHA
100
AcDbLine
 10
58.211397
 20
-195.49051
 30
0.0
 11
58.193943
 21
-195.49051
 31
0.0
  0
LINE
  5
375
100
AcDbEntity
  8
ALPHA
100
AcDbLine
 10
57.572514
 20
-190.09051
 30
0.0
 11
57.799413
 21
-190.09051
 31
0.0
  0
LINE
  5
376
100
AcDbEntity
  8
ALPHA
100
AcDbLine
 10
39.802519
 20
-180.99051
 30
0.0
 11
39.802519
 21
-171.99051
 31
0.0
  0
LINE
  5
377
100
AcDbEntity
  8
ALPHA
100
AcDbLine
 10
37.936451
 20
-181.39051
 30
0.0
 11
37.502519
 21
-181.39051
 31
0.0
  0
LINE
  5
378
100
AcDbEntity
  8
ALPHA
100
AcDbLine
 10
39.802519
 20
-180.99051
 30
0.0
 11
37.502519
 21
-180.99051
 31
0.0
  0
LINE
  5
379
100
AcDbEntity
  8
ALPHA
100
AcDbLine
 10
39.945178
 20
-179.19051
 30
0.0
 11
39.802519
 21
-179.19051
 31
0.0
  0
LINE
  5
37A
100
AcDbEntity
  8
ALPHA
100
AcDbLine
 10
35.563864
 20
-178.89051
 30
0.0
 11
35.063864
 21
-178.89051
 31
0.0
  0
LINE
  5
37B
100
AcDbEntity
  8
ALPHA
100
AcDbLine
 10
36.086166
 20
-178.69051
 30
0.0
 11
36.063864
 21
-178.69051
 31
0.0
  0
LINE
  5
37C
100
AcDbEntity
  8
ALPHA
100
AcDbLine
 10
36.391178
 20
-178.29051
 30
0.0
 11
36.063864
 21
-178.29051
 31
0.0
  0
LINE
  5
37D
100
AcDbEntity
  8
ALPHA
100
AcDbLine
 10
36.463124
 20
-178.19051
 30
0.0
 11
36.063864
 21
-178.19051
 31
0.0
  0
LINE
  5
37E
100
AcDbEntity
  8
ALPHA
100
AcDbLine
 10
36.528384
 20
-178.09051
 30
0.0
 11
36.063864
 21
-178.09051
 31
0.0
  0
LINE
  5
37F
100
AcDbEntity
  8
ALPHA
100
AcDbLine
 10
36.708666
 20
-177.69051
 30
0.0
 11
36.063864
 21
-177.69051
 31
0.0
  0
LINE
  5
380
100
AcDbEntity
  8
ALPHA
100
AcDbLine
 10
36.753736
 20
-177.59051
 30
0.0
 11
36.063864
 21
-177.59051
 31
0.0
  0
LINE
  5
381
100
AcDbEntity
  8
ALPHA
100
AcDbLine
 10
36.791516
 20
-177.49051
 30
0.0
 11
36.063864
 21
-177.49051
 31
0.0
  0
LINE
  5
382
100
AcDbEntity
  8
ALPHA
100
AcDbLine
 10
36.882311
 20
-177.09051
 30
0.0
 11
36.063864
 21
-177.09051
 31
0.0
  0
LINE
  5
383
100
AcDbEntity
  8
ALPHA
100
AcDbLine
 10
36.90501
 20
-176.99051
 30
0.0
 11
36.063864
 21
-176.99051
 31
0.0
  0
LINE
  5
384
100
AcDbEntity
  8
ALPHA
100
AcDbLine
 10
36.927709
 20
-176.89051
 30
0.0
 11
36.063864
 21
-176.89051
 31
0.0
  0
LINE
  5
385
100
AcDbEntity
  8
ALPHA
100
AcDbLine
 10
39.96634
 20
-176.765639
 30
0.0
 11
39.802519
 21
-176.765639
 31
0.0
  0
LINE
  5
386
100
AcDbEntity
  8
ALPHA
100
AcDbLine
 10
36.937101
 20
-176.49051
 30
0.0
 11
36.063864
 21
-176.49051
 31
0.0
  0
LINE
  5
387
100
AcDbEntity
  8
ALPHA
100
AcDbLine
 10
36.9394
 20
-176.39051
 30
0.0
 11
36.063864
 21
-176.39051
 31
0.0
  0
LINE
  5
388
100
AcDbEntity
  8
ALPHA
100
AcDbLine
 10
36.941698
 20
-176.29051
 30
0.0
 11
36.063864
 21
-176.29051
 31
0.0
  0
LINE
  5
389
100
AcDbEntity
  8
ALPHA
100
AcDbLine
 10
36.880252
 20
-175.89051
 30
0.0
 11
36.063864
 21
-175.89051
 31
0.0
  0
LINE
  5
38A
100
AcDbEntity
  8
ALPHA
100
AcDbLine
 10
36.862344
 20
-175.79051
 30
0.0
 11
36.063864
 21
-175.79051
 31
0.0
  0
LINE
  5
38B
100
AcDbEntity
  8
ALPHA
100
AcDbLine
 10
36.844435
 20
-175.69051
 30
0.0
 11
36.063864
 21
-175.69051
 31
0.0
  0
LINE
  5
38C
100
AcDbEntity
  8
ALPHA
100
AcDbLine
 10
39.977031
 20
-175.54051
 30
0.0
 11
39.802519
 21
-175.54051
 31
0.0
  0
LINE
  5
38D
100
AcDbEntity
  8
ALPHA
100
AcDbLine
 10
36.705381
 20
-175.29051
 30
0.0
 11
36.063864
 21
-175.29051
 31
0.0
  0
LINE
  5
38E
100
AcDbEntity
  8
ALPHA
100
AcDbLine
 10
36.665747
 20
-175.19051
 30
0.0
 11
36.063864
 21
-175.19051
 31
0.0
  0
LINE
  5
38F
100
AcDbEntity
  8
ALPHA
100
AcDbLine
 10
36.626113
 20
-175.09051
 30
0.0
 11
36.42739
 21
-175.09051
 31
0.0
  0
LINE
  5
390
100
AcDbEntity
  8
ALPHA
100
AcDbLine
 10
36.298709
 20
-175.09051
 30
0.0
 11
36.063864
 21
-175.09051
 31
0.0
  0
LINE
  5
391
100
AcDbEntity
  8
ALPHA
100
AcDbLine
 10
39.981395
 20
-175.04051
 30
0.0
 11
39.802519
 21
-175.04051
 31
0.0
  0
LINE
  5
392
100
AcDbEntity
  8
ALPHA
100
AcDbLine
 10
36.402713
 20
-174.69051
 30
0.0
 11
36.063864
 21
-174.69051
 31
0.0
  0
LINE
  5
393
100
AcDbEntity
  8
ALPHA
100
AcDbLine
 10
36.324968
 20
-174.59051
 30
0.0
 11
36.063864
 21
-174.59051
 31
0.0
  0
LINE
  5
394
100
AcDbEntity
  8
ALPHA
100
AcDbLine
 10
36.247224
 20
-174.49051
 30
0.0
 11
36.063864
 21
-174.49051
 31
0.0
  0
LINE
  5
395
100
AcDbEntity
  8
ALPHA
100
AcDbLine
 10
36.439102
 20
-174.737338
 30
0.0
 11
36.178989
 21
-174.887514
 31
0.0
  0
LINE
  5
396
100
AcDbEntity
  8
ALPHA
100
AcDbLine
 10
36.589102
 20
-174.997145
 30
0.0
 11
36.328989
 21
-175.147322
 31
0.0
  0
LINE
  5
397
100
AcDbEntity
  8
ALPHA
100
AcDbLine
 10
33.552519
 20
-179.737047
 30
0.0
 11
33.552519
 21
-179.436694
 31
0.0
  0
LINE
  5
398
100
AcDbEntity
  8
ALPHA
100
AcDbLine
 10
33.852519
 20
-179.737047
 30
0.0
 11
33.852519
 21
-179.436694
 31
0.0
  0
LINE
  5
399
100
AcDbEntity
  8
ALPHA
100
AcDbLine
 10
34.563864
 20
-179.39051
 30
0.0
 11
34.563864
 21
-179.617552
 31
0.0
  0
LINE
  5
39A
100
AcDbEntity
  8
ALPHA
100
AcDbLine
 10
36.063864
 20
-174.49051
 30
0.0
 11
36.063864
 21
-174.69051
 31
0.0
  0
LINE
  5
39B
100
AcDbEntity
  8
ALPHA
100
AcDbLine
 10
36.063864
 20
-175.69051
 30
0.0
 11
36.063864
 21
-175.89051
 31
0.0
  0
LINE
  5
39C
100
AcDbEntity
  8
ALPHA
100
AcDbLine
 10
36.063864
 20
-175.09051
 30
0.0
 11
36.063864
 21
-175.29051
 31
0.0
  0
LINE
  5
39D
100
AcDbEntity
  8
ALPHA
100
AcDbLine
 10
36.063864
 20
-176.29051
 30
0.0
 11
36.063864
 21
-176.49051
 31
0.0
  0
LINE
  5
39E
100
AcDbEntity
  8
ALPHA
100
AcDbLine
 10
36.063864
 20
-176.89051
 30
0.0
 11
36.063864
 21
-177.09051
 31
0.0
  0
LINE
  5
39F
100
AcDbEntity
  8
ALPHA
100
AcDbLine
 10
36.063864
 20
-178.09051
 30
0.0
 11
36.063864
 21
-178.29051
 31
0.0
  0
LINE
  5
3A0
100
AcDbEntity
  8
ALPHA
100
AcDbLine
 10
36.063864
 20
-177.49051
 30
0.0
 11
36.063864
 21
-177.69051
 31
0.0
  0
LINE
  5
3A1
100
AcDbEntity
  8
ALPHA
100
AcDbLine
 10
36.063864
 20
-178.69051
 30
0.0
 11
36.063864
 21
-178.711157
 31
0.0
  0
LINE
  5
3A2
100
AcDbEntity
  8
ALPHA
100
AcDbLine
 10
37.939942
 20
-180.99051
 30
0.0
 11
37.936451
 21
-181.39051
 31
0.0
  0
ARC
  5
3A3
100
AcDbEntity
  8
ALPHA
100
AcDbCircle
 10
35.063864
 20
-179.39051
 30
0.0
 40
0.5
100
AcDbArc
 50
90.0
 51
180.0
  0
ARC
  5
3A4
100
AcDbEntity
  8
ALPHA
100
AcDbCircle
 10
35.563864
 20
-179.39051
 30
0.0
 40
0.5
100
AcDbArc
 50
61.370893
 51
90.0
  0
ARC
  5
3A5
100
AcDbEntity
  8
ALPHA
100
AcDbCircle
 10
33.702519
 20
-176.49051
 30
0.0
 40
2.95
100
AcDbArc
 50
267.085398
 51
272.914602
  0
ARC
  5
3A6
100
AcDbEntity
  8
ALPHA
100
AcDbCircle
 10
33.702519
 20
-176.49051
 30
0.0
 40
2.95
100
AcDbArc
 50
27.085397
 51
32.914607
  0
LINE
  5
3A7
100
AcDbEntity
  8
ALPHA
100
AcDbLine
 10
39.063864
 20
-165.59051
 30
0.0
 11
40.163864
 21
-165.59051
 31
0.0
  0
LINE
  5
3A8
100
AcDbEntity
  8
ALPHA
100
AcDbLine
 10
38.864138
 20
-163.49051
 30
0.0
 11
38.769255
 21
-163.585393
 31
0.0
  0
LINE
  5
3A9
100
AcDbEntity
  8
ALPHA
100
AcDbLine
 10
39.063864
 20
-163.690236
 30
0.0
 11
38.968981
 21
-163.785118
 31
0.0
  0
LINE
  5
3AA
100
AcDbEntity
  8
ALPHA
100
AcDbLine
 10
38.864138
 20
-169.49051
 30
0.0
 11
38.769255
 21
-169.395627
 31
0.0
  0
LINE
  5
3AB
100
AcDbEntity
  8
ALPHA
100
AcDbLine
 10
39.063864
 20
-169.290784
 30
0.0
 11
38.968981
 21
-169.195902
 31
0.0
  0
LINE
  5
3AC
100
AcDbEntity
  8
ALPHA
100
AcDbLine
 10
36.463864
 20
-171.99051
 30
0.0
 11
36.463864
 21
-171.89051
 31
0.0
  0
LINE
  5
3AD
100
AcDbEntity
  8
ALPHA
100
AcDbLine
 10
36.642918
 20
-171.89051
 30
0.0
 11
36.641172
 21
-171.99051
 31
0.0
  0
LINE
  5
3AE
100
AcDbEntity
  8
ALPHA
100
AcDbLine
 10
38.152884
 20
-171.89051
 30
0.0
 11
38.15463
 21
-171.99051
 31
0.0
  0
LINE
  5
3AF
100
AcDbEntity
  8
ALPHA
100
AcDbLine
 10
38.769255
 20
-169.395627
 30
0.0
 11
38.769255
 21
-163.585393
 31
0.0
  0
LINE
  5
3B0
100
AcDbEntity
  8
ALPHA
100
AcDbLine
 10
38.968981
 20
-163.785118
 30
0.0
 11
38.968981
 21
-169.195902
 31
0.0
  0
LINE
  5
3B1
100
AcDbEntity
  8
ALPHA
100
AcDbLine
 10
39.063864
 20
-163.690236
 30
0.0
 11
39.063864
 21
-169.290784
 31
0.0
  0
LINE
  5
3B2
100
AcDbEntity
  8
ALPHA
100
AcDbLine
 10
38.019367
 20
-171.889345
 30
0.0
 11
38.018484
 21
-171.99051
 31
0.0
  0
ARC
  5
3B3
100
AcDbEntity
  8
ALPHA
100
AcDbCircle
 10
35.063864
 20
-171.89051
 30
0.0
 40
0.5
100
AcDbArc
 50
180.0
 51
191.597659
  0
LINE
  5
3B4
100
AcDbEntity
  8
ALPHA
100
AcDbLine
 10
40.131574
 20
-161.89051
 30
0.0
 11
32.93802
 21
-161.89051
 31
0.0
  0
LINE
  5
3B5
100
AcDbEntity
  8
ALPHA
100
AcDbLine
 10
39.131536
 20
-160.89051
 30
0.0
 11
32.93802
 21
-160.89051
 31
0.0
  0
LINE
  5
3B6
100
AcDbEntity
  8
ALPHA
100
AcDbLine
 10
32.93802
 20
-159.916687
 30
0.0
 11
39.114539
 21
-159.916687
 31
0.0
  0
LINE
  5
3B7
100
AcDbEntity
  8
ALPHA
100
AcDbLine
 10
39.004997
 20
-147.364333
 30
0.0
 11
32.609326
 21
-147.364333
 31
0.0
  0
LINE
  5
3B8
100
AcDbEntity
  8
ALPHA
100
AcDbLine
 10
19.163864
 20
-133.29051
 30
0.0
 11
52.563864
 21
-133.29051
 31
0.0
  0
LINE
  5
3B9
100
AcDbEntity
  8
ALPHA
100
AcDbLine
 10
51.563864
 20
-101.79051
 30
0.0
 11
23.563864
 21
-101.79051
 31
0.0
  0
LINE
  5
3BA
100
AcDbEntity
  8
ALPHA
100
AcDbLine
 10
50.563864
 20
-100.79051
 30
0.0
 11
24.563864
 21
-100.79051
 31
0.0
  0
CIRCLE
  5
3BB
100
AcDbEntity
  8
ALPHA
100
AcDbCircle
 10
34.063864
 20
-141.29051
 30
0.0
 40
2.0
  0
CIRCLE
  5
3BC
100
AcDbEntity
  8
ALPHA
100
AcDbCircle
 10
37.563864
 20
-114.79051
 30
0.0
 40
5.5
  0
CIRCLE
  5
3BD
100
AcDbEntity
  8
ALPHA
100
AcDbCircle
 10
37.563864
 20
-114.79051
 30
0.0
 40
6.0
  0
CIRCLE
  5
3BE
100
AcDbEntity
  8
ALPHA
100
AcDbCircle
 10
34.063864
 20
-141.29051
 30
0.0
 40
2.1
  0
ARC
  5
3BF
100
AcDbEntity
  8
ALPHA
100
AcDbCircle
 10
34.063864
 20
-141.29051
 30
0.0
 40
5.75
100
AcDbArc
 50
0.0
 51
180.0
  0
ARC
  5
3C0
100
AcDbEntity
  8
ALPHA
100
AcDbCircle
 10
34.063864
 20
-141.29051
 30
0.0
 40
4.249999
100
AcDbArc
 50
295.797187
 51
244.202801
  0
LINE
  5
3C1
100
AcDbEntity
  8
ALPHA
100
AcDbLine
 10
-32.436136
 20
-102.79051
 30
0.0
 11
-32.436136
 21
-133.29051
 31
0.0
  0
LINE
  5
3C2
100
AcDbEntity
  8
ALPHA
100
AcDbLine
 10
-2.436136
 20
-133.29051
 30
0.0
 11
-2.436136
 21
-102.79051
 31
0.0
  0
LINE
  5
3C3
100
AcDbEntity
  8
ALPHA
100
AcDbLine
 10
22.563864
 20
-133.29051
 30
0.0
 11
22.563864
 21
-102.79051
 31
0.0
  0
LINE
  5
3C4
100
AcDbEntity
  8
ALPHA
100
AcDbLine
 10
2.563863
 20
-137.19051
 30
0.0
 11
-2.536136
 21
-137.19051
 31
0.0
  0
ARC
  5
3C5
100
AcDbEntity
  8
ALPHA
100
AcDbCircle
 10
2.563864
 20
-142.29051
 30
0.0
 40
5.1
100
AcDbArc
 50
0.0
 51
180.0
  0
LINE
  5
3C6
100
AcDbEntity
  8
ALPHA
100
AcDbLine
 10
-32.311701
 20
-145.09051
 30
0.0
 11
-32.336136
 21
-142.29051
 31
0.0
  0
LINE
  5
3C7
100
AcDbEntity
  8
ALPHA
100
AcDbLine
 10
-23.186136
 20
-141.29051
 30
0.0
 11
-23.186136
 21
-145.09051
 31
0.0
  0
LINE
  5
3C8
100
AcDbEntity
  8
ALPHA
100
AcDbLine
 10
-11.686136
 20
-145.09051
 30
0.0
 11
-11.686136
 21
-141.29051
 31
0.0
  0
LINE
  5
3C9
100
AcDbEntity
  8
ALPHA
100
AcDbLine
 10
-2.536136
 20
-142.29051
 30
0.0
 11
-2.560572
 21
-145.09051
 31
0.0
  0
ARC
  5
3CA
100
AcDbEntity
  8
ALPHA
100
AcDbCircle
 10
-17.436136
 20
-141.29051
 30
0.0
 40
4.249999
100
AcDbArc
 50
295.797187
 51
244.202801
  0
LINE
  5
3CB
100
AcDbEntity
  8
ALPHA
100
AcDbLine
 10
-5.236136
 20
-148.19051
 30
0.0
 11
-5.236136
 21
-162.99051
 31
0.0
  0
LINE
  5
3CC
100
AcDbEntity
  8
ALPHA
100
AcDbLine
 10
-4.636136
 20
-157.882418
 30
0.0
 11
-4.636136
 21
-147.39051
 31
0.0
  0
LINE
  5
3CD
100
AcDbEntity
  8
ALPHA
100
AcDbLine
 10
-4.66668
 20
-162.99051
 30
0.0
 11
-4.636136
 21
-157.882418
 31
0.0
  0
LINE
  5
3CE
100
AcDbEntity
  8
ALPHA
100
AcDbLine
 10
-32.436136
 20
-133.29051
 30
0.0
 11
-2.436136
 21
-133.29051
 31
0.0
  0
CIRCLE
  5
3CF
100
AcDbEntity
  8
ALPHA
100
AcDbCircle
 10
-17.436136
 20
-141.29051
 30
0.0
 40
2.0
  0
CIRCLE
  5
3D0
100
AcDbEntity
  8
ALPHA
100
AcDbCircle
 10
-17.436136
 20
-141.29051
 30
0.0
 40
2.1
  0
ARC
  5
3D1
100
AcDbEntity
  8
ALPHA
100
AcDbCircle
 10
-17.436136
 20
-141.29051
 30
0.0
 40
5.75
100
AcDbArc
 50
0.0
 51
180.0
  0
LINE
  5
3D2
100
AcDbEntity
  8
ALPHA
100
AcDbLine
 10
-32.336136
 20
-133.29051
 30
0.0
 11
-32.336136
 21
-137.19051
 31
0.0
  0
LINE
  5
3D3
100
AcDbEntity
  8
ALPHA
100
AcDbLine
 10
-2.536136
 20
-133.29051
 30
0.0
 11
-2.536136
 21
-137.19051
 31
0.0
  0
LINE
  5
3D4
100
AcDbEntity
  8
ALPHA
100
AcDbLine
 10
3.553391
 20
-145.09051
 30
0.0
 11
3.508309
 21
-139.924619
 31
0.0
  0
LINE
  5
3D5
100
AcDbEntity
  8
ALPHA
100
AcDbLine
 10
0.574374
 20
-145.09051
 30
0.0
 11
0.638612
 21
-137.729596
 31
0.0
  0
LINE
  5
3D6
100
AcDbEntity
  8
ALPHA
100
AcDbLine
 10
1.574336
 20
-145.09051
 30
0.0
 11
1.619418
 21
-139.924619
 31
0.0
  0
LINE
  5
3D7
100
AcDbEntity
  8
ALPHA
100
AcDbLine
 10
4.553353
 20
-145.09051
 30
0.0
 11
4.489116
 21
-137.729596
 31
0.0
  0
LINE
  5
3D8
100
AcDbEntity
  8
ALPHA
100
AcDbLine
 10
7.688299
 20
-145.09051
 30
0.0
 11
7.663864
 21
-142.29051
 31
0.0
  0
LINE
  5
3D9
100
AcDbEntity
  8
ALPHA
100
AcDbLine
 10
19.163864
 20
-133.29051
 30
0.0
 11
19.163864
 21
-145.09051
 31
0.0
  0
LINE
  5
3DA
100
AcDbEntity
  8
ALPHA
100
AcDbLine
 10
28.313864
 20
-141.29051
 30
0.0
 11
28.313864
 21
-145.09051
 31
0.0
  0
LINE
  5
3DB
100
AcDbEntity
  8
ALPHA
100
AcDbLine
 10
14.708514
 20
-161.19051
 30
0.0
 11
19.733269
 21
-161.19051
 31
0.0
  0
LINE
  5
3DC
100
AcDbEntity
  8
ALPHA
100
AcDbLine
 10
19.51776
 20
-161.14051
 30
0.0
 11
10.209968
 21
-161.14051
 31
0.0
  0
LINE
  5
3DD
100
AcDbEntity
  8
ALPHA
100
AcDbLine
 10
24.428014
 20
-154.79051
 30
0.0
 11
2.128014
 21
-154.79051
 31
0.0
  0
LINE
  5
3DE
100
AcDbEntity
  8
ALPHA
100
AcDbLine
 10
2.128014
 20
-146.79051
 30
0.0
 11
24.428014
 21
-146.79051
 31
0.0
  0
LINE
  5
3DF
100
AcDbEntity
  8
ALPHA
100
AcDbLine
 10
2.128014
 20
-154.79051
 30
0.0
 11
2.128014
 21
-146.79051
 31
0.0
  0
LINE
  5
3E0
100
AcDbEntity
  8
ALPHA
100
AcDbLine
 10
13.154173
 20
-157.19051
 30
0.0
 11
12.689956
 21
-157.491753
 31
0.0
  0
LINE
  5
3E1
100
AcDbEntity
  8
ALPHA
100
AcDbLine
 10
10.194458
 20
-161.19051
 30
0.0
 11
12.219213
 21
-161.19051
 31
0.0
  0
LINE
  5
3E2
100
AcDbEntity
  8
ALPHA
100
AcDbLine
 10
13.392719
 20
-161.09051
 30
0.0
 11
13.419699
 21
-161.09051
 31
0.0
  0
LINE
  5
3E3
100
AcDbEntity
  8
ALPHA
100
AcDbLine
 10
14.680991
 20
-160.74051
 30
0.0
 11
14.566205
 21
-160.74051
 31
0.0
  0
LINE
  5
3E4
100
AcDbEntity
  8
ALPHA
100
AcDbLine
 10
13.300895
 20
-160.39051
 30
0.0
 11
13.622278
 21
-160.39051
 31
0.0
  0
LINE
  5
3E5
100
AcDbEntity
  8
ALPHA
100
AcDbLine
 10
13.300895
 20
-160.09051
 30
0.0
 11
13.622278
 21
-160.09051
 31
0.0
  0
LINE
  5
3E6
100
AcDbEntity
  8
ALPHA
100
AcDbLine
 10
14.619828
 20
-159.74051
 30
0.0
 11
14.566205
 21
-159.74051
 31
0.0
  0
LINE
  5
3E7
100
AcDbEntity
  8
ALPHA
100
AcDbLine
 10
13.392719
 20
-159.39051
 30
0.0
 11
13.419699
 21
-159.39051
 31
0.0
  0
LINE
  5
3E8
100
AcDbEntity
  8
ALPHA
100
AcDbLine
 10
13.425627
 20
-159.24051
 30
0.0
 11
13.622278
 21
-159.24051
 31
0.0
  0
LINE
  5
3E9
100
AcDbEntity
  8
ALPHA
100
AcDbLine
 10
13.587844
 20
-158.84051
 30
0.0
 11
13.389166
 21
-158.84051
 31
0.0
  0
LINE
  5
3EA
100
AcDbEntity
  8
ALPHA
100
AcDbLine
 10
12.650846
 20
-158.19051
 30
0.0
 11
13.687081
 21
-158.19051
 31
0.0
  0
LINE
  5
3EB
100
AcDbEntity
  8
ALPHA
100
AcDbLine
 10
13.687081
 20
-157.69051
 30
0.0
 11
12.650846
 21
-157.69051
 31
0.0
  0
LINE
  5
3EC
100
AcDbEntity
  8
ALPHA
100
AcDbLine
 10
12.463864
 20
-157.19051
 30
0.0
 11
14.463864
 21
-157.19051
 31
0.0
  0
LINE
  5
3ED
100
AcDbEntity
  8
ALPHA
100
AcDbLine
 10
13.381493
 20
-158.838024
 30
0.0
 11
13.389166
 21
-158.84051
 31
0.0
  0
LINE
  5
3EE
100
AcDbEntity
  8
ALPHA
100
AcDbLine
 10
12.367012
 20
-161.14051
 30
0.0
 11
12.864174
 21
-158.502322
 31
0.0
  0
LINE
  5
3EF
100
AcDbEntity
  8
ALPHA
100
AcDbLine
 10
12.922935
 20
-158.19051
 30
0.0
 11
13.017159
 21
-157.69051
 31
0.0
  0
LINE
  5
3F0
100
AcDbEntity
  8
ALPHA
100
AcDbLine
 10
13.105421
 20
-157.222147
 30
0.0
 11
13.111383
 21
-157.19051
 31
0.0
  0
LINE
  5
3F1
100
AcDbEntity
  8
ALPHA
100
AcDbLine
 10
13.381493
 20
-158.838024
 30
0.0
 11
12.689956
 21
-158.389267
 31
0.0
  0
LINE
  5
3F2
100
AcDbEntity
  8
ALPHA
100
AcDbLine
 10
14.463864
 20
-157.19051
 30
0.0
 11
14.708514
 21
-161.19051
 31
0.0
  0
LINE
  5
3F3
100
AcDbEntity
  8
ALPHA
100
AcDbLine
 10
13.421675
 20
-161.14051
 30
0.0
 11
13.419699
 21
-161.09051
 31
0.0
  0
LINE
  5
3F4
100
AcDbEntity
  8
ALPHA
100
AcDbLine
 10
13.232027
 20
-161.14051
 30
0.0
 11
13.232027
 21
-158.741031
 31
0.0
  0
LINE
  5
3F5
100
AcDbEntity
  8
ALPHA
100
AcDbLine
 10
13.232027
 20
-158.19051
 30
0.0
 11
13.232027
 21
-157.74051
 31
0.0
  0
LINE
  5
3F6
100
AcDbEntity
  8
ALPHA
100
AcDbLine
 10
13.300895
 20
-160.09051
 30
0.0
 11
13.300895
 21
-160.39051
 31
0.0
  0
LINE
  5
3F7
100
AcDbEntity
  8
ALPHA
100
AcDbLine
 10
13.622278
 20
-159.24051
 30
0.0
 11
13.622278
 21
-161.14051
 31
0.0
  0
LINE
  5
3F8
100
AcDbEntity
  8
ALPHA
100
AcDbLine
 10
13.771492
 20
-157.19051
 30
0.0
 11
13.771492
 21
-161.14051
 31
0.0
  0
LINE
  5
3F9
100
AcDbEntity
  8
ALPHA
100
AcDbLine
 10
14.566205
 20
-158.863771
 30
0.0
 11
14.566205
 21
-161.14051
 31
0.0
  0
LINE
  5
3FA
100
AcDbEntity
  8
ALPHA
100
AcDbLine
 10
14.6307
 20
-160.74051
 30
0.0
 11
14.6307
 21
-159.91826
 31
0.0
  0
LINE
  5
3FB
100
AcDbEntity
  8
ALPHA
100
AcDbLine
 10
13.419699
 20
-159.39051
 30
0.0
 11
13.425627
 21
-159.24051
 31
0.0
  0
LINE
  5
3FC
100
AcDbEntity
  8
ALPHA
100
AcDbLine
 10
12.219213
 20
-161.19051
 30
0.0
 11
12.463864
 21
-157.19051
 31
0.0
  0
LINE
  5
3FD
100
AcDbEntity
  8
ALPHA
100
AcDbLine
 10
13.232027
 20
-157.74051
 30
0.0
 11
13.226288
 21
-157.69051
 31
0.0
  0
LINE
  5
3FE
100
AcDbEntity
  8
ALPHA
100
AcDbLine
 10
6.813864
 20
-146.39051
 30
0.0
 11
6.813864
 21
-146.79051
 31
0.0
  0
LINE
  5
3FF
100
AcDbEntity
  8
ALPHA
100
AcDbLine
 10
24.428014
 20
-146.79051
 30
0.0
 11
24.428014
 21
-154.79051
 31
0.0
  0
LINE
  5
400
100
AcDbEntity
  8
ALPHA
100
AcDbLine
 10
30.610011
 20
-147.39051
 30
0.0
 11
30.938706
 21
-159.942864
 31
0.0
  0
LINE
  5
401
100
AcDbEntity
  8
ALPHA
100
AcDbLine
 10
31.609668
 20
-147.364333
 30
0.0
 11
31.938363
 21
-159.916687
 31
0.0
  0
LINE
  5
402
100
AcDbEntity
  8
ALPHA
100
AcDbLine
 10
32.609326
 20
-147.364333
 30
0.0
 11
32.93802
 21
-159.916687
 31
0.0
  0
LINE
  5
403
100
AcDbEntity
  8
ALPHA
100
AcDbLine
 10
30.938706
 20
-159.942864
 30
0.0
 11
31.938363
 21
-159.916687
 31
0.0
  0
LINE
  5
404
100
AcDbEntity
  8
ALPHA
100
AcDbLine
 10
32.93802
 20
-159.916687
 30
0.0
 11
32.93802
 21
-161.89051
 31
0.0
  0
ARC
  5
405
100
AcDbEntity
  8
ALPHA
100
AcDbCircle
 10
32.93802
 20
-159.89051
 30
0.0
 40
1.0
100
AcDbArc
 50
181.500003
 51
270.0
  0
ARC
  5
406
100
AcDbEntity
  8
ALPHA
100
AcDbCircle
 10
32.93802
 20
-159.89051
 30
0.0
 40
1.999999
100
AcDbArc
 50
181.500003
 51
270.0
  0
LINE
  5
407
100
AcDbEntity
  8
ALPHA
100
AcDbLine
 10
24.428014
 20
-147.39051
 30
0.0
 11
30.610011
 21
-147.39051
 31
0.0
  0
LINE
  5
408
100
AcDbEntity
  8
ALPHA
100
AcDbLine
 10
20.113864
 20
-146.39051
 30
0.0
 11
20.113864
 21
-146.79051
 31
0.0
  0
LINE
  5
409
100
AcDbEntity
  8
ALPHA
100
AcDbLine
 10
31.609668
 20
-147.364333
 30
0.0
 11
30.610011
 21
-147.39051
 31
0.0
  0
LINE
  5
40A
100
AcDbEntity
  8
ALPHA
100
AcDbLine
 10
30.610011
 20
-147.39051
 30
0.0
 11
30.610011
 21
-146.39051
 31
0.0
  0
LINE
  5
40B
100
AcDbEntity
  8
ALPHA
100
AcDbLine
 10
32.609326
 20
-147.364333
 30
0.0
 11
32.609326
 21
-146.39051
 31
0.0
  0
ARC
  5
40C
100
AcDbEntity
  8
ALPHA
100
AcDbCircle
 10
30.610011
 20
-147.39051
 30
0.0
 40
1.0
100
AcDbArc
 50
1.500003
 51
90.0
  0
LINE
  5
40D
100
AcDbEntity
  8
ALPHA
100
AcDbLine
 10
4.489116
 20
-137.729596
 30
0.0
 11
0.638612
 21
-137.729596
 31
0.0
  0
CIRCLE
  5
40E
100
AcDbEntity
  8
ALPHA
100
AcDbCircle
 10
-17.436136
 20
-114.79051
 30
0.0
 40
5.5
  0
CIRCLE
  5
40F
100
AcDbEntity
  8
ALPHA
100
AcDbCircle
 10
-17.436136
 20
-114.79051
 30
0.0
 40
6.0
  0
LINE
  5
410
100
AcDbEntity
  8
ALPHA
100
AcDbLine
 10
-31.436136
 20
-101.79051
 30
0.0
 11
-3.436136
 21
-101.79051
 31
0.0
  0
LINE
  5
411
100
AcDbEntity
  8
ALPHA
100
AcDbLine
 10
-30.436136
 20
-100.79051
 30
0.0
 11
-4.436136
 21
-100.79051
 31
0.0
  0
LINE
  5
412
100
AcDbEntity
  8
ALPHA
100
AcDbLine
 10
-32.436136
 20
-102.79051
 30
0.0
 11
-30.436136
 21
-100.79051
 31
0.0
  0
LINE
  5
413
100
AcDbEntity
  8
ALPHA
100
AcDbLine
 10
-4.436136
 20
-100.79051
 30
0.0
 11
-2.436136
 21
-102.79051
 31
0.0
  0
LINE
  5
414
100
AcDbEntity
  8
ALPHA
100
AcDbLine
 10
24.563864
 20
-100.79051
 30
0.0
 11
22.563864
 21
-102.79051
 31
0.0
  0
LINE
  5
415
100
AcDbEntity
  8
ALPHA
100
AcDbLine
 10
52.563864
 20
-102.79051
 30
0.0
 11
52.563864
 21
-133.29051
 31
0.0
  0
LINE
  5
416
100
AcDbEntity
  8
ALPHA
100
AcDbLine
 10
39.813864
 20
-145.526314
 30
0.0
 11
39.813864
 21
-141.29051
 31
0.0
  0
LINE
  5
417
100
AcDbEntity
  8
ALPHA
100
AcDbLine
 10
48.963864
 20
-133.29051
 30
0.0
 11
48.963864
 21
-146.29051
 31
0.0
  0
LINE
  5
418
100
AcDbEntity
  8
ALPHA
100
AcDbLine
 10
55.063864
 20
-145.29051
 30
0.0
 11
55.063864
 21
-130.89051
 31
0.0
  0
LINE
  5
419
100
AcDbEntity
  8
ALPHA
100
AcDbLine
 10
58.211397
 20
-148.29051
 30
0.0
 11
58.211397
 21
-131.89051
 31
0.0
  0
LINE
  5
41A
100
AcDbEntity
  8
ALPHA
100
AcDbLine
 10
57.026412
 20
-146.29051
 30
0.0
 11
57.160805
 21
-130.89051
 31
0.0
  0
LINE
  5
41B
100
AcDbEntity
  8
ALPHA
100
AcDbLine
 10
58.023817
 20
-147.29051
 30
0.0
 11
58.158211
 21
-131.89051
 31
0.0
  0
LINE
  5
41C
100
AcDbEntity
  8
ALPHA
100
AcDbLine
 10
39.995435
 20
-146.29051
 30
0.0
 11
56.572552
 21
-146.29051
 31
0.0
  0
LINE
  5
41D
100
AcDbEntity
  8
ALPHA
100
AcDbLine
 10
48.963864
 20
-145.29051
 30
0.0
 11
55.063864
 21
-145.29051
 31
0.0
  0
LINE
  5
41E
100
AcDbEntity
  8
ALPHA
100
AcDbLine
 10
39.004997
 20
-147.364333
 30
0.0
 11
39.114539
 21
-159.916687
 31
0.0
  0
LINE
  5
41F
100
AcDbEntity
  8
ALPHA
100
AcDbLine
 10
39.131536
 20
-160.89051
 30
0.0
 11
39.114539
 21
-159.916687
 31
0.0
  0
ARC
  5
420
100
AcDbEntity
  8
ALPHA
100
AcDbCircle
 10
39.131536
 20
-161.89051
 30
0.0
 40
1.0
100
AcDbArc
 50
0.500027
 51
90.0
  0
LINE
  5
421
100
AcDbEntity
  8
ALPHA
100
AcDbLine
 10
39.004997
 20
-147.364333
 30
0.0
 11
39.004997
 21
-146.39051
 31
0.0
  0
ARC
  5
422
100
AcDbEntity
  8
ALPHA
100
AcDbCircle
 10
38.993652
 20
-146.09051
 30
0.0
 40
1.0
100
AcDbArc
 50
0.500027
 51
90.0
  0
ARC
  5
423
100
AcDbEntity
  8
ALPHA
100
AcDbCircle
 10
39.004997
 20
-147.39051
 30
0.0
 40
0.999999
100
AcDbArc
 50
0.500027
 51
90.0
  0
LINE
  5
424
100
AcDbEntity
  8
ALPHA
100
AcDbLine
 10
58.193943
 20
-148.29051
 30
0.0
 11
58.211397
 21
-148.29051
 31
0.0
  0
LINE
  5
425
100
AcDbEntity
  8
ALPHA
100
AcDbLine
 10
58.023817
 20
-147.29051
 30
0.0
 11
57.572514
 21
-147.29051
 31
0.0
  0
ARC
  5
426
100
AcDbEntity
  8
ALPHA
100
AcDbCircle
 10
48.563864
 20
-136.89051
 30
0.0
 40
2.749999
100
AcDbArc
 50
278.367478
 51
81.632522
  0
LINE
  5
427
100
AcDbEntity
  8
ALPHA
100
AcDbLine
 10
58.211397
 20
-131.89051
 30
0.0
 11
58.158211
 21
-131.89051
 31
0.0
  0
LINE
  5
428
100
AcDbEntity
  8
ALPHA
100
AcDbLine
 10
52.563864
 20
-130.89051
 30
0.0
 11
57.154634
 21
-130.89051
 31
0.0
  0
LINE
  5
429
100
AcDbEntity
  8
ALPHA
100
AcDbLine
 10
52.563864
 20
-102.79051
 30
0.0
 11
50.563864
 21
-100.79051
 31
0.0
  0
LWPOLYLINE
  5
42A
100
AcDbEntity
  8
ALPHA
100
AcDbPolyline
 90
        8
 70
     0
 43
0.0
 38
64.15
 10
-50.507744
 20
-163.050178
 10
-50.556415
 20
-163.089073
 10
-50.656781
 20
-163.180615
 10
-50.810746
 20
-163.327191
 10
-51.020607
 20
-163.531515
 10
-51.286131
 20
-163.793946
 10
-51.601719
 20
-164.109607
 10
-51.96047
 20
-164.472449
  0
LWPOLYLINE
  5
42B
100
AcDbEntity
  8
ALPHA
100
AcDbPolyline
 90
        5
 70
     0
 43
0.0
 38
64.15
 10
-93.08367
 20
-211.89051
 10
-93.007549
 20
-212.273187
 10
-92.790773
 20
-212.597609
 10
-92.466337
 20
-212.814387
 10
-92.083632
 20
-212.89051
  0
LWPOLYLINE
  5
42C
100
AcDbEntity
  8
ALPHA
100
AcDbPolyline
 90
        6
 70
     0
 43
0.0
 38
64.15
 10
-93.030484
 20
-211.89051
 10
-92.976093
 20
-212.212419
 10
-92.824339
 20
-212.495761
 10
-92.59694
 20
-212.712563
 10
-92.322897
 20
-212.845748
 10
-92.033078
 20
-212.89051
  0
LWPOLYLINE
  5
42D
100
AcDbEntity
  8
ALPHA
100
AcDbPolyline
 90
        4
 70
     0
 43
0.0
 38
64.15
 10
-65.421853
 20
-183.481148
 10
-67.189047
 20
-183.496378
 10
-70.348941
 20
-183.523344
 10
-73.50266
 20
-183.549917
  0
LWPOLYLINE
  5
42E
100
AcDbEntity
  8
ALPHA
100
AcDbPolyline
 90
        3
 70
     0
 43
0.0
 38
64.15
 10
-64.66665
 20
-182.085618
 10
-68.497783
 20
-182.11862
 10
-72.321246
 20
-182.15106
  0
LWPOLYLINE
  5
42F
100
AcDbEntity
  8
ALPHA
100
AcDbPolyline
 90
        3
 70
     0
 43
0.0
 38
64.15
 10
-73.637635
 20
-163.246167
 10
-71.771689
 20
-163.230488
 10
-68.100221
 20
-163.199286
  0
LWPOLYLINE
  5
430
100
AcDbEntity
  8
ALPHA
100
AcDbPolyline
 90
        6
 70
     0
 43
0.0
 38
64.15
 10
-92.671686
 20
-196.49051
 10
-92.611622
 20
-196.82375
 10
-92.4578
 20
-197.101756
 10
-92.232218
 20
-197.313745
 10
-91.95842
 20
-197.445993
 10
-91.671724
 20
-197.49051
  0
LWPOLYLINE
  5
431
100
AcDbEntity
  8
ALPHA
100
AcDbPolyline
 90
        6
 70
     0
 43
0.0
 38
64.15
 10
-91.892514
 20
-197.49051
 10
-92.187165
 20
-197.446161
 10
-92.461912
 20
-197.313001
 10
-92.689598
 20
-197.096215
 10
-92.841657
 20
-196.812542
 10
-92.89609
 20
-196.49051
  0
LWPOLYLINE
  5
432
100
AcDbEntity
  8
ALPHA
100
AcDbPolyline
 90
        6
 70
     0
 43
0.0
 38
64.15
 10
-92.671686
 20
-190.09051
 10
-92.611057
 20
-190.425305
 10
-92.455757
 20
-190.704364
 10
-92.227937
 20
-190.916664
 10
-91.952191
 20
-191.04789
 10
-91.662997
 20
-191.09051
  0
LWPOLYLINE
  5
433
100
AcDbEntity
  8
ALPHA
100
AcDbPolyline
 90
        6
 70
     0
 43
0.0
 38
64.15
 10
-92.444787
 20
-190.09051
 10
-92.384723
 20
-190.42375
 10
-92.230902
 20
-190.701756
 10
-92.00532
 20
-190.913745
 10
-91.731522
 20
-191.045993
 10
-91.444825
 20
-191.09051
  0
LWPOLYLINE
  5
434
100
AcDbEntity
  8
ALPHA
100
AcDbPolyline
 90
        5
 70
     0
 43
0.0
 38
64.15
 10
-73.934587
 20
-182.39051
 10
-73.923542
 20
-182.773193
 10
-73.892088
 20
-183.097617
 10
-73.845014
 20
-183.31439
 10
-73.789487
 20
-183.39051
  0
LWPOLYLINE
  5
435
100
AcDbEntity
  8
ALPHA
100
AcDbPolyline
 90
        5
 70
     0
 43
0.0
 38
64.15
 10
-74.785365
 20
-182.867148
 10
-74.734779
 20
-183.102458
 10
-74.592044
 20
-183.314081
 10
-74.371014
 20
-183.481477
 10
-74.093144
 20
-183.588398
  0
LWPOLYLINE
  5
436
100
AcDbEntity
  8
ALPHA
100
AcDbPolyline
 90
        7
 70
     0
 43
0.0
 38
64.15
 10
-73.508644
 20
-183.514568
 10
-73.458147
 20
-183.427613
 10
-73.352018
 20
-183.285442
 10
-73.185948
 20
-183.085141
 10
-72.9573
 20
-182.826079
 10
-72.66806
 20
-182.512814
 10
-72.321246
 20
-182.15106
  0
LWPOLYLINE
  5
437
100
AcDbEntity
  8
ALPHA
100
AcDbPolyline
 90
        4
 70
     0
 43
0.0
 38
64.15
 10
-73.507812
 20
-183.54892
 10
-73.505739
 20
-183.549571
 10
-73.503668
 20
-183.549885
 10
-73.50266
 20
-183.549917
  0
LWPOLYLINE
  5
438
100
AcDbEntity
  8
ALPHA
100
AcDbPolyline
 90
        8
 70
     0
 43
0.0
 38
64.15
 10
-73.707213
 20
-163.266649
 10
-73.701114
 20
-163.291961
 10
-73.64892
 20
-163.382165
 10
-73.540048
 20
-163.526437
 10
-73.370149
 20
-163.727432
 10
-73.13659
 20
-163.985488
 10
-72.841436
 20
-164.295795
 10
-72.487792
 20
-164.652392
  0
LWPOLYLINE
  5
439
100
AcDbEntity
  8
ALPHA
100
AcDbPolyline
 90
        4
 70
     0
 43
0.0
 38
64.15
 10
-73.694794
 20
-163.25141
 10
-73.696859
 20
-163.251767
 10
-73.69892
 20
-163.252461
 10
-73.700977
 20
-163.25349
  0
LWPOLYLINE
  5
43A
100
AcDbEntity
  8
ALPHA
100
AcDbPolyline
 90
        7
 70
     0
 43
0.0
 38
64.15
 10
-51.793924
 20
-181.971116
 10
-51.428324
 20
-182.32663
 10
-51.106776
 20
-182.634542
 10
-50.836323
 20
-182.889221
 10
-50.62265
 20
-183.086193
 10
-50.465982
 20
-183.226057
 10
-50.363939
 20
-183.311681
  0
LWPOLYLINE
  5
43B
100
AcDbEntity
  8
ALPHA
100
AcDbPolyline
 90
        3
 70
     0
 43
0.0
 38
64.15
 10
-59.488497
 20
-182.041216
 10
-62.779764
 20
-182.070403
 10
-64.180829
 20
-182.082472
  0
LWPOLYLINE
  5
43C
100
AcDbEntity
  8
ALPHA
100
AcDbPolyline
 90
        3
 70
     0
 43
0.0
 38
64.15
 10
-50.31457
 20
-183.346651
 10
-53.489006
 20
-183.375549
 10
-56.666588
 20
-183.404138
  0
LWPOLYLINE
  5
43D
100
AcDbEntity
  8
ALPHA
100
AcDbPolyline
 90
        8
 70
     0
 43
0.0
 38
64.15
 10
-58.431376
 20
-185.119872
 10
-58.482677
 20
-185.093549
 10
-58.588816
 20
-185.013247
 10
-58.751358
 20
-184.876364
 10
-58.972702
 20
-184.679653
 10
-59.252444
 20
-184.422109
 10
-59.583982
 20
-184.108357
 10
-59.959063
 20
-183.744401
  0
LWPOLYLINE
  5
43E
100
AcDbEntity
  8
ALPHA
100
AcDbPolyline
 90
        8
 70
     0
 43
0.0
 38
64.15
 10
-58.447555
 20
-183.420001
 10
-58.498855
 20
-183.393679
 10
-58.604984
 20
-183.313385
 10
-58.76753
 20
-183.1765
 10
-58.988874
 20
-182.979788
 10
-59.268628
 20
-182.722234
 10
-59.600167
 20
-182.40848
 10
-59.975242
 20
-182.044531
  0
LWPOLYLINE
  5
43F
100
AcDbEntity
  8
ALPHA
100
AcDbPolyline
 90
        4
 70
     0
 43
0.0
 38
64.15
 10
-58.430925
 20
-185.119879
 10
-60.755591
 20
-185.14044
 10
-63.078418
 20
-185.160802
 10
-65.398687
 20
-185.180959
  0
LWPOLYLINE
  5
440
100
AcDbEntity
  8
ALPHA
100
AcDbPolyline
 90
        8
 70
     0
 43
0.0
 38
64.15
 10
-65.421902
 20
-183.474642
 10
-65.415565
 20
-183.454311
 10
-65.36187
 20
-183.372607
 10
-65.250475
 20
-183.233324
 10
-65.077032
 20
-183.033152
 10
-64.838952
 20
-182.771069
 10
-64.538891
 20
-182.451779
 10
-64.180839
 20
-182.081397
  0
LWPOLYLINE
  5
441
100
AcDbEntity
  8
ALPHA
100
AcDbPolyline
 90
        7
 70
     0
 43
0.0
 38
64.15
 10
-65.399386
 20
-185.154182
 10
-65.345697
 20
-185.072486
 10
-65.234301
 20
-184.933201
 10
-65.060858
 20
-184.733028
 10
-64.822768
 20
-184.470934
 10
-64.522707
 20
-184.151644
 10
-64.16466
 20
-183.781268
  0
LWPOLYLINE
  5
442
100
AcDbEntity
  8
ALPHA
100
AcDbPolyline
 90
        6
 70
     0
 43
0.0
 38
64.15
 10
-36.506603
 20
-199.165187
 10
-36.455325
 20
-199.277191
 10
-36.30777
 20
-199.376144
 10
-36.084113
 20
-199.452412
 10
-35.809644
 20
-199.500066
 10
-35.509705
 20
-199.516246
  0
LWPOLYLINE
  5
443
100
AcDbEntity
  8
ALPHA
100
AcDbPolyline
 90
        5
 70
     0
 43
0.0
 38
64.15
 10
-35.444825
 20
-192.081783
 10
-35.827476
 20
-192.079109
 10
-36.151878
 20
-192.078169
 10
-36.368648
 20
-192.079109
 10
-36.444787
 20
-192.081783
  0
LWPOLYLINE
  5
444
100
AcDbEntity
  8
ALPHA
100
AcDbPolyline
 90
        5
 70
     0
 43
0.0
 38
64.15
 10
-38.427486
 20
-192.081783
 10
-38.503625
 20
-192.079109
 10
-38.720395
 20
-192.078169
 10
-39.044796
 20
-192.079109
 10
-39.427448
 20
-192.081783
  0
LWPOLYLINE
  5
445
100
AcDbEntity
  8
ALPHA
100
AcDbPolyline
 90
        6
 70
     0
 43
0.0
 38
64.15
 10
-38.36567
 20
-199.165187
 10
-38.416948
 20
-199.277191
 10
-38.564503
 20
-199.376144
 10
-38.78816
 20
-199.452412
 10
-39.062629
 20
-199.500066
 10
-39.362568
 20
-199.516246
  0
LWPOLYLINE
  5
446
100
AcDbEntity
  8
ALPHA
100
AcDbPolyline
 90
        4
 70
     0
 43
0.0
 38
64.15
 10
-50.31458
 20
-183.345607
 10
-50.312506
 20
-183.346258
 10
-50.310436
 20
-183.346572
 10
-50.309417
 20
-183.346604
  0
LWPOLYLINE
  5
447
100
AcDbEntity
  8
ALPHA
100
AcDbPolyline
 90
        5
 70
     0
 43
0.0
 38
64.15
 10
-63.111875
 20
-180.129524
 10
-63.11385
 20
-179.937014
 10
-63.122833
 20
-179.769673
 10
-63.13732
 20
-179.659467
 10
-63.155052
 20
-179.621136
  0
LWPOLYLINE
  5
448
100
AcDbEntity
  8
ALPHA
100
AcDbPolyline
 90
        5
 70
     0
 43
0.0
 38
64.15
 10
-63.296761
 20
-180.129524
 10
-63.291444
 20
-179.937032
 10
-63.279553
 20
-179.769682
 10
-63.26315
 20
-179.659469
 10
-63.245686
 20
-179.621335
  0
LWPOLYLINE
  5
449
100
AcDbEntity
  8
ALPHA
100
AcDbPolyline
 90
        8
 70
     0
 43
0.0
 38
64.15
 10
-68.100096
 20
-163.214609
 10
-68.093555
 20
-163.237916
 10
-68.039224
 20
-163.324536
 10
-67.926753
 20
-163.46681
 10
-67.75176
 20
-163.667667
 10
-67.51164
 20
-163.927702
 10
-67.208903
 20
-164.24201
 10
-66.847314
 20
-164.604362
  0
LWPOLYLINE
  5
44A
100
AcDbEntity
  8
ALPHA
100
AcDbPolyline
 90
        8
 70
     0
 43
0.0
 38
64.15
 10
-56.148817
 20
-163.099875
 10
-56.198923
 20
-163.133647
 10
-56.302191
 20
-163.221649
 10
-56.460253
 20
-163.366294
 10
-56.675423
 20
-163.570572
 10
-56.947332
 20
-163.835095
 10
-57.269783
 20
-164.154883
 10
-57.635053
 20
-164.523607
  0
LWPOLYLINE
  5
44B
100
AcDbEntity
  8
ALPHA
100
AcDbPolyline
 90
        9
 70
     0
 43
0.0
 38
64.15
 10
-50.352289
 20
-172.720997
 10
-49.650747
 20
-173.011666
 10
-48.785356
 20
-173.125988
 10
-47.919961
 20
-173.011843
 10
-47.119814
 20
-172.680517
 10
-46.424577
 20
-172.146992
 10
-45.898486
 20
-171.461519
 10
-45.563059
 20
-170.652519
 10
-45.449755
 20
-169.79051
  0
LWPOLYLINE
  5
44C
100
AcDbEntity
  8
ALPHA
100
AcDbPolyline
 90
        9
 70
     0
 43
0.0
 38
64.15
 10
-45.449755
 20
-169.79051
 10
-45.56306
 20
-168.9285
 10
-45.898488
 20
-168.119498
 10
-46.42458
 20
-167.434025
 10
-47.119818
 20
-166.9005
 10
-47.919969
 20
-166.569175
 10
-48.785361
 20
-166.455032
 10
-49.650755
 20
-166.569356
 10
-50.407853
 20
-166.883045
  0
LWPOLYLINE
  5
44D
100
AcDbEntity
  8
ALPHA
100
AcDbPolyline
 90
        6
 70
     0
 43
0.0
 38
64.15
 10
-92.89609
 20
-147.29051
 10
-92.841699
 20
-146.968601
 10
-92.689945
 20
-146.685259
 10
-92.462546
 20
-146.468457
 10
-92.188503
 20
-146.335272
 10
-91.898684
 20
-146.29051
  0
LWPOLYLINE
  5
44E
100
AcDbEntity
  8
ALPHA
100
AcDbPolyline
 90
        5
 70
     0
 43
0.0
 38
64.15
 10
-91.725292
 20
-146.33313
 10
-92.001038
 20
-146.464356
 10
-92.228858
 20
-146.676656
 10
-92.384159
 20
-146.955715
 10
-92.444787
 20
-147.29051
  0
LWPOLYLINE
  5
44F
100
AcDbEntity
  8
ALPHA
100
AcDbPolyline
 90
        5
 70
     0
 43
0.0
 38
64.15
 10
-73.677269
 20
-146.39051
 10
-73.732777
 20
-146.46663
 10
-73.779833
 20
-146.683403
 10
-73.811276
 20
-147.007827
 10
-73.822317
 20
-147.39051
  0
LWPOLYLINE
  5
450
100
AcDbEntity
  8
ALPHA
100
AcDbPolyline
 90
        6
 70
     0
 43
0.0
 38
64.15
 10
-93.030484
 20
-131.89051
 10
-92.976051
 20
-131.568478
 10
-92.823992
 20
-131.284805
 10
-92.596306
 20
-131.068019
 10
-92.321559
 20
-130.934859
 10
-92.026907
 20
-130.89051
  0
LWPOLYLINE
  5
451
100
AcDbEntity
  8
ALPHA
100
AcDbPolyline
 90
        5
 70
     0
 43
0.0
 38
64.15
 10
-93.08367
 20
-131.89051
 10
-93.007549
 20
-131.507833
 10
-92.790773
 20
-131.183411
 10
-92.466337
 20
-130.966633
 10
-92.083632
 20
-130.89051
  0
LWPOLYLINE
  5
452
100
AcDbEntity
  8
ALPHA
100
AcDbPolyline
 90
        3
 70
     0
 43
0.0
 38
64.15
 10
-57.654087
 20
-162.523759
 10
-62.264516
 20
-162.564531
 10
-66.866348
 20
-162.604514
  0
LWPOLYLINE
  5
453
100
AcDbEntity
  8
ALPHA
100
AcDbPolyline
 90
        3
 70
     0
 43
0.0
 38
64.15
 10
-56.164857
 20
-161.099399
 10
-62.144634
 20
-161.152421
 10
-68.109869
 20
-161.204109
  0
LWPOLYLINE
  5
454
100
AcDbEntity
  8
ALPHA
100
AcDbPolyline
 90
        4
 70
     0
 43
0.0
 38
64.15
 10
-68.054254
 20
-160.604659
 10
-68.019704
 20
-160.393474
 10
-67.998372
 20
-160.149947
 10
-67.991172
 20
-159.89051
  0
LWPOLYLINE
  5
455
100
AcDbEntity
  8
ALPHA
100
AcDbPolyline
 90
        4
 70
     0
 43
0.0
 38
64.15
 10
-67.921806
 20
-160.89051
 10
-67.943482
 20
-161.02125
 10
-67.981558
 20
-161.150035
 10
-68.021993
 20
-161.196049
  0
LWPOLYLINE
  5
456
100
AcDbEntity
  8
ALPHA
100
AcDbPolyline
 90
        4
 70
     0
 43
0.0
 38
64.15
 10
-68.054247
 20
-160.604653
 10
-68.021285
 20
-160.794851
 10
-67.982226
 20
-160.885182
 10
-67.969823
 20
-160.890625
  0
LWPOLYLINE
  5
457
100
AcDbEntity
  8
ALPHA
100
AcDbPolyline
 90
        8
 70
     0
 43
0.0
 38
64.15
 10
-68.11913
 20
-161.214761
 10
-68.112588
 20
-161.238068
 10
-68.058258
 20
-161.324688
 10
-67.945787
 20
-161.466962
 10
-67.770793
 20
-161.66782
 10
-67.530673
 20
-161.927854
 10
-67.227937
 20
-162.242162
 10
-66.866348
 20
-162.604514
  0
LWPOLYLINE
  5
458
100
AcDbEntity
  8
ALPHA
100
AcDbPolyline
 90
        3
 70
     0
 43
0.0
 38
64.15
 10
-68.109869
 20
-161.204109
 10
-68.111369
 20
-161.204335
 10
-68.112863
 20
-161.204738
  0
LWPOLYLINE
  5
459
100
AcDbEntity
  8
ALPHA
100
AcDbPolyline
 90
        4
 70
     0
 43
0.0
 38
64.15
 10
-56.06711
 20
-160.604659
 10
-56.133185
 20
-160.393474
 10
-56.17398
 20
-160.149947
 10
-56.187748
 20
-159.89051
  0
LWPOLYLINE
  5
45A
100
AcDbEntity
  8
ALPHA
100
AcDbPolyline
 90
        8
 70
     0
 43
0.0
 38
64.15
 10
-56.167851
 20
-161.100028
 10
-56.217956
 20
-161.133799
 10
-56.321225
 20
-161.221801
 10
-56.479287
 20
-161.366446
 10
-56.694457
 20
-161.570724
 10
-56.966366
 20
-161.835247
 10
-57.288817
 20
-162.155036
 10
-57.654087
 20
-162.523759
  0
LWPOLYLINE
  5
45B
100
AcDbEntity
  8
ALPHA
100
AcDbPolyline
 90
        3
 70
     0
 43
0.0
 38
64.15
 10
-56.164857
 20
-161.099399
 10
-56.166356
 20
-161.099625
 10
-56.167851
 20
-161.100028
  0
LWPOLYLINE
  5
45C
100
AcDbEntity
  8
ALPHA
100
AcDbPolyline
 90
        4
 70
     0
 43
0.0
 38
64.15
 10
-50.501561
 20
-163.048097
 10
-50.503626
 20
-163.048454
 10
-50.505687
 20
-163.049148
 10
-50.507744
 20
-163.050178
  0
LWPOLYLINE
  5
45D
100
AcDbEntity
  8
ALPHA
100
AcDbPolyline
 90
       10
 70
     0
 43
0.0
 38
64.15
 10
-39.361388
 20
-137.729596
 10
-39.164747
 20
-137.772619
 10
-38.979507
 20
-137.897289
 10
-38.825812
 20
-138.075181
 10
-38.695391
 20
-138.297033
 10
-38.587858
 20
-138.553041
 10
-38.500877
 20
-138.84336
 10
-38.435287
 20
-139.167831
 10
-38.39359
 20
-139.527855
 10
-38.380582
 20
-139.924619
  0
LWPOLYLINE
  5
45E
100
AcDbEntity
  8
ALPHA
100
AcDbPolyline
 90
       10
 70
     0
 43
0.0
 38
64.15
 10
-35.510884
 20
-137.729596
 10
-35.707526
 20
-137.772619
 10
-35.892765
 20
-137.897289
 10
-36.046461
 20
-138.075181
 10
-36.176881
 20
-138.297033
 10
-36.284415
 20
-138.553041
 10
-36.371396
 20
-138.84336
 10
-36.436986
 20
-139.167831
 10
-36.478683
 20
-139.527855
 10
-36.491691
 20
-139.924619
  0
LWPOLYLINE
  5
45F
100
AcDbEntity
  8
ALPHA
100
AcDbPolyline
 90
        8
 70
     0
 43
0.0
 38
64.15
 10
-5.327001
 20
-182.799645
 10
-5.200698
 20
-182.755373
 10
-5.085424
 20
-182.708531
 10
-4.981388
 20
-182.65824
 10
-4.889748
 20
-182.603266
 10
-4.812636
 20
-182.541167
 10
-4.757238
 20
-182.469831
 10
-4.736136
 20
-182.39051
  0
LWPOLYLINE
  5
460
100
AcDbEntity
  8
ALPHA
100
AcDbPolyline
 90
        5
 70
     0
 43
0.0
 38
64.15
 10
4.555175
 20
-192.081783
 10
4.172524
 20
-192.079109
 10
3.848122
 20
-192.078169
 10
3.631352
 20
-192.079109
 10
3.555213
 20
-192.081783
  0
LWPOLYLINE
  5
461
100
AcDbEntity
  8
ALPHA
100
AcDbPolyline
 90
        5
 70
     0
 43
0.0
 38
64.15
 10
1.572514
 20
-192.081783
 10
1.496375
 20
-192.079109
 10
1.279605
 20
-192.078169
 10
0.955204
 20
-192.079109
 10
0.572552
 20
-192.081783
  0
LWPOLYLINE
  5
462
100
AcDbEntity
  8
ALPHA
100
AcDbPolyline
 90
        6
 70
     0
 43
0.0
 38
64.15
 10
3.493397
 20
-199.165187
 10
3.544675
 20
-199.277191
 10
3.69223
 20
-199.376144
 10
3.915887
 20
-199.452412
 10
4.190356
 20
-199.500066
 10
4.490295
 20
-199.516246
  0
LWPOLYLINE
  5
463
100
AcDbEntity
  8
ALPHA
100
AcDbPolyline
 90
        6
 70
     0
 43
0.0
 38
64.15
 10
1.63433
 20
-199.165187
 10
1.583052
 20
-199.277191
 10
1.435497
 20
-199.376144
 10
1.21184
 20
-199.452412
 10
0.937371
 20
-199.500066
 10
0.637432
 20
-199.516246
  0
LWPOLYLINE
  5
464
100
AcDbEntity
  8
ALPHA
100
AcDbPolyline
 90
        3
 70
     0
 43
0.0
 38
64.15
 10
1.330363
 20
-174.963012
 10
1.358408
 20
-176.616114
 10
1.377976
 20
-177.834669
  0
LWPOLYLINE
  5
465
100
AcDbEntity
  8
ALPHA
100
AcDbPolyline
 90
        6
 70
     0
 43
0.0
 38
64.15
 10
28.76359
 20
-163.49051
 10
28.701755
 20
-163.500303
 10
28.646121
 20
-163.528654
 10
28.602007
 20
-163.572767
 10
28.573657
 20
-163.628402
 10
28.563864
 20
-163.690236
  0
LWPOLYLINE
  5
466
100
AcDbEntity
  8
ALPHA
100
AcDbPolyline
 90
        5
 70
     0
 43
0.0
 38
64.15
 10
28.858472
 20
-169.395627
 10
28.782166
 20
-169.380267
 10
28.717438
 20
-169.336936
 10
28.674106
 20
-169.272207
 10
28.658746
 20
-169.195902
  0
LWPOLYLINE
  5
467
100
AcDbEntity
  8
ALPHA
100
AcDbPolyline
 90
        5
 70
     0
 43
0.0
 38
64.15
 10
28.658746
 20
-163.785118
 10
28.674106
 20
-163.708813
 10
28.717438
 20
-163.644084
 10
28.782166
 20
-163.600752
 10
28.858472
 20
-163.585393
  0
LWPOLYLINE
  5
468
100
AcDbEntity
  8
ALPHA
100
AcDbPolyline
 90
        6
 70
     0
 43
0.0
 38
64.15
 10
28.563864
 20
-169.290784
 10
28.573657
 20
-169.352618
 10
28.602007
 20
-169.408253
 10
28.646121
 20
-169.452366
 10
28.701755
 20
-169.480717
 10
28.76359
 20
-169.49051
  0
LWPOLYLINE
  5
469
100
AcDbEntity
  8
ALPHA
100
AcDbPolyline
 90
        6
 70
     0
 43
0.0
 38
64.15
 10
58.158211
 20
-211.89051
 10
58.103778
 20
-212.212542
 10
57.951719
 20
-212.496215
 10
57.724033
 20
-212.713001
 10
57.449286
 20
-212.846161
 10
57.154634
 20
-212.89051
  0
LWPOLYLINE
  5
46A
100
AcDbEntity
  8
ALPHA
100
AcDbPolyline
 90
        5
 70
     0
 43
0.0
 38
64.15
 10
58.211397
 20
-211.89051
 10
58.135277
 20
-212.273187
 10
57.9185
 20
-212.597609
 10
57.594064
 20
-212.814387
 10
57.211359
 20
-212.89051
  0
LWPOLYLINE
  5
46B
100
AcDbEntity
  8
ALPHA
100
AcDbPolyline
 90
        6
 70
     0
 43
0.0
 38
64.15
 10
56.790724
 20
-197.49051
 10
57.079918
 20
-197.44789
 10
57.355665
 20
-197.316664
 10
57.583485
 20
-197.104363
 10
57.738785
 20
-196.825305
 10
57.799413
 20
-196.49051
  0
LWPOLYLINE
  5
46C
100
AcDbEntity
  8
ALPHA
100
AcDbPolyline
 90
        6
 70
     0
 43
0.0
 38
64.15
 10
58.023817
 20
-196.49051
 10
57.969426
 20
-196.812419
 10
57.817672
 20
-197.095761
 10
57.590273
 20
-197.312563
 10
57.31623
 20
-197.445748
 10
57.026412
 20
-197.49051
  0
LWPOLYLINE
  5
46D
100
AcDbEntity
  8
ALPHA
100
AcDbPolyline
 90
        6
 70
     0
 43
0.0
 38
64.15
 10
57.572514
 20
-190.09051
 10
57.5125
 20
-190.423614
 10
57.358371
 20
-190.702086
 10
57.131829
 20
-190.914579
 10
56.855239
 20
-191.047219
 10
56.563826
 20
-191.09051
  0
LWPOLYLINE
  5
46E
100
AcDbEntity
  8
ALPHA
100
AcDbPolyline
 90
        6
 70
     0
 43
0.0
 38
64.15
 10
57.799413
 20
-190.09051
 10
57.739349
 20
-190.423749
 10
57.585528
 20
-190.701755
 10
57.359946
 20
-190.913745
 10
57.086148
 20
-191.045993
 10
56.799451
 20
-191.09051
  0
LWPOLYLINE
  5
46F
100
AcDbEntity
  8
ALPHA
100
AcDbPolyline
 90
        3
 70
     0
 43
0.0
 38
64.15
 10
33.997365
 20
-174.963012
 10
33.969319
 20
-176.616114
 10
33.949751
 20
-177.834669
  0
LWPOLYLINE
  5
470
100
AcDbEntity
  8
ALPHA
100
AcDbPolyline
 90
        6
 70
     0
 43
0.0
 38
64.15
 10
38.864138
 20
-169.49051
 10
38.925972
 20
-169.480717
 10
38.981606
 20
-169.452366
 10
39.02572
 20
-169.408253
 10
39.05407
 20
-169.352618
 10
39.063864
 20
-169.290784
  0
LWPOLYLINE
  5
471
100
AcDbEntity
  8
ALPHA
100
AcDbPolyline
 90
        5
 70
     0
 43
0.0
 38
64.15
 10
38.769255
 20
-163.585393
 10
38.845561
 20
-163.600752
 10
38.91029
 20
-163.644084
 10
38.953621
 20
-163.708813
 10
38.968981
 20
-163.785118
  0
LWPOLYLINE
  5
472
100
AcDbEntity
  8
ALPHA
100
AcDbPolyline
 90
        5
 70
     0
 43
0.0
 38
64.15
 10
38.968981
 20
-169.195902
 10
38.953621
 20
-169.272207
 10
38.91029
 20
-169.336936
 10
38.845561
 20
-169.380267
 10
38.769255
 20
-169.395627
  0
LWPOLYLINE
  5
473
100
AcDbEntity
  8
ALPHA
100
AcDbPolyline
 90
        6
 70
     0
 43
0.0
 38
64.15
 10
39.063864
 20
-163.690236
 10
39.05407
 20
-163.628402
 10
39.02572
 20
-163.572767
 10
38.981606
 20
-163.528654
 10
38.925972
 20
-163.500303
 10
38.864138
 20
-163.49051
  0
LWPOLYLINE
  5
474
100
AcDbEntity
  8
ALPHA
100
AcDbPolyline
 90
        6
 70
     0
 43
0.0
 38
64.15
 10
-4.711319
 20
-146.39051
 10
-4.688077
 20
-146.43942
 10
-4.667104
 20
-146.581532
 10
-4.650476
 20
-146.80284
 10
-4.639813
 20
-147.081456
 10
-4.636136
 20
-147.39051
  0
LWPOLYLINE
  5
475
100
AcDbEntity
  8
ALPHA
100
AcDbPolyline
 90
        6
 70
     0
 43
0.0
 38
64.15
 10
12.689948
 20
-158.389255
 10
12.699416
 20
-158.387835
 10
12.710397
 20
-158.366624
 10
12.720589
 20
-158.325211
 10
12.729511
 20
-158.265562
 10
12.736739
 20
-158.19051
  0
LWPOLYLINE
  5
476
100
AcDbEntity
  8
ALPHA
100
AcDbPolyline
 90
        3
 70
     0
 43
0.0
 38
64.15
 10
13.419699
 20
-161.09051
 10
13.561009
 20
-161.075782
 10
13.622278
 20
-161.055853
  0
LWPOLYLINE
  5
477
100
AcDbEntity
  8
ALPHA
100
AcDbPolyline
 90
        3
 70
     0
 43
0.0
 38
64.15
 10
13.419448
 20
-161.087921
 10
13.525309
 20
-161.077667
 10
13.622278
 20
-161.048786
  0
LWPOLYLINE
  5
478
100
AcDbEntity
  8
ALPHA
100
AcDbPolyline
 90
        8
 70
     0
 43
0.0
 38
64.15
 10
13.389166
 20
-158.84051
 10
13.408086
 20
-158.825287
 10
13.426365
 20
-158.780132
 10
13.443386
 20
-158.706573
 10
13.458573
 20
-158.607099
 10
13.471412
 20
-158.485075
 10
13.481469
 20
-158.344628
 10
13.488402
 20
-158.19051
  0
LWPOLYLINE
  5
479
100
AcDbEntity
  8
ALPHA
100
AcDbPolyline
 90
        6
 70
     0
 43
0.0
 38
64.15
 10
12.689948
 20
-157.491765
 10
12.688169
 20
-157.493185
 10
12.677188
 20
-157.514396
 10
12.666996
 20
-157.555809
 10
12.658074
 20
-157.615458
 10
12.650846
 20
-157.69051
  0
LWPOLYLINE
  5
47A
100
AcDbEntity
  8
ALPHA
100
AcDbPolyline
 90
        8
 70
     0
 43
0.0
 38
64.15
 10
13.392719
 20
-159.39051
 10
13.37484
 20
-159.40806
 10
13.357858
 20
-159.459832
 10
13.342624
 20
-159.543228
 10
13.329902
 20
-159.654067
 10
13.32033
 20
-159.786791
 10
13.314388
 20
-159.934745
 10
13.312373
 20
-160.09051
  0
LWPOLYLINE
  5
47B
100
AcDbEntity
  8
ALPHA
100
AcDbPolyline
 90
        3
 70
     0
 43
0.0
 38
64.15
 10
13.622278
 20
-159.432234
 10
13.525368
 20
-159.403364
 10
13.392719
 20
-159.39051
  0
LWPOLYLINE
  5
47C
100
AcDbEntity
  8
ALPHA
100
AcDbPolyline
 90
        3
 70
     0
 43
0.0
 38
64.15
 10
13.622278
 20
-159.425167
 10
13.561009
 20
-159.405238
 10
13.419699
 20
-159.39051
  0
LWPOLYLINE
  5
47D
100
AcDbEntity
  8
ALPHA
100
AcDbPolyline
 90
        3
 70
     0
 43
0.0
 38
64.15
 10
13.232027
 20
-159.621255
 10
12.938541
 20
-160.889805
 10
12.87906
 20
-161.14051
  0
LWPOLYLINE
  5
47E
100
AcDbEntity
  8
ALPHA
100
AcDbPolyline
 90
        8
 70
     0
 43
0.0
 38
64.15
 10
13.392719
 20
-161.09051
 10
13.37484
 20
-161.07296
 10
13.357858
 20
-161.021188
 10
13.342624
 20
-160.937792
 10
13.329902
 20
-160.826953
 10
13.32033
 20
-160.694229
 10
13.314388
 20
-160.546275
 10
13.312373
 20
-160.39051
  0
LWPOLYLINE
  5
47F
100
AcDbEntity
  8
ALPHA
100
AcDbPolyline
 90
        6
 70
     0
 43
0.0
 38
64.15
 10
12.650846
 20
-158.19051
 10
12.658074
 20
-158.265562
 10
12.666996
 20
-158.325211
 10
12.677188
 20
-158.366624
 10
12.688169
 20
-158.387835
 10
12.689948
 20
-158.389255
  0
LWPOLYLINE
  5
480
100
AcDbEntity
  8
ALPHA
100
AcDbPolyline
 90
        6
 70
     0
 43
0.0
 38
64.15
 10
12.736739
 20
-157.69051
 10
12.729511
 20
-157.615458
 10
12.720589
 20
-157.555809
 10
12.710397
 20
-157.514396
 10
12.699416
 20
-157.493185
 10
12.689948
 20
-157.491765
  0
LWPOLYLINE
  5
481
100
AcDbEntity
  8
ALPHA
100
AcDbPolyline
 90
        5
 70
     0
 43
0.0
 38
64.15
 10
13.488402
 20
-157.69051
 10
13.481469
 20
-157.536392
 10
13.471412
 20
-157.395945
 10
13.458573
 20
-157.273921
 10
13.445839
 20
-157.19051
  0
LWPOLYLINE
  5
482
100
AcDbEntity
  8
ALPHA
100
AcDbPolyline
 90
        4
 70
     0
 43
0.0
 38
64.15
 10
13.506888
 20
-158.189987
 10
13.502387
 20
-158.030913
 10
13.502387
 20
-157.850107
 10
13.506888
 20
-157.691033
  0
LWPOLYLINE
  5
483
100
AcDbEntity
  8
ALPHA
100
AcDbPolyline
 90
        4
 70
     0
 43
0.0
 38
64.15
 10
13.668801
 20
-157.691027
 10
13.673301
 20
-157.850107
 10
13.673301
 20
-158.030913
 10
13.668801
 20
-158.189993
  0
LWPOLYLINE
  5
484
100
AcDbEntity
  8
ALPHA
100
AcDbPolyline
 90
        4
 70
     0
 43
0.0
 38
64.15
 10
13.687081
 20
-158.19051
 10
13.680147
 20
-158.344628
 10
13.67009
 20
-158.485074
 10
13.657251
 20
-158.607099
  0
LWPOLYLINE
  5
485
100
AcDbEntity
  8
ALPHA
100
AcDbPolyline
 90
        5
 70
     0
 43
0.0
 38
64.15
 10
13.657251
 20
-158.607099
 10
13.642065
 20
-158.706573
 10
13.625043
 20
-158.780132
 10
13.606764
 20
-158.825287
 10
13.587844
 20
-158.84051
  0
LWPOLYLINE
  5
486
100
AcDbEntity
  8
ALPHA
100
AcDbPolyline
 90
        5
 70
     0
 43
0.0
 38
64.15
 10
13.644517
 20
-157.19051
 10
13.657251
 20
-157.273921
 10
13.67009
 20
-157.395946
 10
13.680147
 20
-157.536392
 10
13.687081
 20
-157.69051
  0
LWPOLYLINE
  5
487
100
AcDbEntity
  8
ALPHA
100
AcDbPolyline
 90
        4
 70
     0
 43
0.0
 38
64.15
 10
6.807755
 20
-146.39051
 10
6.805066
 20
-146.43914
 10
6.802611
 20
-146.582676
 10
6.800797
 20
-146.79051
  0
LWPOLYLINE
  5
488
100
AcDbEntity
  8
ALPHA
100
AcDbPolyline
 90
        5
 70
     0
 43
0.0
 38
64.15
 10
31.938363
 20
-159.916687
 10
32.014654
 20
-159.924703
 10
32.231398
 20
-159.927517
 10
32.555626
 20
-159.924703
 10
32.93802
 20
-159.916687
  0
LWPOLYLINE
  5
489
100
AcDbEntity
  8
ALPHA
100
AcDbPolyline
 90
        4
 70
     0
 43
0.0
 38
64.15
 10
20.119972
 20
-146.39051
 10
20.122661
 20
-146.43914
 10
20.125116
 20
-146.582676
 10
20.12693
 20
-146.79051
  0
LWPOLYLINE
  5
48A
100
AcDbEntity
  8
ALPHA
100
AcDbPolyline
 90
        7
 70
     0
 43
0.0
 38
64.15
 10
31.609668
 20
-147.364333
 10
31.639682
 20
-147.358747
 10
31.736794
 20
-147.354892
 10
31.902136
 20
-147.353503
 10
32.120689
 20
-147.354892
 10
32.365415
 20
-147.358747
 10
32.609326
 20
-147.364333
  0
LWPOLYLINE
  5
48B
100
AcDbEntity
  8
ALPHA
100
AcDbPolyline
 90
       10
 70
     0
 43
0.0
 38
64.15
 10
4.489116
 20
-137.729596
 10
4.292474
 20
-137.772619
 10
4.107235
 20
-137.897289
 10
3.953539
 20
-138.075181
 10
3.823119
 20
-138.297033
 10
3.715585
 20
-138.553041
 10
3.628604
 20
-138.84336
 10
3.563014
 20
-139.167831
 10
3.521317
 20
-139.527855
 10
3.508309
 20
-139.924619
  0
LWPOLYLINE
  5
48C
100
AcDbEntity
  8
ALPHA
100
AcDbPolyline
 90
       10
 70
     0
 43
0.0
 38
64.15
 10
0.638612
 20
-137.729596
 10
0.835253
 20
-137.772619
 10
1.020493
 20
-137.897289
 10
1.174188
 20
-138.075181
 10
1.304609
 20
-138.297033
 10
1.412142
 20
-138.553041
 10
1.499123
 20
-138.84336
 10
1.564713
 20
-139.167831
 10
1.60641
 20
-139.527855
 10
1.619418
 20
-139.924619
  0
LWPOLYLINE
  5
48D
100
AcDbEntity
  8
ALPHA
100
AcDbPolyline
 90
        6
 70
     0
 43
0.0
 38
64.15
 10
39.114539
 20
-159.916687
 10
39.423501
 20
-159.915273
 10
39.702228
 20
-159.91656
 10
39.923445
 20
-159.92042
 10
40.065503
 20
-159.926477
 10
40.114501
 20
-159.934137
  0
LWPOLYLINE
  5
48E
100
AcDbEntity
  8
ALPHA
100
AcDbPolyline
 90
        5
 70
     0
 43
0.0
 38
64.15
 10
40.004958
 20
-147.381783
 10
39.928775
 20
-147.372432
 10
39.711996
 20
-147.365832
 10
39.387613
 20
-147.362988
 10
39.004997
 20
-147.364333
  0
LWPOLYLINE
  5
48F
100
AcDbEntity
  8
ALPHA
100
AcDbPolyline
 90
        6
 70
     0
 43
0.0
 38
64.15
 10
57.020241
 20
-146.29051
 10
57.314893
 20
-146.334859
 10
57.589639
 20
-146.468019
 10
57.817325
 20
-146.684805
 10
57.969384
 20
-146.968478
 10
58.023817
 20
-147.29051
  0
LWPOLYLINE
  5
490
100
AcDbEntity
  8
ALPHA
100
AcDbPolyline
 90
        6
 70
     0
 43
0.0
 38
64.15
 10
57.572514
 20
-147.29051
 10
57.513114
 20
-146.959109
 10
57.360506
 20
-146.681675
 10
57.135991
 20
-146.4693
 10
56.861649
 20
-146.335769
 10
56.572552
 20
-146.290548
  0
LWPOLYLINE
  5
491
100
AcDbEntity
  8
ALPHA
100
AcDbPolyline
 90
        5
 70
     0
 43
0.0
 38
64.15
 10
58.211397
 20
-131.89051
 10
58.135277
 20
-131.507833
 10
57.9185
 20
-131.183411
 10
57.594064
 20
-130.966633
 10
57.211359
 20
-130.89051
  0
LWPOLYLINE
  5
492
100
AcDbEntity
  8
ALPHA
100
AcDbPolyline
 90
        6
 70
     0
 43
0.0
 38
64.15
 10
58.158211
 20
-131.89051
 10
58.10382
 20
-131.568601
 10
57.952066
 20
-131.285259
 10
57.724667
 20
-131.068457
 10
57.450624
 20
-130.935272
 10
57.160805
 20
-130.89051
  0
INSERT
  5
4D5
100
AcDbEntity
  8
ALPHA
100
AcDbBlockReference
  2
SCH_ISO
 10
0.0
 20
0.0
 30
0.0
  0
ENDSEC
  0
SECTION
  2
OBJECTS
  0
DICTIONARY
  5
7BB
100
AcDbDictionary
  3
ACAD_GROUP
350
7BC
  3
ACAD_MLINESTYLE
350
7C9
  3
ACDBVARIABLEDICTIONARY
350
80A
  0
DICTIONARY
  5
7BC
102
{ACAD_REACTORS
330
7BB
102
}
100
AcDbDictionary
  0
DICTIONARY
  5
7C9
102
{ACAD_REACTORS
330
7BB
102
}
100
AcDbDictionary
  3
STANDARD
350
7CA
  0
DICTIONARY
  5
80A
102
{ACAD_REACTORS
330
7BB
102
}
100
AcDbDictionary
  3
DIMADEC
350
80B
  0
MLINESTYLE
  5
7CA
102
{ACAD_REACTORS
330
7C9
102
}
100
AcDbMlineStyle
  2
STANDARD
 70
     0
  3

 62
   256
 51
90.0
 52
90.0
 71
     2
 49
0.5
 62
   256
  6
BYLAYER
 49
-0.5
 62
   256
  6
BYLAYER
  0
DICTIONARYVAR
  5
80B
102
{ACAD_REACTORS
330
80A
102
}
100
DictionaryVariables
280
     0
  1
0
  0
ENDSEC
  0
EOF
