  0
SECTION
  2
HEADER
  9
$ACADVER
  1
AC1014
  9
$ACADMAINTVER
 70
     0
  9
$DWGCODEPAGE
  3
ANSI_1252
  9
$INSBASE
 10
152.40668
 20
-15.628471
 30
0.0
  9
$EXTMIN
 10
159.609321
 20
-8.66917
 30
0.0
  9
$EXTMAX
 10
317.581926
 20
151.976112
 30
62.05
  9
$LIMMIN
 10
0.0
 20
0.0
  9
$LIMMAX
 10
12.0
 20
9.0
  9
$ORTHOMODE
 70
     0
  9
$REGENMODE
 70
     1
  9
$FILLMODE
 70
     1
  9
$QTEXTMODE
 70
     0
  9
$MIRRTEXT
 70
     1
  9
$DRAGMODE
 70
     2
  9
$LTSCALE
 40
3.567072
  9
$OSMODE
 70
    32
  9
$ATTMODE
 70
     1
  9
$TEXTSIZE
 40
0.2
  9
$TRACEWID
 40
0.05
  9
$TEXTSTYLE
  7
STANDARD
  9
$CLAYER
  8
ALPHA
  9
$CELTYPE
  6
BYLAYER
  9
$CECOLOR
 62
   256
  9
$CELTSCALE
 40
1.0
  9
$DELOBJ
 70
     1
  9
$DISPSILH
 70
     0
  9
$DIMSCALE
 40
1.0
  9
$DIMASZ
 40
3.0
  9
$DIMEXO
 40
0.0625
  9
$DIMDLI
 40
0.38
  9
$DIMRND
 40
0.01
  9
$DIMDLE
 40
0.0
  9
$DIMEXE
 40
0.18
  9
$DIMTP
 40
0.0
  9
$DIMTM
 40
0.0
  9
$DIMTXT
 40
2.5
  9
$DIMCEN
 40
0.09
  9
$DIMTSZ
 40
0.0
  9
$DIMTOL
 70
     0
  9
$DIMLIM
 70
     0
  9
$DIMTIH
 70
     0
  9
$DIMTOH
 70
     0
  9
$DIMSE1
 70
     0
  9
$DIMSE2
 70
     0
  9
$DIMTAD
 70
     1
  9
$DIMZIN
 70
    12
  9
$DIMBLK
  1

  9
$DIMASO
 70
     1
  9
$DIMSHO
 70
     1
  9
$DIMPOST
  1

  9
$DIMAPOST
  1

  9
$DIMALT
 70
     0
  9
$DIMALTD
 70
     2
  9
$DIMALTF
 40
25.4
  9
$DIMLFAC
 40
1.0
  9
$DIMTOFL
 70
     1
  9
$DIMTVP
 40
0.0
  9
$DIMTIX
 70
     0
  9
$DIMSOXD
 70
     0
  9
$DIMSAH
 70
     0
  9
$DIMBLK1
  1

  9
$DIMBLK2
  1

  9
$DIMSTYLE
  2
SC_STAND
  9
$DIMCLRD
 70
     0
  9
$DIMCLRE
 70
     0
  9
$DIMCLRT
 70
     0
  9
$DIMTFAC
 40
1.0
  9
$DIMGAP
 40
1.0
  9
$DIMJUST
 70
     0
  9
$DIMSD1
 70
     0
  9
$DIMSD2
 70
     0
  9
$DIMTOLJ
 70
     1
  9
$DIMTZIN
 70
    12
  9
$DIMALTZ
 70
    12
  9
$DIMALTTZ
 70
    12
  9
$DIMFIT
 70
     5
  9
$DIMUPT
 70
     0
  9
$DIMUNIT
 70
     2
  9
$DIMDEC
 70
     4
  9
$DIMTDEC
 70
     4
  9
$DIMALTU
 70
     2
  9
$DIMALTTD
 70
     2
  9
$DIMTXSTY
  7
STANDARD
  9
$DIMAUNIT
 70
     0
  9
$LUNITS
 70
     2
  9
$LUPREC
 70
     4
  9
$SKETCHINC
 40
0.1
  9
$FILLETRAD
 40
0.0
  9
$AUNITS
 70
     0
  9
$AUPREC
 70
     0
  9
$MENU
  1
acad
  9
$ELEVATION
 40
0.0
  9
$PELEVATION
 40
0.0
  9
$THICKNESS
 40
0.0
  9
$LIMCHECK
 70
     0
  9
$BLIPMODE
 70
     1
  9
$CHAMFERA
 40
0.0
  9
$CHAMFERB
 40
0.0
  9
$CHAMFERC
 40
0.0
  9
$CHAMFERD
 40
0.0
  9
$SKPOLY
 70
     0
  9
$TDCREATE
 40
2451288.399953472
  9
$TDUPDATE
 40
2451387.884342627
  9
$TDINDWG
 40
0.0022617014
  9
$TDUSRTIMER
 40
0.0022617014
  9
$USRTIMER
 70
     1
  9
$ANGBASE
 50
0.0
  9
$ANGDIR
 70
     0
  9
$PDMODE
 70
     0
  9
$PDSIZE
 40
0.0
  9
$PLINEWID
 40
0.0
  9
$COORDS
 70
     1
  9
$SPLFRAME
 70
     0
  9
$SPLINETYPE
 70
     6
  9
$SPLINESEGS
 70
     8
  9
$ATTDIA
 70
     0
  9
$ATTREQ
 70
     1
  9
$HANDLING
 70
     1
  9
$HANDSEED
  5
71F
  9
$SURFTAB1
 70
     6
  9
$SURFTAB2
 70
     6
  9
$SURFTYPE
 70
     6
  9
$SURFU
 70
     6
  9
$SURFV
 70
     6
  9
$UCSNAME
  2

  9
$UCSORG
 10
0.0
 20
0.0
 30
0.0
  9
$UCSXDIR
 10
1.0
 20
0.0
 30
0.0
  9
$UCSYDIR
 10
0.0
 20
1.0
 30
0.0
  9
$PUCSNAME
  2

  9
$PUCSORG
 10
0.0
 20
0.0
 30
0.0
  9
$PUCSXDIR
 10
1.0
 20
0.0
 30
0.0
  9
$PUCSYDIR
 10
0.0
 20
1.0
 30
0.0
  9
$USERI1
 70
     0
  9
$USERI2
 70
     0
  9
$USERI3
 70
     0
  9
$USERI4
 70
     0
  9
$USERI5
 70
     0
  9
$USERR1
 40
0.0
  9
$USERR2
 40
0.0
  9
$USERR3
 40
0.0
  9
$USERR4
 40
0.0
  9
$USERR5
 40
0.0
  9
$WORLDVIEW
 70
     1
  9
$SHADEDGE
 70
     3
  9
$SHADEDIF
 70
    70
  9
$TILEMODE
 70
     1
  9
$MAXACTVP
 70
    16
  9
$PINSBASE
 10
0.0
 20
0.0
 30
0.0
  9
$PLIMCHECK
 70
     0
  9
$PEXTMIN
 10
1.000000E+20
 20
1.000000E+20
 30
1.000000E+20
  9
$PEXTMAX
 10
-1.000000E+20
 20
-1.000000E+20
 30
-1.000000E+20
  9
$PLIMMIN
 10
0.0
 20
0.0
  9
$PLIMMAX
 10
12.0
 20
9.0
  9
$UNITMODE
 70
     0
  9
$VISRETAIN
 70
     0
  9
$PLINEGEN
 70
     0
  9
$PSLTSCALE
 70
     1
  9
$TREEDEPTH
 70
  3020
  9
$PICKSTYLE
 70
     1
  9
$CMLSTYLE
  2
STANDARD
  9
$CMLJUST
 70
     0
  9
$CMLSCALE
 40
1.0
  9
$PROXYGRAPHICS
 70
     1
  9
$MEASUREMENT
 70
     0
  0
ENDSEC
  0
SECTION
  2
CLASSES
  0
CLASS
  1
DICTIONARYVAR
  2
AcDbDictionaryVar
  3
"AutoCAD"
 90
        0
280
     0
281
     0
  0
CLASS
  1
LWPOLYLINE
  2
AcDbPolyline
  3
"AutoCAD"
 90
        0
280
     0
281
     1
  0
ENDSEC
  0
SECTION
  2
TABLES
  0
TABLE
  2
VPORT
  5
6C2
100
AcDbSymbolTable
 70
     1
  0
VPORT
  5
71A
100
AcDbSymbolTableRecord
100
AcDbViewportTableRecord
  2
*ACTIVE
 70
     0
 10
0.0
 20
0.0
 11
1.0
 21
1.0
 12
241.040184
 22
76.563601
 13
0.0
 23
0.0
 14
1.0
 24
1.0
 15
0.0
 25
0.0
 16
0.0
 26
0.0
 36
1.0
 17
0.0
 27
0.0
 37
0.0
 40
172.287247
 41
1.671053
 42
50.0
 43
0.0
 44
0.0
 50
0.0
 51
0.0
 71
     0
 72
   100
 73
     1
 74
     1
 75
     0
 76
     0
 77
     0
 78
     0
  0
ENDTAB
  0
TABLE
  2
LTYPE
  5
6BF
100
AcDbSymbolTable
 70
    23
  0
LTYPE
  5
6CB
100
AcDbSymbolTableRecord
100
AcDbLinetypeTableRecord
  2
BYBLOCK
 70
     0
  3

 72
    65
 73
     0
 40
0.0
  0
LTYPE
  5
6CC
100
AcDbSymbolTableRecord
100
AcDbLinetypeTableRecord
  2
BYLAYER
 70
     0
  3

 72
    65
 73
     0
 40
0.0
  0
LTYPE
  5
6CD
100
AcDbSymbolTableRecord
100
AcDbLinetypeTableRecord
  2
CONTINUOUS
 70
     0
  3
Ligne solide
 72
    65
 73
     0
 40
0.0
  0
LTYPE
  5
6E2
100
AcDbSymbolTableRecord
100
AcDbLinetypeTableRecord
  2
AXES
 70
     0
  3
____ _ ____ _ ____ _ ____ _ ____ _ ____ _ ____ 
 72
    65
 73
     4
 40
2.0
 49
1.25
 74
     0
 49
-0.25
 74
     0
 49
0.25
 74
     0
 49
-0.25
 74
     0
  0
LTYPE
  5
6E3
100
AcDbSymbolTableRecord
100
AcDbLinetypeTableRecord
  2
AXES2
 70
     0
  3
___ _ ___ _ ___ _ ___ _ ___ _ ___ _ ___ _ ___ _
 72
    65
 73
     4
 40
1.125
 49
0.75
 74
     0
 49
-0.125
 74
     0
 49
0.125
 74
     0
 49
-0.125
 74
     0
  0
LTYPE
  5
6E4
100
AcDbSymbolTableRecord
100
AcDbLinetypeTableRecord
  2
AXESX2
 70
     0
  3
________  __  ________  __  ________  __  _____
 72
    65
 73
     4
 40
4.0
 49
2.5
 74
     0
 49
-0.5
 74
     0
 49
0.5
 74
     0
 49
-0.5
 74
     0
  0
LTYPE
  5
6E5
100
AcDbSymbolTableRecord
100
AcDbLinetypeTableRecord
  2
TIRETPT
 70
     0
  3
__ . __ . __ . __ . __ . __ . __ . __ . __ . __
 72
    65
 73
     4
 40
1.0
 49
0.5
 74
     0
 49
-0.25
 74
     0
 49
0.0
 74
     0
 49
-0.25
 74
     0
  0
LTYPE
  5
6E6
100
AcDbSymbolTableRecord
100
AcDbLinetypeTableRecord
  2
TIRETPT2
 70
     0
  3
_._._._._._._._._._._._._._._._._._._._._._._._
 72
    65
 73
     4
 40
0.5
 49
0.25
 74
     0
 49
-0.125
 74
     0
 49
0.0
 74
     0
 49
-0.125
 74
     0
  0
LTYPE
  5
6E7
100
AcDbSymbolTableRecord
100
AcDbLinetypeTableRecord
  2
TIRETPTX2
 70
     0
  3
____  .  ____  .  ____  .  ____  .  ____  .  __
 72
    65
 73
     4
 40
2.0
 49
1.0
 74
     0
 49
-0.5
 74
     0
 49
0.0
 74
     0
 49
-0.5
 74
     0
  0
LTYPE
  5
6E8
100
AcDbSymbolTableRecord
100
AcDbLinetypeTableRecord
  2
DISCONTINU
 70
     0
  3
__ __ __ __ __ __ __ __ __ __ __ __ __ __ __ __
 72
    65
 73
     2
 40
0.75
 49
0.5
 74
     0
 49
-0.25
 74
     0
  0
LTYPE
  5
6E9
100
AcDbSymbolTableRecord
100
AcDbLinetypeTableRecord
  2
DISCONTINU2
 70
     0
  3
_ _ _ _ _ _ _ _ _ _ _ _ _ _ _ _ _ _ _ _ _ _ _ _
 72
    65
 73
     2
 40
0.375
 49
0.25
 74
     0
 49
-0.125
 74
     0
  0
LTYPE
  5
6EA
100
AcDbSymbolTableRecord
100
AcDbLinetypeTableRecord
  2
DISCONTINUX2
 70
     0
  3
____  ____  ____  ____  ____  ____  ____  ____ 
 72
    65
 73
     2
 40
1.5
 49
1.0
 74
     0
 49
-0.5
 74
     0
  0
LTYPE
  5
6EB
100
AcDbSymbolTableRecord
100
AcDbLinetypeTableRecord
  2
DIVISE
 70
     0
  3
____ . . ____ . . ____ . . ____ . . ____ . . __
 72
    65
 73
     6
 40
1.25
 49
0.5
 74
     0
 49
-0.25
 74
     0
 49
0.0
 74
     0
 49
-0.25
 74
     0
 49
0.0
 74
     0
 49
-0.25
 74
     0
  0
LTYPE
  5
6EC
100
AcDbSymbolTableRecord
100
AcDbLinetypeTableRecord
  2
DIVISE2
 70
     0
  3
__..__..__..__..__..__..__..__..__..__..__..__.
 72
    65
 73
     6
 40
0.625
 49
0.25
 74
     0
 49
-0.125
 74
     0
 49
0.0
 74
     0
 49
-0.125
 74
     0
 49
0.0
 74
     0
 49
-0.125
 74
     0
  0
LTYPE
  5
6ED
100
AcDbSymbolTableRecord
100
AcDbLinetypeTableRecord
  2
DIVISEX2
 70
     0
  3
________  .  .  ________  .  .  ________  .  . 
 72
    65
 73
     6
 40
2.5
 49
1.0
 74
     0
 49
-0.5
 74
     0
 49
0.0
 74
     0
 49
-0.5
 74
     0
 49
0.0
 74
     0
 49
-0.5
 74
     0
  0
LTYPE
  5
6EE
100
AcDbSymbolTableRecord
100
AcDbLinetypeTableRecord
  2
POINTILLE
 70
     0
  3
. . . . . . . . . . . . . . . . . . . . . . . .
 72
    65
 73
     2
 40
0.25
 49
0.0
 74
     0
 49
-0.25
 74
     0
  0
LTYPE
  5
6EF
100
AcDbSymbolTableRecord
100
AcDbLinetypeTableRecord
  2
POINTILLE2
 70
     0
  3
...............................................
 72
    65
 73
     2
 40
0.125
 49
0.0
 74
     0
 49
-0.125
 74
     0
  0
LTYPE
  5
6F0
100
AcDbSymbolTableRecord
100
AcDbLinetypeTableRecord
  2
POINTILLEX2
 70
     0
  3
.  .  .  .  .  .  .  .  .  .  .  .  .  .  .  . 
 72
    65
 73
     2
 40
0.5
 49
0.0
 74
     0
 49
-0.5
 74
     0
  0
LTYPE
  5
6F1
100
AcDbSymbolTableRecord
100
AcDbLinetypeTableRecord
  2
CACHE
 70
     0
  3
__ __ __ __ __ __ __ __ __ __ __ __ __ __ __ __
 72
    65
 73
     2
 40
0.375
 49
0.25
 74
     0
 49
-0.125
 74
     0
  0
LTYPE
  5
6F2
100
AcDbSymbolTableRecord
100
AcDbLinetypeTableRecord
  2
CACHE2
 70
     0
  3
_ _ _ _ _ _ _ _ _ _ _ _ _ _ _ _ _ _ _ _ _ _ _ _
 72
    65
 73
     2
 40
0.1875
 49
0.125
 74
     0
 49
-0.0625
 74
     0
  0
LTYPE
  5
6F3
100
AcDbSymbolTableRecord
100
AcDbLinetypeTableRecord
  2
CACHEX2
 70
     0
  3
____ ____ ____ ____ ____ ____ ____ ____ ____ __
 72
    65
 73
     2
 40
0.75
 49
0.5
 74
     0
 49
-0.25
 74
     0
  0
LTYPE
  5
6F4
100
AcDbSymbolTableRecord
100
AcDbLinetypeTableRecord
  2
FANTOME
 70
     0
  3
______  __  __  ______  __  __  ______  __  __ 
 72
    65
 73
     6
 40
2.5
 49
1.25
 74
     0
 49
-0.25
 74
     0
 49
0.25
 74
     0
 49
-0.25
 74
     0
 49
0.25
 74
     0
 49
-0.25
 74
     0
  0
LTYPE
  5
6F5
100
AcDbSymbolTableRecord
100
AcDbLinetypeTableRecord
  2
FANTOME2
 70
     0
  3
___ _ _ ___ _ _ ___ _ _ ___ _ _ ___ _ _ ___ _ _
 72
    65
 73
     6
 40
1.25
 49
0.625
 74
     0
 49
-0.125
 74
     0
 49
0.125
 74
     0
 49
-0.125
 74
     0
 49
0.125
 74
     0
 49
-0.125
 74
     0
  0
LTYPE
  5
6F6
100
AcDbSymbolTableRecord
100
AcDbLinetypeTableRecord
  2
FANTOMEX2
 70
     0
  3
____________    ____    ____    ____________   
 72
    65
 73
     6
 40
5.0
 49
2.5
 74
     0
 49
-0.5
 74
     0
 49
0.5
 74
     0
 49
-0.5
 74
     0
 49
0.5
 74
     0
 49
-0.5
 74
     0
  0
LTYPE
  5
6F7
100
AcDbSymbolTableRecord
100
AcDbLinetypeTableRecord
  2
0
 70
     0
  3
MEDUSA PEN 0
 72
    65
 73
     0
 40
0.0
  0
ENDTAB
  0
TABLE
  2
LAYER
  5
6BC
100
AcDbSymbolTable
 70
    21
  0
LAYER
  5
6C8
100
AcDbSymbolTableRecord
100
AcDbLayerTableRecord
  2
0
 70
     0
 62
     7
  6
CONTINUOUS
  0
LAYER
  5
6FD
100
AcDbSymbolTableRecord
100
AcDbLayerTableRecord
  2
COTATION1
 70
     0
 62
     2
  6
CONTINUOUS
  0
LAYER
  5
6FE
100
AcDbSymbolTableRecord
100
AcDbLayerTableRecord
  2
ALPHA
 70
     0
 62
   255
  6
CONTINUOUS
  0
LAYER
  5
6FF
100
AcDbSymbolTableRecord
100
AcDbLayerTableRecord
  2
DEFPOINTS
 70
     0
 62
     7
  6
CONTINUOUS
  0
LAYER
  5
700
100
AcDbSymbolTableRecord
100
AcDbLayerTableRecord
  2
AXE
 70
     0
 62
    80
  6
AXES2
  0
LAYER
  5
701
100
AcDbSymbolTableRecord
100
AcDbLayerTableRecord
  2
CONSTRUCTION
 70
     0
 62
     6
  6
CONTINUOUS
  0
LAYER
  5
702
100
AcDbSymbolTableRecord
100
AcDbLayerTableRecord
  2
HACHURES
 70
     0
 62
     9
  6
CONTINUOUS
  0
LAYER
  5
703
100
AcDbSymbolTableRecord
100
AcDbLayerTableRecord
  2
FMULT
 70
     0
 62
     6
  6
CONTINUOUS
  0
LAYER
  5
704
100
AcDbSymbolTableRecord
100
AcDbLayerTableRecord
  2
TEXTE
 70
     0
 62
   131
  6
CONTINUOUS
  0
LAYER
  5
705
100
AcDbSymbolTableRecord
100
AcDbLayerTableRecord
  2
FDP_CARTOUCHE
 70
     0
 62
     4
  6
CONTINUOUS
  0
LAYER
  5
706
100
AcDbSymbolTableRecord
100
AcDbLayerTableRecord
  2
FDP_TEXTES
 70
     0
 62
     5
  6
CONTINUOUS
  0
LAYER
  5
707
100
AcDbSymbolTableRecord
100
AcDbLayerTableRecord
  2
FDP_LOGO_MG
 70
     0
 62
    30
  6
CONTINUOUS
  0
LAYER
  5
708
100
AcDbSymbolTableRecord
100
AcDbLayerTableRecord
  2
FDP_LOGO_SCH
 70
     0
 62
     3
  6
CONTINUOUS
  0
LAYER
  5
709
100
AcDbSymbolTableRecord
100
AcDbLayerTableRecord
  2
FDP_FDP
 70
     0
 62
     5
  6
CONTINUOUS
  0
LAYER
  5
70A
100
AcDbSymbolTableRecord
100
AcDbLayerTableRecord
  2
COTATION2
 70
     0
 62
     2
  6
CONTINUOUS
  0
LAYER
  5
70B
100
AcDbSymbolTableRecord
100
AcDbLayerTableRecord
  2
COTATION3
 70
     0
 62
     2
  6
CONTINUOUS
  0
LAYER
  5
70C
100
AcDbSymbolTableRecord
100
AcDbLayerTableRecord
  2
COTATION4
 70
     0
 62
     2
  6
CONTINUOUS
  0
LAYER
  5
70D
100
AcDbSymbolTableRecord
100
AcDbLayerTableRecord
  2
ASHADE
 70
     0
 62
     7
  6
CONTINUOUS
  0
LAYER
  5
70E
100
AcDbSymbolTableRecord
100
AcDbLayerTableRecord
  2
POINTILLE_COURT
 70
     0
 62
    40
  6
CACHE2
  0
LAYER
  5
70F
100
AcDbSymbolTableRecord
100
AcDbLayerTableRecord
  2
POINTILLE_MOYEN
 70
     0
 62
   140
  6
CACHE
  0
LAYER
  5
710
100
AcDbSymbolTableRecord
100
AcDbLayerTableRecord
  2
POINTILLE_LONG
 70
     0
 62
   240
  6
CACHEX2
  0
ENDTAB
  0
TABLE
  2
STYLE
  5
6BD
100
AcDbSymbolTable
 70
     4
  0
STYLE
  5
6C9
100
AcDbSymbolTableRecord
100
AcDbTextStyleTableRecord
  2
STANDARD
 70
     0
 40
0.0
 41
1.0
 50
0.0
 71
     0
 42
0.2
  3
txt
  4

  0
STYLE
  5
6DF
100
AcDbSymbolTableRecord
100
AcDbTextStyleTableRecord
  2
ROMANS
 70
     0
 40
0.0
 41
1.0
 50
0.0
 71
     0
 42
2.9
  3
romans.shx
  4

  0
STYLE
  5
6E0
100
AcDbSymbolTableRecord
100
AcDbTextStyleTableRecord
  2
INFOCAR
 70
     0
 40
0.0
 41
1.34
 50
0.0
 71
     0
 42
2.0
  3
ROMANS.SHX
  4

  0
STYLE
  5
6E1
100
AcDbSymbolTableRecord
100
AcDbTextStyleTableRecord
  2
CARTOUCHE
 70
     0
 40
0.0
 41
1.0
 50
0.0
 71
     0
 42
0.2
  3
ROMANS.SHX
  4

  0
ENDTAB
  0
TABLE
  2
VIEW
  5
6C0
100
AcDbSymbolTable
 70
     0
  0
ENDTAB
  0
TABLE
  2
UCS
  5
6C1
100
AcDbSymbolTable
 70
     0
  0
ENDTAB
  0
TABLE
  2
APPID
  5
6C3
100
AcDbSymbolTable
 70
     3
  0
APPID
  5
6CA
100
AcDbSymbolTableRecord
100
AcDbRegAppTableRecord
  2
ACAD
 70
     0
  0
APPID
  5
6F9
100
AcDbSymbolTableRecord
100
AcDbRegAppTableRecord
  2
AVE_RENDER
 70
     0
  0
APPID
  5
6FA
100
AcDbSymbolTableRecord
100
AcDbRegAppTableRecord
  2
AVE_MATERIAL
 70
     0
  0
ENDTAB
  0
TABLE
  2
DIMSTYLE
  5
6C4
100
AcDbSymbolTable
 70
     2
  0
DIMSTYLE
105
6FB
102
{ACAD_REACTORS
330
1F
330
4C
330
59
102
}
100
AcDbSymbolTableRecord
100
AcDbDimStyleTableRecord
  2
SC_STAND
 70
     0
  3

  4

  5

  6

  7

 40
1.0
 41
3.0
 42
0.0625
 43
0.38
 44
0.18
 45
0.01
 46
0.0
 47
0.0
 48
0.0
140
2.5
141
0.09
142
0.0
143
25.4
144
1.0
145
0.0
146
1.0
147
1.0
 71
     0
 72
     0
 73
     0
 74
     0
 75
     0
 76
     0
 77
     1
 78
    12
170
     0
171
     2
172
     1
173
     0
174
     0
175
     0
176
     0
177
     0
178
     0
270
     2
271
     4
272
     4
273
     2
274
     2
340
6C9
275
     0
280
     0
281
     0
282
     0
283
     1
284
    12
285
    12
286
    12
287
     5
288
     0
  0
DIMSTYLE
105
6FC
100
AcDbSymbolTableRecord
100
AcDbDimStyleTableRecord
  2
STANDARD
 70
     0
  3

  4

  5

  6

  7

 40
1.0
 41
0.18
 42
0.0625
 43
0.38
 44
0.18
 45
0.0
 46
0.0
 47
0.0
 48
0.0
140
0.18
141
0.09
142
0.0
143
25.4
144
1.0
145
0.0
146
1.0
147
0.09
 71
     0
 72
     0
 73
     1
 74
     1
 75
     0
 76
     0
 77
     0
 78
     0
170
     0
171
     2
172
     0
173
     0
174
     0
175
     0
176
     0
177
     0
178
     0
270
     2
271
     4
272
     4
273
     2
274
     2
340
6C9
275
     0
280
     0
281
     0
282
     0
283
     1
284
    12
285
    12
286
    12
287
     5
288
     0
  0
ENDTAB
  0
TABLE
  2
BLOCK_RECORD
  5
6BB
100
AcDbSymbolTable
 70
     6
  0
BLOCK_RECORD
  5
6D1
100
AcDbSymbolTableRecord
100
AcDbBlockTableRecord
  2
*MODEL_SPACE
  0
BLOCK_RECORD
  5
6CE
100
AcDbSymbolTableRecord
100
AcDbBlockTableRecord
  2
*PAPER_SPACE
  0
BLOCK_RECORD
  5
6D9
100
AcDbSymbolTableRecord
100
AcDbBlockTableRecord
  2
AVE_RENDER
  0
BLOCK_RECORD
  5
6DA
100
AcDbSymbolTableRecord
100
AcDbBlockTableRecord
  2
AVE_GLOBAL
  0
BLOCK_RECORD
  5
6DB
100
AcDbSymbolTableRecord
100
AcDbBlockTableRecord
  2
SCH_ISO
  0
BLOCK_RECORD
  5
6DC
100
AcDbSymbolTableRecord
100
AcDbBlockTableRecord
  2
*D3
  0
BLOCK_RECORD
  5
6DD
100
AcDbSymbolTableRecord
100
AcDbBlockTableRecord
  2
*D4
  0
BLOCK_RECORD
  5
6DE
100
AcDbSymbolTableRecord
100
AcDbBlockTableRecord
  2
*D5
  0
ENDTAB
  0
ENDSEC
  0
SECTION
  2
BLOCKS
  0
BLOCK
  5
713
100
AcDbEntity
  8
0
100
AcDbBlockBegin
  2
*MODEL_SPACE
 70
     0
 10
0.0
 20
0.0
 30
0.0
  3
*MODEL_SPACE
  1

  0
ENDBLK
  5
714
100
AcDbEntity
  8
0
100
AcDbBlockEnd
  0
BLOCK
  5
711
100
AcDbEntity
 67
     1
  8
0
100
AcDbBlockBegin
  2
*PAPER_SPACE
 70
     0
 10
0.0
 20
0.0
 30
0.0
  3
*PAPER_SPACE
  1

  0
ENDBLK
  5
712
100
AcDbEntity
 67
     1
  8
0
100
AcDbBlockEnd
  0
BLOCK
  5
45A
100
AcDbEntity
  8
0
100
AcDbBlockBegin
  2
AVE_RENDER
 70
     0
 10
0.0
 20
0.0
 30
0.0
  3
AVE_RENDER
  1
AVE_RENDER
  0
ENDBLK
  5
45B
100
AcDbEntity
  8
0
100
AcDbBlockEnd
  0
BLOCK
  5
45D
100
AcDbEntity
  8
0
100
AcDbBlockBegin
  2
AVE_GLOBAL
 70
     0
 10
0.0
 20
0.0
 30
0.0
  3
AVE_GLOBAL
  1
AVE_GLOBAL
  0
ENDBLK
  5
45E
100
AcDbEntity
  8
0
100
AcDbBlockEnd
  0
BLOCK
  5
495
100
AcDbEntity
  8
0
100
AcDbBlockBegin
  2
SCH_ISO
 70
     0
 10
0.0
 20
0.0
 30
0.0
  3
SCH_ISO
  1

  0
INSERT
  5
48C
100
AcDbEntity
  8
ASHADE
 62
     1
100
AcDbBlockReference
  2
AVE_RENDER
 10
0.0
 20
0.0
 30
0.0
1001
AVE_RENDER
1002
{
1070
     6
1000
Pref
1070
    50
1070
    20
1070
     1
1070
     0
1000

1070
    10
1070
     1
1070
    30
1040
25.4
1070
     1
1040
0.3
1040
0.7
1040
0.0
1040
10.0
1010
-1.0
1020
-1.0
1030
-1.0
1040
0.3
1070
    49
1070
     0
1070
     0
1010
1.0
1020
1.0
1030
1.0
1040
45.0
1070
     1
1070
     0
1000
WCS
1040
0.0
1002
}
  0
INSERT
  5
48D
100
AcDbEntity
  8
ASHADE
 62
     3
100
AcDbBlockReference
  2
AVE_RENDER
 10
0.0
 20
0.0
 30
0.0
1001
AVE_RENDER
1002
{
1070
     0
1000
Full Opt
1070
     0
1070
     1
1070
     1
1070
     1
1070
     0
1070
     0
1070
     0
1070
     1
1070
     1
1040
0.0001
1040
0.0001
1002
}
  0
INSERT
  5
48E
100
AcDbEntity
  8
ASHADE
 62
     4
100
AcDbBlockReference
  2
AVE_RENDER
 10
0.0
 20
0.0
 30
0.0
1001
AVE_RENDER
1002
{
1070
     0
1000
Quick Opt
1070
     0
1070
     1
1070
     1
1070
     1
1070
     0
1070
     0
1070
     1
1002
}
  0
INSERT
  5
48F
100
AcDbEntity
  8
ASHADE
 62
     5
100
AcDbBlockReference
  2
AVE_RENDER
 10
0.0
 20
0.0
 30
0.0
1001
AVE_RENDER
1002
{
1070
     1
1000
Scanl Opt
1070
     2
1070
     0
1070
     2
1040
2.0
1040
4.0
1070
     0
1070
     1
1070
     0
1040
0.03
1002
}
  0
INSERT
  5
490
100
AcDbEntity
  8
ASHADE
 62
     6
100
AcDbBlockReference
  2
AVE_RENDER
 10
0.0
 20
0.0
 30
0.0
1001
AVE_RENDER
1002
{
1070
     2
1000
Raytr Opt
1070
     2
1070
     0
1070
     2
1040
2.0
1040
4.0
1070
     0
1070
     1
1070
     1
1040
0.03
1070
     3
1040
0.03
1002
}
  0
INSERT
  5
491
100
AcDbEntity
  8
ASHADE
 62
     7
100
AcDbBlockReference
  2
AVE_RENDER
 10
0.0
 20
0.0
 30
0.0
1001
AVE_RENDER
1002
{
1070
     0
1000
RFile Opt
1070
     5
1070
   640
1070
   480
1070
 10000
1070
     3
1070
    32
1070
    24
1070
     0
1070
     0
1070
     0
1070
     1
1070
     0
1070
     0
1070
     0
1002
}
  0
INSERT
  5
492
100
AcDbEntity
  8
ASHADE
 62
     8
100
AcDbBlockReference
  2
AVE_RENDER
 10
0.0
 20
0.0
 30
0.0
1001
AVE_RENDER
1002
{
1070
     0
1000
Fog Opt
1070
     0
1070
     0
1040
0.0
1040
1.0
1040
0.0
1040
1.0
1010
0.5
1020
0.5
1030
0.5
1002
}
  0
INSERT
  5
493
100
AcDbEntity
  8
ASHADE
 62
     9
100
AcDbBlockReference
  2
AVE_RENDER
 10
0.0
 20
0.0
 30
0.0
1001
AVE_RENDER
1002
{
1070
     0
1000
BG Opt
1070
     0
1070
     1
1010
0.0
1020
0.0
1030
0.0
1010
1.0
1020
0.0
1030
0.0
1010
0.0
1020
1.0
1030
0.0
1010
0.0
1020
0.0
1030
1.0
1040
0.5
1040
0.33
1040
0.0
1000

1070
     1
1000

1070
     1
1070
     1
1040
1.0
1040
1.0
1040
0.0
1040
0.0
1070
     0
1002
}
  0
INSERT
  5
494
100
AcDbEntity
  8
ASHADE
 62
     1
100
AcDbBlockReference
  2
AVE_GLOBAL
 10
0.0
 20
0.0
 30
0.0
1001
AVE_MATERIAL
1002
{
1000
*GLOBAL*
1000
1
1000
Finition globale.
1002
{
1002
}
1002
{
1070
    63
1002
{
1002
{
1010
-1.0
1020
-1.0
1030
-1.0
1002
}
1040
0.1
1000

1040
0.0
1002
{
1002
}
1040
0.0
1002
{
1002
}
1040
0.0
1002
}
1002
{
1002
{
1010
-1.0
1020
-1.0
1030
-1.0
1002
}
1040
0.7
1000

1040
0.0
1002
{
1002
}
1040
0.0
1002
{
1002
}
1040
0.0
1002
}
1002
{
1002
{
1010
-1.0
1020
-1.0
1030
-1.0
1002
}
1040
0.2
1000

1040
0.0
1002
{
1002
}
1040
0.0
1002
{
1002
}
1040
0.0
1002
}
1002
{
1070
     0
1002
{
1070
     1
1002
{
1040
1.0
1040
1.0
1000

1040
0.0
1002
{
1002
}
1040
0.0
1002
{
1002
}
1040
0.0
1002
}
1002
}
1040
1.0
1040
0.0
1040
0.0
1002
}
1002
{
1040
1.0
1040
1.0
1000

1040
0.0
1002
{
1002
}
1040
0.0
1002
{
1002
}
1040
0.0
1002
}
1002
{
1040
0.5
1040
1.0
1000

1040
0.0
1002
{
1002
}
1040
0.0
1002
{
1002
}
1040
0.0
1002
}
1002
{
1070
     0
1040
0.0
1002
{
1002
}
1040
1.0
1002
{
1002
}
1040
0.0
1002
}
1002
{
1040
0.0
1002
{
1002
{
1010
0.0
1020
0.0
1030
0.0
1002
}
1040
1.0
1000

1040
0.0
1002
{
1002
}
1040
0.0
1002
{
1002
}
1040
0.0
1002
}
1002
}
1002
{
1002
{
1070
     1
1002
{
1040
0.0
1040
1.0
1000

1040
0.0
1002
{
1002
}
1040
0.0
1002
{
1002
}
1040
0.0
1002
}
1002
}
1040
0.0
1002
{
1002
}
1010
1.0
1020
0.0
1030
0.0
1010
0.0
1020
1.0
1030
0.0
1010
0.0
1020
0.0
1030
1.0
1070
     0
1002
}
1002
{
1002
{
1040
1.0
1040
1.0
1002
{
1070
     1
1002
{
1040
1.0
1040
1.0
1000

1040
0.0
1002
{
1002
}
1040
0.0
1002
{
1002
}
1040
0.0
1002
}
1002
}
1002
}
1070
     0
1040
0.0
1002
{
1002
}
1002
}
1002
{
1002
}
1002
}
1002
{
1071
        3
1070
     3
1070
     0
1002
{
1070
     2
1070
     0
1070
     0
1040
0.0
1002
}
1070
     0
1070
     2
1002
{
1002
}
1002
}
1002
{
1040
8030.0
1040
190.300003
1040
0.305
1040
228.0
1040
545.0
1040
14.0
1040
17.4
1040
0.456
1002
}
1002
}
  0
ENDBLK
  5
496
100
AcDbEntity
  8
0
100
AcDbBlockEnd
  0
BLOCK
  5
499
100
AcDbEntity
  8
0
100
AcDbBlockBegin
  2
*D3
 70
     1
 10
0.0
 20
0.0
 30
0.0
  3
*D3
  1

  0
LINE
  5
49A
100
AcDbEntity
  8
0
  6
BYBLOCK
 62
     0
100
AcDbLine
 10
267.57802
 20
33.976112
 30
0.0
 11
317.261926
 21
33.976112
 31
0.0
  0
LINE
  5
49B
100
AcDbEntity
  8
0
  6
BYBLOCK
 62
     0
100
AcDbLine
 10
260.37802
 20
151.976112
 30
0.0
 11
317.261926
 21
151.976112
 31
0.0
  0
LINE
  5
49C
100
AcDbEntity
  8
0
  6
BYBLOCK
 62
     0
100
AcDbLine
 10
317.081926
 20
36.976112
 30
0.0
 11
317.081926
 21
148.976112
 31
0.0
  0
SOLID
  5
49D
100
AcDbEntity
  8
0
  6
BYBLOCK
 62
     0
100
AcDbTrace
 10
316.581926
 20
36.976112
 30
0.0
 11
317.581926
 21
36.976112
 31
0.0
 12
317.081926
 22
33.976112
 32
0.0
 13
317.081926
 23
33.976112
 33
0.0
  0
SOLID
  5
49E
100
AcDbEntity
  8
0
  6
BYBLOCK
 62
     0
100
AcDbTrace
 10
316.581926
 20
148.976112
 30
0.0
 11
317.581926
 21
148.976112
 31
0.0
 12
317.081926
 22
151.976112
 32
0.0
 13
317.081926
 23
151.976112
 33
0.0
  0
TEXT
  5
49F
100
AcDbEntity
  8
0
  6
BYBLOCK
 62
     0
100
AcDbText
 10
316.081926
 20
89.226112
 30
0.0
 40
2.5
  1
118
 50
90.0
  7
ROMANS
100
AcDbText
  0
POINT
  5
4A0
100
AcDbEntity
  8
DEFPOINTS
  6
BYBLOCK
 62
     0
100
AcDbPoint
 10
267.51552
 20
33.976112
 30
0.0
  0
POINT
  5
4A1
100
AcDbEntity
  8
DEFPOINTS
  6
BYBLOCK
 62
     0
100
AcDbPoint
 10
260.31552
 20
151.976112
 30
0.0
  0
POINT
  5
4A2
100
AcDbEntity
  8
DEFPOINTS
  6
BYBLOCK
 62
     0
100
AcDbPoint
 10
317.081926
 20
151.976112
 30
0.0
  0
ENDBLK
  5
4A3
100
AcDbEntity
  8
0
100
AcDbBlockEnd
  0
BLOCK
  5
4A5
100
AcDbEntity
  8
0
100
AcDbBlockBegin
  2
*D4
 70
     1
 10
0.0
 20
0.0
 30
0.0
  3
*D4
  1

  0
LINE
  5
4A6
100
AcDbEntity
  8
0
  6
BYBLOCK
 62
     0
100
AcDbLine
 10
267.51552
 20
33.913612
 30
0.0
 11
267.51552
 21
4.375519
 31
0.0
  0
LINE
  5
4A7
100
AcDbEntity
  8
0
  6
BYBLOCK
 62
     0
100
AcDbLine
 10
167.51552
 20
33.913612
 30
0.0
 11
167.51552
 21
4.375519
 31
0.0
  0
LINE
  5
4A8
100
AcDbEntity
  8
0
  6
BYBLOCK
 62
     0
100
AcDbLine
 10
264.51552
 20
4.555519
 30
0.0
 11
170.51552
 21
4.555519
 31
0.0
  0
SOLID
  5
4A9
100
AcDbEntity
  8
0
  6
BYBLOCK
 62
     0
100
AcDbTrace
 10
264.51552
 20
5.055519
 30
0.0
 11
264.51552
 21
4.055519
 31
0.0
 12
267.51552
 22
4.555519
 32
0.0
 13
267.51552
 23
4.555519
 33
0.0
  0
SOLID
  5
4AA
100
AcDbEntity
  8
0
  6
BYBLOCK
 62
     0
100
AcDbTrace
 10
170.51552
 20
5.055519
 30
0.0
 11
170.51552
 21
4.055519
 31
0.0
 12
167.51552
 22
4.555519
 32
0.0
 13
167.51552
 23
4.555519
 33
0.0
  0
TEXT
  5
4AB
100
AcDbEntity
  8
0
  6
BYBLOCK
 62
     0
100
AcDbText
 10
213.76552
 20
5.555519
 30
0.0
 40
2.5
  1
100
  7
ROMANS
100
AcDbText
  0
POINT
  5
4AC
100
AcDbEntity
  8
DEFPOINTS
  6
BYBLOCK
 62
     0
100
AcDbPoint
 10
267.51552
 20
33.976112
 30
0.0
  0
POINT
  5
4AD
100
AcDbEntity
  8
DEFPOINTS
  6
BYBLOCK
 62
     0
100
AcDbPoint
 10
167.51552
 20
33.976112
 30
0.0
  0
POINT
  5
4AE
100
AcDbEntity
  8
DEFPOINTS
  6
BYBLOCK
 62
     0
100
AcDbPoint
 10
167.51552
 20
4.555519
 30
0.0
  0
ENDBLK
  5
4AF
100
AcDbEntity
  8
0
100
AcDbBlockEnd
  0
BLOCK
  5
4B1
100
AcDbEntity
  8
0
100
AcDbBlockBegin
  2
*D5
 70
     1
 10
0.0
 20
0.0
 30
0.0
  3
*D5
  1

  0
LINE
  5
4B2
100
AcDbEntity
  8
0
  6
BYBLOCK
 62
     0
100
AcDbLine
 10
160.01552
 20
47.413612
 30
0.0
 11
160.01552
 21
-8.34917
 31
0.0
  0
LINE
  5
4B3
100
AcDbEntity
  8
0
  6
BYBLOCK
 62
     0
100
AcDbLine
 10
275.01552
 20
47.413612
 30
0.0
 11
275.01552
 21
-8.34917
 31
0.0
  0
LINE
  5
4B4
100
AcDbEntity
  8
0
  6
BYBLOCK
 62
     0
100
AcDbLine
 10
163.01552
 20
-8.16917
 30
0.0
 11
272.01552
 21
-8.16917
 31
0.0
  0
SOLID
  5
4B5
100
AcDbEntity
  8
0
  6
BYBLOCK
 62
     0
100
AcDbTrace
 10
163.01552
 20
-7.66917
 30
0.0
 11
163.01552
 21
-8.66917
 31
0.0
 12
160.01552
 22
-8.16917
 32
0.0
 13
160.01552
 23
-8.16917
 33
0.0
  0
SOLID
  5
4B6
100
AcDbEntity
  8
0
  6
BYBLOCK
 62
     0
100
AcDbTrace
 10
272.01552
 20
-7.66917
 30
0.0
 11
272.01552
 21
-8.66917
 31
0.0
 12
275.01552
 22
-8.16917
 32
0.0
 13
275.01552
 23
-8.16917
 33
0.0
  0
TEXT
  5
4B7
100
AcDbEntity
  8
0
  6
BYBLOCK
 62
     0
100
AcDbText
 10
213.76552
 20
-7.16917
 30
0.0
 40
2.5
  1
115
  7
ROMANS
100
AcDbText
  0
POINT
  5
4B8
100
AcDbEntity
  8
DEFPOINTS
  6
BYBLOCK
 62
     0
100
AcDbPoint
 10
160.01552
 20
47.476112
 30
0.0
  0
POINT
  5
4B9
100
AcDbEntity
  8
DEFPOINTS
  6
BYBLOCK
 62
     0
100
AcDbPoint
 10
275.01552
 20
47.476112
 30
0.0
  0
POINT
  5
4BA
100
AcDbEntity
  8
DEFPOINTS
  6
BYBLOCK
 62
     0
100
AcDbPoint
 10
275.01552
 20
-8.16917
 30
0.0
  0
ENDBLK
  5
4BB
100
AcDbEntity
  8
0
100
AcDbBlockEnd
  0
ENDSEC
  0
SECTION
  2
ENTITIES
  0
DIMENSION
  5
1F
100
AcDbEntity
  8
COTATION1
100
AcDbDimension
  2
*D3
 10
317.081926
 20
151.976112
 30
0.0
 11
314.831926
 21
92.976112
 31
0.0
  3
SC_STAND
100
AcDbAlignedDimension
 13
267.51552
 23
33.976112
 33
0.0
 14
260.31552
 24
151.976112
 34
0.0
 50
90.0
100
AcDbRotatedDimension
  0
CIRCLE
  5
2E
100
AcDbEntity
  8
ALPHA
100
AcDbCircle
 10
268.221134
 20
74.00685
 30
0.0
 40
3.25
  0
CIRCLE
  5
2F
100
AcDbEntity
  8
ALPHA
100
AcDbCircle
 10
236.422345
 20
74.284354
 30
0.0
 40
3.25
  0
CIRCLE
  5
30
100
AcDbEntity
  8
ALPHA
100
AcDbCircle
 10
257.921526
 20
74.096733
 30
0.0
 40
3.25
  0
CIRCLE
  5
31
100
AcDbEntity
  8
ALPHA
100
AcDbCircle
 10
246.721953
 20
74.19447
 30
0.0
 40
3.25
  0
ARC
  5
32
100
AcDbEntity
  8
ALPHA
100
AcDbCircle
 10
234.891853
 20
71.297596
 30
0.0
 40
0.5
100
AcDbArc
 50
359.499916
 51
89.499916
  0
ARC
  5
33
100
AcDbEntity
  8
ALPHA
100
AcDbCircle
 10
237.891739
 20
71.271416
 30
0.0
 40
0.5
100
AcDbArc
 50
89.500031
 51
179.500031
  0
ARC
  5
34
100
AcDbEntity
  8
ALPHA
100
AcDbCircle
 10
245.191461
 20
71.207712
 30
0.0
 40
0.5
100
AcDbArc
 50
359.500031
 51
89.499916
  0
ARC
  5
35
100
AcDbEntity
  8
ALPHA
100
AcDbCircle
 10
248.191347
 20
71.181533
 30
0.0
 40
0.5
100
AcDbArc
 50
89.500031
 51
179.500031
  0
ARC
  5
36
100
AcDbEntity
  8
ALPHA
100
AcDbCircle
 10
256.391035
 20
71.109975
 30
0.0
 40
0.5
100
AcDbArc
 50
359.500031
 51
89.500031
  0
ARC
  5
37
100
AcDbEntity
  8
ALPHA
100
AcDbCircle
 10
259.390921
 20
71.083796
 30
0.0
 40
0.5
100
AcDbArc
 50
89.500031
 51
179.500031
  0
LINE
  5
38
100
AcDbEntity
  8
ALPHA
100
AcDbLine
 10
274.383012
 20
60.243827
 30
0.0
 11
274.810764
 21
84.749754
 31
0.0
  0
LINE
  5
39
100
AcDbEntity
  8
ALPHA
100
AcDbLine
 10
274.281632
 20
69.453789
 30
0.0
 11
274.360171
 21
78.453446
 31
0.0
  0
LINE
  5
3A
100
AcDbEntity
  8
ALPHA
100
AcDbLine
 10
275.01552
 20
47.476112
 30
0.0
 11
275.01552
 21
116.476112
 31
0.0
  0
LINE
  5
3B
100
AcDbEntity
  8
ALPHA
100
AcDbLine
 10
253.798137
 20
70.533821
 30
0.0
 11
253.939485
 21
78.631655
 31
0.0
  0
LINE
  5
3C
100
AcDbEntity
  8
ALPHA
100
AcDbLine
 10
254.010946
 20
78.631031
 30
0.0
 11
253.940261
 21
70.53134
 31
0.0
  0
LINE
  5
3D
100
AcDbEntity
  8
ALPHA
100
AcDbLine
 10
253.947852
 20
77.631544
 30
0.0
 11
253.886767
 21
70.631811
 31
0.0
  0
LINE
  5
3E
100
AcDbEntity
  8
ALPHA
100
AcDbLine
 10
250.686889
 20
70.659735
 30
0.0
 11
250.747974
 21
77.659469
 31
0.0
  0
LINE
  5
3F
100
AcDbEntity
  8
ALPHA
100
AcDbLine
 10
250.711072
 20
78.659829
 30
0.0
 11
250.640387
 21
70.560137
 31
0.0
  0
LINE
  5
40
100
AcDbEntity
  8
ALPHA
100
AcDbLine
 10
250.773795
 20
70.560137
 30
0.0
 11
250.773795
 21
78.659282
 31
0.0
  0
LINE
  5
41
100
AcDbEntity
  8
ALPHA
100
AcDbLine
 10
230.283308
 20
69.837757
 30
0.0
 11
230.361847
 21
78.837414
 31
0.0
  0
LINE
  5
42
100
AcDbEntity
  8
ALPHA
100
AcDbLine
 10
229.865864
 20
68.341343
 30
0.0
 11
230.01247
 21
85.140703
 31
0.0
  0
LINE
  5
43
100
AcDbEntity
  8
ALPHA
100
AcDbLine
 10
229.272868
 20
69.146548
 30
0.0
 11
229.564335
 21
102.545276
 31
0.0
  0
LINE
  5
44
100
AcDbEntity
  8
ALPHA
100
AcDbLine
 10
171.676286
 20
73.449331
 30
0.0
 11
171.643863
 21
71.649545
 31
0.0
  0
LINE
  5
45
100
AcDbEntity
  8
ALPHA
100
AcDbLine
 10
171.232333
 20
73.453205
 30
0.0
 11
171.166179
 21
69.653637
 31
0.0
  0
LINE
  5
46
100
AcDbEntity
  8
ALPHA
100
AcDbLine
 10
171.473709
 20
73.451098
 30
0.0
 11
171.442561
 21
71.651302
 31
0.0
  0
LINE
  5
47
100
AcDbEntity
  8
ALPHA
100
AcDbLine
 10
171.726782
 20
73.44889
 30
0.0
 11
171.633916
 21
67.849487
 31
0.0
  0
LINE
  5
48
100
AcDbEntity
  8
ALPHA
100
AcDbLine
 10
173.720896
 20
73.431487
 30
0.0
 11
173.720762
 21
69.631344
 31
0.0
  0
LINE
  5
49
100
AcDbEntity
  8
ALPHA
100
AcDbLine
 10
161.275458
 20
69.739952
 30
0.0
 11
161.566924
 21
103.138681
 31
0.0
  0
LINE
  5
4A
100
AcDbEntity
  8
ALPHA
100
AcDbLine
 10
160.669325
 20
88.34595
 30
0.0
 11
160.670049
 21
68.945205
 31
0.0
  0
LINE
  5
4B
100
AcDbEntity
  8
ALPHA
100
AcDbLine
 10
159.815143
 20
61.243646
 30
0.0
 11
159.815143
 21
88.353405
 31
0.0
  0
DIMENSION
  5
4C
100
AcDbEntity
  8
COTATION1
100
AcDbDimension
  2
*D4
 10
167.51552
 20
4.555519
 30
0.0
 11
217.51552
 21
6.805519
 31
0.0
  3
SC_STAND
100
AcDbAlignedDimension
 13
267.51552
 23
33.976112
 33
0.0
 14
167.51552
 24
33.976112
 34
0.0
100
AcDbRotatedDimension
  0
DIMENSION
  5
59
100
AcDbEntity
  8
COTATION1
100
AcDbDimension
  2
*D5
 10
275.01552
 20
-8.16917
 30
0.0
 11
217.51552
 21
-5.91917
 31
0.0
  3
SC_STAND
100
AcDbAlignedDimension
 13
160.01552
 23
47.476112
 33
0.0
 14
275.01552
 24
47.476112
 34
0.0
100
AcDbRotatedDimension
  0
LINE
  5
66
100
AcDbEntity
  8
ALPHA
100
AcDbLine
 10
255.895417
 20
71.614319
 30
0.0
 11
256.395398
 21
71.609956
 31
0.0
  0
LINE
  5
67
100
AcDbEntity
  8
ALPHA
100
AcDbLine
 10
242.56975
 20
68.230477
 30
0.0
 11
261.969011
 21
68.061183
 31
0.0
  0
LINE
  5
68
100
AcDbEntity
  8
ALPHA
100
AcDbLine
 10
231.567318
 20
67.326456
 30
0.0
 11
272.945251
 21
66.965356
 31
0.0
  0
LINE
  5
69
100
AcDbEntity
  8
ALPHA
100
AcDbLine
 10
160.808458
 20
60.243666
 30
0.0
 11
273.372396
 21
59.261336
 31
0.0
  0
LINE
  5
6A
100
AcDbEntity
  8
ALPHA
100
AcDbLine
 10
260.01552
 20
48.226112
 30
0.0
 11
255.01552
 21
48.226112
 31
0.0
  0
LINE
  5
6B
100
AcDbEntity
  8
ALPHA
100
AcDbLine
 10
255.01552
 20
39.726112
 30
0.0
 11
260.01552
 21
39.726112
 31
0.0
  0
LINE
  5
6C
100
AcDbEntity
  8
ALPHA
100
AcDbLine
 10
267.51552
 20
34.476112
 30
0.0
 11
247.51552
 21
34.476112
 31
0.0
  0
LINE
  5
6D
100
AcDbEntity
  8
ALPHA
100
AcDbLine
 10
267.51552
 20
33.976112
 30
0.0
 11
247.51552
 21
33.976112
 31
0.0
  0
LINE
  5
6E
100
AcDbEntity
  8
ALPHA
100
AcDbLine
 10
173.692218
 20
69.631593
 30
0.0
 11
229.272868
 21
69.146548
 31
0.0
  0
LINE
  5
6F
100
AcDbEntity
  8
ALPHA
100
AcDbLine
 10
173.69219
 20
68.831563
 30
0.0
 11
229.865864
 21
68.341343
 31
0.0
  0
LINE
  5
70
100
AcDbEntity
  8
ALPHA
100
AcDbLine
 10
160.806416
 20
67.943977
 30
0.0
 11
229.857138
 21
67.341381
 31
0.0
  0
LINE
  5
71
100
AcDbEntity
  8
ALPHA
100
AcDbLine
 10
211.171026
 20
67.270487
 30
0.0
 11
160.808458
 21
67.709995
 31
0.0
  0
LINE
  5
72
100
AcDbEntity
  8
ALPHA
100
AcDbLine
 10
202.61552
 20
59.576112
 30
0.0
 11
207.51552
 21
59.576112
 31
0.0
  0
ARC
  5
73
100
AcDbEntity
  8
ALPHA
100
AcDbCircle
 10
161.01552
 20
47.476112
 30
0.0
 40
1.0
100
AcDbArc
 50
180.0
 51
270.0
  0
ARC
  5
74
100
AcDbEntity
  8
ALPHA
100
AcDbCircle
 10
180.01552
 20
43.976112
 30
0.0
 40
4.25
100
AcDbArc
 50
270.0
 51
90.0
  0
ARC
  5
75
100
AcDbEntity
  8
ALPHA
100
AcDbCircle
 10
175.01552
 20
43.976112
 30
0.0
 40
4.25
100
AcDbArc
 50
90.0
 51
270.0
  0
LINE
  5
76
100
AcDbEntity
  8
ALPHA
100
AcDbLine
 10
164.26552
 20
46.976131
 30
0.0
 11
163.765482
 21
46.476112
 31
0.0
  0
LINE
  5
77
100
AcDbEntity
  8
ALPHA
100
AcDbLine
 10
187.51552
 20
33.976112
 30
0.0
 11
187.51552
 21
60.010597
 31
0.0
  0
LINE
  5
78
100
AcDbEntity
  8
ALPHA
100
AcDbLine
 10
174.89509
 20
46.476112
 30
0.0
 11
174.91037
 21
48.22703
 31
0.0
  0
LINE
  5
79
100
AcDbEntity
  8
ALPHA
100
AcDbLine
 10
173.01552
 20
46.476112
 30
0.0
 11
173.01552
 21
47.707714
 31
0.0
  0
LINE
  5
7A
100
AcDbEntity
  8
ALPHA
100
AcDbLine
 10
167.51552
 20
33.976112
 30
0.0
 11
167.51552
 21
60.185135
 31
0.0
  0
LINE
  5
7B
100
AcDbEntity
  8
ALPHA
100
AcDbLine
 10
162.01552
 20
59.576112
 30
0.0
 11
162.01552
 21
46.476112
 31
0.0
  0
LINE
  5
7C
100
AcDbEntity
  8
ALPHA
100
AcDbLine
 10
161.01552
 20
59.576112
 30
0.0
 11
161.01552
 21
46.476112
 31
0.0
  0
LINE
  5
7D
100
AcDbEntity
  8
ALPHA
100
AcDbLine
 10
175.01552
 20
39.726112
 30
0.0
 11
180.01552
 21
39.726112
 31
0.0
  0
LINE
  5
7E
100
AcDbEntity
  8
ALPHA
100
AcDbLine
 10
187.51552
 20
34.476112
 30
0.0
 11
167.51552
 21
34.476112
 31
0.0
  0
LINE
  5
7F
100
AcDbEntity
  8
ALPHA
100
AcDbLine
 10
187.51552
 20
33.976112
 30
0.0
 11
167.51552
 21
33.976112
 31
0.0
  0
LINE
  5
80
100
AcDbEntity
  8
ALPHA
100
AcDbLine
 10
161.01552
 20
46.476112
 30
0.0
 11
163.765482
 21
46.476112
 31
0.0
  0
LINE
  5
81
100
AcDbEntity
  8
ALPHA
100
AcDbLine
 10
171.586055
 20
46.476112
 30
0.0
 11
174.89509
 21
46.476112
 31
0.0
  0
LINE
  5
82
100
AcDbEntity
  8
ALPHA
100
AcDbLine
 10
180.406746
 20
59.872627
 30
0.0
 11
178.063501
 21
59.893076
 31
0.0
  0
LINE
  5
83
100
AcDbEntity
  8
ALPHA
100
AcDbLine
 10
180.01552
 20
48.226112
 30
0.0
 11
175.01552
 21
48.226112
 31
0.0
  0
LINE
  5
84
100
AcDbEntity
  8
ALPHA
100
AcDbLine
 10
160.01552
 20
60.643399
 30
0.0
 11
160.01552
 21
47.476112
 31
0.0
  0
ARC
  5
85
100
AcDbEntity
  8
ALPHA
100
AcDbCircle
 10
167.51552
 20
51.976112
 30
0.0
 40
3.25
100
AcDbArc
 50
90.0
 51
180.0
  0
ARC
  5
86
100
AcDbEntity
  8
ALPHA
100
AcDbCircle
 10
167.51552
 20
51.976112
 30
0.0
 40
2.754326
100
AcDbArc
 50
90.0
 51
180.0
  0
LINE
  5
87
100
AcDbEntity
  8
ALPHA
100
AcDbLine
 10
164.761195
 20
47.476112
 30
0.0
 11
164.761195
 21
51.976112
 31
0.0
  0
LINE
  5
88
100
AcDbEntity
  8
ALPHA
100
AcDbLine
 10
164.26552
 20
46.976131
 30
0.0
 11
164.26552
 21
51.976112
 31
0.0
  0
LINE
  5
89
100
AcDbEntity
  8
ALPHA
100
AcDbLine
 10
164.761195
 20
47.476112
 30
0.0
 11
164.26552
 21
46.976131
 31
0.0
  0
LINE
  5
8A
100
AcDbEntity
  8
ALPHA
100
AcDbLine
 10
164.26552
 20
51.976112
 30
0.0
 11
164.761195
 21
51.976112
 31
0.0
  0
LINE
  5
8B
100
AcDbEntity
  8
ALPHA
100
AcDbLine
 10
161.275458
 20
69.739952
 30
0.0
 11
171.166179
 21
69.653637
 31
0.0
  0
LINE
  5
8C
100
AcDbEntity
  8
ALPHA
100
AcDbLine
 10
160.670049
 20
68.945205
 30
0.0
 11
171.123707
 21
68.853978
 31
0.0
  0
LINE
  5
8D
100
AcDbEntity
  8
ALPHA
100
AcDbLine
 10
161.01552
 20
59.576112
 30
0.0
 11
167.51552
 21
59.576112
 31
0.0
  0
LINE
  5
8E
100
AcDbEntity
  8
ALPHA
100
AcDbLine
 10
160.808458
 20
60.243666
 30
0.0
 11
160.808458
 21
67.709995
 31
0.0
  0
ARC
  5
8F
100
AcDbEntity
  8
ALPHA
100
AcDbCircle
 10
160.815143
 20
61.243646
 30
0.0
 40
1.0
100
AcDbArc
 50
180.0
 51
269.499973
  0
ARC
  5
90
100
AcDbEntity
  8
ALPHA
100
AcDbCircle
 10
161.01552
 20
60.576112
 30
0.0
 40
1.0
100
AcDbArc
 50
180.0
 51
270.0
  0
LINE
  5
91
100
AcDbEntity
  8
ALPHA
100
AcDbLine
 10
166.31552
 20
59.576112
 30
0.0
 11
166.31552
 21
60.195607
 31
0.0
  0
LINE
  5
92
100
AcDbEntity
  8
ALPHA
100
AcDbLine
 10
164.556998
 20
60.210953
 30
0.0
 11
164.556998
 21
59.576112
 31
0.0
  0
ARC
  5
93
100
AcDbEntity
  8
ALPHA
100
AcDbCircle
 10
160.815143
 20
68.943939
 30
0.0
 40
1.0
100
AcDbArc
 50
180.0
 51
269.499973
  0
LINE
  5
94
100
AcDbEntity
  8
ALPHA
100
AcDbLine
 10
160.501044
 20
67.748746
 30
0.0
 11
160.808458
 21
67.709995
 31
0.0
  0
LINE
  5
95
100
AcDbEntity
  8
ALPHA
100
AcDbLine
 10
159.815143
 20
68.943939
 30
0.0
 11
160.670049
 21
68.945205
 31
0.0
  0
LINE
  5
96
100
AcDbEntity
  8
ALPHA
100
AcDbLine
 10
160.806416
 20
67.943977
 30
0.0
 11
160.808458
 21
67.709995
 31
0.0
  0
LINE
  5
97
100
AcDbEntity
  8
ALPHA
100
AcDbLine
 10
174.6103
 20
59.923212
 30
0.0
 11
172.390384
 21
59.942585
 31
0.0
  0
LINE
  5
98
100
AcDbEntity
  8
ALPHA
100
AcDbLine
 10
167.41552
 20
59.576112
 30
0.0
 11
167.41552
 21
60.186007
 31
0.0
  0
LINE
  5
99
100
AcDbEntity
  8
ALPHA
100
AcDbLine
 10
167.388467
 20
59.576112
 30
0.0
 11
167.388467
 21
60.186243
 31
0.0
  0
LINE
  5
9A
100
AcDbEntity
  8
ALPHA
100
AcDbLine
 10
173.440422
 20
60.133429
 30
0.0
 11
173.438677
 21
59.933436
 31
0.0
  0
LINE
  5
9B
100
AcDbEntity
  8
ALPHA
100
AcDbLine
 10
173.008772
 20
60.137196
 30
0.0
 11
173.007027
 21
59.937203
 31
0.0
  0
LINE
  5
9C
100
AcDbEntity
  8
ALPHA
100
AcDbLine
 10
172.762115
 20
60.139348
 30
0.0
 11
172.76037
 21
59.939356
 31
0.0
  0
LINE
  5
9D
100
AcDbEntity
  8
ALPHA
100
AcDbLine
 10
172.515457
 20
60.141501
 30
0.0
 11
172.513712
 21
59.941508
 31
0.0
  0
LINE
  5
9E
100
AcDbEntity
  8
ALPHA
100
AcDbLine
 10
172.453793
 20
60.142039
 30
0.0
 11
172.452048
 21
59.942046
 31
0.0
  0
LINE
  5
9F
100
AcDbEntity
  8
ALPHA
100
AcDbLine
 10
172.392129
 20
60.142577
 30
0.0
 11
172.390384
 21
59.942585
 31
0.0
  0
LINE
  5
A0
100
AcDbEntity
  8
ALPHA
100
AcDbLine
 10
174.612045
 20
60.123204
 30
0.0
 11
174.6103
 21
59.923212
 31
0.0
  0
LINE
  5
A1
100
AcDbEntity
  8
ALPHA
100
AcDbLine
 10
174.55038
 20
60.123742
 30
0.0
 11
174.548634
 21
59.92375
 31
0.0
  0
LINE
  5
A2
100
AcDbEntity
  8
ALPHA
100
AcDbLine
 10
174.303723
 20
60.125895
 30
0.0
 11
174.301978
 21
59.925902
 31
0.0
  0
LINE
  5
A3
100
AcDbEntity
  8
ALPHA
100
AcDbLine
 10
174.057066
 20
60.128047
 30
0.0
 11
174.05532
 21
59.928055
 31
0.0
  0
LINE
  5
A4
100
AcDbEntity
  8
ALPHA
100
AcDbLine
 10
173.68708
 20
60.131276
 30
0.0
 11
173.685335
 21
59.931284
 31
0.0
  0
LINE
  5
A5
100
AcDbEntity
  8
ALPHA
100
AcDbLine
 10
178.065246
 20
60.093068
 30
0.0
 11
178.063501
 21
59.893076
 31
0.0
  0
LINE
  5
A6
100
AcDbEntity
  8
ALPHA
100
AcDbLine
 10
171.267707
 20
67.852683
 30
0.0
 11
171.3272
 21
71.113274
 31
0.0
  0
LINE
  5
A7
100
AcDbEntity
  8
ALPHA
100
AcDbLine
 10
171.458001
 20
67.851022
 30
0.0
 11
171.512079
 21
71.11166
 31
0.0
  0
LINE
  5
A8
100
AcDbEntity
  8
ALPHA
100
AcDbLine
 10
171.326091
 20
71.052486
 30
0.0
 11
171.512083
 21
71.111929
 31
0.0
  0
LINE
  5
A9
100
AcDbEntity
  8
ALPHA
100
AcDbLine
 10
171.382708
 20
71.620998
 30
0.0
 11
171.383644
 21
71.621189
 31
0.0
  0
LINE
  5
AA
100
AcDbEntity
  8
ALPHA
100
AcDbLine
 10
171.643863
 20
71.649545
 30
0.0
 11
171.442561
 21
71.651302
 31
0.0
  0
LINE
  5
AB
100
AcDbEntity
  8
ALPHA
100
AcDbLine
 10
171.383644
 20
71.621189
 30
0.0
 11
171.47334
 21
71.620406
 31
0.0
  0
LINE
  5
AC
100
AcDbEntity
  8
ALPHA
100
AcDbLine
 10
171.123707
 20
68.853978
 30
0.0
 11
171.137634
 21
69.653887
 31
0.0
  0
LINE
  5
AD
100
AcDbEntity
  8
ALPHA
100
AcDbLine
 10
173.69219
 20
68.831563
 30
0.0
 11
173.692218
 21
69.631593
 31
0.0
  0
ARC
  5
AE
100
AcDbEntity
  8
ALPHA
100
AcDbCircle
 10
197.056282
 20
55.927184
 30
0.0
 40
5.099999
100
AcDbArc
 50
179.500004
 51
359.500004
  0
ARC
  5
AF
100
AcDbEntity
  8
ALPHA
100
AcDbCircle
 10
195.091227
 20
58.944447
 30
0.0
 40
1.0
100
AcDbArc
 50
0.0
 51
89.500031
  0
ARC
  5
B0
100
AcDbEntity
  8
ALPHA
100
AcDbCircle
 10
199.073697
 20
58.909692
 30
0.0
 40
1.0
100
AcDbArc
 50
89.499973
 51
178.999965
  0
LINE
  5
B1
100
AcDbEntity
  8
ALPHA
100
AcDbLine
 10
202.156088
 20
55.882679
 30
0.0
 11
202.2259
 21
59.882222
 31
0.0
  0
LINE
  5
B2
100
AcDbEntity
  8
ALPHA
100
AcDbLine
 10
202.790058
 20
59.576112
 30
0.0
 11
202.790058
 21
55.576112
 31
0.0
  0
LINE
  5
B3
100
AcDbEntity
  8
ALPHA
100
AcDbLine
 10
202.61552
 20
59.576112
 30
0.0
 11
202.61552
 21
55.576112
 31
0.0
  0
LINE
  5
B4
100
AcDbEntity
  8
ALPHA
100
AcDbLine
 10
199.082424
 20
59.909654
 30
0.0
 11
199.073773
 21
58.918419
 31
0.0
  0
LINE
  5
B5
100
AcDbEntity
  8
ALPHA
100
AcDbLine
 10
195.091303
 20
58.953173
 30
0.0
 11
195.099953
 21
59.944409
 31
0.0
  0
LINE
  5
B6
100
AcDbEntity
  8
ALPHA
100
AcDbLine
 10
191.956477
 20
59.971842
 30
0.0
 11
191.956477
 21
55.971689
 31
0.0
  0
LINE
  5
B7
100
AcDbEntity
  8
ALPHA
100
AcDbLine
 10
195.091303
 20
58.953173
 30
0.0
 11
191.956477
 21
58.98053
 31
0.0
  0
ARC
  5
B8
100
AcDbEntity
  8
ALPHA
100
AcDbCircle
 10
197.51552
 20
55.576112
 30
0.0
 40
5.099999
100
AcDbArc
 50
230.665716
 51
0.0
  0
ARC
  5
B9
100
AcDbEntity
  8
ALPHA
100
AcDbCircle
 10
197.51552
 20
55.576112
 30
0.0
 40
5.274537
100
AcDbArc
 50
215.301008
 51
0.0
  0
LINE
  5
BA
100
AcDbEntity
  8
ALPHA
100
AcDbLine
 10
198.944019
 20
51.484806
 30
0.0
 11
199.073773
 21
58.918419
 31
0.0
  0
LINE
  5
BB
100
AcDbEntity
  8
ALPHA
100
AcDbLine
 10
197.950222
 20
51.844551
 30
0.0
 11
198.07385
 21
58.927145
 31
0.0
  0
LINE
  5
BC
100
AcDbEntity
  8
ALPHA
100
AcDbLine
 10
196.091227
 20
51.860774
 30
0.0
 11
196.091227
 21
58.944447
 31
0.0
  0
LINE
  5
BD
100
AcDbEntity
  8
ALPHA
100
AcDbLine
 10
195.091303
 20
51.518428
 30
0.0
 11
195.091303
 21
58.953173
 31
0.0
  0
LINE
  5
BE
100
AcDbEntity
  8
ALPHA
100
AcDbLine
 10
198.944019
 20
51.484806
 30
0.0
 11
195.091303
 21
51.518428
 31
0.0
  0
LINE
  5
BF
100
AcDbEntity
  8
ALPHA
100
AcDbLine
 10
202.61552
 20
55.576112
 30
0.0
 11
202.790058
 21
55.576112
 31
0.0
  0
LINE
  5
C0
100
AcDbEntity
  8
ALPHA
100
AcDbLine
 10
202.2086
 20
58.891061
 30
0.0
 11
199.073773
 21
58.918419
 31
0.0
  0
LINE
  5
C1
100
AcDbEntity
  8
ALPHA
100
AcDbLine
 10
181.640031
 20
59.861864
 30
0.0
 11
180.900059
 21
59.868322
 31
0.0
  0
LINE
  5
C2
100
AcDbEntity
  8
ALPHA
100
AcDbLine
 10
181.641776
 20
60.061857
 30
0.0
 11
181.640031
 21
59.861864
 31
0.0
  0
LINE
  5
C3
100
AcDbEntity
  8
ALPHA
100
AcDbLine
 10
181.271791
 20
60.065085
 30
0.0
 11
181.270046
 21
59.865093
 31
0.0
  0
LINE
  5
C4
100
AcDbEntity
  8
ALPHA
100
AcDbLine
 10
180.901804
 20
60.068314
 30
0.0
 11
180.900059
 21
59.868322
 31
0.0
  0
LINE
  5
C5
100
AcDbEntity
  8
ALPHA
100
AcDbLine
 10
180.408491
 20
60.072619
 30
0.0
 11
180.406746
 21
59.872627
 31
0.0
  0
LINE
  5
C6
100
AcDbEntity
  8
ALPHA
100
AcDbLine
 10
187.642574
 20
59.576112
 30
0.0
 11
191.956477
 21
59.576112
 31
0.0
  0
LINE
  5
C7
100
AcDbEntity
  8
ALPHA
100
AcDbLine
 10
187.642574
 20
60.009488
 30
0.0
 11
187.642574
 21
59.576112
 31
0.0
  0
LINE
  5
C8
100
AcDbEntity
  8
ALPHA
100
AcDbLine
 10
187.61552
 20
59.576112
 30
0.0
 11
187.61552
 21
60.009724
 31
0.0
  0
LINE
  5
C9
100
AcDbEntity
  8
ALPHA
100
AcDbLine
 10
187.51552
 20
59.576112
 30
0.0
 11
187.61552
 21
59.576112
 31
0.0
  0
ARC
  5
CA
100
AcDbEntity
  8
ALPHA
100
AcDbCircle
 10
255.01552
 20
43.976112
 30
0.0
 40
4.25
100
AcDbArc
 50
90.0
 51
270.0
  0
ARC
  5
CB
100
AcDbEntity
  8
ALPHA
100
AcDbCircle
 10
220.01552
 20
43.976112
 30
0.0
 40
4.25
100
AcDbArc
 50
270.0
 51
90.0
  0
ARC
  5
CC
100
AcDbEntity
  8
ALPHA
100
AcDbCircle
 10
215.01552
 20
43.976112
 30
0.0
 40
4.25
100
AcDbArc
 50
90.0
 51
270.0
  0
LINE
  5
CD
100
AcDbEntity
  8
ALPHA
100
AcDbLine
 10
247.51552
 20
33.976112
 30
0.0
 11
247.51552
 21
59.486985
 31
0.0
  0
LINE
  5
CE
100
AcDbEntity
  8
ALPHA
100
AcDbLine
 10
227.51552
 20
33.976112
 30
0.0
 11
227.51552
 21
59.661522
 31
0.0
  0
LINE
  5
CF
100
AcDbEntity
  8
ALPHA
100
AcDbLine
 10
207.51552
 20
33.976112
 30
0.0
 11
207.51552
 21
59.83606
 31
0.0
  0
LINE
  5
D0
100
AcDbEntity
  8
ALPHA
100
AcDbLine
 10
227.51552
 20
33.976112
 30
0.0
 11
207.51552
 21
33.976112
 31
0.0
  0
LINE
  5
D1
100
AcDbEntity
  8
ALPHA
100
AcDbLine
 10
215.01552
 20
39.726112
 30
0.0
 11
220.01552
 21
39.726112
 31
0.0
  0
LINE
  5
D2
100
AcDbEntity
  8
ALPHA
100
AcDbLine
 10
227.51552
 20
34.476112
 30
0.0
 11
207.51552
 21
34.476112
 31
0.0
  0
LINE
  5
D3
100
AcDbEntity
  8
ALPHA
100
AcDbLine
 10
232.58322
 20
69.817686
 30
0.0
 11
230.283308
 21
69.837757
 31
0.0
  0
LINE
  5
D4
100
AcDbEntity
  8
ALPHA
100
AcDbLine
 10
231.548992
 20
66.626589
 30
0.0
 11
230.551002
 21
66.635299
 31
0.0
  0
LINE
  5
D5
100
AcDbEntity
  8
ALPHA
100
AcDbLine
 10
229.841354
 20
65.532723
 30
0.0
 11
231.519964
 21
65.518074
 31
0.0
  0
LINE
  5
D6
100
AcDbEntity
  8
ALPHA
100
AcDbLine
 10
229.837067
 20
65.041468
 30
0.0
 11
231.507102
 21
65.026894
 31
0.0
  0
LINE
  5
D7
100
AcDbEntity
  8
ALPHA
100
AcDbLine
 10
227.642574
 20
59.576112
 30
0.0
 11
231.954953
 21
59.576112
 31
0.0
  0
LINE
  5
D8
100
AcDbEntity
  8
ALPHA
100
AcDbLine
 10
220.01552
 20
48.226112
 30
0.0
 11
215.01552
 21
48.226112
 31
0.0
  0
LINE
  5
D9
100
AcDbEntity
  8
ALPHA
100
AcDbLine
 10
230.456399
 20
59.855158
 30
0.0
 11
210.728015
 21
60.027325
 31
0.0
  0
LINE
  5
DA
100
AcDbEntity
  8
ALPHA
100
AcDbLine
 10
219.851909
 20
59.528394
 30
0.0
 11
217.508664
 21
59.548843
 31
0.0
  0
LINE
  5
DB
100
AcDbEntity
  8
ALPHA
100
AcDbLine
 10
211.185328
 20
67.504327
 30
0.0
 11
210.728015
 21
60.027325
 31
0.0
  0
LINE
  5
DC
100
AcDbEntity
  8
ALPHA
100
AcDbLine
 10
214.055464
 20
59.578979
 30
0.0
 11
211.588891
 21
59.600504
 31
0.0
  0
LINE
  5
DD
100
AcDbEntity
  8
ALPHA
100
AcDbLine
 10
207.41552
 20
59.576112
 30
0.0
 11
207.41552
 21
59.836933
 31
0.0
  0
LINE
  5
DE
100
AcDbEntity
  8
ALPHA
100
AcDbLine
 10
207.388467
 20
59.576112
 30
0.0
 11
207.388467
 21
59.837169
 31
0.0
  0
LINE
  5
DF
100
AcDbEntity
  8
ALPHA
100
AcDbLine
 10
211.590636
 20
59.800497
 30
0.0
 11
211.588891
 21
59.600504
 31
0.0
  0
LINE
  5
E0
100
AcDbEntity
  8
ALPHA
100
AcDbLine
 10
214.05721
 20
59.778971
 30
0.0
 11
214.055464
 21
59.578979
 31
0.0
  0
LINE
  5
E1
100
AcDbEntity
  8
ALPHA
100
AcDbLine
 10
213.440564
 20
59.784353
 30
0.0
 11
213.438819
 21
59.58436
 31
0.0
  0
LINE
  5
E2
100
AcDbEntity
  8
ALPHA
100
AcDbLine
 10
213.07058
 20
59.787582
 30
0.0
 11
213.068834
 21
59.587589
 31
0.0
  0
LINE
  5
E3
100
AcDbEntity
  8
ALPHA
100
AcDbLine
 10
217.510409
 20
59.748836
 30
0.0
 11
217.508664
 21
59.548843
 31
0.0
  0
LINE
  5
E4
100
AcDbEntity
  8
ALPHA
100
AcDbLine
 10
229.837067
 20
65.041468
 30
0.0
 11
229.857138
 21
67.341381
 31
0.0
  0
LINE
  5
E5
100
AcDbEntity
  8
ALPHA
100
AcDbLine
 10
222.565139
 20
59.504716
 30
0.0
 11
220.345226
 21
59.524089
 31
0.0
  0
LINE
  5
E6
100
AcDbEntity
  8
ALPHA
100
AcDbLine
 10
220.963612
 20
59.7187
 30
0.0
 11
220.961867
 21
59.518708
 31
0.0
  0
LINE
  5
E7
100
AcDbEntity
  8
ALPHA
100
AcDbLine
 10
220.716956
 20
59.720853
 30
0.0
 11
220.715211
 21
59.52086
 31
0.0
  0
LINE
  5
E8
100
AcDbEntity
  8
ALPHA
100
AcDbLine
 10
220.470299
 20
59.723005
 30
0.0
 11
220.468554
 21
59.523013
 31
0.0
  0
LINE
  5
E9
100
AcDbEntity
  8
ALPHA
100
AcDbLine
 10
220.408633
 20
59.723543
 30
0.0
 11
220.406888
 21
59.523551
 31
0.0
  0
LINE
  5
EA
100
AcDbEntity
  8
ALPHA
100
AcDbLine
 10
220.346971
 20
59.724081
 30
0.0
 11
220.345226
 21
59.524089
 31
0.0
  0
LINE
  5
EB
100
AcDbEntity
  8
ALPHA
100
AcDbLine
 10
219.853654
 20
59.728387
 30
0.0
 11
219.851909
 21
59.528394
 31
0.0
  0
LINE
  5
EC
100
AcDbEntity
  8
ALPHA
100
AcDbLine
 10
222.566884
 20
59.704709
 30
0.0
 11
222.565139
 21
59.504716
 31
0.0
  0
LINE
  5
ED
100
AcDbEntity
  8
ALPHA
100
AcDbLine
 10
222.505222
 20
59.705247
 30
0.0
 11
222.503476
 21
59.505254
 31
0.0
  0
LINE
  5
EE
100
AcDbEntity
  8
ALPHA
100
AcDbLine
 10
222.258565
 20
59.707399
 30
0.0
 11
222.25682
 21
59.507407
 31
0.0
  0
LINE
  5
EF
100
AcDbEntity
  8
ALPHA
100
AcDbLine
 10
222.011905
 20
59.709552
 30
0.0
 11
222.010159
 21
59.509559
 31
0.0
  0
LINE
  5
F0
100
AcDbEntity
  8
ALPHA
100
AcDbLine
 10
221.64192
 20
59.712781
 30
0.0
 11
221.640175
 21
59.512788
 31
0.0
  0
LINE
  5
F1
100
AcDbEntity
  8
ALPHA
100
AcDbLine
 10
221.395263
 20
59.714933
 30
0.0
 11
221.393518
 21
59.514941
 31
0.0
  0
LINE
  5
F2
100
AcDbEntity
  8
ALPHA
100
AcDbLine
 10
230.23011
 20
65.038038
 30
0.0
 11
230.456399
 21
59.855158
 31
0.0
  0
LINE
  5
F3
100
AcDbEntity
  8
ALPHA
100
AcDbLine
 10
227.642574
 20
59.660414
 30
0.0
 11
227.642574
 21
59.576112
 31
0.0
  0
LINE
  5
F4
100
AcDbEntity
  8
ALPHA
100
AcDbLine
 10
227.61552
 20
59.576112
 30
0.0
 11
227.61552
 21
59.66065
 31
0.0
  0
LINE
  5
F5
100
AcDbEntity
  8
ALPHA
100
AcDbLine
 10
227.51552
 20
59.576112
 30
0.0
 11
227.61552
 21
59.576112
 31
0.0
  0
LINE
  5
F6
100
AcDbEntity
  8
ALPHA
100
AcDbLine
 10
229.271451
 20
67.937379
 30
0.0
 11
230.551002
 21
66.635299
 31
0.0
  0
LINE
  5
F7
100
AcDbEntity
  8
ALPHA
100
AcDbLine
 10
229.893789
 20
71.541221
 30
0.0
 11
230.298143
 21
71.537692
 31
0.0
  0
ARC
  5
F8
100
AcDbEntity
  8
ALPHA
100
AcDbCircle
 10
237.054759
 20
55.578122
 30
0.0
 40
5.1
100
AcDbArc
 50
179.499993
 51
359.500004
  0
ARC
  5
F9
100
AcDbEntity
  8
ALPHA
100
AcDbCircle
 10
235.089703
 20
58.595385
 30
0.0
 40
1.0
100
AcDbArc
 50
0.0
 51
89.499973
  0
ARC
  5
FA
100
AcDbEntity
  8
ALPHA
100
AcDbCircle
 10
239.072174
 20
58.560631
 30
0.0
 40
1.0
100
AcDbArc
 50
89.499973
 51
179.000023
  0
LINE
  5
FB
100
AcDbEntity
  8
ALPHA
100
AcDbLine
 10
242.154565
 20
55.533617
 30
0.0
 11
242.224377
 21
59.53316
 31
0.0
  0
LINE
  5
FC
100
AcDbEntity
  8
ALPHA
100
AcDbLine
 10
242.790058
 20
59.528224
 30
0.0
 11
242.790058
 21
55.576112
 31
0.0
  0
LINE
  5
FD
100
AcDbEntity
  8
ALPHA
100
AcDbLine
 10
242.61552
 20
59.529747
 30
0.0
 11
242.61552
 21
55.576112
 31
0.0
  0
LINE
  5
FE
100
AcDbEntity
  8
ALPHA
100
AcDbLine
 10
239.080901
 20
59.560593
 30
0.0
 11
239.07225
 21
58.569357
 31
0.0
  0
LINE
  5
FF
100
AcDbEntity
  8
ALPHA
100
AcDbLine
 10
235.08978
 20
58.604112
 30
0.0
 11
235.09843
 21
59.595347
 31
0.0
  0
LINE
  5
100
100
AcDbEntity
  8
ALPHA
100
AcDbLine
 10
231.954953
 20
59.62278
 30
0.0
 11
231.954953
 21
55.622628
 31
0.0
  0
ARC
  5
101
100
AcDbEntity
  8
ALPHA
100
AcDbCircle
 10
237.51552
 20
55.576112
 30
0.0
 40
5.1
100
AcDbArc
 50
271.355115
 51
0.0
  0
ARC
  5
102
100
AcDbEntity
  8
ALPHA
100
AcDbCircle
 10
237.51552
 20
55.576112
 30
0.0
 40
5.274538
100
AcDbArc
 50
246.074863
 51
0.0
  0
LINE
  5
103
100
AcDbEntity
  8
ALPHA
100
AcDbLine
 10
238.942496
 20
51.135744
 30
0.0
 11
239.07225
 21
58.569357
 31
0.0
  0
LINE
  5
104
100
AcDbEntity
  8
ALPHA
100
AcDbLine
 10
237.948699
 20
51.495489
 30
0.0
 11
238.072327
 21
58.578083
 31
0.0
  0
LINE
  5
105
100
AcDbEntity
  8
ALPHA
100
AcDbLine
 10
236.089703
 20
51.511713
 30
0.0
 11
236.089703
 21
58.595385
 31
0.0
  0
LINE
  5
106
100
AcDbEntity
  8
ALPHA
100
AcDbLine
 10
235.08978
 20
51.169366
 30
0.0
 11
235.08978
 21
58.604112
 31
0.0
  0
LINE
  5
107
100
AcDbEntity
  8
ALPHA
100
AcDbLine
 10
238.942496
 20
51.135744
 30
0.0
 11
235.08978
 21
51.169366
 31
0.0
  0
LINE
  5
108
100
AcDbEntity
  8
ALPHA
100
AcDbLine
 10
235.08978
 20
58.604112
 30
0.0
 11
231.954953
 21
58.631469
 31
0.0
  0
LINE
  5
109
100
AcDbEntity
  8
ALPHA
100
AcDbLine
 10
242.61552
 20
55.576112
 30
0.0
 11
242.790058
 21
55.576112
 31
0.0
  0
LINE
  5
10A
100
AcDbEntity
  8
ALPHA
100
AcDbLine
 10
242.207077
 20
58.542
 30
0.0
 11
239.07225
 21
58.569357
 31
0.0
  0
LINE
  5
10B
100
AcDbEntity
  8
ALPHA
100
AcDbLine
 10
231.507102
 20
65.026894
 30
0.0
 11
231.632771
 21
69.82598
 31
0.0
  0
LINE
  5
10C
100
AcDbEntity
  8
ALPHA
100
AcDbLine
 10
236.54616
 20
71.283159
 30
0.0
 11
237.391758
 21
71.275779
 31
0.0
  0
LINE
  5
10D
100
AcDbEntity
  8
ALPHA
100
AcDbLine
 10
231.593499
 20
68.326266
 30
0.0
 11
240.46983
 21
68.248803
 31
0.0
  0
LINE
  5
10E
100
AcDbEntity
  8
ALPHA
100
AcDbLine
 10
232.58322
 20
69.817686
 30
0.0
 11
232.57013
 21
68.317743
 31
0.0
  0
LINE
  5
10F
100
AcDbEntity
  8
ALPHA
100
AcDbLine
 10
232.001922
 20
69.822759
 30
0.0
 11
232.001922
 21
69.32274
 31
0.0
  0
LINE
  5
110
100
AcDbEntity
  8
ALPHA
100
AcDbLine
 10
232.578857
 20
69.317705
 30
0.0
 11
232.001922
 21
69.32274
 31
0.0
  0
ARC
  5
111
100
AcDbEntity
  8
ALPHA
100
AcDbCircle
 10
236.422345
 20
74.284354
 30
0.0
 40
2.95
100
AcDbArc
 50
266.585404
 51
272.414595
  0
LINE
  5
112
100
AcDbEntity
  8
ALPHA
100
AcDbLine
 10
236.544008
 20
71.036632
 30
0.0
 11
236.546629
 21
71.336973
 31
0.0
  0
LINE
  5
113
100
AcDbEntity
  8
ALPHA
100
AcDbLine
 10
236.24402
 20
71.03925
 30
0.0
 11
236.246641
 21
71.339591
 31
0.0
  0
LINE
  5
114
100
AcDbEntity
  8
ALPHA
100
AcDbLine
 10
235.391834
 20
71.293232
 30
0.0
 11
235.391176
 21
71.217825
 31
0.0
  0
LINE
  5
115
100
AcDbEntity
  8
ALPHA
100
AcDbLine
 10
235.391834
 20
71.293232
 30
0.0
 11
236.246171
 21
71.285777
 31
0.0
  0
LINE
  5
116
100
AcDbEntity
  8
ALPHA
100
AcDbLine
 10
242.539201
 20
67.230706
 30
0.0
 11
242.574107
 21
69.230478
 31
0.0
  0
LINE
  5
117
100
AcDbEntity
  8
ALPHA
100
AcDbLine
 10
242.56975
 20
68.230477
 30
0.0
 11
242.582839
 21
69.73042
 31
0.0
  0
LINE
  5
118
100
AcDbEntity
  8
ALPHA
100
AcDbLine
 10
240.46983
 20
68.248803
 30
0.0
 11
240.482919
 21
69.748746
 31
0.0
  0
LINE
  5
119
100
AcDbEntity
  8
ALPHA
100
AcDbLine
 10
240.474187
 20
67.248727
 30
0.0
 11
240.474187
 21
68.248803
 31
0.0
  0
LINE
  5
11A
100
AcDbEntity
  8
ALPHA
100
AcDbLine
 10
237.391758
 20
71.275779
 30
0.0
 11
237.391073
 21
71.197218
 31
0.0
  0
LINE
  5
11B
100
AcDbEntity
  8
ALPHA
100
AcDbLine
 10
242.582839
 20
69.73042
 30
0.0
 11
240.482919
 21
69.748746
 31
0.0
  0
LINE
  5
11C
100
AcDbEntity
  8
ALPHA
100
AcDbLine
 10
240.474187
 20
69.248803
 30
0.0
 11
242.574107
 21
69.230478
 31
0.0
  0
LINE
  5
11D
100
AcDbEntity
  8
ALPHA
100
AcDbLine
 10
240.474187
 20
68.618046
 30
0.0
 11
242.563099
 21
68.599816
 31
0.0
  0
LINE
  5
11E
100
AcDbEntity
  8
ALPHA
100
AcDbLine
 10
254.107269
 20
59.229452
 30
0.0
 11
251.88736
 21
59.248825
 31
0.0
  0
LINE
  5
11F
100
AcDbEntity
  8
ALPHA
100
AcDbLine
 10
253.122388
 20
59.438055
 30
0.0
 11
253.120642
 21
59.238062
 31
0.0
  0
LINE
  5
120
100
AcDbEntity
  8
ALPHA
100
AcDbLine
 10
252.875731
 20
59.440207
 30
0.0
 11
252.873986
 21
59.240215
 31
0.0
  0
LINE
  5
121
100
AcDbEntity
  8
ALPHA
100
AcDbLine
 10
252.567409
 20
59.442898
 30
0.0
 11
252.565663
 21
59.242906
 31
0.0
  0
LINE
  5
122
100
AcDbEntity
  8
ALPHA
100
AcDbLine
 10
252.259086
 20
59.445589
 30
0.0
 11
252.257341
 21
59.245596
 31
0.0
  0
LINE
  5
123
100
AcDbEntity
  8
ALPHA
100
AcDbLine
 10
252.074095
 20
59.447203
 30
0.0
 11
252.07235
 21
59.247211
 31
0.0
  0
LINE
  5
124
100
AcDbEntity
  8
ALPHA
100
AcDbLine
 10
251.950763
 20
59.448279
 30
0.0
 11
251.949018
 21
59.248287
 31
0.0
  0
LINE
  5
125
100
AcDbEntity
  8
ALPHA
100
AcDbLine
 10
251.889105
 20
59.448817
 30
0.0
 11
251.88736
 21
59.248825
 31
0.0
  0
LINE
  5
126
100
AcDbEntity
  8
ALPHA
100
AcDbLine
 10
254.109014
 20
59.429445
 30
0.0
 11
254.107269
 21
59.229452
 31
0.0
  0
LINE
  5
127
100
AcDbEntity
  8
ALPHA
100
AcDbLine
 10
253.985689
 20
59.430521
 30
0.0
 11
253.983944
 21
59.230528
 31
0.0
  0
LINE
  5
128
100
AcDbEntity
  8
ALPHA
100
AcDbLine
 10
253.924023
 20
59.431059
 30
0.0
 11
253.922278
 21
59.231067
 31
0.0
  0
LINE
  5
129
100
AcDbEntity
  8
ALPHA
100
AcDbLine
 10
253.739033
 20
59.432673
 30
0.0
 11
253.737288
 21
59.232681
 31
0.0
  0
LINE
  5
12A
100
AcDbEntity
  8
ALPHA
100
AcDbLine
 10
253.43071
 20
59.435364
 30
0.0
 11
253.428965
 21
59.235372
 31
0.0
  0
ARC
  5
12B
100
AcDbEntity
  8
ALPHA
100
AcDbCircle
 10
246.721953
 20
74.19447
 30
0.0
 40
2.95
100
AcDbArc
 50
266.585384
 51
272.414595
  0
LINE
  5
12C
100
AcDbEntity
  8
ALPHA
100
AcDbLine
 10
246.543627
 20
70.949366
 30
0.0
 11
246.546248
 21
71.249707
 31
0.0
  0
LINE
  5
12D
100
AcDbEntity
  8
ALPHA
100
AcDbLine
 10
245.691442
 20
71.203349
 30
0.0
 11
245.690784
 21
71.127942
 31
0.0
  0
LINE
  5
12E
100
AcDbEntity
  8
ALPHA
100
AcDbLine
 10
245.691442
 20
71.203349
 30
0.0
 11
246.545779
 21
71.195893
 31
0.0
  0
LINE
  5
12F
100
AcDbEntity
  8
ALPHA
100
AcDbLine
 10
247.691366
 20
71.185896
 30
0.0
 11
247.69068
 21
71.107334
 31
0.0
  0
LINE
  5
130
100
AcDbEntity
  8
ALPHA
100
AcDbLine
 10
246.843616
 20
70.946748
 30
0.0
 11
246.846237
 21
71.247089
 31
0.0
  0
LINE
  5
131
100
AcDbEntity
  8
ALPHA
100
AcDbLine
 10
246.845767
 20
71.193275
 30
0.0
 11
247.691366
 21
71.185896
 31
0.0
  0
LINE
  5
132
100
AcDbEntity
  8
ALPHA
100
AcDbLine
 10
253.747501
 20
67.632912
 30
0.0
 11
250.773795
 21
67.658863
 31
0.0
  0
LINE
  5
133
100
AcDbEntity
  8
ALPHA
100
AcDbLine
 10
250.773795
 20
67.158844
 30
0.0
 11
250.773795
 21
68.158882
 31
0.0
  0
LINE
  5
134
100
AcDbEntity
  8
ALPHA
100
AcDbLine
 10
253.738775
 20
67.132969
 30
0.0
 11
253.756228
 21
68.132855
 31
0.0
  0
LINE
  5
135
100
AcDbEntity
  8
ALPHA
100
AcDbLine
 10
250.640387
 20
70.560137
 30
0.0
 11
253.940261
 21
70.53134
 31
0.0
  0
ARC
  5
136
100
AcDbEntity
  8
ALPHA
100
AcDbCircle
 10
250.186908
 20
70.664099
 30
0.0
 40
0.5
100
AcDbArc
 50
347.962948
 51
359.499916
  0
LINE
  5
137
100
AcDbEntity
  8
ALPHA
100
AcDbLine
 10
250.692124
 20
71.259713
 30
0.0
 11
250.646495
 21
71.260111
 31
0.0
  0
LINE
  5
138
100
AcDbEntity
  8
ALPHA
100
AcDbLine
 10
250.645623
 20
71.160115
 30
0.0
 11
250.691252
 21
71.159716
 31
0.0
  0
LINE
  5
139
100
AcDbEntity
  8
ALPHA
100
AcDbLine
 10
250.690379
 20
71.05972
 30
0.0
 11
250.64475
 21
71.060118
 31
0.0
  0
LINE
  5
13A
100
AcDbEntity
  8
ALPHA
100
AcDbLine
 10
250.686889
 20
70.659735
 30
0.0
 11
250.641259
 21
70.660134
 31
0.0
  0
ARC
  5
13B
100
AcDbEntity
  8
ALPHA
100
AcDbCircle
 10
255.891054
 20
71.114338
 30
0.0
 40
0.5
100
AcDbArc
 50
89.500031
 51
95.173151
  0
ARC
  5
13C
100
AcDbEntity
  8
ALPHA
100
AcDbCircle
 10
254.386748
 20
70.627447
 30
0.0
 40
0.5
100
AcDbArc
 50
179.499916
 51
191.036949
  0
LINE
  5
13D
100
AcDbEntity
  8
ALPHA
100
AcDbLine
 10
253.895493
 20
71.631772
 30
0.0
 11
253.94986
 21
71.631298
 31
0.0
  0
LINE
  5
13E
100
AcDbEntity
  8
ALPHA
100
AcDbLine
 10
253.892003
 20
71.231788
 30
0.0
 11
253.94637
 21
71.231313
 31
0.0
  0
LINE
  5
13F
100
AcDbEntity
  8
ALPHA
100
AcDbLine
 10
253.89113
 20
71.131792
 30
0.0
 11
253.945497
 21
71.131317
 31
0.0
  0
LINE
  5
140
100
AcDbEntity
  8
ALPHA
100
AcDbLine
 10
253.890257
 20
71.031795
 30
0.0
 11
253.944624
 21
71.031321
 31
0.0
  0
LINE
  5
141
100
AcDbEntity
  8
ALPHA
100
AcDbLine
 10
253.886767
 20
70.631811
 30
0.0
 11
253.941134
 21
70.631336
 31
0.0
  0
ARC
  5
142
100
AcDbEntity
  8
ALPHA
100
AcDbCircle
 10
274.01552
 20
47.476112
 30
0.0
 40
1.0
100
AcDbArc
 50
270.0
 51
0.0
  0
ARC
  5
143
100
AcDbEntity
  8
ALPHA
100
AcDbCircle
 10
260.01552
 20
43.976112
 30
0.0
 40
4.25
100
AcDbArc
 50
270.0
 51
90.0
  0
LINE
  5
144
100
AcDbEntity
  8
ALPHA
100
AcDbLine
 10
274.01552
 20
46.476112
 30
0.0
 11
274.01552
 21
59.500186
 31
0.0
  0
LINE
  5
145
100
AcDbEntity
  8
ALPHA
100
AcDbLine
 10
273.01552
 20
46.476112
 30
0.0
 11
273.01552
 21
59.26445
 31
0.0
  0
LINE
  5
146
100
AcDbEntity
  8
ALPHA
100
AcDbLine
 10
267.51552
 20
33.976112
 30
0.0
 11
267.51552
 21
59.312448
 31
0.0
  0
LINE
  5
147
100
AcDbEntity
  8
ALPHA
100
AcDbLine
 10
262.01552
 20
47.707714
 30
0.0
 11
262.01552
 21
46.476112
 31
0.0
  0
LINE
  5
148
100
AcDbEntity
  8
ALPHA
100
AcDbLine
 10
260.120671
 20
48.22703
 30
0.0
 11
260.135951
 21
46.476112
 31
0.0
  0
LINE
  5
149
100
AcDbEntity
  8
ALPHA
100
AcDbLine
 10
271.265558
 20
46.476112
 30
0.0
 11
270.76552
 21
46.976131
 31
0.0
  0
LINE
  5
14A
100
AcDbEntity
  8
ALPHA
100
AcDbLine
 10
260.135951
 20
46.476112
 30
0.0
 11
263.444985
 21
46.476112
 31
0.0
  0
LINE
  5
14B
100
AcDbEntity
  8
ALPHA
100
AcDbLine
 10
271.265558
 20
46.476112
 30
0.0
 11
274.01552
 21
46.476112
 31
0.0
  0
ARC
  5
14C
100
AcDbEntity
  8
ALPHA
100
AcDbCircle
 10
273.383164
 20
60.26128
 30
0.0
 40
1.0
100
AcDbArc
 50
269.499973
 51
358.999966
  0
ARC
  5
14D
100
AcDbEntity
  8
ALPHA
100
AcDbCircle
 10
267.51552
 20
51.976112
 30
0.0
 40
3.25
100
AcDbArc
 50
0.0
 51
90.0
  0
ARC
  5
14E
100
AcDbEntity
  8
ALPHA
100
AcDbCircle
 10
267.51552
 20
51.976112
 30
0.0
 40
2.754326
100
AcDbArc
 50
0.0
 51
90.0
  0
LINE
  5
14F
100
AcDbEntity
  8
ALPHA
100
AcDbLine
 10
270.76552
 20
46.976131
 30
0.0
 11
270.76552
 21
51.976112
 31
0.0
  0
LINE
  5
150
100
AcDbEntity
  8
ALPHA
100
AcDbLine
 10
270.269846
 20
47.476112
 30
0.0
 11
270.269846
 21
51.976112
 31
0.0
  0
LINE
  5
151
100
AcDbEntity
  8
ALPHA
100
AcDbLine
 10
270.76552
 20
46.976131
 30
0.0
 11
270.269846
 21
47.476112
 31
0.0
  0
LINE
  5
152
100
AcDbEntity
  8
ALPHA
100
AcDbLine
 10
270.76552
 20
51.976112
 30
0.0
 11
270.269846
 21
51.976112
 31
0.0
  0
ARC
  5
153
100
AcDbEntity
  8
ALPHA
100
AcDbCircle
 10
269.690528
 20
70.993912
 30
0.0
 40
0.5
100
AcDbArc
 50
89.499916
 51
179.499916
  0
LINE
  5
154
100
AcDbEntity
  8
ALPHA
100
AcDbLine
 10
269.190547
 20
70.998276
 30
0.0
 11
268.344949
 21
71.005655
 31
0.0
  0
LINE
  5
155
100
AcDbEntity
  8
ALPHA
100
AcDbLine
 10
264.068931
 20
68.042857
 30
0.0
 11
272.936523
 21
67.965471
 31
0.0
  0
LINE
  5
156
100
AcDbEntity
  8
ALPHA
100
AcDbLine
 10
259.903717
 20
59.178867
 30
0.0
 11
257.560476
 21
59.199316
 31
0.0
  0
LINE
  5
157
100
AcDbEntity
  8
ALPHA
100
AcDbLine
 10
257.562221
 20
59.399309
 30
0.0
 11
257.560476
 21
59.199316
 31
0.0
  0
LINE
  5
158
100
AcDbEntity
  8
ALPHA
100
AcDbLine
 10
262.618692
 20
59.355182
 30
0.0
 11
262.616947
 21
59.155189
 31
0.0
  0
LINE
  5
159
100
AcDbEntity
  8
ALPHA
100
AcDbLine
 10
262.557026
 20
59.35572
 30
0.0
 11
262.555281
 21
59.155727
 31
0.0
  0
LINE
  5
15A
100
AcDbEntity
  8
ALPHA
100
AcDbLine
 10
262.495368
 20
59.356258
 30
0.0
 11
262.493622
 21
59.156266
 31
0.0
  0
LINE
  5
15B
100
AcDbEntity
  8
ALPHA
100
AcDbLine
 10
262.248711
 20
59.35841
 30
0.0
 11
262.246966
 21
59.158418
 31
0.0
  0
LINE
  5
15C
100
AcDbEntity
  8
ALPHA
100
AcDbLine
 10
262.002047
 20
59.360563
 30
0.0
 11
262.000302
 21
59.160571
 31
0.0
  0
LINE
  5
15D
100
AcDbEntity
  8
ALPHA
100
AcDbLine
 10
261.5704
 20
59.36433
 30
0.0
 11
261.568654
 21
59.164338
 31
0.0
  0
LINE
  5
15E
100
AcDbEntity
  8
ALPHA
100
AcDbLine
 10
261.447068
 20
59.365406
 30
0.0
 11
261.445322
 21
59.165414
 31
0.0
  0
LINE
  5
15F
100
AcDbEntity
  8
ALPHA
100
AcDbLine
 10
261.015421
 20
59.369173
 30
0.0
 11
261.013675
 21
59.169181
 31
0.0
  0
LINE
  5
160
100
AcDbEntity
  8
ALPHA
100
AcDbLine
 10
260.768764
 20
59.371326
 30
0.0
 11
260.767019
 21
59.171333
 31
0.0
  0
LINE
  5
161
100
AcDbEntity
  8
ALPHA
100
AcDbLine
 10
260.522107
 20
59.373478
 30
0.0
 11
260.520362
 21
59.173486
 31
0.0
  0
LINE
  5
162
100
AcDbEntity
  8
ALPHA
100
AcDbLine
 10
260.460441
 20
59.374016
 30
0.0
 11
260.458696
 21
59.174024
 31
0.0
  0
LINE
  5
163
100
AcDbEntity
  8
ALPHA
100
AcDbLine
 10
260.398775
 20
59.374555
 30
0.0
 11
260.39703
 21
59.174562
 31
0.0
  0
LINE
  5
164
100
AcDbEntity
  8
ALPHA
100
AcDbLine
 10
259.905462
 20
59.37886
 30
0.0
 11
259.903717
 21
59.178867
 31
0.0
  0
LINE
  5
165
100
AcDbEntity
  8
ALPHA
100
AcDbLine
 10
262.616947
 20
59.155189
 30
0.0
 11
260.39703
 21
59.174562
 31
0.0
  0
LINE
  5
166
100
AcDbEntity
  8
ALPHA
100
AcDbLine
 10
264.082021
 20
69.5428
 30
0.0
 11
261.982101
 21
69.561126
 31
0.0
  0
LINE
  5
167
100
AcDbEntity
  8
ALPHA
100
AcDbLine
 10
261.973368
 20
69.061183
 30
0.0
 11
264.073289
 21
69.042857
 31
0.0
  0
LINE
  5
168
100
AcDbEntity
  8
ALPHA
100
AcDbLine
 10
261.973368
 20
68.430425
 30
0.0
 11
264.06228
 21
68.412195
 31
0.0
  0
LINE
  5
169
100
AcDbEntity
  8
ALPHA
100
AcDbLine
 10
261.969011
 20
68.061183
 30
0.0
 11
261.982101
 21
69.561126
 31
0.0
  0
LINE
  5
16A
100
AcDbEntity
  8
ALPHA
100
AcDbLine
 10
261.973368
 20
67.061107
 30
0.0
 11
261.973368
 21
68.061183
 31
0.0
  0
LINE
  5
16B
100
AcDbEntity
  8
ALPHA
100
AcDbLine
 10
259.395284
 20
71.583777
 30
0.0
 11
259.895265
 21
71.579413
 31
0.0
  0
ARC
  5
16C
100
AcDbEntity
  8
ALPHA
100
AcDbCircle
 10
257.921526
 20
74.096733
 30
0.0
 40
2.95
100
AcDbArc
 50
266.585404
 51
272.414615
  0
LINE
  5
16D
100
AcDbEntity
  8
ALPHA
100
AcDbLine
 10
258.89094
 20
71.088159
 30
0.0
 11
258.890254
 21
71.009597
 31
0.0
  0
LINE
  5
16E
100
AcDbEntity
  8
ALPHA
100
AcDbLine
 10
258.04319
 20
70.849011
 30
0.0
 11
258.045811
 21
71.149352
 31
0.0
  0
LINE
  5
16F
100
AcDbEntity
  8
ALPHA
100
AcDbLine
 10
257.743201
 20
70.851629
 30
0.0
 11
257.745822
 21
71.15197
 31
0.0
  0
LINE
  5
170
100
AcDbEntity
  8
ALPHA
100
AcDbLine
 10
256.891016
 20
71.105612
 30
0.0
 11
256.890358
 21
71.030205
 31
0.0
  0
LINE
  5
171
100
AcDbEntity
  8
ALPHA
100
AcDbLine
 10
258.045341
 20
71.095538
 30
0.0
 11
258.89094
 21
71.088159
 31
0.0
  0
LINE
  5
172
100
AcDbEntity
  8
ALPHA
100
AcDbLine
 10
256.891016
 20
71.105612
 30
0.0
 11
257.745352
 21
71.098156
 31
0.0
  0
ARC
  5
173
100
AcDbEntity
  8
ALPHA
100
AcDbCircle
 10
259.890902
 20
71.079432
 30
0.0
 40
0.5
100
AcDbArc
 50
82.939228
 51
89.500031
  0
LINE
  5
174
100
AcDbEntity
  8
ALPHA
100
AcDbLine
 10
264.038382
 20
67.043085
 30
0.0
 11
264.073289
 21
69.042857
 31
0.0
  0
LINE
  5
175
100
AcDbEntity
  8
ALPHA
100
AcDbLine
 10
264.068931
 20
68.042857
 30
0.0
 11
264.082021
 21
69.5428
 31
0.0
  0
ARC
  5
176
100
AcDbEntity
  8
ALPHA
100
AcDbCircle
 10
268.221134
 20
74.00685
 30
0.0
 40
2.95
100
AcDbArc
 50
266.585404
 51
272.414595
  0
ARC
  5
177
100
AcDbEntity
  8
ALPHA
100
AcDbCircle
 10
266.690643
 20
71.020092
 30
0.0
 40
0.5
100
AcDbArc
 50
359.500031
 51
89.500031
  0
ARC
  5
178
100
AcDbEntity
  8
ALPHA
100
AcDbCircle
 10
266.190662
 20
71.024455
 30
0.0
 40
0.5
100
AcDbArc
 50
89.500031
 51
95.173151
  0
LINE
  5
179
100
AcDbEntity
  8
ALPHA
100
AcDbLine
 10
268.342797
 20
70.759128
 30
0.0
 11
268.345418
 21
71.059469
 31
0.0
  0
LINE
  5
17A
100
AcDbEntity
  8
ALPHA
100
AcDbLine
 10
268.042809
 20
70.761746
 30
0.0
 11
268.04543
 21
71.062087
 31
0.0
  0
LINE
  5
17B
100
AcDbEntity
  8
ALPHA
100
AcDbLine
 10
267.190624
 20
71.015729
 30
0.0
 11
267.189965
 21
70.940321
 31
0.0
  0
LINE
  5
17C
100
AcDbEntity
  8
ALPHA
100
AcDbLine
 10
266.695006
 20
71.520073
 30
0.0
 11
266.195025
 21
71.524436
 31
0.0
  0
LINE
  5
17D
100
AcDbEntity
  8
ALPHA
100
AcDbLine
 10
268.04496
 20
71.008273
 30
0.0
 11
267.190624
 21
71.015729
 31
0.0
  0
LINE
  5
17E
100
AcDbEntity
  8
ALPHA
100
AcDbLine
 10
272.923431
 20
69.465642
 30
0.0
 11
272.965325
 21
64.665094
 31
0.0
  0
LINE
  5
17F
100
AcDbEntity
  8
ALPHA
100
AcDbLine
 10
273.372396
 20
59.261336
 30
0.0
 11
273.466642
 21
64.660719
 31
0.0
  0
ARC
  5
180
100
AcDbEntity
  8
ALPHA
100
AcDbCircle
 10
274.01552
 20
60.576112
 30
0.0
 40
1.0
100
AcDbArc
 50
275.782017
 51
0.0
  0
LINE
  5
181
100
AcDbEntity
  8
ALPHA
100
AcDbLine
 10
272.961037
 20
65.156424
 30
0.0
 11
274.468532
 21
65.143268
 31
0.0
  0
LINE
  5
182
100
AcDbEntity
  8
ALPHA
100
AcDbLine
 10
272.965325
 20
64.665094
 30
0.0
 11
274.459957
 21
64.65205
 31
0.0
  0
LINE
  5
183
100
AcDbEntity
  8
ALPHA
100
AcDbLine
 10
271.98172
 20
69.47386
 30
0.0
 11
271.96863
 21
67.973917
 31
0.0
  0
LINE
  5
184
100
AcDbEntity
  8
ALPHA
100
AcDbLine
 10
273.94935
 20
66.256567
 30
0.0
 11
274.497365
 21
66.7951
 31
0.0
  0
LINE
  5
185
100
AcDbEntity
  8
ALPHA
100
AcDbLine
 10
273.94935
 20
66.256567
 30
0.0
 11
272.951361
 21
66.265276
 31
0.0
  0
LINE
  5
186
100
AcDbEntity
  8
ALPHA
100
AcDbLine
 10
274.281632
 20
69.453789
 30
0.0
 11
271.98172
 21
69.47386
 31
0.0
  0
LINE
  5
187
100
AcDbEntity
  8
ALPHA
100
AcDbLine
 10
272.545554
 20
68.968921
 30
0.0
 11
271.977357
 21
68.973879
 31
0.0
  0
ARC
  5
188
100
AcDbEntity
  8
ALPHA
100
AcDbCircle
 10
270.190509
 20
70.989549
 30
0.0
 40
0.5
100
AcDbArc
 50
82.939114
 51
89.499916
  0
LINE
  5
189
100
AcDbEntity
  8
ALPHA
100
AcDbLine
 10
269.190547
 20
70.998276
 30
0.0
 11
269.189862
 21
70.919714
 31
0.0
  0
LINE
  5
18A
100
AcDbEntity
  8
ALPHA
100
AcDbLine
 10
270.194873
 20
71.48953
 30
0.0
 11
269.694892
 21
71.493893
 31
0.0
  0
LINE
  5
18B
100
AcDbEntity
  8
ALPHA
100
AcDbLine
 10
272.55428
 20
69.468864
 30
0.0
 11
272.545554
 21
68.968921
 31
0.0
  0
LINE
  5
18C
100
AcDbEntity
  8
ALPHA
100
AcDbLine
 10
274.573402
 20
71.151308
 30
0.0
 11
274.296467
 21
71.153724
 31
0.0
  0
LWPOLYLINE
  5
18D
100
AcDbEntity
  8
ALPHA
100
AcDbPolyline
 90
        5
 70
     0
 43
0.0
 38
62.05
 10
160.670049
 20
68.945205
 10
160.677754
 20
68.56244
 10
160.706375
 20
68.237755
 10
160.751556
 20
68.020579
 10
160.806416
 20
67.943977
  0
LWPOLYLINE
  5
18E
100
AcDbEntity
  8
ALPHA
100
AcDbPolyline
 90
        5
 70
     0
 43
0.0
 38
62.05
 10
159.815143
 20
68.47601
 10
159.863674
 20
68.240267
 10
160.004557
 20
68.027406
 10
160.224118
 20
67.858088
 10
160.501044
 20
67.748746
  0
LWPOLYLINE
  5
18F
100
AcDbEntity
  8
ALPHA
100
AcDbPolyline
 90
        6
 70
     0
 43
0.0
 38
62.05
 10
171.201447
 20
67.853261
 10
171.172876
 20
67.902529
 10
171.148837
 20
68.044778
 10
171.131652
 20
68.265998
 10
171.122988
 20
68.544722
 10
171.123707
 20
68.853978
  0
LWPOLYLINE
  5
190
100
AcDbEntity
  8
ALPHA
100
AcDbPolyline
 90
        5
 70
     0
 43
0.0
 38
62.05
 10
171.3272
 20
71.113274
 10
171.334197
 20
71.305712
 10
171.347548
 20
71.472952
 10
171.364912
 20
71.583018
 10
171.382708
 20
71.620998
  0
LWPOLYLINE
  5
191
100
AcDbEntity
  8
ALPHA
100
AcDbPolyline
 90
        5
 70
     0
 43
0.0
 38
62.05
 10
171.512079
 20
71.11166
 10
171.511784
 20
71.30418
 10
171.504262
 20
71.471593
 10
171.490736
 20
71.581922
 10
171.47334
 20
71.620406
  0
LWPOLYLINE
  5
192
100
AcDbEntity
  8
ALPHA
100
AcDbPolyline
 90
        6
 70
     0
 43
0.0
 38
62.05
 10
173.787303
 20
67.830695
 10
173.757881
 20
67.87997
 10
173.731374
 20
68.022241
 10
173.710348
 20
68.243494
 10
173.696843
 20
68.52226
 10
173.69219
 20
68.831563
  0
LWPOLYLINE
  5
193
100
AcDbEntity
  8
ALPHA
100
AcDbPolyline
 90
        6
 70
     0
 43
0.0
 38
62.05
 10
196.091227
 20
51.860774
 10
196.038973
 20
51.749222
 10
195.89056
 20
51.651559
 10
195.666246
 20
51.577246
 10
195.391372
 20
51.531989
 10
195.091303
 20
51.518428
  0
LWPOLYLINE
  5
194
100
AcDbEntity
  8
ALPHA
100
AcDbPolyline
 90
        6
 70
     0
 43
0.0
 38
62.05
 10
197.950222
 20
51.844551
 10
198.000522
 20
51.732104
 10
198.147207
 20
51.631866
 10
198.37019
 20
51.553649
 10
198.644233
 20
51.503602
 10
198.944019
 20
51.484806
  0
LWPOLYLINE
  5
195
100
AcDbEntity
  8
ALPHA
100
AcDbPolyline
 90
        5
 70
     0
 43
0.0
 38
62.05
 10
199.073773
 20
58.918419
 10
198.69116
 20
58.924433
 10
198.366779
 20
58.928203
 10
198.150009
 20
58.929155
 10
198.07385
 20
58.927145
  0
LWPOLYLINE
  5
196
100
AcDbEntity
  8
ALPHA
100
AcDbPolyline
 90
        5
 70
     0
 43
0.0
 38
62.05
 10
196.091227
 20
58.944447
 10
196.015113
 20
58.947786
 10
195.79836
 20
58.950617
 10
195.473963
 20
58.952509
 10
195.091303
 20
58.953173
  0
LWPOLYLINE
  5
197
100
AcDbEntity
  8
ALPHA
100
AcDbPolyline
 90
        8
 70
     0
 43
0.0
 38
62.05
 10
229.271451
 20
67.937379
 10
229.398136
 20
67.980548
 10
229.513815
 20
68.026382
 10
229.618286
 20
68.075763
 10
229.710402
 20
68.129936
 10
229.788053
 20
68.191359
 10
229.844071
 20
68.262209
 10
229.865864
 20
68.341343
  0
LWPOLYLINE
  5
198
100
AcDbEntity
  8
ALPHA
100
AcDbPolyline
 90
        6
 70
     0
 43
0.0
 38
62.05
 10
236.089703
 20
51.511713
 10
236.03745
 20
51.40016
 10
235.889037
 20
51.302498
 10
235.664723
 20
51.228185
 10
235.389849
 20
51.182928
 10
235.08978
 20
51.169366
  0
LWPOLYLINE
  5
199
100
AcDbEntity
  8
ALPHA
100
AcDbPolyline
 90
        6
 70
     0
 43
0.0
 38
62.05
 10
237.948699
 20
51.495489
 10
237.998998
 20
51.383042
 10
238.145684
 20
51.282804
 10
238.368667
 20
51.204588
 10
238.64271
 20
51.15454
 10
238.942496
 20
51.135744
  0
LWPOLYLINE
  5
19A
100
AcDbEntity
  8
ALPHA
100
AcDbPolyline
 90
        5
 70
     0
 43
0.0
 38
62.05
 10
236.089703
 20
58.595385
 10
236.01359
 20
58.598725
 10
235.796837
 20
58.601556
 10
235.47244
 20
58.603447
 10
235.08978
 20
58.604112
  0
LWPOLYLINE
  5
19B
100
AcDbEntity
  8
ALPHA
100
AcDbPolyline
 90
        5
 70
     0
 43
0.0
 38
62.05
 10
239.07225
 20
58.569357
 10
238.689637
 20
58.575371
 10
238.365256
 20
58.579141
 10
238.148486
 20
58.580094
 10
238.072327
 20
58.578083
  0
CIRCLE
  5
19C
100
AcDbEntity
  8
ALPHA
100
AcDbCircle
 10
257.917157
 20
74.096771
 30
0.0
 40
2.0
  0
LINE
  5
19D
100
AcDbEntity
  8
ALPHA
100
AcDbLine
 10
260.31552
 20
151.976112
 30
0.0
 11
244.31552
 21
151.976112
 31
0.0
  0
LINE
  5
19E
100
AcDbEntity
  8
ALPHA
100
AcDbLine
 10
260.31552
 20
151.476112
 30
0.0
 11
244.31552
 21
151.476112
 31
0.0
  0
LINE
  5
19F
100
AcDbEntity
  8
ALPHA
100
AcDbLine
 10
260.81552
 20
124.376112
 30
0.0
 11
243.81552
 21
124.376112
 31
0.0
  0
LINE
  5
1A0
100
AcDbEntity
  8
ALPHA
100
AcDbLine
 10
260.81552
 20
123.376112
 30
0.0
 11
243.81552
 21
123.376112
 31
0.0
  0
LINE
  5
1A1
100
AcDbEntity
  8
ALPHA
100
AcDbLine
 10
260.81552
 20
122.376112
 30
0.0
 11
243.81552
 21
122.376112
 31
0.0
  0
LINE
  5
1A2
100
AcDbEntity
  8
ALPHA
100
AcDbLine
 10
260.81552
 20
117.876112
 30
0.0
 11
243.81552
 21
117.876112
 31
0.0
  0
LINE
  5
1A3
100
AcDbEntity
  8
ALPHA
100
AcDbLine
 10
261.346828
 20
116.876112
 30
0.0
 11
243.333962
 21
116.876112
 31
0.0
  0
LINE
  5
1A4
100
AcDbEntity
  8
ALPHA
100
AcDbLine
 10
259.628711
 20
105.683038
 30
0.0
 11
237.32956
 21
105.87764
 31
0.0
  0
LINE
  5
1A5
100
AcDbEntity
  8
ALPHA
100
AcDbLine
 10
237.259748
 20
97.877944
 30
0.0
 11
259.558899
 21
97.683343
 31
0.0
  0
LINE
  5
1A6
100
AcDbEntity
  8
ALPHA
100
AcDbLine
 10
260.829623
 20
86.971846
 30
0.0
 11
254.829851
 21
87.024205
 31
0.0
  0
LINE
  5
1A7
100
AcDbEntity
  8
ALPHA
100
AcDbLine
 10
260.777264
 20
80.972074
 30
0.0
 11
254.777492
 21
81.024433
 31
0.0
  0
LINE
  5
1A8
100
AcDbEntity
  8
ALPHA
100
AcDbLine
 10
274.733971
 20
80.350257
 30
0.0
 11
229.974073
 21
80.74087
 31
0.0
  0
LINE
  5
1A9
100
AcDbEntity
  8
ALPHA
100
AcDbLine
 10
253.939485
 20
78.631655
 30
0.0
 11
274.70081
 21
78.450474
 31
0.0
  0
LINE
  5
1AA
100
AcDbEntity
  8
ALPHA
100
AcDbLine
 10
243.81552
 20
128.376112
 30
0.0
 11
243.81552
 21
117.731117
 31
0.0
  0
LINE
  5
1AB
100
AcDbEntity
  8
ALPHA
100
AcDbLine
 10
243.333962
 20
116.876112
 30
0.0
 11
243.333962
 21
128.376112
 31
0.0
  0
LINE
  5
1AC
100
AcDbEntity
  8
ALPHA
100
AcDbLine
 10
226.521953
 20
116.876112
 30
0.0
 11
226.521953
 21
128.376112
 31
0.0
  0
LINE
  5
1AD
100
AcDbEntity
  8
ALPHA
100
AcDbLine
 10
226.01552
 20
117.745718
 30
0.0
 11
226.01552
 21
128.376112
 31
0.0
  0
LINE
  5
1AE
100
AcDbEntity
  8
ALPHA
100
AcDbLine
 10
209.01552
 20
128.376112
 30
0.0
 11
209.01552
 21
117.745718
 31
0.0
  0
LINE
  5
1AF
100
AcDbEntity
  8
ALPHA
100
AcDbLine
 10
208.509087
 20
116.876112
 30
0.0
 11
208.509087
 21
128.376112
 31
0.0
  0
LINE
  5
1B0
100
AcDbEntity
  8
ALPHA
100
AcDbLine
 10
191.697079
 20
116.876112
 30
0.0
 11
191.697079
 21
128.376112
 31
0.0
  0
LINE
  5
1B1
100
AcDbEntity
  8
ALPHA
100
AcDbLine
 10
191.21552
 20
117.731117
 30
0.0
 11
191.21552
 21
128.376112
 31
0.0
  0
LINE
  5
1B2
100
AcDbEntity
  8
ALPHA
100
AcDbLine
 10
174.21552
 20
117.759379
 30
0.0
 11
174.21552
 21
128.376112
 31
0.0
  0
LINE
  5
1B3
100
AcDbEntity
  8
ALPHA
100
AcDbLine
 10
173.684212
 20
116.876112
 30
0.0
 11
173.684212
 21
128.376112
 31
0.0
  0
LINE
  5
1B4
100
AcDbEntity
  8
ALPHA
100
AcDbLine
 10
170.982282
 20
111.676112
 30
0.0
 11
170.982282
 21
128.376112
 31
0.0
  0
LINE
  5
1B5
100
AcDbEntity
  8
ALPHA
100
AcDbLine
 10
170.51552
 20
111.676112
 30
0.0
 11
170.51552
 21
128.376112
 31
0.0
  0
LINE
  5
1B6
100
AcDbEntity
  8
ALPHA
100
AcDbLine
 10
237.326942
 20
105.577651
 30
0.0
 11
161.164204
 21
106.242313
 31
0.0
  0
LINE
  5
1B7
100
AcDbEntity
  8
ALPHA
100
AcDbLine
 10
237.322807
 20
105.103837
 30
0.0
 11
160.309721
 21
105.77592
 31
0.0
  0
LINE
  5
1B8
100
AcDbEntity
  8
ALPHA
100
AcDbLine
 10
161.141515
 20
104.942462
 30
0.0
 11
237.315598
 21
104.277701
 31
0.0
  0
LINE
  5
1B9
100
AcDbEntity
  8
ALPHA
100
AcDbLine
 10
160.987747
 20
103.943766
 30
0.0
 11
237.306871
 21
103.277739
 31
0.0
  0
LINE
  5
1BA
100
AcDbEntity
  8
ALPHA
100
AcDbLine
 10
161.566924
 20
103.138681
 30
0.0
 11
229.564335
 21
102.545276
 31
0.0
  0
LINE
  5
1BB
100
AcDbEntity
  8
ALPHA
100
AcDbLine
 10
159.815143
 20
88.353405
 30
0.0
 11
230.01247
 21
87.740802
 31
0.0
  0
LINE
  5
1BC
100
AcDbEntity
  8
ALPHA
100
AcDbLine
 10
160.714897
 20
88.345553
 30
0.0
 11
160.987747
 21
103.943766
 31
0.0
  0
LINE
  5
1BD
100
AcDbEntity
  8
ALPHA
100
AcDbLine
 10
159.860514
 20
88.352613
 30
0.0
 11
160.15563
 21
105.259804
 31
0.0
  0
LINE
  5
1BE
100
AcDbEntity
  8
ALPHA
100
AcDbLine
 10
159.81552
 20
102.076112
 30
0.0
 11
159.81552
 21
88.353405
 31
0.0
  0
CIRCLE
  5
1BF
100
AcDbEntity
  8
ALPHA
100
AcDbCircle
 10
172.564042
 20
79.841827
 30
0.0
 40
5.1
  0
CIRCLE
  5
1C0
100
AcDbEntity
  8
ALPHA
100
AcDbCircle
 10
172.564042
 20
79.841827
 30
0.0
 40
4.895184
  0
CIRCLE
  5
1C1
100
AcDbEntity
  8
ALPHA
100
AcDbCircle
 10
172.564042
 20
79.841827
 30
0.0
 40
5.0
  0
LINE
  5
1C2
100
AcDbEntity
  8
ALPHA
100
AcDbLine
 10
173.994536
 20
84.244434
 30
0.0
 11
171.703256
 21
82.054898
 31
0.0
  0
LINE
  5
1C3
100
AcDbEntity
  8
ALPHA
100
AcDbLine
 10
173.994536
 20
84.244434
 30
0.0
 11
173.954618
 21
84.121581
 31
0.0
  0
LINE
  5
1C4
100
AcDbEntity
  8
ALPHA
100
AcDbLine
 10
174.561243
 20
81.126282
 30
0.0
 11
173.994536
 21
84.244434
 31
0.0
  0
LINE
  5
1C5
100
AcDbEntity
  8
ALPHA
100
AcDbLine
 10
173.013469
 20
78.959775
 30
0.0
 11
172.252904
 21
76.618995
 31
0.0
  0
LINE
  5
1C6
100
AcDbEntity
  8
ALPHA
100
AcDbLine
 10
172.154441
 20
76.715381
 30
0.0
 11
172.603336
 21
78.096937
 31
0.0
  0
LINE
  5
1C7
100
AcDbEntity
  8
ALPHA
100
AcDbLine
 10
171.057737
 20
77.071722
 30
0.0
 11
171.506632
 21
78.453278
 31
0.0
  0
LINE
  5
1C8
100
AcDbEntity
  8
ALPHA
100
AcDbLine
 10
170.921425
 20
77.051619
 30
0.0
 11
171.68199
 21
79.392399
 31
0.0
  0
LINE
  5
1C9
100
AcDbEntity
  8
ALPHA
100
AcDbLine
 10
173.720896
 20
73.431487
 30
0.0
 11
171.232333
 21
73.453205
 31
0.0
  0
LINE
  5
1CA
100
AcDbEntity
  8
ALPHA
100
AcDbLine
 10
170.921425
 20
77.051619
 30
0.0
 11
171.057737
 21
77.071722
 31
0.0
  0
LINE
  5
1CB
100
AcDbEntity
  8
ALPHA
100
AcDbLine
 10
172.154441
 20
76.715381
 30
0.0
 11
171.057737
 21
77.071722
 31
0.0
  0
LINE
  5
1CC
100
AcDbEntity
  8
ALPHA
100
AcDbLine
 10
170.921425
 20
77.051619
 30
0.0
 11
172.252904
 21
76.618995
 31
0.0
  0
LINE
  5
1CD
100
AcDbEntity
  8
ALPHA
100
AcDbLine
 10
172.252904
 20
76.618995
 30
0.0
 11
172.154441
 21
76.715381
 31
0.0
  0
LINE
  5
1CE
100
AcDbEntity
  8
ALPHA
100
AcDbLine
 10
175.012812
 20
79.782197
 30
0.0
 11
173.001723
 21
80.064837
 31
0.0
  0
LINE
  5
1CF
100
AcDbEntity
  8
ALPHA
100
AcDbLine
 10
173.621451
 20
81.230376
 30
0.0
 11
172.524748
 21
81.586716
 31
0.0
  0
LINE
  5
1D0
100
AcDbEntity
  8
ALPHA
100
AcDbLine
 10
175.012812
 20
79.782197
 30
0.0
 11
173.446093
 21
80.291255
 31
0.0
  0
LINE
  5
1D1
100
AcDbEntity
  8
ALPHA
100
AcDbLine
 10
173.954618
 20
84.121581
 30
0.0
 11
171.819695
 21
82.081458
 31
0.0
  0
LINE
  5
1D2
100
AcDbEntity
  8
ALPHA
100
AcDbLine
 10
174.580189
 20
78.450718
 30
0.0
 11
173.013469
 21
78.959775
 31
0.0
  0
LINE
  5
1D3
100
AcDbEntity
  8
ALPHA
100
AcDbLine
 10
174.580189
 20
78.450718
 30
0.0
 11
172.787052
 21
79.404145
 31
0.0
  0
LINE
  5
1D4
100
AcDbEntity
  8
ALPHA
100
AcDbLine
 10
173.001723
 20
80.064837
 30
0.0
 11
173.621451
 21
81.230376
 31
0.0
  0
LINE
  5
1D5
100
AcDbEntity
  8
ALPHA
100
AcDbLine
 10
173.797989
 20
81.374278
 30
0.0
 11
173.446093
 21
80.291255
 31
0.0
  0
LINE
  5
1D6
100
AcDbEntity
  8
ALPHA
100
AcDbLine
 10
172.114614
 20
80.723878
 30
0.0
 11
170.547895
 21
81.232936
 31
0.0
  0
LINE
  5
1D7
100
AcDbEntity
  8
ALPHA
100
AcDbLine
 10
172.341032
 20
80.279508
 30
0.0
 11
170.547895
 21
81.232936
 31
0.0
  0
LINE
  5
1D8
100
AcDbEntity
  8
ALPHA
100
AcDbLine
 10
172.114614
 20
80.723878
 30
0.0
 11
172.46651
 21
81.806902
 31
0.0
  0
LINE
  5
1D9
100
AcDbEntity
  8
ALPHA
100
AcDbLine
 10
170.115271
 20
79.901457
 30
0.0
 11
170.547895
 21
81.232936
 31
0.0
  0
LINE
  5
1DA
100
AcDbEntity
  8
ALPHA
100
AcDbLine
 10
172.341032
 20
80.279508
 30
0.0
 11
172.524748
 21
81.586716
 31
0.0
  0
LINE
  5
1DB
100
AcDbEntity
  8
ALPHA
100
AcDbLine
 10
172.12636
 20
79.618817
 30
0.0
 11
170.115271
 21
79.901457
 31
0.0
  0
LINE
  5
1DC
100
AcDbEntity
  8
ALPHA
100
AcDbLine
 10
171.68199
 20
79.392399
 30
0.0
 11
170.115271
 21
79.901457
 31
0.0
  0
LINE
  5
1DD
100
AcDbEntity
  8
ALPHA
100
AcDbLine
 10
172.12636
 20
79.618817
 30
0.0
 11
171.68199
 21
79.392399
 31
0.0
  0
LINE
  5
1DE
100
AcDbEntity
  8
ALPHA
100
AcDbLine
 10
173.446093
 20
80.291255
 30
0.0
 11
173.001723
 21
80.064837
 31
0.0
  0
LINE
  5
1DF
100
AcDbEntity
  8
ALPHA
100
AcDbLine
 10
173.001723
 20
80.064837
 30
0.0
 11
172.341032
 21
80.279508
 31
0.0
  0
LINE
  5
1E0
100
AcDbEntity
  8
ALPHA
100
AcDbLine
 10
172.787052
 20
79.404145
 30
0.0
 11
172.12636
 21
79.618817
 31
0.0
  0
LINE
  5
1E1
100
AcDbEntity
  8
ALPHA
100
AcDbLine
 10
172.603336
 20
78.096937
 30
0.0
 11
171.506632
 21
78.453278
 31
0.0
  0
LINE
  5
1E2
100
AcDbEntity
  8
ALPHA
100
AcDbLine
 10
171.506632
 20
78.453278
 30
0.0
 11
172.12636
 21
79.618817
 31
0.0
  0
LINE
  5
1E3
100
AcDbEntity
  8
ALPHA
100
AcDbLine
 10
172.787052
 20
79.404145
 30
0.0
 11
173.001723
 21
80.064837
 31
0.0
  0
LINE
  5
1E4
100
AcDbEntity
  8
ALPHA
100
AcDbLine
 10
172.12636
 20
79.618817
 30
0.0
 11
172.341032
 21
80.279508
 31
0.0
  0
LINE
  5
1E5
100
AcDbEntity
  8
ALPHA
100
AcDbLine
 10
172.603336
 20
78.096937
 30
0.0
 11
172.787052
 21
79.404145
 31
0.0
  0
LINE
  5
1E6
100
AcDbEntity
  8
ALPHA
100
AcDbLine
 10
172.341032
 20
80.279508
 30
0.0
 11
172.114614
 21
80.723878
 31
0.0
  0
LINE
  5
1E7
100
AcDbEntity
  8
ALPHA
100
AcDbLine
 10
173.013469
 20
78.959775
 30
0.0
 11
172.787052
 21
79.404145
 31
0.0
  0
LINE
  5
1E8
100
AcDbEntity
  8
ALPHA
100
AcDbLine
 10
172.46651
 20
81.806902
 30
0.0
 11
172.602822
 21
81.827005
 31
0.0
  0
LINE
  5
1E9
100
AcDbEntity
  8
ALPHA
100
AcDbLine
 10
171.819695
 20
82.081458
 30
0.0
 11
171.703256
 21
82.054898
 31
0.0
  0
LINE
  5
1EA
100
AcDbEntity
  8
ALPHA
100
AcDbLine
 10
171.819695
 20
82.081458
 30
0.0
 11
172.602822
 21
81.827005
 31
0.0
  0
LINE
  5
1EB
100
AcDbEntity
  8
ALPHA
100
AcDbLine
 10
171.703256
 20
82.054898
 30
0.0
 11
172.46651
 21
81.806902
 31
0.0
  0
LINE
  5
1EC
100
AcDbEntity
  8
ALPHA
100
AcDbLine
 10
172.524748
 20
81.586716
 30
0.0
 11
172.602822
 21
81.827005
 31
0.0
  0
LINE
  5
1ED
100
AcDbEntity
  8
ALPHA
100
AcDbLine
 10
174.580189
 20
78.450718
 30
0.0
 11
175.012812
 21
79.782197
 31
0.0
  0
LINE
  5
1EE
100
AcDbEntity
  8
ALPHA
100
AcDbLine
 10
173.699526
 20
81.470664
 30
0.0
 11
174.482653
 21
81.21621
 31
0.0
  0
LINE
  5
1EF
100
AcDbEntity
  8
ALPHA
100
AcDbLine
 10
173.797989
 20
81.374278
 30
0.0
 11
174.561243
 21
81.126282
 31
0.0
  0
LINE
  5
1F0
100
AcDbEntity
  8
ALPHA
100
AcDbLine
 10
174.561243
 20
81.126282
 30
0.0
 11
174.482653
 21
81.21621
 31
0.0
  0
LINE
  5
1F1
100
AcDbEntity
  8
ALPHA
100
AcDbLine
 10
173.797989
 20
81.374278
 30
0.0
 11
173.699526
 21
81.470664
 31
0.0
  0
LINE
  5
1F2
100
AcDbEntity
  8
ALPHA
100
AcDbLine
 10
173.621451
 20
81.230376
 30
0.0
 11
173.699526
 21
81.470664
 31
0.0
  0
LINE
  5
1F3
100
AcDbEntity
  8
ALPHA
100
AcDbLine
 10
174.482653
 20
81.21621
 30
0.0
 11
173.954618
 21
84.121581
 31
0.0
  0
LINE
  5
1F4
100
AcDbEntity
  8
ALPHA
100
AcDbLine
 10
166.658725
 20
92.793853
 30
0.0
 11
178.645413
 21
92.689247
 31
0.0
  0
LINE
  5
1F5
100
AcDbEntity
  8
ALPHA
100
AcDbLine
 10
166.720932
 20
92.693306
 30
0.0
 11
178.523907
 21
92.590303
 31
0.0
  0
LINE
  5
1F6
100
AcDbEntity
  8
ALPHA
100
AcDbLine
 10
166.709588
 20
91.393356
 30
0.0
 11
178.512562
 21
91.290353
 31
0.0
  0
LINE
  5
1F7
100
AcDbEntity
  8
ALPHA
100
AcDbLine
 10
166.722245
 20
90.393207
 30
0.0
 11
178.624354
 21
90.289339
 31
0.0
  0
LINE
  5
1F8
100
AcDbEntity
  8
ALPHA
100
AcDbLine
 10
166.619463
 20
88.294024
 30
0.0
 11
166.658725
 21
92.79386
 31
0.0
  0
LINE
  5
1F9
100
AcDbEntity
  8
ALPHA
100
AcDbLine
 10
166.824571
 20
88.292234
 30
0.0
 11
166.842897
 21
90.392154
 31
0.0
  0
LINE
  5
1FA
100
AcDbEntity
  8
ALPHA
100
AcDbLine
 10
166.658725
 20
92.79386
 30
0.0
 11
166.720932
 21
92.693306
 31
0.0
  0
LINE
  5
1FB
100
AcDbEntity
  8
ALPHA
100
AcDbLine
 10
166.709588
 20
91.393356
 30
0.0
 11
166.720932
 21
92.693306
 31
0.0
  0
LINE
  5
1FC
100
AcDbEntity
  8
ALPHA
100
AcDbLine
 10
178.606136
 20
88.189418
 30
0.0
 11
178.645413
 21
92.689254
 31
0.0
  0
LINE
  5
1FD
100
AcDbEntity
  8
ALPHA
100
AcDbLine
 10
167.470844
 20
90.386674
 30
0.0
 11
167.489173
 21
88.286434
 31
0.0
  0
LINE
  5
1FE
100
AcDbEntity
  8
ALPHA
100
AcDbLine
 10
177.785517
 20
88.19658
 30
0.0
 11
177.840497
 21
90.29618
 31
0.0
  0
LINE
  5
1FF
100
AcDbEntity
  8
ALPHA
100
AcDbLine
 10
178.645413
 20
92.689254
 30
0.0
 11
178.523907
 21
92.590303
 31
0.0
  0
LINE
  5
200
100
AcDbEntity
  8
ALPHA
100
AcDbLine
 10
178.512562
 20
91.290353
 30
0.0
 11
178.523907
 21
92.590303
 31
0.0
  0
LINE
  5
201
100
AcDbEntity
  8
ALPHA
100
AcDbLine
 10
191.21552
 20
117.876112
 30
0.0
 11
174.21552
 21
117.876112
 31
0.0
  0
LINE
  5
202
100
AcDbEntity
  8
ALPHA
100
AcDbLine
 10
191.697079
 20
116.876112
 30
0.0
 11
173.684212
 21
116.876112
 31
0.0
  0
ARC
  5
203
100
AcDbEntity
  8
ALPHA
100
AcDbCircle
 10
167.51552
 20
111.976112
 30
0.0
 40
3.25
100
AcDbArc
 50
21.517208
 51
253.011871
  0
CIRCLE
  5
204
100
AcDbEntity
  8
ALPHA
100
AcDbCircle
 10
167.51552
 20
111.976112
 30
0.0
 40
2.754326
  0
ARC
  5
205
100
AcDbEntity
  8
ALPHA
100
AcDbCircle
 10
167.71552
 20
111.676112
 30
0.0
 40
2.8
100
AcDbArc
 50
270.0
 51
0.0
  0
LINE
  5
206
100
AcDbEntity
  8
ALPHA
100
AcDbLine
 10
162.01552
 20
117.476112
 30
0.0
 11
162.01552
 21
106.234884
 31
0.0
  0
LINE
  5
207
100
AcDbEntity
  8
ALPHA
100
AcDbLine
 10
161.01552
 20
117.476112
 30
0.0
 11
161.01552
 21
106.242313
 31
0.0
  0
LINE
  5
208
100
AcDbEntity
  8
ALPHA
100
AcDbLine
 10
160.01552
 20
116.476112
 30
0.0
 11
160.01552
 21
97.232914
 31
0.0
  0
LINE
  5
209
100
AcDbEntity
  8
ALPHA
100
AcDbLine
 10
163.01552
 20
108.876112
 30
0.0
 11
167.71552
 21
108.876112
 31
0.0
  0
LINE
  5
20A
100
AcDbEntity
  8
ALPHA
100
AcDbLine
 10
162.51552
 20
108.376112
 30
0.0
 11
167.679923
 21
108.376112
 31
0.0
  0
LINE
  5
20B
100
AcDbEntity
  8
ALPHA
100
AcDbLine
 10
159.81552
 20
102.076112
 30
0.0
 11
160.01552
 21
102.076112
 31
0.0
  0
ARC
  5
20C
100
AcDbEntity
  8
ALPHA
100
AcDbCircle
 10
161.132789
 20
103.9425
 30
0.0
 40
1.0
100
AcDbArc
 50
89.500031
 51
179.000024
  0
ARC
  5
20D
100
AcDbEntity
  8
ALPHA
100
AcDbCircle
 10
161.155478
 20
105.242351
 30
0.0
 40
1.0
100
AcDbArc
 50
89.500031
 51
178.999966
  0
LINE
  5
20E
100
AcDbEntity
  8
ALPHA
100
AcDbLine
 10
160.987747
 20
103.943766
 30
0.0
 11
160.132941
 21
103.959952
 31
0.0
  0
ARC
  5
20F
100
AcDbEntity
  8
ALPHA
100
AcDbCircle
 10
161.01552
 20
103.376112
 30
0.0
 40
1.0
100
AcDbArc
 50
153.646112
 51
180.0
  0
ARC
  5
210
100
AcDbEntity
  8
ALPHA
100
AcDbCircle
 10
163.01552
 20
108.376112
 30
0.0
 40
0.5
100
AcDbArc
 50
90.0
 51
180.0
  0
LINE
  5
211
100
AcDbEntity
  8
ALPHA
100
AcDbLine
 10
162.976564
 20
106.226497
 30
0.0
 11
162.976564
 21
108.376112
 31
0.0
  0
LINE
  5
212
100
AcDbEntity
  8
ALPHA
100
AcDbLine
 10
162.51552
 20
106.23052
 30
0.0
 11
162.51552
 21
108.376112
 31
0.0
  0
LINE
  5
213
100
AcDbEntity
  8
ALPHA
100
AcDbLine
 10
161.01552
 20
117.476112
 30
0.0
 11
170.51552
 21
117.476112
 31
0.0
  0
ARC
  5
214
100
AcDbEntity
  8
ALPHA
100
AcDbCircle
 10
161.01552
 20
116.476112
 30
0.0
 40
1.0
100
AcDbArc
 50
90.0
 51
180.0
  0
LINE
  5
215
100
AcDbEntity
  8
ALPHA
100
AcDbLine
 10
170.982282
 20
111.676112
 30
0.0
 11
170.51552
 21
111.676112
 31
0.0
  0
LINE
  5
216
100
AcDbEntity
  8
ALPHA
100
AcDbLine
 10
230.079735
 20
92.848502
 30
0.0
 11
230.171293
 21
103.34001
 31
0.0
  0
LINE
  5
217
100
AcDbEntity
  8
ALPHA
100
AcDbLine
 10
230.004616
 20
85.140771
 30
0.0
 11
244.724799
 21
85.01231
 31
0.0
  0
LINE
  5
218
100
AcDbEntity
  8
ALPHA
100
AcDbLine
 10
229.957493
 20
78.840943
 30
0.0
 11
250.773795
 21
78.659282
 31
0.0
  0
LINE
  5
219
100
AcDbEntity
  8
ALPHA
100
AcDbLine
 10
230.319304
 20
73.962471
 30
0.0
 11
229.91495
 21
73.966
 31
0.0
  0
LINE
  5
21A
100
AcDbEntity
  8
ALPHA
100
AcDbLine
 10
230.334358
 20
75.687534
 30
0.0
 11
229.930004
 21
75.691063
 31
0.0
  0
LINE
  5
21B
100
AcDbEntity
  8
ALPHA
100
AcDbLine
 10
230.329995
 20
75.187553
 30
0.0
 11
229.925641
 21
75.191082
 31
0.0
  0
LINE
  5
21C
100
AcDbEntity
  8
ALPHA
100
AcDbLine
 10
229.956643
 20
80.741023
 30
0.0
 11
229.940063
 21
78.841095
 31
0.0
  0
LINE
  5
21D
100
AcDbEntity
  8
ALPHA
100
AcDbLine
 10
230.004616
 20
87.74087
 30
0.0
 11
230.079735
 21
92.848502
 31
0.0
  0
LINE
  5
21E
100
AcDbEntity
  8
ALPHA
100
AcDbLine
 10
230.01247
 20
87.740802
 30
0.0
 11
230.01247
 21
85.140703
 31
0.0
  0
LINE
  5
21F
100
AcDbEntity
  8
ALPHA
100
AcDbLine
 10
230.004616
 20
85.140771
 30
0.0
 11
230.004616
 21
87.74087
 31
0.0
  0
LINE
  5
220
100
AcDbEntity
  8
ALPHA
100
AcDbLine
 10
254.829851
 20
87.024205
 30
0.0
 11
254.777492
 21
81.024433
 31
0.0
  0
LINE
  5
221
100
AcDbEntity
  8
ALPHA
100
AcDbLine
 10
241.412036
 20
85.04122
 30
0.0
 11
241.385856
 21
82.041335
 31
0.0
  0
LINE
  5
222
100
AcDbEntity
  8
ALPHA
100
AcDbLine
 10
241.193444
 20
84.268099
 30
0.0
 11
241.175119
 21
82.168178
 31
0.0
  0
LINE
  5
223
100
AcDbEntity
  8
ALPHA
100
AcDbLine
 10
241.105284
 20
84.268868
 30
0.0
 11
241.086959
 21
82.168948
 31
0.0
  0
LINE
  5
224
100
AcDbEntity
  8
ALPHA
100
AcDbLine
 10
238.905368
 20
84.288066
 30
0.0
 11
238.887042
 21
82.188146
 31
0.0
  0
LINE
  5
225
100
AcDbEntity
  8
ALPHA
100
AcDbLine
 10
238.817208
 20
84.288836
 30
0.0
 11
238.798882
 21
82.188916
 31
0.0
  0
LINE
  5
226
100
AcDbEntity
  8
ALPHA
100
AcDbLine
 10
238.612143
 20
85.065655
 30
0.0
 11
238.585963
 21
82.065769
 31
0.0
  0
ARC
  5
227
100
AcDbEntity
  8
ALPHA
100
AcDbCircle
 10
244.061325
 20
78.717861
 30
0.0
 40
1.15
100
AcDbArc
 50
179.500026
 51
359.499976
  0
LINE
  5
228
100
AcDbEntity
  8
ALPHA
100
AcDbLine
 10
243.568357
 20
74.922018
 30
0.0
 11
244.223788
 21
74.916298
 31
0.0
  0
LINE
  5
229
100
AcDbEntity
  8
ALPHA
100
AcDbLine
 10
243.549576
 20
74.822178
 30
0.0
 11
244.222915
 21
74.816302
 31
0.0
  0
LINE
  5
22A
100
AcDbEntity
  8
ALPHA
100
AcDbLine
 10
243.530796
 20
74.722338
 30
0.0
 11
244.222042
 21
74.716306
 31
0.0
  0
LINE
  5
22B
100
AcDbEntity
  8
ALPHA
100
AcDbLine
 10
243.486067
 20
74.322713
 30
0.0
 11
244.218552
 21
74.316321
 31
0.0
  0
LINE
  5
22C
100
AcDbEntity
  8
ALPHA
100
AcDbLine
 10
243.487493
 20
74.222697
 30
0.0
 11
244.217679
 21
74.216325
 31
0.0
  0
LINE
  5
22D
100
AcDbEntity
  8
ALPHA
100
AcDbLine
 10
243.488919
 20
74.122681
 30
0.0
 11
244.216806
 21
74.116328
 31
0.0
  0
LINE
  5
22E
100
AcDbEntity
  8
ALPHA
100
AcDbLine
 10
243.51522
 20
73.722436
 30
0.0
 11
244.213316
 21
73.716344
 31
0.0
  0
LINE
  5
22F
100
AcDbEntity
  8
ALPHA
100
AcDbLine
 10
243.537045
 20
73.622242
 30
0.0
 11
244.212443
 21
73.616348
 31
0.0
  0
LINE
  5
230
100
AcDbEntity
  8
ALPHA
100
AcDbLine
 10
243.558871
 20
73.522047
 30
0.0
 11
244.21157
 21
73.516351
 31
0.0
  0
CIRCLE
  5
231
100
AcDbEntity
  8
ALPHA
100
AcDbCircle
 10
236.417976
 20
74.284392
 30
0.0
 40
1.5
  0
CIRCLE
  5
232
100
AcDbEntity
  8
ALPHA
100
AcDbCircle
 10
236.417976
 20
74.284392
 30
0.0
 40
2.0
  0
LINE
  5
233
100
AcDbEntity
  8
ALPHA
100
AcDbLine
 10
233.903236
 20
72.606273
 30
0.0
 11
233.901491
 21
72.40628
 31
0.0
  0
LINE
  5
234
100
AcDbEntity
  8
ALPHA
100
AcDbLine
 10
233.908472
 20
73.20625
 30
0.0
 11
233.906727
 21
73.006258
 31
0.0
  0
LINE
  5
235
100
AcDbEntity
  8
ALPHA
100
AcDbLine
 10
233.913708
 20
73.806227
 30
0.0
 11
233.911963
 21
73.606235
 31
0.0
  0
LINE
  5
236
100
AcDbEntity
  8
ALPHA
100
AcDbLine
 10
233.918944
 20
74.406204
 30
0.0
 11
233.917198
 21
74.206212
 31
0.0
  0
LINE
  5
237
100
AcDbEntity
  8
ALPHA
100
AcDbLine
 10
233.18646
 20
74.412596
 30
0.0
 11
233.918944
 21
74.406204
 31
0.0
  0
LINE
  5
238
100
AcDbEntity
  8
ALPHA
100
AcDbLine
 10
233.187885
 20
74.31258
 30
0.0
 11
233.918071
 21
74.306208
 31
0.0
  0
LINE
  5
239
100
AcDbEntity
  8
ALPHA
100
AcDbLine
 10
233.189311
 20
74.212564
 30
0.0
 11
233.917198
 21
74.206212
 31
0.0
  0
LINE
  5
23A
100
AcDbEntity
  8
ALPHA
100
AcDbLine
 10
233.215612
 20
73.812319
 30
0.0
 11
233.913708
 21
73.806227
 31
0.0
  0
LINE
  5
23B
100
AcDbEntity
  8
ALPHA
100
AcDbLine
 10
233.237438
 20
73.712125
 30
0.0
 11
233.912835
 21
73.706231
 31
0.0
  0
LINE
  5
23C
100
AcDbEntity
  8
ALPHA
100
AcDbLine
 10
233.259263
 20
73.611931
 30
0.0
 11
233.911963
 21
73.606235
 31
0.0
  0
LINE
  5
23D
100
AcDbEntity
  8
ALPHA
100
AcDbLine
 10
233.361644
 20
73.211022
 30
0.0
 11
233.908472
 21
73.20625
 31
0.0
  0
LINE
  5
23E
100
AcDbEntity
  8
ALPHA
100
AcDbLine
 10
233.405841
 20
73.110632
 30
0.0
 11
233.907599
 21
73.106254
 31
0.0
  0
LINE
  5
23F
100
AcDbEntity
  8
ALPHA
100
AcDbLine
 10
233.450037
 20
73.010243
 30
0.0
 11
233.906727
 21
73.006258
 31
0.0
  0
LINE
  5
240
100
AcDbEntity
  8
ALPHA
100
AcDbLine
 10
233.647009
 20
72.608509
 30
0.0
 11
233.903236
 21
72.606273
 31
0.0
  0
LINE
  5
241
100
AcDbEntity
  8
ALPHA
100
AcDbLine
 10
233.718081
 20
72.507885
 30
0.0
 11
233.902363
 21
72.506277
 31
0.0
  0
LINE
  5
242
100
AcDbEntity
  8
ALPHA
100
AcDbLine
 10
233.789152
 20
72.407261
 30
0.0
 11
233.901491
 21
72.40628
 31
0.0
  0
ARC
  5
243
100
AcDbEntity
  8
ALPHA
100
AcDbCircle
 10
234.391872
 20
71.301959
 30
0.0
 40
0.5
100
AcDbArc
 50
89.499916
 51
95.173047
  0
LINE
  5
244
100
AcDbEntity
  8
ALPHA
100
AcDbLine
 10
234.396236
 20
71.80194
 30
0.0
 11
234.896217
 21
71.797577
 31
0.0
  0
ARC
  5
245
100
AcDbEntity
  8
ALPHA
100
AcDbCircle
 10
236.422345
 20
74.284354
 30
0.0
 40
2.949999
100
AcDbArc
 50
146.585408
 51
152.414604
  0
LINE
  5
246
100
AcDbEntity
  8
ALPHA
100
AcDbLine
 10
233.92418
 20
75.006181
 30
0.0
 11
233.922434
 21
74.806189
 31
0.0
  0
LINE
  5
247
100
AcDbEntity
  8
ALPHA
100
AcDbLine
 10
233.929416
 20
75.606159
 30
0.0
 11
233.92767
 21
75.406166
 31
0.0
  0
LINE
  5
248
100
AcDbEntity
  8
ALPHA
100
AcDbLine
 10
233.934652
 20
76.206136
 30
0.0
 11
233.932906
 21
76.006143
 31
0.0
  0
LINE
  5
249
100
AcDbEntity
  8
ALPHA
100
AcDbLine
 10
233.701165
 20
76.06134
 30
0.0
 11
233.959958
 21
75.908899
 31
0.0
  0
LINE
  5
24A
100
AcDbEntity
  8
ALPHA
100
AcDbLine
 10
233.548904
 20
75.802851
 30
0.0
 11
233.807696
 21
75.650411
 31
0.0
  0
LINE
  5
24B
100
AcDbEntity
  8
ALPHA
100
AcDbLine
 10
233.816575
 20
76.207166
 30
0.0
 11
233.934652
 21
76.206136
 31
0.0
  0
LINE
  5
24C
100
AcDbEntity
  8
ALPHA
100
AcDbLine
 10
233.737962
 20
76.107848
 30
0.0
 11
233.933779
 21
76.106139
 31
0.0
  0
LINE
  5
24D
100
AcDbEntity
  8
ALPHA
100
AcDbLine
 10
233.792794
 20
76.007366
 30
0.0
 11
233.932906
 21
76.006143
 31
0.0
  0
LINE
  5
24E
100
AcDbEntity
  8
ALPHA
100
AcDbLine
 10
233.470574
 20
75.610163
 30
0.0
 11
233.929416
 21
75.606159
 31
0.0
  0
LINE
  5
24F
100
AcDbEntity
  8
ALPHA
100
AcDbLine
 10
233.430069
 20
75.510512
 30
0.0
 11
233.928543
 21
75.506162
 31
0.0
  0
LINE
  5
250
100
AcDbEntity
  8
ALPHA
100
AcDbLine
 10
233.389564
 20
75.410862
 30
0.0
 11
233.92767
 21
75.406166
 31
0.0
  0
LINE
  5
251
100
AcDbEntity
  8
ALPHA
100
AcDbLine
 10
233.268749
 20
75.011901
 30
0.0
 11
233.92418
 21
75.006181
 31
0.0
  0
LINE
  5
252
100
AcDbEntity
  8
ALPHA
100
AcDbLine
 10
233.249969
 20
74.912061
 30
0.0
 11
233.923307
 21
74.906185
 31
0.0
  0
LINE
  5
253
100
AcDbEntity
  8
ALPHA
100
AcDbLine
 10
233.231188
 20
74.812221
 30
0.0
 11
233.922434
 21
74.806189
 31
0.0
  0
LINE
  5
254
100
AcDbEntity
  8
ALPHA
100
AcDbLine
 10
238.923989
 20
74.962549
 30
0.0
 11
238.922244
 21
74.762556
 31
0.0
  0
ARC
  5
255
100
AcDbEntity
  8
ALPHA
100
AcDbCircle
 10
238.39172
 20
71.267053
 30
0.0
 40
0.5
100
AcDbArc
 50
82.939228
 51
89.500031
  0
LINE
  5
256
100
AcDbEntity
  8
ALPHA
100
AcDbLine
 10
238.903046
 20
72.56264
 30
0.0
 11
238.9013
 21
72.362648
 31
0.0
  0
LINE
  5
257
100
AcDbEntity
  8
ALPHA
100
AcDbLine
 10
238.908282
 20
73.162617
 30
0.0
 11
238.906536
 21
72.962625
 31
0.0
  0
LINE
  5
258
100
AcDbEntity
  8
ALPHA
100
AcDbLine
 10
238.913517
 20
73.762594
 30
0.0
 11
238.911772
 21
73.562602
 31
0.0
  0
LINE
  5
259
100
AcDbEntity
  8
ALPHA
100
AcDbLine
 10
238.918753
 20
74.362572
 30
0.0
 11
238.917008
 21
74.162579
 31
0.0
  0
LINE
  5
25A
100
AcDbEntity
  8
ALPHA
100
AcDbLine
 10
239.622228
 20
74.756448
 30
0.0
 11
238.922244
 21
74.762556
 31
0.0
  0
LINE
  5
25B
100
AcDbEntity
  8
ALPHA
100
AcDbLine
 10
239.659975
 20
74.356103
 30
0.0
 11
238.918753
 21
74.362572
 31
0.0
  0
LINE
  5
25C
100
AcDbEntity
  8
ALPHA
100
AcDbLine
 10
238.917881
 20
74.262575
 30
0.0
 11
239.656805
 21
74.256127
 31
0.0
  0
LINE
  5
25D
100
AcDbEntity
  8
ALPHA
100
AcDbLine
 10
239.653634
 20
74.156151
 30
0.0
 11
238.917008
 21
74.162579
 31
0.0
  0
LINE
  5
25E
100
AcDbEntity
  8
ALPHA
100
AcDbLine
 10
239.620351
 20
73.756426
 30
0.0
 11
238.913517
 21
73.762594
 31
0.0
  0
LINE
  5
25F
100
AcDbEntity
  8
ALPHA
100
AcDbLine
 10
238.912645
 20
73.662598
 30
0.0
 11
239.59678
 21
73.656628
 31
0.0
  0
LINE
  5
260
100
AcDbEntity
  8
ALPHA
100
AcDbLine
 10
239.57321
 20
73.55683
 30
0.0
 11
238.911772
 21
73.562602
 31
0.0
  0
LINE
  5
261
100
AcDbEntity
  8
ALPHA
100
AcDbLine
 10
239.463847
 20
73.157769
 30
0.0
 11
238.908282
 21
73.162617
 31
0.0
  0
LINE
  5
262
100
AcDbEntity
  8
ALPHA
100
AcDbLine
 10
238.907409
 20
73.062621
 30
0.0
 11
239.417906
 21
73.058166
 31
0.0
  0
LINE
  5
263
100
AcDbEntity
  8
ALPHA
100
AcDbLine
 10
239.371964
 20
72.958563
 30
0.0
 11
238.906536
 21
72.962625
 31
0.0
  0
LINE
  5
264
100
AcDbEntity
  8
ALPHA
100
AcDbLine
 10
239.16801
 20
72.560328
 30
0.0
 11
238.903046
 21
72.56264
 31
0.0
  0
LINE
  5
265
100
AcDbEntity
  8
ALPHA
100
AcDbLine
 10
238.902173
 20
72.462644
 30
0.0
 11
239.095194
 21
72.460959
 31
0.0
  0
LINE
  5
266
100
AcDbEntity
  8
ALPHA
100
AcDbLine
 10
239.022377
 20
72.361591
 30
0.0
 11
238.9013
 21
72.362648
 31
0.0
  0
LINE
  5
267
100
AcDbEntity
  8
ALPHA
100
AcDbLine
 10
237.896102
 20
71.771397
 30
0.0
 11
238.396083
 21
71.767034
 31
0.0
  0
ARC
  5
268
100
AcDbEntity
  8
ALPHA
100
AcDbCircle
 10
236.422345
 20
74.284354
 30
0.0
 40
2.95
100
AcDbArc
 50
26.585402
 51
32.414594
  0
LINE
  5
269
100
AcDbEntity
  8
ALPHA
100
AcDbLine
 10
239.32185
 20
75.752471
 30
0.0
 11
239.060436
 21
75.604571
 31
0.0
  0
LINE
  5
26A
100
AcDbEntity
  8
ALPHA
100
AcDbLine
 10
239.174123
 20
76.013578
 30
0.0
 11
238.912709
 21
75.865677
 31
0.0
  0
LINE
  5
26B
100
AcDbEntity
  8
ALPHA
100
AcDbLine
 10
238.929225
 20
75.562526
 30
0.0
 11
238.92748
 21
75.362533
 31
0.0
  0
LINE
  5
26C
100
AcDbEntity
  8
ALPHA
100
AcDbLine
 10
238.934461
 20
76.162503
 30
0.0
 11
238.932716
 21
75.962511
 31
0.0
  0
LINE
  5
26D
100
AcDbEntity
  8
ALPHA
100
AcDbLine
 10
239.061275
 20
76.161396
 30
0.0
 11
238.934461
 21
76.162503
 31
0.0
  0
LINE
  5
26E
100
AcDbEntity
  8
ALPHA
100
AcDbLine
 10
238.933588
 20
76.062507
 30
0.0
 11
239.138144
 21
76.060722
 31
0.0
  0
LINE
  5
26F
100
AcDbEntity
  8
ALPHA
100
AcDbLine
 10
239.081566
 20
75.961212
 30
0.0
 11
238.932716
 21
75.962511
 31
0.0
  0
LINE
  5
270
100
AcDbEntity
  8
ALPHA
100
AcDbLine
 10
239.396805
 20
75.558445
 30
0.0
 11
238.929225
 21
75.562526
 31
0.0
  0
LINE
  5
271
100
AcDbEntity
  8
ALPHA
100
AcDbLine
 10
238.928353
 20
75.46253
 30
0.0
 11
239.435564
 21
75.458103
 31
0.0
  0
LINE
  5
272
100
AcDbEntity
  8
ALPHA
100
AcDbLine
 10
239.474324
 20
75.357761
 30
0.0
 11
238.92748
 21
75.362533
 31
0.0
  0
LINE
  5
273
100
AcDbEntity
  8
ALPHA
100
AcDbLine
 10
239.588158
 20
74.956753
 30
0.0
 11
238.923989
 21
74.962549
 31
0.0
  0
LINE
  5
274
100
AcDbEntity
  8
ALPHA
100
AcDbLine
 10
238.923117
 20
74.862552
 30
0.0
 11
239.605193
 21
74.8566
 31
0.0
  0
LINE
  5
275
100
AcDbEntity
  8
ALPHA
100
AcDbLine
 10
238.587054
 20
82.190764
 30
0.0
 11
241.386947
 21
82.16633
 31
0.0
  0
LINE
  5
276
100
AcDbEntity
  8
ALPHA
100
AcDbLine
 10
241.385856
 20
82.041335
 30
0.0
 11
238.585963
 21
82.065769
 31
0.0
  0
LINE
  5
277
100
AcDbEntity
  8
ALPHA
100
AcDbLine
 10
241.135866
 20
82.043516
 30
0.0
 11
241.136957
 21
82.168512
 31
0.0
  0
CIRCLE
  5
278
100
AcDbEntity
  8
ALPHA
100
AcDbCircle
 10
246.717584
 20
74.194508
 30
0.0
 40
1.5
  0
CIRCLE
  5
279
100
AcDbEntity
  8
ALPHA
100
AcDbCircle
 10
246.717584
 20
74.194508
 30
0.0
 40
2.0
  0
LINE
  5
27A
100
AcDbEntity
  8
ALPHA
100
AcDbLine
 10
249.223597
 20
74.872665
 30
0.0
 11
249.221852
 21
74.672673
 31
0.0
  0
LINE
  5
27B
100
AcDbEntity
  8
ALPHA
100
AcDbLine
 10
246.730674
 20
75.694451
 30
0.0
 11
246.704494
 21
72.694565
 31
0.0
  0
LINE
  5
27C
100
AcDbEntity
  8
ALPHA
100
AcDbLine
 10
245.411239
 20
73.473168
 30
0.0
 11
245.424027
 21
74.938538
 31
0.0
  0
LINE
  5
27D
100
AcDbEntity
  8
ALPHA
100
AcDbLine
 10
244.223788
 20
74.916298
 30
0.0
 11
244.222042
 21
74.716306
 31
0.0
  0
ARC
  5
27E
100
AcDbEntity
  8
ALPHA
100
AcDbCircle
 10
244.69148
 20
71.212076
 30
0.0
 40
0.5
100
AcDbArc
 50
89.499916
 51
95.173047
  0
LINE
  5
27F
100
AcDbEntity
  8
ALPHA
100
AcDbLine
 10
244.202844
 20
72.516389
 30
0.0
 11
244.201099
 21
72.316397
 31
0.0
  0
LINE
  5
280
100
AcDbEntity
  8
ALPHA
100
AcDbLine
 10
244.20808
 20
73.116367
 30
0.0
 11
244.206334
 21
72.916374
 31
0.0
  0
LINE
  5
281
100
AcDbEntity
  8
ALPHA
100
AcDbLine
 10
244.213316
 20
73.716344
 30
0.0
 11
244.21157
 21
73.516351
 31
0.0
  0
LINE
  5
282
100
AcDbEntity
  8
ALPHA
100
AcDbLine
 10
244.218552
 20
74.316321
 30
0.0
 11
244.216806
 21
74.116328
 31
0.0
  0
LINE
  5
283
100
AcDbEntity
  8
ALPHA
100
AcDbLine
 10
243.661252
 20
73.121139
 30
0.0
 11
244.20808
 21
73.116367
 31
0.0
  0
LINE
  5
284
100
AcDbEntity
  8
ALPHA
100
AcDbLine
 10
243.705448
 20
73.020749
 30
0.0
 11
244.207207
 21
73.01637
 31
0.0
  0
LINE
  5
285
100
AcDbEntity
  8
ALPHA
100
AcDbLine
 10
243.749644
 20
72.92036
 30
0.0
 11
244.206334
 21
72.916374
 31
0.0
  0
LINE
  5
286
100
AcDbEntity
  8
ALPHA
100
AcDbLine
 10
243.946617
 20
72.518625
 30
0.0
 11
244.202844
 21
72.516389
 31
0.0
  0
LINE
  5
287
100
AcDbEntity
  8
ALPHA
100
AcDbLine
 10
244.017688
 20
72.418001
 30
0.0
 11
244.201971
 21
72.416393
 31
0.0
  0
LINE
  5
288
100
AcDbEntity
  8
ALPHA
100
AcDbLine
 10
244.08876
 20
72.317377
 30
0.0
 11
244.201099
 21
72.316397
 31
0.0
  0
LINE
  5
289
100
AcDbEntity
  8
ALPHA
100
AcDbLine
 10
244.695844
 20
71.712057
 30
0.0
 11
245.195825
 21
71.707693
 31
0.0
  0
ARC
  5
28A
100
AcDbEntity
  8
ALPHA
100
AcDbCircle
 10
248.691328
 20
71.17717
 30
0.0
 40
0.5
100
AcDbArc
 50
82.939228
 51
89.50003
  0
LINE
  5
28B
100
AcDbEntity
  8
ALPHA
100
AcDbLine
 10
249.202653
 20
72.472757
 30
0.0
 11
249.200908
 21
72.272764
 31
0.0
  0
LINE
  5
28C
100
AcDbEntity
  8
ALPHA
100
AcDbLine
 10
249.207889
 20
73.072734
 30
0.0
 11
249.206144
 21
72.872742
 31
0.0
  0
LINE
  5
28D
100
AcDbEntity
  8
ALPHA
100
AcDbLine
 10
249.213125
 20
73.672711
 30
0.0
 11
249.21138
 21
73.472719
 31
0.0
  0
LINE
  5
28E
100
AcDbEntity
  8
ALPHA
100
AcDbLine
 10
249.218361
 20
74.272688
 30
0.0
 11
249.216616
 21
74.072696
 31
0.0
  0
LINE
  5
28F
100
AcDbEntity
  8
ALPHA
100
AcDbLine
 10
249.222724
 20
74.772669
 30
0.0
 11
249.904801
 21
74.766717
 31
0.0
  0
LINE
  5
290
100
AcDbEntity
  8
ALPHA
100
AcDbLine
 10
249.921836
 20
74.666564
 30
0.0
 11
249.221852
 21
74.672673
 31
0.0
  0
LINE
  5
291
100
AcDbEntity
  8
ALPHA
100
AcDbLine
 10
249.959583
 20
74.26622
 30
0.0
 11
249.218361
 21
74.272688
 31
0.0
  0
LINE
  5
292
100
AcDbEntity
  8
ALPHA
100
AcDbLine
 10
249.217489
 20
74.172692
 30
0.0
 11
249.956412
 21
74.166244
 31
0.0
  0
LINE
  5
293
100
AcDbEntity
  8
ALPHA
100
AcDbLine
 10
249.953241
 20
74.066267
 30
0.0
 11
249.216616
 21
74.072696
 31
0.0
  0
LINE
  5
294
100
AcDbEntity
  8
ALPHA
100
AcDbLine
 10
249.919959
 20
73.666543
 30
0.0
 11
249.213125
 21
73.672711
 31
0.0
  0
LINE
  5
295
100
AcDbEntity
  8
ALPHA
100
AcDbLine
 10
249.212253
 20
73.572715
 30
0.0
 11
249.896388
 21
73.566744
 31
0.0
  0
LINE
  5
296
100
AcDbEntity
  8
ALPHA
100
AcDbLine
 10
249.872818
 20
73.466946
 30
0.0
 11
249.21138
 21
73.472719
 31
0.0
  0
LINE
  5
297
100
AcDbEntity
  8
ALPHA
100
AcDbLine
 10
249.763455
 20
73.067886
 30
0.0
 11
249.207889
 21
73.072734
 31
0.0
  0
LINE
  5
298
100
AcDbEntity
  8
ALPHA
100
AcDbLine
 10
249.207017
 20
72.972738
 30
0.0
 11
249.717513
 21
72.968283
 31
0.0
  0
LINE
  5
299
100
AcDbEntity
  8
ALPHA
100
AcDbLine
 10
249.671572
 20
72.86868
 30
0.0
 11
249.206144
 21
72.872742
 31
0.0
  0
LINE
  5
29A
100
AcDbEntity
  8
ALPHA
100
AcDbLine
 10
249.467618
 20
72.470444
 30
0.0
 11
249.202653
 21
72.472757
 31
0.0
  0
LINE
  5
29B
100
AcDbEntity
  8
ALPHA
100
AcDbLine
 10
249.201781
 20
72.372761
 30
0.0
 11
249.394801
 21
72.371076
 31
0.0
  0
LINE
  5
29C
100
AcDbEntity
  8
ALPHA
100
AcDbLine
 10
249.321985
 20
72.271708
 30
0.0
 11
249.200908
 21
72.272764
 31
0.0
  0
LINE
  5
29D
100
AcDbEntity
  8
ALPHA
100
AcDbLine
 10
248.19571
 20
71.681514
 30
0.0
 11
248.695691
 21
71.67715
 31
0.0
  0
ARC
  5
29E
100
AcDbEntity
  8
ALPHA
100
AcDbCircle
 10
246.721953
 20
74.19447
 30
0.0
 40
2.950001
100
AcDbArc
 50
146.585402
 51
152.414604
  0
LINE
  5
29F
100
AcDbEntity
  8
ALPHA
100
AcDbLine
 10
244.229023
 20
75.516275
 30
0.0
 11
244.227278
 21
75.316283
 31
0.0
  0
LINE
  5
2A0
100
AcDbEntity
  8
ALPHA
100
AcDbLine
 10
244.234259
 20
76.116252
 30
0.0
 11
244.232514
 21
75.91626
 31
0.0
  0
LINE
  5
2A1
100
AcDbEntity
  8
ALPHA
100
AcDbLine
 10
244.000773
 20
75.971456
 30
0.0
 11
244.259565
 21
75.819016
 31
0.0
  0
LINE
  5
2A2
100
AcDbEntity
  8
ALPHA
100
AcDbLine
 10
243.848511
 20
75.712968
 30
0.0
 11
244.107304
 21
75.560527
 31
0.0
  0
LINE
  5
2A3
100
AcDbEntity
  8
ALPHA
100
AcDbLine
 10
244.116183
 20
76.117283
 30
0.0
 11
244.234259
 21
76.116252
 31
0.0
  0
LINE
  5
2A4
100
AcDbEntity
  8
ALPHA
100
AcDbLine
 10
244.037569
 20
76.017965
 30
0.0
 11
244.233387
 21
76.016256
 31
0.0
  0
LINE
  5
2A5
100
AcDbEntity
  8
ALPHA
100
AcDbLine
 10
244.092402
 20
75.917483
 30
0.0
 11
244.232514
 21
75.91626
 31
0.0
  0
LINE
  5
2A6
100
AcDbEntity
  8
ALPHA
100
AcDbLine
 10
243.770182
 20
75.520279
 30
0.0
 11
244.229023
 21
75.516275
 31
0.0
  0
LINE
  5
2A7
100
AcDbEntity
  8
ALPHA
100
AcDbLine
 10
243.729677
 20
75.420629
 30
0.0
 11
244.228151
 21
75.416279
 31
0.0
  0
LINE
  5
2A8
100
AcDbEntity
  8
ALPHA
100
AcDbLine
 10
243.689172
 20
75.320979
 30
0.0
 11
244.227278
 21
75.316283
 31
0.0
  0
ARC
  5
2A9
100
AcDbEntity
  8
ALPHA
100
AcDbCircle
 10
246.721953
 20
74.19447
 30
0.0
 40
2.95
100
AcDbArc
 50
26.585402
 51
32.41461
  0
LINE
  5
2AA
100
AcDbEntity
  8
ALPHA
100
AcDbLine
 10
249.621458
 20
75.662588
 30
0.0
 11
249.360044
 21
75.514687
 31
0.0
  0
LINE
  5
2AB
100
AcDbEntity
  8
ALPHA
100
AcDbLine
 10
249.473731
 20
75.923695
 30
0.0
 11
249.212317
 21
75.775794
 31
0.0
  0
LINE
  5
2AC
100
AcDbEntity
  8
ALPHA
100
AcDbLine
 10
249.228833
 20
75.472643
 30
0.0
 11
249.227088
 21
75.27265
 31
0.0
  0
LINE
  5
2AD
100
AcDbEntity
  8
ALPHA
100
AcDbLine
 10
249.234069
 20
76.07262
 30
0.0
 11
249.232324
 21
75.872627
 31
0.0
  0
LINE
  5
2AE
100
AcDbEntity
  8
ALPHA
100
AcDbLine
 10
249.360883
 20
76.071513
 30
0.0
 11
249.234069
 21
76.07262
 31
0.0
  0
LINE
  5
2AF
100
AcDbEntity
  8
ALPHA
100
AcDbLine
 10
249.233196
 20
75.972623
 30
0.0
 11
249.437752
 21
75.970838
 31
0.0
  0
LINE
  5
2B0
100
AcDbEntity
  8
ALPHA
100
AcDbLine
 10
249.381174
 20
75.871328
 30
0.0
 11
249.232324
 21
75.872627
 31
0.0
  0
LINE
  5
2B1
100
AcDbEntity
  8
ALPHA
100
AcDbLine
 10
249.696413
 20
75.468562
 30
0.0
 11
249.228833
 21
75.472643
 31
0.0
  0
LINE
  5
2B2
100
AcDbEntity
  8
ALPHA
100
AcDbLine
 10
249.22796
 20
75.372646
 30
0.0
 11
249.735172
 21
75.36822
 31
0.0
  0
LINE
  5
2B3
100
AcDbEntity
  8
ALPHA
100
AcDbLine
 10
249.773932
 20
75.267878
 30
0.0
 11
249.227088
 21
75.27265
 31
0.0
  0
LINE
  5
2B4
100
AcDbEntity
  8
ALPHA
100
AcDbLine
 10
249.887766
 20
74.866869
 30
0.0
 11
249.223597
 21
74.872665
 31
0.0
  0
LINE
  5
2B5
100
AcDbEntity
  8
ALPHA
100
AcDbLine
 10
255.423361
 20
74.818561
 30
0.0
 11
255.421616
 21
74.618568
 31
0.0
  0
LINE
  5
2B6
100
AcDbEntity
  8
ALPHA
100
AcDbLine
 10
250.677038
 20
74.759978
 30
0.0
 11
250.722667
 21
74.759579
 31
0.0
  0
LINE
  5
2B7
100
AcDbEntity
  8
ALPHA
100
AcDbLine
 10
250.721795
 20
74.659583
 30
0.0
 11
250.676166
 21
74.659981
 31
0.0
  0
LINE
  5
2B8
100
AcDbEntity
  8
ALPHA
100
AcDbLine
 10
250.718304
 20
74.259598
 30
0.0
 11
250.672675
 21
74.259997
 31
0.0
  0
LINE
  5
2B9
100
AcDbEntity
  8
ALPHA
100
AcDbLine
 10
250.671802
 20
74.16
 30
0.0
 11
250.717431
 21
74.159602
 31
0.0
  0
LINE
  5
2BA
100
AcDbEntity
  8
ALPHA
100
AcDbLine
 10
250.716559
 20
74.059606
 30
0.0
 11
250.67093
 21
74.060004
 31
0.0
  0
LINE
  5
2BB
100
AcDbEntity
  8
ALPHA
100
AcDbLine
 10
250.713068
 20
73.659621
 30
0.0
 11
250.667439
 21
73.660019
 31
0.0
  0
LINE
  5
2BC
100
AcDbEntity
  8
ALPHA
100
AcDbLine
 10
250.666566
 20
73.560023
 30
0.0
 11
250.712196
 21
73.559625
 31
0.0
  0
LINE
  5
2BD
100
AcDbEntity
  8
ALPHA
100
AcDbLine
 10
250.711323
 20
73.459629
 30
0.0
 11
250.665694
 21
73.460027
 31
0.0
  0
LINE
  5
2BE
100
AcDbEntity
  8
ALPHA
100
AcDbLine
 10
250.707832
 20
73.059644
 30
0.0
 11
250.662203
 21
73.060042
 31
0.0
  0
LINE
  5
2BF
100
AcDbEntity
  8
ALPHA
100
AcDbLine
 10
250.66133
 20
72.960046
 30
0.0
 11
250.70696
 21
72.959648
 31
0.0
  0
LINE
  5
2C0
100
AcDbEntity
  8
ALPHA
100
AcDbLine
 10
250.706087
 20
72.859652
 30
0.0
 11
250.660458
 21
72.86005
 31
0.0
  0
LINE
  5
2C1
100
AcDbEntity
  8
ALPHA
100
AcDbLine
 10
250.702596
 20
72.459667
 30
0.0
 11
250.656967
 21
72.460065
 31
0.0
  0
LINE
  5
2C2
100
AcDbEntity
  8
ALPHA
100
AcDbLine
 10
250.656095
 20
72.360069
 30
0.0
 11
250.701724
 21
72.359671
 31
0.0
  0
LINE
  5
2C3
100
AcDbEntity
  8
ALPHA
100
AcDbLine
 10
250.700851
 20
72.259675
 30
0.0
 11
250.655222
 21
72.260073
 31
0.0
  0
LINE
  5
2C4
100
AcDbEntity
  8
ALPHA
100
AcDbLine
 10
250.69736
 20
71.85969
 30
0.0
 11
250.651731
 21
71.860088
 31
0.0
  0
LINE
  5
2C5
100
AcDbEntity
  8
ALPHA
100
AcDbLine
 10
250.650859
 20
71.760092
 30
0.0
 11
250.696488
 21
71.759694
 31
0.0
  0
LINE
  5
2C6
100
AcDbEntity
  8
ALPHA
100
AcDbLine
 10
250.695615
 20
71.659697
 30
0.0
 11
250.649986
 21
71.660096
 31
0.0
  0
LINE
  5
2C7
100
AcDbEntity
  8
ALPHA
100
AcDbLine
 10
255.402417
 20
72.418652
 30
0.0
 11
255.400672
 21
72.21866
 31
0.0
  0
LINE
  5
2C8
100
AcDbEntity
  8
ALPHA
100
AcDbLine
 10
255.407653
 20
73.018629
 30
0.0
 11
255.405908
 21
72.818637
 31
0.0
  0
LINE
  5
2C9
100
AcDbEntity
  8
ALPHA
100
AcDbLine
 10
255.412889
 20
73.618607
 30
0.0
 11
255.411144
 21
73.418614
 31
0.0
  0
LINE
  5
2CA
100
AcDbEntity
  8
ALPHA
100
AcDbLine
 10
255.418125
 20
74.218584
 30
0.0
 11
255.41638
 21
74.018591
 31
0.0
  0
LINE
  5
2CB
100
AcDbEntity
  8
ALPHA
100
AcDbLine
 10
254.74915
 20
74.724441
 30
0.0
 11
255.422488
 21
74.718565
 31
0.0
  0
LINE
  5
2CC
100
AcDbEntity
  8
ALPHA
100
AcDbLine
 10
253.922546
 20
74.731654
 30
0.0
 11
253.976913
 21
74.73118
 31
0.0
  0
LINE
  5
2CD
100
AcDbEntity
  8
ALPHA
100
AcDbLine
 10
254.73037
 20
74.624601
 30
0.0
 11
255.421616
 21
74.618568
 31
0.0
  0
LINE
  5
2CE
100
AcDbEntity
  8
ALPHA
100
AcDbLine
 10
253.921673
 20
74.631658
 30
0.0
 11
253.97604
 21
74.631184
 31
0.0
  0
LINE
  5
2CF
100
AcDbEntity
  8
ALPHA
100
AcDbLine
 10
254.685641
 20
74.224976
 30
0.0
 11
255.418125
 21
74.218584
 31
0.0
  0
LINE
  5
2D0
100
AcDbEntity
  8
ALPHA
100
AcDbLine
 10
253.918182
 20
74.231673
 30
0.0
 11
253.972549
 21
74.231199
 31
0.0
  0
LINE
  5
2D1
100
AcDbEntity
  8
ALPHA
100
AcDbLine
 10
254.687067
 20
74.12496
 30
0.0
 11
255.417252
 21
74.118587
 31
0.0
  0
LINE
  5
2D2
100
AcDbEntity
  8
ALPHA
100
AcDbLine
 10
253.91731
 20
74.131677
 30
0.0
 11
253.971677
 21
74.131203
 31
0.0
  0
LINE
  5
2D3
100
AcDbEntity
  8
ALPHA
100
AcDbLine
 10
254.688492
 20
74.024943
 30
0.0
 11
255.41638
 21
74.018591
 31
0.0
  0
LINE
  5
2D4
100
AcDbEntity
  8
ALPHA
100
AcDbLine
 10
253.916437
 20
74.031681
 30
0.0
 11
253.970804
 21
74.031207
 31
0.0
  0
LINE
  5
2D5
100
AcDbEntity
  8
ALPHA
100
AcDbLine
 10
254.714794
 20
73.624699
 30
0.0
 11
255.412889
 21
73.618607
 31
0.0
  0
LINE
  5
2D6
100
AcDbEntity
  8
ALPHA
100
AcDbLine
 10
253.912946
 20
73.631696
 30
0.0
 11
253.967313
 21
73.631222
 31
0.0
  0
LINE
  5
2D7
100
AcDbEntity
  8
ALPHA
100
AcDbLine
 10
254.736619
 20
73.524504
 30
0.0
 11
255.412017
 21
73.51861
 31
0.0
  0
LINE
  5
2D8
100
AcDbEntity
  8
ALPHA
100
AcDbLine
 10
253.912074
 20
73.5317
 30
0.0
 11
253.966441
 21
73.531226
 31
0.0
  0
LINE
  5
2D9
100
AcDbEntity
  8
ALPHA
100
AcDbLine
 10
254.758444
 20
73.42431
 30
0.0
 11
255.411144
 21
73.418614
 31
0.0
  0
LINE
  5
2DA
100
AcDbEntity
  8
ALPHA
100
AcDbLine
 10
253.911201
 20
73.431704
 30
0.0
 11
253.965568
 21
73.431229
 31
0.0
  0
LINE
  5
2DB
100
AcDbEntity
  8
ALPHA
100
AcDbLine
 10
254.860826
 20
73.023401
 30
0.0
 11
255.407653
 21
73.018629
 31
0.0
  0
LINE
  5
2DC
100
AcDbEntity
  8
ALPHA
100
AcDbLine
 10
253.90771
 20
73.031719
 30
0.0
 11
253.962077
 21
73.031245
 31
0.0
  0
LINE
  5
2DD
100
AcDbEntity
  8
ALPHA
100
AcDbLine
 10
254.905022
 20
72.923012
 30
0.0
 11
255.406781
 21
72.918633
 31
0.0
  0
LINE
  5
2DE
100
AcDbEntity
  8
ALPHA
100
AcDbLine
 10
253.906838
 20
72.931723
 30
0.0
 11
253.961205
 21
72.931249
 31
0.0
  0
LINE
  5
2DF
100
AcDbEntity
  8
ALPHA
100
AcDbLine
 10
254.949218
 20
72.822622
 30
0.0
 11
255.405908
 21
72.818637
 31
0.0
  0
LINE
  5
2E0
100
AcDbEntity
  8
ALPHA
100
AcDbLine
 10
253.905965
 20
72.831727
 30
0.0
 11
253.960332
 21
72.831252
 31
0.0
  0
LINE
  5
2E1
100
AcDbEntity
  8
ALPHA
100
AcDbLine
 10
255.146191
 20
72.420888
 30
0.0
 11
255.402417
 21
72.418652
 31
0.0
  0
LINE
  5
2E2
100
AcDbEntity
  8
ALPHA
100
AcDbLine
 10
253.902474
 20
72.431742
 30
0.0
 11
253.956842
 21
72.431268
 31
0.0
  0
LINE
  5
2E3
100
AcDbEntity
  8
ALPHA
100
AcDbLine
 10
255.217262
 20
72.320264
 30
0.0
 11
255.401545
 21
72.318656
 31
0.0
  0
LINE
  5
2E4
100
AcDbEntity
  8
ALPHA
100
AcDbLine
 10
253.901602
 20
72.331746
 30
0.0
 11
253.955969
 21
72.331271
 31
0.0
  0
LINE
  5
2E5
100
AcDbEntity
  8
ALPHA
100
AcDbLine
 10
255.288334
 20
72.21964
 30
0.0
 11
255.400672
 21
72.21866
 31
0.0
  0
LINE
  5
2E6
100
AcDbEntity
  8
ALPHA
100
AcDbLine
 10
253.900729
 20
72.23175
 30
0.0
 11
253.955096
 21
72.231275
 31
0.0
  0
LINE
  5
2E7
100
AcDbEntity
  8
ALPHA
100
AcDbLine
 10
253.897239
 20
71.831765
 30
0.0
 11
253.951606
 21
71.83129
 31
0.0
  0
LINE
  5
2E8
100
AcDbEntity
  8
ALPHA
100
AcDbLine
 10
253.896366
 20
71.731769
 30
0.0
 11
253.950733
 21
71.731294
 31
0.0
  0
ARC
  5
2E9
100
AcDbEntity
  8
ALPHA
100
AcDbCircle
 10
250.247993
 20
77.663832
 30
0.0
 40
0.5
100
AcDbArc
 50
359.500031
 51
23.078218
  0
LINE
  5
2EA
100
AcDbEntity
  8
ALPHA
100
AcDbLine
 10
250.703218
 20
77.759863
 30
0.0
 11
250.738745
 21
77.759553
 31
0.0
  0
LINE
  5
2EB
100
AcDbEntity
  8
ALPHA
100
AcDbLine
 10
250.747974
 20
77.659469
 30
0.0
 11
250.702345
 21
77.659867
 31
0.0
  0
LINE
  5
2EC
100
AcDbEntity
  8
ALPHA
100
AcDbLine
 10
250.744484
 20
77.259484
 30
0.0
 11
250.698855
 21
77.259882
 31
0.0
  0
LINE
  5
2ED
100
AcDbEntity
  8
ALPHA
100
AcDbLine
 10
250.697982
 20
77.159886
 30
0.0
 11
250.743611
 21
77.159488
 31
0.0
  0
LINE
  5
2EE
100
AcDbEntity
  8
ALPHA
100
AcDbLine
 10
250.742738
 20
77.059492
 30
0.0
 11
250.697109
 21
77.05989
 31
0.0
  0
LINE
  5
2EF
100
AcDbEntity
  8
ALPHA
100
AcDbLine
 10
250.739248
 20
76.659507
 30
0.0
 11
250.693619
 21
76.659905
 31
0.0
  0
LINE
  5
2F0
100
AcDbEntity
  8
ALPHA
100
AcDbLine
 10
250.692746
 20
76.559909
 30
0.0
 11
250.738375
 21
76.559511
 31
0.0
  0
LINE
  5
2F1
100
AcDbEntity
  8
ALPHA
100
AcDbLine
 10
250.737502
 20
76.459515
 30
0.0
 11
250.691873
 21
76.459913
 31
0.0
  0
LINE
  5
2F2
100
AcDbEntity
  8
ALPHA
100
AcDbLine
 10
250.734012
 20
76.05953
 30
0.0
 11
250.688383
 21
76.059928
 31
0.0
  0
LINE
  5
2F3
100
AcDbEntity
  8
ALPHA
100
AcDbLine
 10
250.68751
 20
75.959932
 30
0.0
 11
250.733139
 21
75.959534
 31
0.0
  0
LINE
  5
2F4
100
AcDbEntity
  8
ALPHA
100
AcDbLine
 10
250.732267
 20
75.859537
 30
0.0
 11
250.686637
 21
75.859936
 31
0.0
  0
LINE
  5
2F5
100
AcDbEntity
  8
ALPHA
100
AcDbLine
 10
250.728776
 20
75.459553
 30
0.0
 11
250.683147
 21
75.459951
 31
0.0
  0
LINE
  5
2F6
100
AcDbEntity
  8
ALPHA
100
AcDbLine
 10
250.682274
 20
75.359955
 30
0.0
 11
250.727903
 21
75.359557
 31
0.0
  0
LINE
  5
2F7
100
AcDbEntity
  8
ALPHA
100
AcDbLine
 10
250.727031
 20
75.25956
 30
0.0
 11
250.681401
 21
75.259959
 31
0.0
  0
LINE
  5
2F8
100
AcDbEntity
  8
ALPHA
100
AcDbLine
 10
250.72354
 20
74.859576
 30
0.0
 11
250.677911
 21
74.859974
 31
0.0
  0
ARC
  5
2F9
100
AcDbEntity
  8
ALPHA
100
AcDbCircle
 10
257.921526
 20
74.096733
 30
0.0
 40
2.95
100
AcDbArc
 50
146.585392
 51
152.414604
  0
ARC
  5
2FA
100
AcDbEntity
  8
ALPHA
100
AcDbCircle
 10
254.447833
 20
77.627181
 30
0.0
 40
0.5
100
AcDbArc
 50
153.006059
 51
179.500031
  0
LINE
  5
2FB
100
AcDbEntity
  8
ALPHA
100
AcDbLine
 10
255.428597
 20
75.418538
 30
0.0
 11
255.426852
 21
75.218546
 31
0.0
  0
LINE
  5
2FC
100
AcDbEntity
  8
ALPHA
100
AcDbLine
 10
255.433833
 20
76.018515
 30
0.0
 11
255.432088
 21
75.818523
 31
0.0
  0
LINE
  5
2FD
100
AcDbEntity
  8
ALPHA
100
AcDbLine
 10
255.200346
 20
75.873719
 30
0.0
 11
255.459139
 21
75.721279
 31
0.0
  0
LINE
  5
2FE
100
AcDbEntity
  8
ALPHA
100
AcDbLine
 10
255.048085
 20
75.615231
 30
0.0
 11
255.306877
 21
75.46279
 31
0.0
  0
LINE
  5
2FF
100
AcDbEntity
  8
ALPHA
100
AcDbLine
 10
253.991339
 20
77.831172
 30
0.0
 11
254.003965
 21
77.831062
 31
0.0
  0
LINE
  5
300
100
AcDbEntity
  8
ALPHA
100
AcDbLine
 10
253.958827
 20
77.731452
 30
0.0
 11
254.003092
 21
77.731066
 31
0.0
  0
LINE
  5
301
100
AcDbEntity
  8
ALPHA
100
AcDbLine
 10
253.947852
 20
77.631544
 30
0.0
 11
254.00222
 21
77.63107
 31
0.0
  0
LINE
  5
302
100
AcDbEntity
  8
ALPHA
100
AcDbLine
 10
253.944362
 20
77.231559
 30
0.0
 11
253.998729
 21
77.231085
 31
0.0
  0
LINE
  5
303
100
AcDbEntity
  8
ALPHA
100
AcDbLine
 10
253.943489
 20
77.131563
 30
0.0
 11
253.997856
 21
77.131089
 31
0.0
  0
LINE
  5
304
100
AcDbEntity
  8
ALPHA
100
AcDbLine
 10
253.942617
 20
77.031567
 30
0.0
 11
253.996984
 21
77.031092
 31
0.0
  0
LINE
  5
305
100
AcDbEntity
  8
ALPHA
100
AcDbLine
 10
253.939126
 20
76.631582
 30
0.0
 11
253.993493
 21
76.631108
 31
0.0
  0
LINE
  5
306
100
AcDbEntity
  8
ALPHA
100
AcDbLine
 10
253.938253
 20
76.531586
 30
0.0
 11
253.99262
 21
76.531111
 31
0.0
  0
LINE
  5
307
100
AcDbEntity
  8
ALPHA
100
AcDbLine
 10
253.937381
 20
76.43159
 30
0.0
 11
253.991748
 21
76.431115
 31
0.0
  0
LINE
  5
308
100
AcDbEntity
  8
ALPHA
100
AcDbLine
 10
255.315757
 20
76.019546
 30
0.0
 11
255.433833
 21
76.018515
 31
0.0
  0
LINE
  5
309
100
AcDbEntity
  8
ALPHA
100
AcDbLine
 10
253.93389
 20
76.031605
 30
0.0
 11
253.988257
 21
76.03113
 31
0.0
  0
LINE
  5
30A
100
AcDbEntity
  8
ALPHA
100
AcDbLine
 10
255.237143
 20
75.920228
 30
0.0
 11
255.43296
 21
75.918519
 31
0.0
  0
LINE
  5
30B
100
AcDbEntity
  8
ALPHA
100
AcDbLine
 10
253.933017
 20
75.931609
 30
0.0
 11
253.987384
 21
75.931134
 31
0.0
  0
LINE
  5
30C
100
AcDbEntity
  8
ALPHA
100
AcDbLine
 10
255.291976
 20
75.819745
 30
0.0
 11
255.432088
 21
75.818523
 31
0.0
  0
LINE
  5
30D
100
AcDbEntity
  8
ALPHA
100
AcDbLine
 10
253.932145
 20
75.831613
 30
0.0
 11
253.986512
 21
75.831138
 31
0.0
  0
LINE
  5
30E
100
AcDbEntity
  8
ALPHA
100
AcDbLine
 10
254.969755
 20
75.422542
 30
0.0
 11
255.428597
 21
75.418538
 31
0.0
  0
LINE
  5
30F
100
AcDbEntity
  8
ALPHA
100
AcDbLine
 10
253.928654
 20
75.431628
 30
0.0
 11
253.983021
 21
75.431153
 31
0.0
  0
LINE
  5
310
100
AcDbEntity
  8
ALPHA
100
AcDbLine
 10
254.92925
 20
75.322892
 30
0.0
 11
255.427724
 21
75.318542
 31
0.0
  0
LINE
  5
311
100
AcDbEntity
  8
ALPHA
100
AcDbLine
 10
253.927781
 20
75.331632
 30
0.0
 11
253.982148
 21
75.331157
 31
0.0
  0
LINE
  5
312
100
AcDbEntity
  8
ALPHA
100
AcDbLine
 10
254.888745
 20
75.223242
 30
0.0
 11
255.426852
 21
75.218546
 31
0.0
  0
LINE
  5
313
100
AcDbEntity
  8
ALPHA
100
AcDbLine
 10
253.926909
 20
75.231635
 30
0.0
 11
253.981276
 21
75.231161
 31
0.0
  0
LINE
  5
314
100
AcDbEntity
  8
ALPHA
100
AcDbLine
 10
254.76793
 20
74.824281
 30
0.0
 11
255.423361
 21
74.818561
 31
0.0
  0
LINE
  5
315
100
AcDbEntity
  8
ALPHA
100
AcDbLine
 10
253.923418
 20
74.831651
 30
0.0
 11
253.977785
 21
74.831176
 31
0.0
  0
LINE
  5
316
100
AcDbEntity
  8
ALPHA
100
AcDbLine
 10
241.405273
 20
84.26625
 30
0.0
 11
238.605379
 21
84.290684
 31
0.0
  0
LINE
  5
317
100
AcDbEntity
  8
ALPHA
100
AcDbLine
 10
247.153801
 20
89.441282
 30
0.0
 11
247.673966
 21
92.075031
 31
0.0
  0
LINE
  5
318
100
AcDbEntity
  8
ALPHA
100
AcDbLine
 10
246.905574
 20
89.393447
 30
0.0
 11
247.185122
 21
93.391159
 31
0.0
  0
LINE
  5
319
100
AcDbEntity
  8
ALPHA
100
AcDbLine
 10
248.592696
 20
93.378876
 30
0.0
 11
248.558227
 21
89.429026
 31
0.0
  0
LINE
  5
31A
100
AcDbEntity
  8
ALPHA
100
AcDbLine
 10
248.425599
 20
91.330256
 30
0.0
 11
248.409019
 21
89.430328
 31
0.0
  0
LINE
  5
31B
100
AcDbEntity
  8
ALPHA
100
AcDbLine
 10
248.096811
 20
90.483093
 30
0.0
 11
248.094193
 21
90.183104
 31
0.0
  0
LINE
  5
31C
100
AcDbEntity
  8
ALPHA
100
AcDbLine
 10
248.018783
 20
89.433734
 30
0.0
 11
248.039722
 21
91.833121
 31
0.0
  0
LINE
  5
31D
100
AcDbEntity
  8
ALPHA
100
AcDbLine
 10
249.185046
 20
93.373706
 30
0.0
 11
249.394781
 21
89.371724
 31
0.0
  0
LINE
  5
31E
100
AcDbEntity
  8
ALPHA
100
AcDbLine
 10
254.304276
 20
89.378881
 30
0.0
 11
244.996838
 21
89.460106
 31
0.0
  0
LINE
  5
31F
100
AcDbEntity
  8
ALPHA
100
AcDbLine
 10
249.394781
 20
89.371724
 30
0.0
 11
254.419345
 21
89.327875
 31
0.0
  0
LINE
  5
320
100
AcDbEntity
  8
ALPHA
100
AcDbLine
 10
244.996838
 20
89.460106
 30
0.0
 11
244.724799
 21
85.01231
 31
0.0
  0
LINE
  5
321
100
AcDbEntity
  8
ALPHA
100
AcDbLine
 10
244.611914
 20
85.013295
 30
0.0
 11
244.880896
 21
89.411116
 31
0.0
  0
ARC
  5
322
100
AcDbEntity
  8
ALPHA
100
AcDbCircle
 10
246.749325
 20
89.291054
 30
0.0
 40
3.0
100
AcDbArc
 50
227.949524
 51
230.688735
  0
LINE
  5
323
100
AcDbEntity
  8
ALPHA
100
AcDbLine
 10
244.880896
 20
89.411116
 30
0.0
 11
246.905574
 21
89.393447
 31
0.0
  0
LINE
  5
324
100
AcDbEntity
  8
ALPHA
100
AcDbLine
 10
244.820218
 20
88.386606
 30
0.0
 11
244.820548
 21
88.424423
 31
0.0
  0
LINE
  5
325
100
AcDbEntity
  8
ALPHA
100
AcDbLine
 10
244.818236
 20
88.386623
 30
0.0
 11
244.931121
 21
88.385638
 31
0.0
  0
LINE
  5
326
100
AcDbEntity
  8
ALPHA
100
AcDbLine
 10
249.358509
 20
90.063819
 30
0.0
 11
249.352909
 21
89.422091
 31
0.0
  0
LINE
  5
327
100
AcDbEntity
  8
ALPHA
100
AcDbLine
 10
248.208423
 20
89.432079
 30
0.0
 11
248.206883
 21
89.482094
 31
0.0
  0
LINE
  5
328
100
AcDbEntity
  8
ALPHA
100
AcDbLine
 10
248.094193
 20
90.183104
 30
0.0
 11
248.415564
 21
90.1803
 31
0.0
  0
LINE
  5
329
100
AcDbEntity
  8
ALPHA
100
AcDbLine
 10
249.371185
 20
89.821947
 30
0.0
 11
249.3564
 21
89.822076
 31
0.0
  0
LINE
  5
32A
100
AcDbEntity
  8
ALPHA
100
AcDbLine
 10
248.179904
 20
89.482329
 30
0.0
 11
248.206883
 21
89.482094
 31
0.0
  0
LINE
  5
32B
100
AcDbEntity
  8
ALPHA
100
AcDbLine
 10
254.611533
 20
84.92603
 30
0.0
 11
254.419345
 21
89.327875
 31
0.0
  0
LINE
  5
32C
100
AcDbEntity
  8
ALPHA
100
AcDbLine
 10
254.498648
 20
84.927015
 30
0.0
 11
254.304276
 21
89.378881
 31
0.0
  0
LINE
  5
32D
100
AcDbEntity
  8
ALPHA
100
AcDbLine
 10
254.811526
 20
84.924285
 30
0.0
 11
254.498648
 21
84.927015
 31
0.0
  0
LINE
  5
32E
100
AcDbEntity
  8
ALPHA
100
AcDbLine
 10
247.926375
 20
93.353053
 30
0.0
 11
247.932613
 21
93.384636
 31
0.0
  0
LINE
  5
32F
100
AcDbEntity
  8
ALPHA
100
AcDbLine
 10
247.735445
 20
92.386319
 30
0.0
 11
247.834029
 21
92.885477
 31
0.0
  0
LINE
  5
330
100
AcDbEntity
  8
ALPHA
100
AcDbLine
 10
248.221718
 20
91.182029
 30
0.0
 11
248.228955
 21
91.331972
 31
0.0
  0
LINE
  5
331
100
AcDbEntity
  8
ALPHA
100
AcDbLine
 10
248.044526
 20
92.383621
 30
0.0
 11
248.048453
 21
92.833604
 31
0.0
  0
LINE
  5
332
100
AcDbEntity
  8
ALPHA
100
AcDbLine
 10
248.048453
 20
92.833604
 30
0.0
 11
248.04315
 21
92.883652
 31
0.0
  0
LINE
  5
333
100
AcDbEntity
  8
ALPHA
100
AcDbLine
 10
248.188335
 20
91.734828
 30
0.0
 11
247.500741
 21
92.189602
 31
0.0
  0
LINE
  5
334
100
AcDbEntity
  8
ALPHA
100
AcDbLine
 10
247.975402
 20
93.384263
 30
0.0
 11
247.508573
 21
93.087082
 31
0.0
  0
LINE
  5
335
100
AcDbEntity
  8
ALPHA
100
AcDbLine
 10
248.188335
 20
91.734828
 30
0.0
 11
248.195987
 21
91.732275
 31
0.0
  0
LINE
  5
336
100
AcDbEntity
  8
ALPHA
100
AcDbLine
 10
247.185122
 20
93.391159
 30
0.0
 11
249.185046
 21
93.373706
 31
0.0
  0
LINE
  5
337
100
AcDbEntity
  8
ALPHA
100
AcDbLine
 10
248.503925
 20
92.879631
 30
0.0
 11
247.46773
 21
92.888674
 31
0.0
  0
LINE
  5
338
100
AcDbEntity
  8
ALPHA
100
AcDbLine
 10
247.463367
 20
92.388693
 30
0.0
 11
248.499562
 21
92.37965
 31
0.0
  0
LINE
  5
339
100
AcDbEntity
  8
ALPHA
100
AcDbLine
 10
248.394657
 20
91.730541
 30
0.0
 11
248.195987
 21
91.732275
 31
0.0
  0
LINE
  5
33A
100
AcDbEntity
  8
ALPHA
100
AcDbLine
 10
248.228955
 20
91.331972
 30
0.0
 11
248.425599
 21
91.330256
 31
0.0
  0
LINE
  5
33B
100
AcDbEntity
  8
ALPHA
100
AcDbLine
 10
248.19474
 20
91.182265
 30
0.0
 11
248.221718
 21
91.182029
 31
0.0
  0
LINE
  5
33C
100
AcDbEntity
  8
ALPHA
100
AcDbLine
 10
248.096811
 20
90.483093
 30
0.0
 11
248.418182
 21
90.480288
 31
0.0
  0
LINE
  5
33D
100
AcDbEntity
  8
ALPHA
100
AcDbLine
 10
226.01552
 20
117.876112
 30
0.0
 11
209.01552
 21
117.876112
 31
0.0
  0
LINE
  5
33E
100
AcDbEntity
  8
ALPHA
100
AcDbLine
 10
226.521953
 20
116.876112
 30
0.0
 11
208.509087
 21
116.876112
 31
0.0
  0
LINE
  5
33F
100
AcDbEntity
  8
ALPHA
100
AcDbLine
 10
237.32956
 20
105.87764
 30
0.0
 11
237.259748
 21
97.877944
 31
0.0
  0
LINE
  5
340
100
AcDbEntity
  8
ALPHA
100
AcDbLine
 10
190.71552
 20
128.876112
 30
0.0
 11
209.51552
 21
128.876112
 31
0.0
  0
LINE
  5
341
100
AcDbEntity
  8
ALPHA
100
AcDbLine
 10
191.21552
 20
128.376112
 30
0.0
 11
209.01552
 21
128.376112
 31
0.0
  0
LINE
  5
342
100
AcDbEntity
  8
ALPHA
100
AcDbLine
 10
190.71552
 20
151.976112
 30
0.0
 11
190.71552
 21
124.376112
 31
0.0
  0
LINE
  5
343
100
AcDbEntity
  8
ALPHA
100
AcDbLine
 10
174.71552
 20
151.976112
 30
0.0
 11
174.71552
 21
124.376112
 31
0.0
  0
CIRCLE
  5
344
100
AcDbEntity
  8
ALPHA
100
AcDbCircle
 10
182.71552
 20
141.976112
 30
0.0
 40
4.0
  0
LINE
  5
345
100
AcDbEntity
  8
ALPHA
100
AcDbLine
 10
191.21552
 20
124.376112
 30
0.0
 11
174.21552
 21
124.376112
 31
0.0
  0
LINE
  5
346
100
AcDbEntity
  8
ALPHA
100
AcDbLine
 10
191.21552
 20
123.376112
 30
0.0
 11
174.21552
 21
123.376112
 31
0.0
  0
LINE
  5
347
100
AcDbEntity
  8
ALPHA
100
AcDbLine
 10
191.21552
 20
122.376112
 30
0.0
 11
174.21552
 21
122.376112
 31
0.0
  0
LINE
  5
348
100
AcDbEntity
  8
ALPHA
100
AcDbLine
 10
174.21552
 20
127.376112
 30
0.0
 11
174.71552
 21
127.376112
 31
0.0
  0
LINE
  5
349
100
AcDbEntity
  8
ALPHA
100
AcDbLine
 10
171.01552
 20
128.876112
 30
0.0
 11
174.71552
 21
128.876112
 31
0.0
  0
LINE
  5
34A
100
AcDbEntity
  8
ALPHA
100
AcDbLine
 10
170.51552
 20
128.376112
 30
0.0
 11
174.21552
 21
128.376112
 31
0.0
  0
ARC
  5
34B
100
AcDbEntity
  8
ALPHA
100
AcDbCircle
 10
171.01552
 20
128.376112
 30
0.0
 40
0.5
100
AcDbArc
 50
90.0
 51
180.0
  0
ARC
  5
34C
100
AcDbEntity
  8
ALPHA
100
AcDbCircle
 10
173.71552
 20
128.376112
 30
0.0
 40
0.5
100
AcDbArc
 50
0.0
 51
90.0
  0
LINE
  5
34D
100
AcDbEntity
  8
ALPHA
100
AcDbLine
 10
190.71552
 20
127.376112
 30
0.0
 11
191.21552
 21
127.376112
 31
0.0
  0
ARC
  5
34E
100
AcDbEntity
  8
ALPHA
100
AcDbCircle
 10
191.71552
 20
128.376112
 30
0.0
 40
0.5
100
AcDbArc
 50
90.0
 51
180.0
  0
LINE
  5
34F
100
AcDbEntity
  8
ALPHA
100
AcDbLine
 10
190.71552
 20
151.976112
 30
0.0
 11
174.71552
 21
151.976112
 31
0.0
  0
LINE
  5
350
100
AcDbEntity
  8
ALPHA
100
AcDbLine
 10
190.71552
 20
151.476112
 30
0.0
 11
174.71552
 21
151.476112
 31
0.0
  0
LINE
  5
351
100
AcDbEntity
  8
ALPHA
100
AcDbLine
 10
244.31552
 20
124.376112
 30
0.0
 11
244.31552
 21
151.976112
 31
0.0
  0
LINE
  5
352
100
AcDbEntity
  8
ALPHA
100
AcDbLine
 10
225.51552
 20
124.376112
 30
0.0
 11
225.51552
 21
151.976112
 31
0.0
  0
LINE
  5
353
100
AcDbEntity
  8
ALPHA
100
AcDbLine
 10
209.51552
 20
124.376112
 30
0.0
 11
209.51552
 21
151.976112
 31
0.0
  0
LINE
  5
354
100
AcDbEntity
  8
ALPHA
100
AcDbLine
 10
225.51552
 20
128.876112
 30
0.0
 11
244.31552
 21
128.876112
 31
0.0
  0
LINE
  5
355
100
AcDbEntity
  8
ALPHA
100
AcDbLine
 10
226.01552
 20
128.376112
 30
0.0
 11
243.81552
 21
128.376112
 31
0.0
  0
LINE
  5
356
100
AcDbEntity
  8
ALPHA
100
AcDbLine
 10
226.01552
 20
124.376112
 30
0.0
 11
209.01552
 21
124.376112
 31
0.0
  0
LINE
  5
357
100
AcDbEntity
  8
ALPHA
100
AcDbLine
 10
226.01552
 20
123.376112
 30
0.0
 11
209.01552
 21
123.376112
 31
0.0
  0
LINE
  5
358
100
AcDbEntity
  8
ALPHA
100
AcDbLine
 10
226.01552
 20
122.376112
 30
0.0
 11
209.01552
 21
122.376112
 31
0.0
  0
LINE
  5
359
100
AcDbEntity
  8
ALPHA
100
AcDbLine
 10
209.01552
 20
127.376112
 30
0.0
 11
209.51552
 21
127.376112
 31
0.0
  0
ARC
  5
35A
100
AcDbEntity
  8
ALPHA
100
AcDbCircle
 10
208.51552
 20
128.376112
 30
0.0
 40
0.5
100
AcDbArc
 50
0.0
 51
90.0
  0
LINE
  5
35B
100
AcDbEntity
  8
ALPHA
100
AcDbLine
 10
225.51552
 20
127.376112
 30
0.0
 11
226.01552
 21
127.376112
 31
0.0
  0
ARC
  5
35C
100
AcDbEntity
  8
ALPHA
100
AcDbCircle
 10
226.51552
 20
128.376112
 30
0.0
 40
0.5
100
AcDbArc
 50
90.0
 51
180.0
  0
CIRCLE
  5
35D
100
AcDbEntity
  8
ALPHA
100
AcDbCircle
 10
217.51552
 20
141.976112
 30
0.0
 40
4.0
  0
LINE
  5
35E
100
AcDbEntity
  8
ALPHA
100
AcDbLine
 10
243.56552
 20
128.876112
 30
0.0
 11
243.56552
 21
137.176112
 31
0.0
  0
LINE
  5
35F
100
AcDbEntity
  8
ALPHA
100
AcDbLine
 10
241.56552
 20
128.876112
 30
0.0
 11
241.56552
 21
137.176112
 31
0.0
  0
ARC
  5
360
100
AcDbEntity
  8
ALPHA
100
AcDbCircle
 10
243.31552
 20
128.376112
 30
0.0
 40
0.5
100
AcDbArc
 50
0.0
 51
90.0
  0
LINE
  5
361
100
AcDbEntity
  8
ALPHA
100
AcDbLine
 10
241.56552
 20
133.10825
 30
0.0
 11
243.56552
 21
133.10825
 31
0.0
  0
LINE
  5
362
100
AcDbEntity
  8
ALPHA
100
AcDbLine
 10
241.56552
 20
131.507895
 30
0.0
 11
243.56552
 21
131.507895
 31
0.0
  0
LINE
  5
363
100
AcDbEntity
  8
ALPHA
100
AcDbLine
 10
243.81552
 20
127.376112
 30
0.0
 11
244.31552
 21
127.376112
 31
0.0
  0
LINE
  5
364
100
AcDbEntity
  8
ALPHA
100
AcDbLine
 10
241.56552
 20
137.176112
 30
0.0
 11
243.56552
 21
137.176112
 31
0.0
  0
LINE
  5
365
100
AcDbEntity
  8
ALPHA
100
AcDbLine
 10
241.56552
 20
135.53964
 30
0.0
 11
243.56552
 21
135.53964
 31
0.0
  0
CIRCLE
  5
366
100
AcDbEntity
  8
ALPHA
100
AcDbCircle
 10
252.31552
 20
141.976112
 30
0.0
 40
4.0
  0
LINE
  5
367
100
AcDbEntity
  8
ALPHA
100
AcDbLine
 10
209.51552
 20
151.976112
 30
0.0
 11
225.51552
 21
151.976112
 31
0.0
  0
LINE
  5
368
100
AcDbEntity
  8
ALPHA
100
AcDbLine
 10
209.51552
 20
151.476112
 30
0.0
 11
225.51552
 21
151.476112
 31
0.0
  0
LINE
  5
369
100
AcDbEntity
  8
ALPHA
100
AcDbLine
 10
264.51552
 20
128.376112
 30
0.0
 11
264.51552
 21
111.676112
 31
0.0
  0
LINE
  5
36A
100
AcDbEntity
  8
ALPHA
100
AcDbLine
 10
264.048758
 20
111.676112
 30
0.0
 11
264.048758
 21
128.376112
 31
0.0
  0
LINE
  5
36B
100
AcDbEntity
  8
ALPHA
100
AcDbLine
 10
261.346828
 20
116.876112
 30
0.0
 11
261.346828
 21
128.376112
 31
0.0
  0
LINE
  5
36C
100
AcDbEntity
  8
ALPHA
100
AcDbLine
 10
260.81552
 20
117.759379
 30
0.0
 11
260.81552
 21
128.376112
 31
0.0
  0
LINE
  5
36D
100
AcDbEntity
  8
ALPHA
100
AcDbLine
 10
274.810764
 20
84.749754
 30
0.0
 11
274.810764
 21
104.259224
 31
0.0
  0
LINE
  5
36E
100
AcDbEntity
  8
ALPHA
100
AcDbLine
 10
273.810993
 20
102.98535
 30
0.0
 11
273.810993
 21
90.432518
 31
0.0
  0
LINE
  5
36F
100
AcDbEntity
  8
ALPHA
100
AcDbLine
 10
267.415565
 20
103.041162
 30
0.0
 11
267.634709
 21
90.486418
 31
0.0
  0
LINE
  5
370
100
AcDbEntity
  8
ALPHA
100
AcDbLine
 10
266.415946
 20
103.049886
 30
0.0
 11
266.63509
 21
90.495141
 31
0.0
  0
LINE
  5
371
100
AcDbEntity
  8
ALPHA
100
AcDbLine
 10
265.416098
 20
103.032433
 30
0.0
 11
265.635242
 21
90.477689
 31
0.0
  0
LINE
  5
372
100
AcDbEntity
  8
ALPHA
100
AcDbLine
 10
273.827385
 20
86.658682
 30
0.0
 11
273.778512
 21
81.058347
 31
0.0
  0
LINE
  5
373
100
AcDbEntity
  8
ALPHA
100
AcDbLine
 10
273.731678
 20
86.564631
 30
0.0
 11
273.684461
 21
81.154054
 31
0.0
  0
LINE
  5
374
100
AcDbEntity
  8
ALPHA
100
AcDbLine
 10
273.482999
 20
80.956079
 30
0.0
 11
273.533703
 21
86.766093
 31
0.0
  0
LINE
  5
375
100
AcDbEntity
  8
ALPHA
100
AcDbLine
 10
263.572594
 20
81.042566
 30
0.0
 11
263.623297
 21
86.852579
 31
0.0
  0
LINE
  5
376
100
AcDbEntity
  8
ALPHA
100
AcDbLine
 10
263.374618
 20
81.244027
 30
0.0
 11
263.421836
 21
86.654604
 31
0.0
  0
LINE
  5
377
100
AcDbEntity
  8
ALPHA
100
AcDbLine
 10
263.278911
 20
81.149976
 30
0.0
 11
263.327785
 21
86.750311
 31
0.0
  0
LINE
  5
378
100
AcDbEntity
  8
ALPHA
100
AcDbLine
 10
260.829623
 20
86.971846
 30
0.0
 11
260.777264
 21
80.972074
 31
0.0
  0
CIRCLE
  5
379
100
AcDbEntity
  8
ALPHA
100
AcDbCircle
 10
268.216765
 20
74.006888
 30
0.0
 40
2.0
  0
CIRCLE
  5
37A
100
AcDbEntity
  8
ALPHA
100
AcDbCircle
 10
268.216765
 20
74.006888
 30
0.0
 40
1.5
  0
LINE
  5
37B
100
AcDbEntity
  8
ALPHA
100
AcDbLine
 10
263.374618
 20
81.244027
 30
0.0
 11
273.684461
 21
81.154054
 31
0.0
  0
LINE
  5
37C
100
AcDbEntity
  8
ALPHA
100
AcDbLine
 10
273.482999
 20
80.956079
 30
0.0
 11
263.572594
 21
81.042566
 31
0.0
  0
LINE
  5
37D
100
AcDbEntity
  8
ALPHA
100
AcDbLine
 10
273.57705
 20
80.860372
 30
0.0
 11
263.476887
 21
80.948515
 31
0.0
  0
CIRCLE
  5
37E
100
AcDbEntity
  8
ALPHA
100
AcDbCircle
 10
257.917157
 20
74.096771
 30
0.0
 40
1.5
  0
LINE
  5
37F
100
AcDbEntity
  8
ALPHA
100
AcDbLine
 10
259.008241
 20
73.070263
 30
0.0
 11
259.02599
 21
75.104081
 31
0.0
  0
LINE
  5
380
100
AcDbEntity
  8
ALPHA
100
AcDbLine
 10
257.386206
 20
72.701351
 30
0.0
 11
258.423674
 21
72.692298
 31
0.0
  0
LINE
  5
381
100
AcDbEntity
  8
ALPHA
100
AcDbLine
 10
260.402227
 20
72.37502
 30
0.0
 11
260.400482
 21
72.175027
 31
0.0
  0
LINE
  5
382
100
AcDbEntity
  8
ALPHA
100
AcDbLine
 10
260.407463
 20
72.974997
 30
0.0
 11
260.405718
 21
72.775004
 31
0.0
  0
LINE
  5
383
100
AcDbEntity
  8
ALPHA
100
AcDbLine
 10
260.412699
 20
73.574974
 30
0.0
 11
260.410954
 21
73.374981
 31
0.0
  0
LINE
  5
384
100
AcDbEntity
  8
ALPHA
100
AcDbLine
 10
260.417935
 20
74.174951
 30
0.0
 11
260.416189
 21
73.974959
 31
0.0
  0
LINE
  5
385
100
AcDbEntity
  8
ALPHA
100
AcDbLine
 10
260.423171
 20
74.774928
 30
0.0
 11
260.421425
 21
74.574936
 31
0.0
  0
LINE
  5
386
100
AcDbEntity
  8
ALPHA
100
AcDbLine
 10
261.087339
 20
74.769132
 30
0.0
 11
260.423171
 21
74.774928
 31
0.0
  0
LINE
  5
387
100
AcDbEntity
  8
ALPHA
100
AcDbLine
 10
260.422298
 20
74.674932
 30
0.0
 11
261.104374
 21
74.66898
 31
0.0
  0
LINE
  5
388
100
AcDbEntity
  8
ALPHA
100
AcDbLine
 10
261.121409
 20
74.568827
 30
0.0
 11
260.421425
 21
74.574936
 31
0.0
  0
LINE
  5
389
100
AcDbEntity
  8
ALPHA
100
AcDbLine
 10
261.159157
 20
74.168482
 30
0.0
 11
260.417935
 21
74.174951
 31
0.0
  0
LINE
  5
38A
100
AcDbEntity
  8
ALPHA
100
AcDbLine
 10
260.417062
 20
74.074955
 30
0.0
 11
261.155986
 21
74.068506
 31
0.0
  0
LINE
  5
38B
100
AcDbEntity
  8
ALPHA
100
AcDbLine
 10
261.152815
 20
73.96853
 30
0.0
 11
260.416189
 21
73.974959
 31
0.0
  0
LINE
  5
38C
100
AcDbEntity
  8
ALPHA
100
AcDbLine
 10
261.119532
 20
73.568805
 30
0.0
 11
260.412699
 21
73.574974
 31
0.0
  0
LINE
  5
38D
100
AcDbEntity
  8
ALPHA
100
AcDbLine
 10
260.411826
 20
73.474978
 30
0.0
 11
261.095962
 21
73.469007
 31
0.0
  0
LINE
  5
38E
100
AcDbEntity
  8
ALPHA
100
AcDbLine
 10
261.072391
 20
73.369209
 30
0.0
 11
260.410954
 21
73.374981
 31
0.0
  0
LINE
  5
38F
100
AcDbEntity
  8
ALPHA
100
AcDbLine
 10
260.963028
 20
72.970148
 30
0.0
 11
260.407463
 21
72.974997
 31
0.0
  0
LINE
  5
390
100
AcDbEntity
  8
ALPHA
100
AcDbLine
 10
260.40659
 20
72.875001
 30
0.0
 11
260.917087
 21
72.870545
 31
0.0
  0
LINE
  5
391
100
AcDbEntity
  8
ALPHA
100
AcDbLine
 10
260.871146
 20
72.770943
 30
0.0
 11
260.405718
 21
72.775004
 31
0.0
  0
LINE
  5
392
100
AcDbEntity
  8
ALPHA
100
AcDbLine
 10
260.667192
 20
72.372707
 30
0.0
 11
260.402227
 21
72.37502
 31
0.0
  0
LINE
  5
393
100
AcDbEntity
  8
ALPHA
100
AcDbLine
 10
260.401354
 20
72.275023
 30
0.0
 11
260.594375
 21
72.273339
 31
0.0
  0
LINE
  5
394
100
AcDbEntity
  8
ALPHA
100
AcDbLine
 10
260.521558
 20
72.173971
 30
0.0
 11
260.400482
 21
72.175027
 31
0.0
  0
LINE
  5
395
100
AcDbEntity
  8
ALPHA
100
AcDbLine
 10
258.660374
 20
75.390335
 30
0.0
 11
257.19663
 21
75.403109
 31
0.0
  0
ARC
  5
396
100
AcDbEntity
  8
ALPHA
100
AcDbCircle
 10
257.921526
 20
74.096733
 30
0.0
 40
2.95
100
AcDbArc
 50
26.585394
 51
32.4146
  0
LINE
  5
397
100
AcDbEntity
  8
ALPHA
100
AcDbLine
 10
260.428407
 20
75.374905
 30
0.0
 11
260.426661
 21
75.174913
 31
0.0
  0
LINE
  5
398
100
AcDbEntity
  8
ALPHA
100
AcDbLine
 10
260.433642
 20
75.974882
 30
0.0
 11
260.431897
 21
75.77489
 31
0.0
  0
LINE
  5
399
100
AcDbEntity
  8
ALPHA
100
AcDbLine
 10
260.821031
 20
75.564851
 30
0.0
 11
260.559618
 21
75.41695
 31
0.0
  0
LINE
  5
39A
100
AcDbEntity
  8
ALPHA
100
AcDbLine
 10
260.673304
 20
75.825957
 30
0.0
 11
260.411891
 21
75.678057
 31
0.0
  0
LINE
  5
39B
100
AcDbEntity
  8
ALPHA
100
AcDbLine
 10
260.560457
 20
75.973776
 30
0.0
 11
260.433642
 21
75.974882
 31
0.0
  0
LINE
  5
39C
100
AcDbEntity
  8
ALPHA
100
AcDbLine
 10
260.43277
 20
75.874886
 30
0.0
 11
260.637325
 21
75.873101
 31
0.0
  0
LINE
  5
39D
100
AcDbEntity
  8
ALPHA
100
AcDbLine
 10
260.580747
 20
75.773591
 30
0.0
 11
260.431897
 21
75.77489
 31
0.0
  0
LINE
  5
39E
100
AcDbEntity
  8
ALPHA
100
AcDbLine
 10
260.895986
 20
75.370825
 30
0.0
 11
260.428407
 21
75.374905
 31
0.0
  0
LINE
  5
39F
100
AcDbEntity
  8
ALPHA
100
AcDbLine
 10
260.427534
 20
75.274909
 30
0.0
 11
260.934746
 21
75.270483
 31
0.0
  0
LINE
  5
3A0
100
AcDbEntity
  8
ALPHA
100
AcDbLine
 10
260.973505
 20
75.170141
 30
0.0
 11
260.426661
 21
75.174913
 31
0.0
  0
LINE
  5
3A1
100
AcDbEntity
  8
ALPHA
100
AcDbLine
 10
265.702025
 20
72.328769
 30
0.0
 11
265.70028
 21
72.128777
 31
0.0
  0
LINE
  5
3A2
100
AcDbEntity
  8
ALPHA
100
AcDbLine
 10
265.707261
 20
72.928746
 30
0.0
 11
265.705516
 21
72.728754
 31
0.0
  0
LINE
  5
3A3
100
AcDbEntity
  8
ALPHA
100
AcDbLine
 10
265.712497
 20
73.528723
 30
0.0
 11
265.710752
 21
73.328731
 31
0.0
  0
LINE
  5
3A4
100
AcDbEntity
  8
ALPHA
100
AcDbLine
 10
265.717733
 20
74.1287
 30
0.0
 11
265.715988
 21
73.928708
 31
0.0
  0
LINE
  5
3A5
100
AcDbEntity
  8
ALPHA
100
AcDbLine
 10
265.722969
 20
74.728678
 30
0.0
 11
265.721224
 21
74.528685
 31
0.0
  0
LINE
  5
3A6
100
AcDbEntity
  8
ALPHA
100
AcDbLine
 10
265.067538
 20
74.734397
 30
0.0
 11
265.722969
 21
74.728678
 31
0.0
  0
LINE
  5
3A7
100
AcDbEntity
  8
ALPHA
100
AcDbLine
 10
265.722096
 20
74.628681
 30
0.0
 11
265.048758
 21
74.634557
 31
0.0
  0
LINE
  5
3A8
100
AcDbEntity
  8
ALPHA
100
AcDbLine
 10
265.029977
 20
74.534718
 30
0.0
 11
265.721224
 21
74.528685
 31
0.0
  0
LINE
  5
3A9
100
AcDbEntity
  8
ALPHA
100
AcDbLine
 10
264.985249
 20
74.135093
 30
0.0
 11
265.717733
 21
74.1287
 31
0.0
  0
LINE
  5
3AA
100
AcDbEntity
  8
ALPHA
100
AcDbLine
 10
265.71686
 20
74.028704
 30
0.0
 11
264.986674
 21
74.035076
 31
0.0
  0
LINE
  5
3AB
100
AcDbEntity
  8
ALPHA
100
AcDbLine
 10
264.9881
 20
73.93506
 30
0.0
 11
265.715988
 21
73.928708
 31
0.0
  0
LINE
  5
3AC
100
AcDbEntity
  8
ALPHA
100
AcDbLine
 10
265.014401
 20
73.534815
 30
0.0
 11
265.712497
 21
73.528723
 31
0.0
  0
LINE
  5
3AD
100
AcDbEntity
  8
ALPHA
100
AcDbLine
 10
265.711624
 20
73.428727
 30
0.0
 11
265.036227
 21
73.434621
 31
0.0
  0
LINE
  5
3AE
100
AcDbEntity
  8
ALPHA
100
AcDbLine
 10
265.058052
 20
73.334427
 30
0.0
 11
265.710752
 21
73.328731
 31
0.0
  0
LINE
  5
3AF
100
AcDbEntity
  8
ALPHA
100
AcDbLine
 10
265.160434
 20
72.933518
 30
0.0
 11
265.707261
 21
72.928746
 31
0.0
  0
LINE
  5
3B0
100
AcDbEntity
  8
ALPHA
100
AcDbLine
 10
265.706388
 20
72.82875
 30
0.0
 11
265.20463
 21
72.833129
 31
0.0
  0
LINE
  5
3B1
100
AcDbEntity
  8
ALPHA
100
AcDbLine
 10
265.248826
 20
72.732739
 30
0.0
 11
265.705516
 21
72.728754
 31
0.0
  0
LINE
  5
3B2
100
AcDbEntity
  8
ALPHA
100
AcDbLine
 10
265.445798
 20
72.331005
 30
0.0
 11
265.702025
 21
72.328769
 31
0.0
  0
LINE
  5
3B3
100
AcDbEntity
  8
ALPHA
100
AcDbLine
 10
265.701153
 20
72.228773
 30
0.0
 11
265.51687
 21
72.230381
 31
0.0
  0
LINE
  5
3B4
100
AcDbEntity
  8
ALPHA
100
AcDbLine
 10
265.587941
 20
72.129757
 30
0.0
 11
265.70028
 21
72.128777
 31
0.0
  0
ARC
  5
3B5
100
AcDbEntity
  8
ALPHA
100
AcDbCircle
 10
268.221134
 20
74.00685
 30
0.0
 40
2.949999
100
AcDbArc
 50
146.585408
 51
152.414604
  0
LINE
  5
3B6
100
AcDbEntity
  8
ALPHA
100
AcDbLine
 10
265.728205
 20
75.328655
 30
0.0
 11
265.726459
 21
75.128662
 31
0.0
  0
LINE
  5
3B7
100
AcDbEntity
  8
ALPHA
100
AcDbLine
 10
265.733441
 20
75.928632
 30
0.0
 11
265.731695
 21
75.728639
 31
0.0
  0
LINE
  5
3B8
100
AcDbEntity
  8
ALPHA
100
AcDbLine
 10
265.499954
 20
75.783836
 30
0.0
 11
265.758747
 21
75.631395
 31
0.0
  0
LINE
  5
3B9
100
AcDbEntity
  8
ALPHA
100
AcDbLine
 10
265.347693
 20
75.525347
 30
0.0
 11
265.606485
 21
75.372907
 31
0.0
  0
LINE
  5
3BA
100
AcDbEntity
  8
ALPHA
100
AcDbLine
 10
265.615365
 20
75.929662
 30
0.0
 11
265.733441
 21
75.928632
 31
0.0
  0
LINE
  5
3BB
100
AcDbEntity
  8
ALPHA
100
AcDbLine
 10
265.732568
 20
75.828636
 30
0.0
 11
265.536751
 21
75.830345
 31
0.0
  0
LINE
  5
3BC
100
AcDbEntity
  8
ALPHA
100
AcDbLine
 10
265.591583
 20
75.729862
 30
0.0
 11
265.731695
 21
75.728639
 31
0.0
  0
LINE
  5
3BD
100
AcDbEntity
  8
ALPHA
100
AcDbLine
 10
265.269363
 20
75.332659
 30
0.0
 11
265.728205
 21
75.328655
 31
0.0
  0
LINE
  5
3BE
100
AcDbEntity
  8
ALPHA
100
AcDbLine
 10
265.727332
 20
75.228658
 30
0.0
 11
265.228858
 21
75.233009
 31
0.0
  0
LINE
  5
3BF
100
AcDbEntity
  8
ALPHA
100
AcDbLine
 10
265.188353
 20
75.133358
 30
0.0
 11
265.726459
 21
75.128662
 31
0.0
  0
LINE
  5
3C0
100
AcDbEntity
  8
ALPHA
100
AcDbLine
 10
263.476887
 20
80.948515
 30
0.0
 11
263.572594
 21
81.042566
 31
0.0
  0
LINE
  5
3C1
100
AcDbEntity
  8
ALPHA
100
AcDbLine
 10
263.278911
 20
81.149976
 30
0.0
 11
263.374618
 21
81.244027
 31
0.0
  0
LINE
  5
3C2
100
AcDbEntity
  8
ALPHA
100
AcDbLine
 10
270.701835
 20
72.285136
 30
0.0
 11
270.700089
 21
72.085144
 31
0.0
  0
LINE
  5
3C3
100
AcDbEntity
  8
ALPHA
100
AcDbLine
 10
270.707071
 20
72.885113
 30
0.0
 11
270.705325
 21
72.685121
 31
0.0
  0
LINE
  5
3C4
100
AcDbEntity
  8
ALPHA
100
AcDbLine
 10
270.712307
 20
73.485091
 30
0.0
 11
270.710561
 21
73.285098
 31
0.0
  0
LINE
  5
3C5
100
AcDbEntity
  8
ALPHA
100
AcDbLine
 10
270.717543
 20
74.085068
 30
0.0
 11
270.715797
 21
73.885075
 31
0.0
  0
LINE
  5
3C6
100
AcDbEntity
  8
ALPHA
100
AcDbLine
 10
270.722778
 20
74.685045
 30
0.0
 11
270.721033
 21
74.485052
 31
0.0
  0
LINE
  5
3C7
100
AcDbEntity
  8
ALPHA
100
AcDbLine
 10
271.386947
 20
74.679249
 30
0.0
 11
270.722778
 21
74.685045
 31
0.0
  0
LINE
  5
3C8
100
AcDbEntity
  8
ALPHA
100
AcDbLine
 10
271.403982
 20
74.579096
 30
0.0
 11
270.721906
 21
74.585049
 31
0.0
  0
LINE
  5
3C9
100
AcDbEntity
  8
ALPHA
100
AcDbLine
 10
271.421017
 20
74.478944
 30
0.0
 11
270.721033
 21
74.485052
 31
0.0
  0
LINE
  5
3CA
100
AcDbEntity
  8
ALPHA
100
AcDbLine
 10
271.458765
 20
74.078599
 30
0.0
 11
270.717543
 21
74.085068
 31
0.0
  0
LINE
  5
3CB
100
AcDbEntity
  8
ALPHA
100
AcDbLine
 10
271.455594
 20
73.978623
 30
0.0
 11
270.71667
 21
73.985071
 31
0.0
  0
LINE
  5
3CC
100
AcDbEntity
  8
ALPHA
100
AcDbLine
 10
271.452423
 20
73.878647
 30
0.0
 11
270.715797
 21
73.885075
 31
0.0
  0
LINE
  5
3CD
100
AcDbEntity
  8
ALPHA
100
AcDbLine
 10
271.41914
 20
73.478922
 30
0.0
 11
270.712307
 21
73.485091
 31
0.0
  0
LINE
  5
3CE
100
AcDbEntity
  8
ALPHA
100
AcDbLine
 10
271.39557
 20
73.379124
 30
0.0
 11
270.711434
 21
73.385094
 31
0.0
  0
LINE
  5
3CF
100
AcDbEntity
  8
ALPHA
100
AcDbLine
 10
271.371999
 20
73.279326
 30
0.0
 11
270.710561
 21
73.285098
 31
0.0
  0
LINE
  5
3D0
100
AcDbEntity
  8
ALPHA
100
AcDbLine
 10
271.262636
 20
72.880265
 30
0.0
 11
270.707071
 21
72.885113
 31
0.0
  0
LINE
  5
3D1
100
AcDbEntity
  8
ALPHA
100
AcDbLine
 10
271.216695
 20
72.780662
 30
0.0
 11
270.706198
 21
72.785117
 31
0.0
  0
LINE
  5
3D2
100
AcDbEntity
  8
ALPHA
100
AcDbLine
 10
271.170753
 20
72.681059
 30
0.0
 11
270.705325
 21
72.685121
 31
0.0
  0
LINE
  5
3D3
100
AcDbEntity
  8
ALPHA
100
AcDbLine
 10
270.9668
 20
72.282824
 30
0.0
 11
270.701835
 21
72.285136
 31
0.0
  0
LINE
  5
3D4
100
AcDbEntity
  8
ALPHA
100
AcDbLine
 10
270.893983
 20
72.183456
 30
0.0
 11
270.700962
 21
72.18514
 31
0.0
  0
LINE
  5
3D5
100
AcDbEntity
  8
ALPHA
100
AcDbLine
 10
270.821166
 20
72.084087
 30
0.0
 11
270.700089
 21
72.085144
 31
0.0
  0
LINE
  5
3D6
100
AcDbEntity
  8
ALPHA
100
AcDbLine
 10
274.615724
 20
73.575902
 30
0.0
 11
274.317628
 21
73.578503
 31
0.0
  0
ARC
  5
3D7
100
AcDbEntity
  8
ALPHA
100
AcDbCircle
 10
268.221134
 20
74.00685
 30
0.0
 40
2.95
100
AcDbArc
 50
26.585394
 51
32.414584
  0
LINE
  5
3D8
100
AcDbEntity
  8
ALPHA
100
AcDbLine
 10
270.728014
 20
75.285022
 30
0.0
 11
270.726269
 21
75.08503
 31
0.0
  0
LINE
  5
3D9
100
AcDbEntity
  8
ALPHA
100
AcDbLine
 10
270.73325
 20
75.884999
 30
0.0
 11
270.731505
 21
75.685007
 31
0.0
  0
LINE
  5
3DA
100
AcDbEntity
  8
ALPHA
100
AcDbLine
 10
271.120639
 20
75.474967
 30
0.0
 11
270.859226
 21
75.327067
 31
0.0
  0
LINE
  5
3DB
100
AcDbEntity
  8
ALPHA
100
AcDbLine
 10
270.972912
 20
75.736074
 30
0.0
 11
270.711499
 21
75.588173
 31
0.0
  0
LINE
  5
3DC
100
AcDbEntity
  8
ALPHA
100
AcDbLine
 10
270.860064
 20
75.883892
 30
0.0
 11
270.73325
 21
75.884999
 31
0.0
  0
LINE
  5
3DD
100
AcDbEntity
  8
ALPHA
100
AcDbLine
 10
270.936933
 20
75.783218
 30
0.0
 11
270.732378
 21
75.785003
 31
0.0
  0
LINE
  5
3DE
100
AcDbEntity
  8
ALPHA
100
AcDbLine
 10
270.880355
 20
75.683708
 30
0.0
 11
270.731505
 21
75.685007
 31
0.0
  0
LINE
  5
3DF
100
AcDbEntity
  8
ALPHA
100
AcDbLine
 10
271.195594
 20
75.280941
 30
0.0
 11
270.728014
 21
75.285022
 31
0.0
  0
LINE
  5
3E0
100
AcDbEntity
  8
ALPHA
100
AcDbLine
 10
271.234354
 20
75.180599
 30
0.0
 11
270.727142
 21
75.185026
 31
0.0
  0
LINE
  5
3E1
100
AcDbEntity
  8
ALPHA
100
AcDbLine
 10
271.273113
 20
75.080257
 30
0.0
 11
270.726269
 21
75.08503
 31
0.0
  0
LINE
  5
3E2
100
AcDbEntity
  8
ALPHA
100
AcDbLine
 10
274.645833
 20
75.300834
 30
0.0
 11
274.332683
 21
75.303566
 31
0.0
  0
LINE
  5
3E3
100
AcDbEntity
  8
ALPHA
100
AcDbLine
 10
274.637106
 20
74.800891
 30
0.0
 11
274.328319
 21
74.803585
 31
0.0
  0
LINE
  5
3E4
100
AcDbEntity
  8
ALPHA
100
AcDbLine
 10
273.778512
 20
81.058347
 30
0.0
 11
273.684461
 21
81.154054
 31
0.0
  0
LINE
  5
3E5
100
AcDbEntity
  8
ALPHA
100
AcDbLine
 10
273.57705
 20
80.860372
 30
0.0
 11
273.482999
 21
80.956079
 31
0.0
  0
LINE
  5
3E6
100
AcDbEntity
  8
ALPHA
100
AcDbLine
 10
267.634709
 20
90.486418
 30
0.0
 11
273.810993
 21
90.432518
 31
0.0
  0
LINE
  5
3E7
100
AcDbEntity
  8
ALPHA
100
AcDbLine
 10
273.819491
 20
89.458584
 30
0.0
 11
267.626211
 21
89.512632
 31
0.0
  0
LINE
  5
3E8
100
AcDbEntity
  8
ALPHA
100
AcDbLine
 10
274.810764
 20
88.449895
 30
0.0
 11
267.617484
 21
88.51267
 31
0.0
  0
LINE
  5
3E9
100
AcDbEntity
  8
ALPHA
100
AcDbLine
 10
263.529246
 20
86.948286
 30
0.0
 11
273.62941
 21
86.860144
 31
0.0
  0
LINE
  5
3EA
100
AcDbEntity
  8
ALPHA
100
AcDbLine
 10
263.623297
 20
86.852579
 30
0.0
 11
273.533703
 21
86.766093
 31
0.0
  0
LINE
  5
3EB
100
AcDbEntity
  8
ALPHA
100
AcDbLine
 10
263.421836
 20
86.654604
 30
0.0
 11
273.731678
 21
86.564631
 31
0.0
  0
ARC
  5
3EC
100
AcDbEntity
  8
ALPHA
100
AcDbCircle
 10
267.634937
 20
90.512594
 30
0.0
 40
0.999999
100
AcDbArc
 50
181.000035
 51
269.500031
  0
LINE
  5
3ED
100
AcDbEntity
  8
ALPHA
100
AcDbLine
 10
267.634709
 20
90.486418
 30
0.0
 11
267.617484
 21
88.51267
 31
0.0
  0
LINE
  5
3EE
100
AcDbEntity
  8
ALPHA
100
AcDbLine
 10
265.635242
 20
90.477689
 30
0.0
 11
266.63509
 21
90.495141
 31
0.0
  0
LINE
  5
3EF
100
AcDbEntity
  8
ALPHA
100
AcDbLine
 10
263.311202
 20
84.850109
 30
0.0
 11
260.811297
 21
84.871926
 31
0.0
  0
LINE
  5
3F0
100
AcDbEntity
  8
ALPHA
100
AcDbLine
 10
263.529246
 20
86.948286
 30
0.0
 11
263.623297
 21
86.852579
 31
0.0
  0
LINE
  5
3F1
100
AcDbEntity
  8
ALPHA
100
AcDbLine
 10
263.327785
 20
86.750311
 30
0.0
 11
263.421836
 21
86.654604
 31
0.0
  0
ARC
  5
3F2
100
AcDbEntity
  8
ALPHA
100
AcDbCircle
 10
267.634937
 20
90.512594
 30
0.0
 40
2.0
100
AcDbArc
 50
181.000006
 51
269.500002
  0
LINE
  5
3F3
100
AcDbEntity
  8
ALPHA
100
AcDbLine
 10
273.827385
 20
86.658682
 30
0.0
 11
273.731678
 21
86.564631
 31
0.0
  0
LINE
  5
3F4
100
AcDbEntity
  8
ALPHA
100
AcDbLine
 10
273.62941
 20
86.860144
 30
0.0
 11
273.533703
 21
86.766093
 31
0.0
  0
LINE
  5
3F5
100
AcDbEntity
  8
ALPHA
100
AcDbLine
 10
274.810764
 20
84.749754
 30
0.0
 11
273.810802
 21
84.758481
 31
0.0
  0
ARC
  5
3F6
100
AcDbEntity
  8
ALPHA
100
AcDbCircle
 10
273.810764
 20
88.458622
 30
0.0
 40
1.0
100
AcDbArc
 50
0.0
 51
89.499973
  0
LINE
  5
3F7
100
AcDbEntity
  8
ALPHA
100
AcDbLine
 10
273.819491
 20
89.458584
 30
0.0
 11
273.810993
 21
90.432518
 31
0.0
  0
ARC
  5
3F8
100
AcDbEntity
  8
ALPHA
100
AcDbCircle
 10
267.51552
 20
111.976112
 30
0.0
 40
3.25
100
AcDbArc
 50
286.988129
 51
158.482792
  0
CIRCLE
  5
3F9
100
AcDbEntity
  8
ALPHA
100
AcDbCircle
 10
267.51552
 20
111.976112
 30
0.0
 40
2.754326
  0
ARC
  5
3FA
100
AcDbEntity
  8
ALPHA
100
AcDbCircle
 10
267.31552
 20
111.676112
 30
0.0
 40
2.8
100
AcDbArc
 50
180.0
 51
270.0
  0
LINE
  5
3FB
100
AcDbEntity
  8
ALPHA
100
AcDbLine
 10
274.01552
 20
105.229895
 30
0.0
 11
274.01552
 21
117.476112
 31
0.0
  0
LINE
  5
3FC
100
AcDbEntity
  8
ALPHA
100
AcDbLine
 10
273.01552
 20
105.266202
 30
0.0
 11
273.01552
 21
117.476112
 31
0.0
  0
LINE
  5
3FD
100
AcDbEntity
  8
ALPHA
100
AcDbLine
 10
273.819491
 20
105.259185
 30
0.0
 11
259.626093
 21
105.383049
 31
0.0
  0
LINE
  5
3FE
100
AcDbEntity
  8
ALPHA
100
AcDbLine
 10
274.665704
 20
104.777951
 30
0.0
 11
259.621958
 21
104.909235
 31
0.0
  0
LINE
  5
3FF
100
AcDbEntity
  8
ALPHA
100
AcDbLine
 10
267.31552
 20
108.876112
 30
0.0
 11
272.01552
 21
108.876112
 31
0.0
  0
LINE
  5
400
100
AcDbEntity
  8
ALPHA
100
AcDbLine
 10
267.351117
 20
108.376112
 30
0.0
 11
272.51552
 21
108.376112
 31
0.0
  0
LINE
  5
401
100
AcDbEntity
  8
ALPHA
100
AcDbLine
 10
259.614748
 20
104.083099
 30
0.0
 11
273.819491
 21
103.959136
 31
0.0
  0
LINE
  5
402
100
AcDbEntity
  8
ALPHA
100
AcDbLine
 10
273.810993
 20
102.98535
 30
0.0
 11
267.415565
 21
103.041162
 31
0.0
  0
LINE
  5
403
100
AcDbEntity
  8
ALPHA
100
AcDbLine
 10
259.558899
 20
97.683343
 30
0.0
 11
259.628711
 21
105.683038
 31
0.0
  0
LINE
  5
404
100
AcDbEntity
  8
ALPHA
100
AcDbLine
 10
259.606022
 20
103.083137
 30
0.0
 11
265.416098
 21
103.032433
 31
0.0
  0
ARC
  5
405
100
AcDbEntity
  8
ALPHA
100
AcDbCircle
 10
265.416098
 20
103.032433
 30
0.0
 40
1.0
100
AcDbArc
 50
1.000034
 51
89.499973
  0
LINE
  5
406
100
AcDbEntity
  8
ALPHA
100
AcDbLine
 10
266.415946
 20
103.049886
 30
0.0
 11
265.416098
 21
103.032433
 31
0.0
  0
LINE
  5
407
100
AcDbEntity
  8
ALPHA
100
AcDbLine
 10
265.416098
 20
103.032433
 30
0.0
 11
265.424825
 21
104.032395
 31
0.0
  0
LINE
  5
408
100
AcDbEntity
  8
ALPHA
100
AcDbLine
 10
267.415565
 20
103.041162
 30
0.0
 11
267.424063
 21
104.014948
 31
0.0
  0
ARC
  5
409
100
AcDbEntity
  8
ALPHA
100
AcDbCircle
 10
273.810764
 20
102.959174
 30
0.0
 40
1.0
100
AcDbArc
 50
0.0
 51
89.499973
  0
LINE
  5
40A
100
AcDbEntity
  8
ALPHA
100
AcDbLine
 10
273.810993
 20
102.98535
 30
0.0
 11
273.819491
 21
103.959136
 31
0.0
  0
LINE
  5
40B
100
AcDbEntity
  8
ALPHA
100
AcDbLine
 10
272.51552
 20
108.376112
 30
0.0
 11
272.51552
 21
105.270565
 31
0.0
  0
LINE
  5
40C
100
AcDbEntity
  8
ALPHA
100
AcDbLine
 10
272.054477
 20
105.274588
 30
0.0
 11
272.054477
 21
108.376112
 31
0.0
  0
ARC
  5
40D
100
AcDbEntity
  8
ALPHA
100
AcDbCircle
 10
274.01552
 20
103.376112
 30
0.0
 40
1.0
100
AcDbArc
 50
0.0
 51
36.007048
  0
ARC
  5
40E
100
AcDbEntity
  8
ALPHA
100
AcDbCircle
 10
273.810764
 20
104.259224
 30
0.0
 40
1.0
100
AcDbArc
 50
0.0
 51
89.499973
  0
ARC
  5
40F
100
AcDbEntity
  8
ALPHA
100
AcDbCircle
 10
272.01552
 20
108.376112
 30
0.0
 40
0.5
100
AcDbArc
 50
0.0
 51
90.0
  0
LINE
  5
410
100
AcDbEntity
  8
ALPHA
100
AcDbLine
 10
264.51552
 20
117.476112
 30
0.0
 11
274.01552
 21
117.476112
 31
0.0
  0
LINE
  5
411
100
AcDbEntity
  8
ALPHA
100
AcDbLine
 10
264.048758
 20
111.676112
 30
0.0
 11
264.51552
 21
111.676112
 31
0.0
  0
ARC
  5
412
100
AcDbEntity
  8
ALPHA
100
AcDbCircle
 10
274.01552
 20
116.476112
 30
0.0
 40
1.0
100
AcDbArc
 50
0.0
 51
90.0
  0
LINE
  5
413
100
AcDbEntity
  8
ALPHA
100
AcDbLine
 10
260.31552
 20
151.976112
 30
0.0
 11
260.31552
 21
124.376112
 31
0.0
  0
LINE
  5
414
100
AcDbEntity
  8
ALPHA
100
AcDbLine
 10
260.31552
 20
127.376112
 30
0.0
 11
260.81552
 21
127.376112
 31
0.0
  0
LINE
  5
415
100
AcDbEntity
  8
ALPHA
100
AcDbLine
 10
260.31552
 20
128.876112
 30
0.0
 11
264.01552
 21
128.876112
 31
0.0
  0
LINE
  5
416
100
AcDbEntity
  8
ALPHA
100
AcDbLine
 10
260.81552
 20
128.376112
 30
0.0
 11
264.51552
 21
128.376112
 31
0.0
  0
ARC
  5
417
100
AcDbEntity
  8
ALPHA
100
AcDbCircle
 10
261.31552
 20
128.376112
 30
0.0
 40
0.5
100
AcDbArc
 50
90.0
 51
180.0
  0
ARC
  5
418
100
AcDbEntity
  8
ALPHA
100
AcDbCircle
 10
264.01552
 20
128.376112
 30
0.0
 40
0.5
100
AcDbArc
 50
0.0
 51
90.0
  0
LWPOLYLINE
  5
419
100
AcDbEntity
  8
ALPHA
100
AcDbPolyline
 90
       14
 70
     0
 43
0.0
 38
62.05
 10
177.695327
 20
79.797047
 10
177.557494
 20
81.023582
 10
177.129001
 20
82.184755
 10
176.438674
 20
83.204943
 10
175.51783
 20
84.036078
 10
174.4324
 20
84.618596
 10
173.227529
 20
84.926935
 10
171.994693
 20
84.9373
 10
170.784058
 20
84.648986
 10
169.688342
 20
84.084133
 10
168.753711
 20
83.268058
 10
168.046879
 20
82.259641
 10
167.599639
 20
81.107038
 10
167.441298
 20
79.886532
  0
LWPOLYLINE
  5
41A
100
AcDbEntity
  8
ALPHA
100
AcDbPolyline
 90
       14
 70
     0
 43
0.0
 38
62.05
 10
167.441298
 20
79.886532
 10
167.578314
 20
78.663453
 10
168.005364
 20
77.503229
 10
168.69449
 20
76.482624
 10
169.614731
 20
75.650363
 10
170.700424
 20
75.066468
 10
171.905846
 20
74.757067
 10
173.138676
 20
74.745914
 10
174.348741
 20
75.033175
 10
175.44417
 20
75.596657
 10
176.379383
 20
76.411595
 10
177.087411
 20
77.419575
 10
177.536108
 20
78.573101
 10
177.695327
 20
79.797047
  0
LWPOLYLINE
  5
41B
100
AcDbEntity
  8
ALPHA
100
AcDbPolyline
 90
        4
 70
     0
 43
0.0
 38
62.05
 10
166.640283
 20
90.679791
 10
166.671584
 20
90.489312
 10
166.709854
 20
90.398643
 10
166.722209
 20
90.393093
  0
LWPOLYLINE
  5
41C
100
AcDbEntity
  8
ALPHA
100
AcDbPolyline
 90
        4
 70
     0
 43
0.0
 38
62.05
 10
166.640276
 20
90.679784
 10
166.676668
 20
90.89066
 10
166.700125
 20
91.133991
 10
166.709588
 20
91.393356
  0
LWPOLYLINE
  5
41D
100
AcDbEntity
  8
ALPHA
100
AcDbPolyline
 90
        4
 70
     0
 43
0.0
 38
62.05
 10
178.626964
 20
90.575178
 10
178.562735
 20
90.786932
 10
178.524066
 20
91.030805
 10
178.512562
 20
91.290353
  0
LWPOLYLINE
  5
41E
100
AcDbEntity
  8
ALPHA
100
AcDbPolyline
 90
       13
 70
     0
 43
0.0
 38
62.05
 10
189.263751
 20
81.296152
 10
189.157972
 20
82.159117
 10
188.829616
 20
82.971016
 10
188.309526
 20
83.661053
 10
187.61897
 20
84.200625
 10
186.821741
 20
84.53892
 10
185.957378
 20
84.660611
 10
185.091019
 20
84.553843
 10
184.288036
 20
84.229323
 10
183.58824
 20
83.701684
 10
183.056337
 20
83.020677
 10
182.714111
 20
82.21472
 10
182.593462
 20
81.354362
  0
LWPOLYLINE
  5
41F
100
AcDbEntity
  8
ALPHA
100
AcDbPolyline
 90
       13
 70
     0
 43
0.0
 38
62.05
 10
182.593462
 20
81.354362
 10
182.699078
 20
80.49203
 10
183.027187
 20
79.68022
 10
183.547125
 20
78.990034
 10
184.237608
 20
78.450262
 10
185.034809
 20
78.111778
 10
185.899169
 20
77.989909
 10
186.765527
 20
78.096498
 10
187.568535
 20
78.420829
 10
188.268401
 20
78.948266
 10
188.800454
 20
79.629122
 10
189.142928
 20
80.435165
 10
189.263751
 20
81.296152
  0
LWPOLYLINE
  5
420
100
AcDbEntity
  8
ALPHA
100
AcDbPolyline
 90
        8
 70
     0
 43
0.0
 38
62.05
 10
170.982282
 20
111.676112
 10
170.901105
 20
110.948924
 10
170.658021
 20
110.250067
 10
170.2647
 20
109.62222
 10
169.740208
 20
109.097103
 10
169.111575
 20
108.702342
 10
168.410475
 20
108.457875
 10
167.679923
 20
108.376112
  0
LWPOLYLINE
  5
421
100
AcDbEntity
  8
ALPHA
100
AcDbPolyline
 90
        5
 70
     0
 43
0.0
 38
62.05
 10
161.141515
 20
104.942462
 10
161.085346
 20
104.866829
 10
161.036399
 20
104.650475
 10
161.002127
 20
104.326338
 10
160.987747
 20
103.943766
  0
LWPOLYLINE
  5
422
100
AcDbEntity
  8
ALPHA
100
AcDbPolyline
 90
        5
 70
     0
 43
0.0
 38
62.05
 10
163.01552
 20
108.876112
 10
163.000612
 20
108.838052
 10
162.987974
 20
108.729665
 10
162.979529
 20
108.567454
 10
162.976564
 20
108.376112
  0
LWPOLYLINE
  5
423
100
AcDbEntity
  8
ALPHA
100
AcDbPolyline
 90
        5
 70
     0
 43
0.0
 38
62.05
 10
167.71552
 20
108.876112
 10
167.701898
 20
108.838052
 10
167.69035
 20
108.729665
 10
167.682633
 20
108.567454
 10
167.679923
 20
108.376112
  0
LWPOLYLINE
  5
424
100
AcDbEntity
  8
ALPHA
100
AcDbPolyline
 90
        6
 70
     0
 43
0.0
 38
62.05
 10
174.21552
 20
117.759379
 10
174.189082
 20
117.652191
 10
174.11418
 20
117.506417
 10
173.999667
 20
117.326403
 10
173.853841
 20
117.115586
 10
173.684212
 20
116.876112
  0
LWPOLYLINE
  5
425
100
AcDbEntity
  8
ALPHA
100
AcDbPolyline
 90
        5
 70
     0
 43
0.0
 38
62.05
 10
191.21552
 20
117.731117
 10
191.251495
 20
117.586942
 10
191.351903
 20
117.392325
 10
191.504061
 20
117.15404
 10
191.697079
 20
116.876112
  0
LWPOLYLINE
  5
426
100
AcDbEntity
  8
ALPHA
100
AcDbPolyline
 90
        3
 70
     0
 43
0.0
 38
62.05
 10
235.996948
 20
75.715619
 10
236.010567
 20
74.062334
 10
236.019501
 20
72.843655
  0
LWPOLYLINE
  5
427
100
AcDbEntity
  8
ALPHA
100
AcDbPolyline
 90
        3
 70
     0
 43
0.0
 38
62.05
 10
248.03204
 20
90.95293
 10
247.727495
 20
89.68699
 10
247.665829
 20
89.436814
  0
LWPOLYLINE
  5
428
100
AcDbEntity
  8
ALPHA
100
AcDbPolyline
 90
        8
 70
     0
 43
0.0
 38
62.05
 10
248.179904
 20
89.482329
 10
248.16218
 20
89.500035
 10
248.14565
 20
89.551953
 10
248.131144
 20
89.635479
 10
248.11939
 20
89.746425
 10
248.110976
 20
89.879227
 10
248.106325
 20
90.027228
 10
248.10567
 20
90.183004
  0
LWPOLYLINE
  5
429
100
AcDbEntity
  8
ALPHA
100
AcDbPolyline
 90
        3
 70
     0
 43
0.0
 38
62.05
 10
248.206655
 20
89.484685
 10
248.312601
 20
89.494015
 10
248.409819
 20
89.522049
  0
LWPOLYLINE
  5
42A
100
AcDbEntity
  8
ALPHA
100
AcDbPolyline
 90
        3
 70
     0
 43
0.0
 38
62.05
 10
248.206883
 20
89.482094
 10
248.348317
 20
89.495588
 10
248.409757
 20
89.514982
  0
LWPOLYLINE
  5
42B
100
AcDbEntity
  8
ALPHA
100
AcDbPolyline
 90
        5
 70
     0
 43
0.0
 38
62.05
 10
248.465726
 20
93.379984
 10
248.477732
 20
93.296465
 10
248.489506
 20
93.174333
 10
248.498336
 20
93.033804
 10
248.503925
 20
92.879631
  0
LWPOLYLINE
  5
42C
100
AcDbEntity
  8
ALPHA
100
AcDbPolyline
 90
        8
 70
     0
 43
0.0
 38
62.05
 10
248.499562
 20
92.37965
 10
248.491283
 20
92.225599
 10
248.480002
 20
92.085245
 10
248.466098
 20
91.963338
 10
248.450044
 20
91.864
 10
248.432382
 20
91.790592
 10
248.413709
 20
91.745599
 10
248.394657
 20
91.730541
  0
LWPOLYLINE
  5
42D
100
AcDbEntity
  8
ALPHA
100
AcDbPolyline
 90
        4
 70
     0
 43
0.0
 38
62.05
 10
248.485642
 20
92.879274
 10
248.488754
 20
92.72016
 10
248.487176
 20
92.539362
 10
248.481287
 20
92.380327
  0
LWPOLYLINE
  5
42E
100
AcDbEntity
  8
ALPHA
100
AcDbPolyline
 90
        4
 70
     0
 43
0.0
 38
62.05
 10
248.31938
 20
92.381746
 10
248.316268
 20
92.540853
 10
248.317846
 20
92.721652
 10
248.323734
 20
92.880681
  0
LWPOLYLINE
  5
42F
100
AcDbEntity
  8
ALPHA
100
AcDbPolyline
 90
        5
 70
     0
 43
0.0
 38
62.05
 10
248.305255
 20
92.881365
 10
248.299666
 20
93.035538
 10
248.290835
 20
93.176067
 10
248.279062
 20
93.298199
 10
248.267056
 20
93.381717
  0
LWPOLYLINE
  5
430
100
AcDbEntity
  8
ALPHA
100
AcDbPolyline
 90
        6
 70
     0
 43
0.0
 38
62.05
 10
247.55362
 20
92.887924
 10
247.547047
 20
92.963037
 10
247.538646
 20
93.022761
 10
247.528815
 20
93.064262
 10
247.51802
 20
93.085567
 10
247.508565
 20
93.08707
  0
LWPOLYLINE
  5
431
100
AcDbEntity
  8
ALPHA
100
AcDbPolyline
 90
        6
 70
     0
 43
0.0
 38
62.05
 10
247.463367
 20
92.388693
 10
247.469939
 20
92.313581
 10
247.47834
 20
92.253856
 10
247.488171
 20
92.212356
 10
247.498966
 20
92.19105
 10
247.500733
 20
92.189615
  0
LWPOLYLINE
  5
432
100
AcDbEntity
  8
ALPHA
100
AcDbPolyline
 90
        6
 70
     0
 43
0.0
 38
62.05
 10
247.508565
 20
93.08707
 10
247.506773
 20
93.085666
 10
247.495608
 20
93.064552
 10
247.485054
 20
93.023229
 10
247.475613
 20
92.96366
 10
247.46773
 20
92.888674
  0
LWPOLYLINE
  5
433
100
AcDbEntity
  8
ALPHA
100
AcDbPolyline
 90
        8
 70
     0
 43
0.0
 38
62.05
 10
248.195987
 20
91.732275
 10
248.215038
 20
91.747332
 10
248.233711
 20
91.792326
 10
248.251373
 20
91.865733
 10
248.267428
 20
91.965071
 10
248.281331
 20
92.086979
 10
248.292613
 20
92.227333
 10
248.300891
 20
92.381384
  0
LWPOLYLINE
  5
434
100
AcDbEntity
  8
ALPHA
100
AcDbPolyline
 90
        8
 70
     0
 43
0.0
 38
62.05
 10
248.19474
 20
91.182265
 10
248.176708
 20
91.164871
 10
248.159275
 20
91.11325
 10
248.143314
 20
91.02999
 10
248.129625
 20
90.919266
 10
248.118895
 20
90.78663
 10
248.111662
 20
90.638734
 10
248.108288
 20
90.482993
  0
LWPOLYLINE
  5
435
100
AcDbEntity
  8
ALPHA
100
AcDbPolyline
 90
        3
 70
     0
 43
0.0
 38
62.05
 10
248.423988
 20
91.145605
 10
248.362895
 20
91.166069
 10
248.221718
 20
91.182029
  0
LWPOLYLINE
  5
436
100
AcDbEntity
  8
ALPHA
100
AcDbPolyline
 90
        3
 70
     0
 43
0.0
 38
62.05
 10
248.423926
 20
91.13854
 10
248.327271
 20
91.168253
 10
248.19474
 20
91.182265
  0
LWPOLYLINE
  5
437
100
AcDbEntity
  8
ALPHA
100
AcDbPolyline
 90
        6
 70
     0
 43
0.0
 38
62.05
 10
247.500733
 20
92.189615
 10
247.510213
 20
92.190952
 10
247.521378
 20
92.212066
 10
247.531932
 20
92.253389
 10
247.541374
 20
92.312957
 10
247.549257
 20
92.387943
  0
LWPOLYLINE
  5
438
100
AcDbEntity
  8
ALPHA
100
AcDbPolyline
 90
        6
 70
     0
 43
0.0
 38
62.05
 10
230.10484
 20
104.340628
 10
230.127654
 20
104.291517
 10
230.147386
 20
104.149227
 10
230.162082
 20
103.927783
 10
230.170313
 20
103.649084
 10
230.171293
 20
103.34001
  0
LWPOLYLINE
  5
439
100
AcDbEntity
  8
ALPHA
100
AcDbPolyline
 90
        5
 70
     0
 43
0.0
 38
62.05
 10
209.01552
 20
117.745718
 10
208.977105
 20
117.603339
 10
208.870328
 20
117.40644
 10
208.710028
 20
117.162533
 10
208.509087
 20
116.876112
  0
LWPOLYLINE
  5
43A
100
AcDbEntity
  8
ALPHA
100
AcDbPolyline
 90
        5
 70
     0
 43
0.0
 38
62.05
 10
226.01552
 20
117.745718
 10
226.053936
 20
117.603339
 10
226.160712
 20
117.40644
 10
226.321013
 20
117.162533
 10
226.521953
 20
116.876112
  0
LWPOLYLINE
  5
43B
100
AcDbEntity
  8
ALPHA
100
AcDbPolyline
 90
        5
 70
     0
 43
0.0
 38
62.05
 10
243.81552
 20
117.731117
 10
243.779546
 20
117.586942
 10
243.679138
 20
117.392325
 10
243.52698
 20
117.15404
 10
243.333962
 20
116.876112
  0
LWPOLYLINE
  5
43C
100
AcDbEntity
  8
ALPHA
100
AcDbPolyline
 90
        5
 70
     0
 43
0.0
 38
62.05
 10
171.01552
 20
128.876112
 10
171.002801
 20
128.838052
 10
170.992017
 20
128.729665
 10
170.984812
 20
128.567454
 10
170.982282
 20
128.376112
  0
LWPOLYLINE
  5
43D
100
AcDbEntity
  8
ALPHA
100
AcDbPolyline
 90
        5
 70
     0
 43
0.0
 38
62.05
 10
173.684212
 20
128.376112
 10
173.686595
 20
128.567454
 10
173.693382
 20
128.729665
 10
173.703539
 20
128.838052
 10
173.71552
 20
128.876112
  0
LWPOLYLINE
  5
43E
100
AcDbEntity
  8
ALPHA
100
AcDbPolyline
 90
        5
 70
     0
 43
0.0
 38
62.05
 10
191.71552
 20
128.876112
 10
191.708463
 20
128.838052
 10
191.70248
 20
128.729665
 10
191.698482
 20
128.567454
 10
191.697079
 20
128.376112
  0
LWPOLYLINE
  5
43F
100
AcDbEntity
  8
ALPHA
100
AcDbPolyline
 90
        5
 70
     0
 43
0.0
 38
62.05
 10
208.509087
 20
128.376112
 10
208.509577
 20
128.567454
 10
208.510971
 20
128.729665
 10
208.513058
 20
128.838052
 10
208.51552
 20
128.876112
  0
LWPOLYLINE
  5
440
100
AcDbEntity
  8
ALPHA
100
AcDbPolyline
 90
        5
 70
     0
 43
0.0
 38
62.05
 10
226.51552
 20
128.876112
 10
226.517982
 20
128.838052
 10
226.520069
 20
128.729665
 10
226.521464
 20
128.567454
 10
226.521953
 20
128.376112
  0
LWPOLYLINE
  5
441
100
AcDbEntity
  8
ALPHA
100
AcDbPolyline
 90
        5
 70
     0
 43
0.0
 38
62.05
 10
243.333962
 20
128.376112
 10
243.332558
 20
128.567454
 10
243.328561
 20
128.729665
 10
243.322578
 20
128.838052
 10
243.31552
 20
128.876112
  0
LWPOLYLINE
  5
442
100
AcDbEntity
  8
ALPHA
100
AcDbPolyline
 90
        3
 70
     0
 43
0.0
 38
62.05
 10
268.662707
 20
75.430549
 10
268.620236
 20
73.777754
 10
268.590035
 20
72.559416
  0
LWPOLYLINE
  5
443
100
AcDbEntity
  8
ALPHA
100
AcDbPolyline
 90
        6
 70
     0
 43
0.0
 38
62.05
 10
263.278911
 20
81.149976
 10
263.288165
 20
81.088059
 10
263.316029
 20
81.032179
 10
263.359756
 20
80.987682
 10
263.41514
 20
80.958848
 10
263.476887
 20
80.948515
  0
LWPOLYLINE
  5
444
100
AcDbEntity
  8
ALPHA
100
AcDbPolyline
 90
        5
 70
     0
 43
0.0
 38
62.05
 10
263.572594
 20
81.042566
 10
263.496425
 20
81.058591
 10
263.432077
 20
81.102486
 10
263.389312
 20
81.16759
 10
263.374618
 20
81.244027
  0
LWPOLYLINE
  5
445
100
AcDbEntity
  8
ALPHA
100
AcDbPolyline
 90
        5
 70
     0
 43
0.0
 38
62.05
 10
273.684461
 20
81.154054
 10
273.668435
 20
81.077886
 10
273.624541
 20
81.013537
 10
273.559436
 20
80.970772
 10
273.482999
 20
80.956079
  0
LWPOLYLINE
  5
446
100
AcDbEntity
  8
ALPHA
100
AcDbPolyline
 90
        6
 70
     0
 43
0.0
 38
62.05
 10
273.57705
 20
80.860372
 10
273.638968
 20
80.869626
 10
273.694847
 20
80.897489
 10
273.739344
 20
80.941216
 10
273.768179
 20
80.996601
 10
273.778512
 20
81.058347
  0
LWPOLYLINE
  5
447
100
AcDbEntity
  8
ALPHA
100
AcDbPolyline
 90
        5
 70
     0
 43
0.0
 38
62.05
 10
263.421836
 20
86.654604
 10
263.437861
 20
86.730773
 10
263.481756
 20
86.795121
 10
263.54686
 20
86.837886
 10
263.623297
 20
86.852579
  0
LWPOLYLINE
  5
448
100
AcDbEntity
  8
ALPHA
100
AcDbPolyline
 90
        6
 70
     0
 43
0.0
 38
62.05
 10
263.529246
 20
86.948286
 10
263.467329
 20
86.939033
 10
263.411449
 20
86.911169
 10
263.366952
 20
86.867442
 10
263.338118
 20
86.812058
 10
263.327785
 20
86.750311
  0
LWPOLYLINE
  5
449
100
AcDbEntity
  8
ALPHA
100
AcDbPolyline
 90
        5
 70
     0
 43
0.0
 38
62.05
 10
266.63509
 20
90.495141
 10
266.711308
 20
90.48646
 10
266.928019
 20
90.481754
 10
267.252259
 20
90.481739
 10
267.634709
 20
90.486418
  0
LWPOLYLINE
  5
44A
100
AcDbEntity
  8
ALPHA
100
AcDbPolyline
 90
        6
 70
     0
 43
0.0
 38
62.05
 10
273.827385
 20
86.658682
 10
273.818132
 20
86.7206
 10
273.790268
 20
86.776479
 10
273.746541
 20
86.820976
 10
273.691156
 20
86.849811
 10
273.62941
 20
86.860144
  0
LWPOLYLINE
  5
44B
100
AcDbEntity
  8
ALPHA
100
AcDbPolyline
 90
        5
 70
     0
 43
0.0
 38
62.05
 10
273.533703
 20
86.766093
 10
273.609871
 20
86.750067
 10
273.67422
 20
86.706173
 10
273.716985
 20
86.641068
 10
273.731678
 20
86.564631
  0
LWPOLYLINE
  5
44C
100
AcDbEntity
  8
ALPHA
100
AcDbPolyline
 90
        6
 70
     0
 43
0.0
 38
62.05
 10
273.810993
 20
90.432518
 10
274.119955
 20
90.431235
 10
274.39866
 20
90.427517
 10
274.619835
 20
90.421726
 10
274.761835
 20
90.41443
 10
274.810764
 20
90.406342
  0
LWPOLYLINE
  5
44D
100
AcDbEntity
  8
ALPHA
100
AcDbPolyline
 90
        8
 70
     0
 43
0.0
 38
62.05
 10
267.351117
 20
108.376112
 10
266.620565
 20
108.457875
 10
265.919465
 20
108.702343
 10
265.290831
 20
109.097104
 10
264.76634
 20
109.622221
 10
264.373019
 20
110.250069
 10
264.129936
 20
110.948925
 10
264.048758
 20
111.676112
  0
LWPOLYLINE
  5
44E
100
AcDbEntity
  8
ALPHA
100
AcDbPolyline
 90
        7
 70
     0
 43
0.0
 38
62.05
 10
266.415946
 20
103.049886
 10
266.446007
 20
103.055209
 10
266.543149
 20
103.058216
 10
266.708497
 20
103.058163
 10
266.92703
 20
103.054866
 10
267.171712
 20
103.048876
 10
267.415565
 20
103.041162
  0
LWPOLYLINE
  5
44F
100
AcDbEntity
  8
ALPHA
100
AcDbPolyline
 90
        5
 70
     0
 43
0.0
 38
62.05
 10
267.31552
 20
108.876112
 10
267.329143
 20
108.838052
 10
267.340691
 20
108.729665
 10
267.348408
 20
108.567454
 10
267.351117
 20
108.376112
  0
LWPOLYLINE
  5
450
100
AcDbEntity
  8
ALPHA
100
AcDbPolyline
 90
        5
 70
     0
 43
0.0
 38
62.05
 10
274.810764
 20
102.959174
 10
274.734666
 20
102.96919
 10
274.517952
 20
102.977681
 10
274.193606
 20
102.983356
 10
273.810993
 20
102.98535
  0
LWPOLYLINE
  5
451
100
AcDbEntity
  8
ALPHA
100
AcDbPolyline
 90
        5
 70
     0
 43
0.0
 38
62.05
 10
272.054477
 20
108.376112
 10
272.051511
 20
108.567454
 10
272.043067
 20
108.729665
 10
272.030428
 20
108.838052
 10
272.01552
 20
108.876112
  0
LWPOLYLINE
  5
452
100
AcDbEntity
  8
ALPHA
100
AcDbPolyline
 90
        6
 70
     0
 43
0.0
 38
62.05
 10
260.81552
 20
117.759379
 10
260.841959
 20
117.652191
 10
260.91686
 20
117.506417
 10
261.031374
 20
117.326403
 10
261.1772
 20
117.115586
 10
261.346828
 20
116.876112
  0
LWPOLYLINE
  5
453
100
AcDbEntity
  8
ALPHA
100
AcDbPolyline
 90
        5
 70
     0
 43
0.0
 38
62.05
 10
261.31552
 20
128.876112
 10
261.327501
 20
128.838052
 10
261.337658
 20
128.729665
 10
261.344445
 20
128.567454
 10
261.346828
 20
128.376112
  0
LWPOLYLINE
  5
454
100
AcDbEntity
  8
ALPHA
100
AcDbPolyline
 90
        5
 70
     0
 43
0.0
 38
62.05
 10
264.048758
 20
128.376112
 10
264.046228
 20
128.567454
 10
264.039023
 20
128.729665
 10
264.02824
 20
128.838052
 10
264.01552
 20
128.876112
  0
INSERT
  5
497
100
AcDbEntity
  8
ALPHA
100
AcDbBlockReference
  2
SCH_ISO
 10
0.0
 20
0.0
 30
0.0
  0
ENDSEC
  0
SECTION
  2
OBJECTS
  0
DICTIONARY
  5
6C6
100
AcDbDictionary
  3
ACAD_GROUP
350
6C7
  3
ACAD_MLINESTYLE
350
6D4
  3
ACDBVARIABLEDICTIONARY
350
715
  0
DICTIONARY
  5
6C7
102
{ACAD_REACTORS
330
6C6
102
}
100
AcDbDictionary
  0
DICTIONARY
  5
6D4
102
{ACAD_REACTORS
330
6C6
102
}
100
AcDbDictionary
  3
STANDARD
350
6D5
  0
DICTIONARY
  5
715
102
{ACAD_REACTORS
330
6C6
102
}
100
AcDbDictionary
  3
DIMADEC
350
716
  0
MLINESTYLE
  5
6D5
102
{ACAD_REACTORS
330
6D4
102
}
100
AcDbMlineStyle
  2
STANDARD
 70
     0
  3

 62
   256
 51
90.0
 52
90.0
 71
     2
 49
0.5
 62
   256
  6
BYLAYER
 49
-0.5
 62
   256
  6
BYLAYER
  0
DICTIONARYVAR
  5
716
102
{ACAD_REACTORS
330
715
102
}
100
DictionaryVariables
280
     0
  1
0
  0
ENDSEC
  0
EOF
