  0
SECTION
  2
HEADER
  9
$ACADVER
  1
AC1014
  9
$ACADMAINTVER
 70
     0
  9
$DWGCODEPAGE
  3
ANSI_1252
  9
$INSBASE
 10
93.894301
 20
236.06014
 30
0.0
  9
$EXTMIN
 10
-27.333367
 20
-22.125274
 30
0.0
  9
$EXTMAX
 10
325.323779
 20
305.046201
 30
0.0
  9
$LIMMIN
 10
0.0
 20
0.0
  9
$LIMMAX
 10
210.0
 20
297.0
  9
$ORTHOMODE
 70
     0
  9
$REGENMODE
 70
     1
  9
$FILLMODE
 70
     1
  9
$QTEXTMODE
 70
     0
  9
$MIRRTEXT
 70
     0
  9
$DRAGMODE
 70
     1
  9
$LTSCALE
 40
7.0
  9
$OSMODE
 70
  4095
  9
$ATTMODE
 70
     1
  9
$TEXTSIZE
 40
2.5
  9
$TRACEWID
 40
0.05
  9
$TEXTSTYLE
  7
STANDARD
  9
$CLAYER
  8
COTATION1
  9
$CELTYPE
  6
BYLAYER
  9
$CECOLOR
 62
   256
  9
$CELTSCALE
 40
1.0
  9
$DELOBJ
 70
     1
  9
$DISPSILH
 70
     0
  9
$DIMSCALE
 40
1.0
  9
$DIMASZ
 40
3.0
  9
$DIMEXO
 40
0.0625
  9
$DIMDLI
 40
0.38
  9
$DIMRND
 40
0.01
  9
$DIMDLE
 40
0.0
  9
$DIMEXE
 40
0.18
  9
$DIMTP
 40
0.0
  9
$DIMTM
 40
0.0
  9
$DIMTXT
 40
2.5
  9
$DIMCEN
 40
0.09
  9
$DIMTSZ
 40
0.0
  9
$DIMTOL
 70
     0
  9
$DIMLIM
 70
     0
  9
$DIMTIH
 70
     0
  9
$DIMTOH
 70
     0
  9
$DIMSE1
 70
     0
  9
$DIMSE2
 70
     0
  9
$DIMTAD
 70
     1
  9
$DIMZIN
 70
    12
  9
$DIMBLK
  1

  9
$DIMASO
 70
     1
  9
$DIMSHO
 70
     0
  9
$DIMPOST
  1

  9
$DIMAPOST
  1

  9
$DIMALT
 70
     0
  9
$DIMALTD
 70
     2
  9
$DIMALTF
 40
25.4
  9
$DIMLFAC
 40
1.0
  9
$DIMTOFL
 70
     1
  9
$DIMTVP
 40
0.0
  9
$DIMTIX
 70
     0
  9
$DIMSOXD
 70
     0
  9
$DIMSAH
 70
     0
  9
$DIMBLK1
  1

  9
$DIMBLK2
  1

  9
$DIMSTYLE
  2
SC_STAND
  9
$DIMCLRD
 70
     0
  9
$DIMCLRE
 70
     0
  9
$DIMCLRT
 70
     0
  9
$DIMTFAC
 40
1.0
  9
$DIMGAP
 40
1.0
  9
$DIMJUST
 70
     0
  9
$DIMSD1
 70
     0
  9
$DIMSD2
 70
     0
  9
$DIMTOLJ
 70
     1
  9
$DIMTZIN
 70
    12
  9
$DIMALTZ
 70
    12
  9
$DIMALTTZ
 70
    12
  9
$DIMFIT
 70
     5
  9
$DIMUPT
 70
     0
  9
$DIMUNIT
 70
     2
  9
$DIMDEC
 70
     3
  9
$DIMTDEC
 70
     3
  9
$DIMALTU
 70
     2
  9
$DIMALTTD
 70
     2
  9
$DIMTXSTY
  7
STANDARD
  9
$DIMAUNIT
 70
     0
  9
$LUNITS
 70
     2
  9
$LUPREC
 70
     3
  9
$SKETCHINC
 40
0.1
  9
$FILLETRAD
 40
0.0625
  9
$AUNITS
 70
     0
  9
$AUPREC
 70
     0
  9
$MENU
  1
ACAD
  9
$ELEVATION
 40
0.0
  9
$PELEVATION
 40
0.0
  9
$THICKNESS
 40
0.0
  9
$LIMCHECK
 70
     0
  9
$BLIPMODE
 70
     1
  9
$CHAMFERA
 40
0.0
  9
$CHAMFERB
 40
0.0
  9
$CHAMFERC
 40
0.0
  9
$CHAMFERD
 40
0.0
  9
$SKPOLY
 70
     0
  9
$TDCREATE
 40
2450953.590960648
  9
$TDUPDATE
 40
2453950.722808715
  9
$TDINDWG
 40
0.0105561921
  9
$TDUSRTIMER
 40
0.0105561921
  9
$USRTIMER
 70
     1
  9
$ANGBASE
 50
0.0
  9
$ANGDIR
 70
     0
  9
$PDMODE
 70
     0
  9
$PDSIZE
 40
0.0
  9
$PLINEWID
 40
0.0
  9
$COORDS
 70
     0
  9
$SPLFRAME
 70
     0
  9
$SPLINETYPE
 70
     6
  9
$SPLINESEGS
 70
     8
  9
$ATTDIA
 70
     0
  9
$ATTREQ
 70
     1
  9
$HANDLING
 70
     1
  9
$HANDSEED
  5
1D02
  9
$SURFTAB1
 70
     6
  9
$SURFTAB2
 70
     6
  9
$SURFTYPE
 70
     6
  9
$SURFU
 70
     6
  9
$SURFV
 70
     6
  9
$UCSNAME
  2

  9
$UCSORG
 10
0.0
 20
0.0
 30
0.0
  9
$UCSXDIR
 10
1.0
 20
0.0
 30
0.0
  9
$UCSYDIR
 10
0.0
 20
1.0
 30
0.0
  9
$PUCSNAME
  2

  9
$PUCSORG
 10
0.0
 20
0.0
 30
0.0
  9
$PUCSXDIR
 10
1.0
 20
0.0
 30
0.0
  9
$PUCSYDIR
 10
0.0
 20
1.0
 30
0.0
  9
$USERI1
 70
     0
  9
$USERI2
 70
     0
  9
$USERI3
 70
     0
  9
$USERI4
 70
     0
  9
$USERI5
 70
     0
  9
$USERR1
 40
0.0
  9
$USERR2
 40
0.0
  9
$USERR3
 40
0.0
  9
$USERR4
 40
0.0
  9
$USERR5
 40
0.0
  9
$WORLDVIEW
 70
     1
  9
$SHADEDGE
 70
     3
  9
$SHADEDIF
 70
    70
  9
$TILEMODE
 70
     1
  9
$MAXACTVP
 70
    32
  9
$PINSBASE
 10
0.0
 20
0.0
 30
0.0
  9
$PLIMCHECK
 70
     0
  9
$PEXTMIN
 10
-3.174999
 20
-3.175
 30
0.0
  9
$PEXTMAX
 10
203.812116
 20
370.276807
 30
0.0
  9
$PLIMMIN
 10
-3.175
 20
-3.175
  9
$PLIMMAX
 10
203.812115
 20
370.276807
  9
$UNITMODE
 70
     0
  9
$VISRETAIN
 70
     0
  9
$PLINEGEN
 70
     0
  9
$PSLTSCALE
 70
     1
  9
$TREEDEPTH
 70
  3020
  9
$PICKSTYLE
 70
     1
  9
$CMLSTYLE
  2
STANDARD
  9
$CMLJUST
 70
     0
  9
$CMLSCALE
 40
1.0
  9
$PROXYGRAPHICS
 70
     1
  9
$MEASUREMENT
 70
     0
  0
ENDSEC
  0
SECTION
  2
CLASSES
  0
CLASS
  1
DICTIONARYVAR
  2
AcDbDictionaryVar
  3
"AutoCAD"
 90
        0
280
     0
281
     0
  0
CLASS
  1
HATCH
  2
AcDbHatch
  3
"ACAD_SEDONA"
 90
        0
280
     0
281
     1
  0
ENDSEC
  0
SECTION
  2
TABLES
  0
TABLE
  2
VPORT
  5
F4
100
AcDbSymbolTable
 70
     2
  0
VPORT
  5
1D01
100
AcDbSymbolTableRecord
100
AcDbViewportTableRecord
  2
*ACTIVE
 70
     0
 10
0.0
 20
0.0
 11
1.0
 21
1.0
 12
148.99509
 22
141.456705
 13
0.0
 23
0.0
 14
1.0
 24
1.0
 15
10.0
 25
10.0
 16
0.0
 26
0.0
 36
1.0
 17
0.0
 27
0.0
 37
0.0
 40
331.039463
 41
1.966667
 42
50.0
 43
0.0
 44
0.0
 50
0.0
 51
0.0
 71
     0
 72
   100
 73
     1
 74
     1
 75
     0
 76
     1
 77
     0
 78
     0
  0
ENDTAB
  0
TABLE
  2
LTYPE
  5
F1
100
AcDbSymbolTable
 70
     5
  0
LTYPE
  5
FD
100
AcDbSymbolTableRecord
100
AcDbLinetypeTableRecord
  2
BYBLOCK
 70
     0
  3

 72
    65
 73
     0
 40
0.0
  0
LTYPE
  5
FE
100
AcDbSymbolTableRecord
100
AcDbLinetypeTableRecord
  2
BYLAYER
 70
     0
  3

 72
    65
 73
     0
 40
0.0
  0
LTYPE
  5
FF
100
AcDbSymbolTableRecord
100
AcDbLinetypeTableRecord
  2
CONTINUOUS
 70
     0
  3
Solid line
 72
    65
 73
     0
 40
0.0
  0
LTYPE
  5
112
100
AcDbSymbolTableRecord
100
AcDbLinetypeTableRecord
  2
AXES2
 70
     0
  3
___ _ ___ _ ___ _ ___ _ ___ _ ___ _ ___ _ ___ _
 72
    65
 73
     4
 40
1.125
 49
0.75
 74
     0
 49
-0.125
 74
     0
 49
0.125
 74
     0
 49
-0.125
 74
     0
  0
LTYPE
  5
120
100
AcDbSymbolTableRecord
100
AcDbLinetypeTableRecord
  2
CACHE2
 70
     0
  3
_ _ _ _ _ _ _ _ _ _ _ _ _ _ _ _ _ _ _ _ _ _ _ _
 72
    65
 73
     2
 40
0.1875
 49
0.125
 74
     0
 49
-0.0625
 74
     0
  0
ENDTAB
  0
TABLE
  2
LAYER
  5
EE
100
AcDbSymbolTable
 70
     7
  0
LAYER
  5
FA
100
AcDbSymbolTableRecord
100
AcDbLayerTableRecord
  2
0
 70
     0
 62
     7
  6
CONTINUOUS
  0
LAYER
  5
12C
100
AcDbSymbolTableRecord
100
AcDbLayerTableRecord
  2
ALPHA
 70
     0
 62
   255
  6
CONTINUOUS
  0
LAYER
  5
12D
100
AcDbSymbolTableRecord
100
AcDbLayerTableRecord
  2
AXE
 70
     0
 62
    80
  6
AXES2
  0
LAYER
  5
12F
100
AcDbSymbolTableRecord
100
AcDbLayerTableRecord
  2
COTATION1
 70
     0
 62
     2
  6
CONTINUOUS
  0
LAYER
  5
13B
100
AcDbSymbolTableRecord
100
AcDbLayerTableRecord
  2
ASHADE
 70
     0
 62
     7
  6
CONTINUOUS
  0
LAYER
  5
13C
100
AcDbSymbolTableRecord
100
AcDbLayerTableRecord
  2
POINTILLE_COURT
 70
     0
 62
    40
  6
CACHE2
  0
LAYER
  5
13E
100
AcDbSymbolTableRecord
100
AcDbLayerTableRecord
  2
DEFPOINTS
 70
     0
 62
     7
  6
CONTINUOUS
  0
ENDTAB
  0
TABLE
  2
STYLE
  5
EF
100
AcDbSymbolTable
 70
     2
  0
STYLE
  5
FB
100
AcDbSymbolTableRecord
100
AcDbTextStyleTableRecord
  2
STANDARD
 70
     0
 40
0.0
 41
1.0
 50
0.0
 71
     0
 42
2.5
  3
txt
  4

  0
ENDTAB
  0
TABLE
  2
VIEW
  5
F2
100
AcDbSymbolTable
 70
     0
  0
ENDTAB
  0
TABLE
  2
UCS
  5
F3
100
AcDbSymbolTable
 70
     0
  0
ENDTAB
  0
TABLE
  2
APPID
  5
F5
100
AcDbSymbolTable
 70
     3
  0
APPID
  5
FC
100
AcDbSymbolTableRecord
100
AcDbRegAppTableRecord
  2
ACAD
 70
     0
  0
APPID
  5
127
100
AcDbSymbolTableRecord
100
AcDbRegAppTableRecord
  2
AVE_RENDER
 70
     0
  0
APPID
  5
128
100
AcDbSymbolTableRecord
100
AcDbRegAppTableRecord
  2
AVE_MATERIAL
 70
     0
  0
ENDTAB
  0
TABLE
  2
DIMSTYLE
  5
F6
100
AcDbSymbolTable
 70
     2
  0
DIMSTYLE
105
129
100
AcDbSymbolTableRecord
100
AcDbDimStyleTableRecord
  2
STANDARD
 70
     0
  3

  4

  5

  6

  7

 40
1.0
 41
0.18
 42
0.0625
 43
0.38
 44
0.18
 45
0.0
 46
0.0
 47
0.0
 48
0.0
140
0.18
141
0.09
142
0.0
143
25.4
144
1.0
145
0.0
146
1.0
147
0.09
 71
     0
 72
     0
 73
     1
 74
     1
 75
     0
 76
     0
 77
     0
 78
     0
170
     0
171
     2
172
     0
173
     0
174
     0
175
     0
176
     0
177
     0
178
     0
270
     2
271
     3
272
     3
273
     2
274
     2
340
FB
275
     0
280
     0
281
     0
282
     0
283
     1
284
    12
285
    12
286
    12
287
     5
288
     0
  0
DIMSTYLE
105
12A
102
{ACAD_REACTORS
330
1B47
330
1B5F
330
1B77
330
1B8F
330
1BBD
330
1BCA
330
1BE2
330
1BFA
330
1C14
330
1C21
330
1C67
330
1CF8
102
}
100
AcDbSymbolTableRecord
100
AcDbDimStyleTableRecord
  2
SC_STAND
 70
     0
  3

  4

  5

  6

  7

 40
1.0
 41
3.0
 42
0.0625
 43
0.38
 44
0.18
 45
0.01
 46
0.0
 47
0.0
 48
0.0
140
2.5
141
0.09
142
0.0
143
25.4
144
1.0
145
0.0
146
1.0
147
1.0
 71
     0
 72
     0
 73
     0
 74
     0
 75
     0
 76
     0
 77
     1
 78
    12
170
     0
171
     2
172
     1
173
     0
174
     0
175
     0
176
     0
177
     0
178
     0
270
     2
271
     3
272
     3
273
     2
274
     2
340
FB
275
     0
280
     0
281
     0
282
     0
283
     1
284
    12
285
    12
286
    12
287
     5
288
     0
  0
ENDTAB
  0
TABLE
  2
BLOCK_RECORD
  5
ED
100
AcDbSymbolTable
 70
    19
  0
BLOCK_RECORD
  5
103
100
AcDbSymbolTableRecord
100
AcDbBlockTableRecord
  2
*MODEL_SPACE
  0
BLOCK_RECORD
  5
100
100
AcDbSymbolTableRecord
100
AcDbBlockTableRecord
  2
*PAPER_SPACE
  0
BLOCK_RECORD
  5
108
100
AcDbSymbolTableRecord
100
AcDbBlockTableRecord
  2
AVE_RENDER
  0
BLOCK_RECORD
  5
109
100
AcDbSymbolTableRecord
100
AcDbBlockTableRecord
  2
AVE_GLOBAL
  0
BLOCK_RECORD
  5
10A
100
AcDbSymbolTableRecord
100
AcDbBlockTableRecord
  2
SCH_IS
  0
BLOCK_RECORD
  5
1B3B
100
AcDbSymbolTableRecord
100
AcDbBlockTableRecord
  2
*D7
  0
BLOCK_RECORD
  5
1B53
100
AcDbSymbolTableRecord
100
AcDbBlockTableRecord
  2
*D8
  0
BLOCK_RECORD
  5
1B6B
100
AcDbSymbolTableRecord
100
AcDbBlockTableRecord
  2
*D9
  0
BLOCK_RECORD
  5
1B83
100
AcDbSymbolTableRecord
100
AcDbBlockTableRecord
  2
*D10
  0
BLOCK_RECORD
  5
1BB1
100
AcDbSymbolTableRecord
100
AcDbBlockTableRecord
  2
*D11
  0
BLOCK_RECORD
  5
1BBE
100
AcDbSymbolTableRecord
100
AcDbBlockTableRecord
  2
*D12
  0
BLOCK_RECORD
  5
1BD6
100
AcDbSymbolTableRecord
100
AcDbBlockTableRecord
  2
*D13
  0
BLOCK_RECORD
  5
1BEE
100
AcDbSymbolTableRecord
100
AcDbBlockTableRecord
  2
*D14
  0
BLOCK_RECORD
  5
1C08
100
AcDbSymbolTableRecord
100
AcDbBlockTableRecord
  2
*D15
  0
BLOCK_RECORD
  5
1C15
100
AcDbSymbolTableRecord
100
AcDbBlockTableRecord
  2
*D16
  0
BLOCK_RECORD
  5
1C5B
100
AcDbSymbolTableRecord
100
AcDbBlockTableRecord
  2
*D17
  0
BLOCK_RECORD
  5
1CEC
100
AcDbSymbolTableRecord
100
AcDbBlockTableRecord
  2
*D18
  0
ENDTAB
  0
ENDSEC
  0
SECTION
  2
BLOCKS
  0
BLOCK
  5
141
100
AcDbEntity
  8
0
100
AcDbBlockBegin
  2
*MODEL_SPACE
 70
     0
 10
0.0
 20
0.0
 30
0.0
  3
*MODEL_SPACE
  1

  0
ENDBLK
  5
142
100
AcDbEntity
  8
0
100
AcDbBlockEnd
  0
BLOCK
  5
13F
100
AcDbEntity
 67
     1
  8
0
100
AcDbBlockBegin
  2
*PAPER_SPACE
 70
     0
 10
0.0
 20
0.0
 30
0.0
  3
*PAPER_SPACE
  1

  0
ENDBLK
  5
140
100
AcDbEntity
 67
     1
  8
0
100
AcDbBlockEnd
  0
BLOCK
  5
8D
100
AcDbEntity
  8
0
100
AcDbBlockBegin
  2
AVE_RENDER
 70
     0
 10
0.0
 20
0.0
 30
0.0
  3
AVE_RENDER
  1
AVE_RENDER
  0
ENDBLK
  5
8E
100
AcDbEntity
  8
0
100
AcDbBlockEnd
  0
BLOCK
  5
90
100
AcDbEntity
  8
0
100
AcDbBlockBegin
  2
AVE_GLOBAL
 70
     0
 10
0.0
 20
0.0
 30
0.0
  3
AVE_GLOBAL
  1
AVE_GLOBAL
  0
ENDBLK
  5
91
100
AcDbEntity
  8
0
100
AcDbBlockEnd
  0
BLOCK
  5
C9
100
AcDbEntity
  8
0
100
AcDbBlockBegin
  2
SCH_IS
 70
     0
 10
0.0
 20
0.0
 30
0.0
  3
SCH_IS
  1

  0
INSERT
  5
C0
100
AcDbEntity
  8
ASHADE
 62
     1
100
AcDbBlockReference
  2
AVE_RENDER
 10
0.0
 20
0.0
 30
0.0
1001
AVE_RENDER
1002
{
1070
     6
1000
Pref
1070
    50
1070
    20
1070
     1
1070
     0
1000

1070
    10
1070
     1
1070
    30
1040
25.4
1070
     1
1040
0.3
1040
0.7
1040
0.0
1040
10.0
1010
-1.0
1020
-1.0
1030
-1.0
1040
0.3
1070
    49
1070
     0
1070
     0
1010
1.0
1020
1.0
1030
1.0
1040
45.0
1070
     1
1070
     0
1000
WCS
1040
0.0
1002
}
  0
INSERT
  5
C1
100
AcDbEntity
  8
ASHADE
 62
     3
100
AcDbBlockReference
  2
AVE_RENDER
 10
0.0
 20
0.0
 30
0.0
1001
AVE_RENDER
1002
{
1070
     0
1000
Full Opt
1070
     0
1070
     1
1070
     1
1070
     1
1070
     0
1070
     0
1070
     0
1070
     1
1070
     1
1040
0.0001
1040
0.0001
1002
}
  0
INSERT
  5
C2
100
AcDbEntity
  8
ASHADE
 62
     4
100
AcDbBlockReference
  2
AVE_RENDER
 10
0.0
 20
0.0
 30
0.0
1001
AVE_RENDER
1002
{
1070
     0
1000
Quick Opt
1070
     0
1070
     1
1070
     1
1070
     1
1070
     0
1070
     0
1070
     1
1002
}
  0
INSERT
  5
C3
100
AcDbEntity
  8
ASHADE
 62
     5
100
AcDbBlockReference
  2
AVE_RENDER
 10
0.0
 20
0.0
 30
0.0
1001
AVE_RENDER
1002
{
1070
     1
1000
Scanl Opt
1070
     2
1070
     0
1070
     2
1040
2.0
1040
4.0
1070
     0
1070
     1
1070
     0
1040
0.03
1002
}
  0
INSERT
  5
C4
100
AcDbEntity
  8
ASHADE
 62
     6
100
AcDbBlockReference
  2
AVE_RENDER
 10
0.0
 20
0.0
 30
0.0
1001
AVE_RENDER
1002
{
1070
     2
1000
Raytr Opt
1070
     2
1070
     0
1070
     2
1040
2.0
1040
4.0
1070
     0
1070
     1
1070
     1
1040
0.03
1070
     3
1040
0.03
1002
}
  0
INSERT
  5
C5
100
AcDbEntity
  8
ASHADE
 62
     7
100
AcDbBlockReference
  2
AVE_RENDER
 10
0.0
 20
0.0
 30
0.0
1001
AVE_RENDER
1002
{
1070
     0
1000
RFile Opt
1070
     5
1070
   640
1070
   480
1070
 10000
1070
     3
1070
    32
1070
    24
1070
     0
1070
     0
1070
     0
1070
     1
1070
     0
1070
     0
1070
     0
1002
}
  0
INSERT
  5
C6
100
AcDbEntity
  8
ASHADE
 62
     8
100
AcDbBlockReference
  2
AVE_RENDER
 10
0.0
 20
0.0
 30
0.0
1001
AVE_RENDER
1002
{
1070
     0
1000
Fog Opt
1070
     0
1070
     0
1040
0.0
1040
1.0
1040
0.0
1040
1.0
1010
0.5
1020
0.5
1030
0.5
1002
}
  0
INSERT
  5
C7
100
AcDbEntity
  8
ASHADE
 62
     9
100
AcDbBlockReference
  2
AVE_RENDER
 10
0.0
 20
0.0
 30
0.0
1001
AVE_RENDER
1002
{
1070
     0
1000
BG Opt
1070
     0
1070
     1
1010
0.0
1020
0.0
1030
0.0
1010
1.0
1020
0.0
1030
0.0
1010
0.0
1020
1.0
1030
0.0
1010
0.0
1020
0.0
1030
1.0
1040
0.5
1040
0.33
1040
0.0
1000

1070
     1
1000

1070
     1
1070
     1
1040
1.0
1040
1.0
1040
0.0
1040
0.0
1070
     0
1002
}
  0
INSERT
  5
C8
100
AcDbEntity
  8
ASHADE
 62
     1
100
AcDbBlockReference
  2
AVE_GLOBAL
 10
0.0
 20
0.0
 30
0.0
1001
AVE_MATERIAL
1002
{
1000
*GLOBAL*
1000
1
1000
Finition globale.
1002
{
1002
}
1002
{
1070
    63
1002
{
1002
{
1010
-1.0
1020
-1.0
1030
-1.0
1002
}
1040
0.1
1000

1040
0.0
1002
{
1002
}
1040
0.0
1002
{
1002
}
1040
0.0
1002
}
1002
{
1002
{
1010
-1.0
1020
-1.0
1030
-1.0
1002
}
1040
0.7
1000

1040
0.0
1002
{
1002
}
1040
0.0
1002
{
1002
}
1040
0.0
1002
}
1002
{
1002
{
1010
-1.0
1020
-1.0
1030
-1.0
1002
}
1040
0.2
1000

1040
0.0
1002
{
1002
}
1040
0.0
1002
{
1002
}
1040
0.0
1002
}
1002
{
1070
     0
1002
{
1070
     1
1002
{
1040
1.0
1040
1.0
1000

1040
0.0
1002
{
1002
}
1040
0.0
1002
{
1002
}
1040
0.0
1002
}
1002
}
1040
1.0
1040
0.0
1040
0.0
1002
}
1002
{
1040
1.0
1040
1.0
1000

1040
0.0
1002
{
1002
}
1040
0.0
1002
{
1002
}
1040
0.0
1002
}
1002
{
1040
0.5
1040
1.0
1000

1040
0.0
1002
{
1002
}
1040
0.0
1002
{
1002
}
1040
0.0
1002
}
1002
{
1070
     0
1040
0.0
1002
{
1002
}
1040
1.0
1002
{
1002
}
1040
0.0
1002
}
1002
{
1040
0.0
1002
{
1002
{
1010
0.0
1020
0.0
1030
0.0
1002
}
1040
1.0
1000

1040
0.0
1002
{
1002
}
1040
0.0
1002
{
1002
}
1040
0.0
1002
}
1002
}
1002
{
1002
{
1070
     1
1002
{
1040
0.0
1040
1.0
1000

1040
0.0
1002
{
1002
}
1040
0.0
1002
{
1002
}
1040
0.0
1002
}
1002
}
1040
0.0
1002
{
1002
}
1010
1.0
1020
0.0
1030
0.0
1010
0.0
1020
1.0
1030
0.0
1010
0.0
1020
0.0
1030
1.0
1070
     0
1002
}
1002
{
1002
{
1040
1.0
1040
1.0
1002
{
1070
     1
1002
{
1040
1.0
1040
1.0
1000

1040
0.0
1002
{
1002
}
1040
0.0
1002
{
1002
}
1040
0.0
1002
}
1002
}
1002
}
1070
     0
1040
0.0
1002
{
1002
}
1002
}
1002
{
1002
}
1002
}
1002
{
1071
        3
1070
     3
1070
     0
1002
{
1070
     2
1070
     0
1070
     0
1040
0.0
1002
}
1070
     0
1070
     2
1002
{
1002
}
1002
}
1002
{
1040
8030.0
1040
190.300003
1040
0.305
1040
228.0
1040
545.0
1040
14.0
1040
17.4
1040
0.456
1002
}
1002
}
  0
ENDBLK
  5
CA
100
AcDbEntity
  8
0
100
AcDbBlockEnd
  0
BLOCK
  5
1B48
100
AcDbEntity
  8
0
100
AcDbBlockBegin
  2
*D7
 70
     1
 10
0.0
 20
0.0
 30
0.0
  3
*D7
  1

  0
LINE
  5
1B49
100
AcDbEntity
  8
0
  6
BYBLOCK
 62
     0
100
AcDbLine
 10
2.463582
 20
193.55122
 30
0.0
 11
2.463582
 21
-7.909985
 31
0.0
  0
LINE
  5
1B4A
100
AcDbEntity
  8
0
  6
BYBLOCK
 62
     0
100
AcDbLine
 10
62.463638
 20
4.55483
 30
0.0
 11
62.463638
 21
-7.909985
 31
0.0
  0
LINE
  5
1B4B
100
AcDbEntity
  8
0
  6
BYBLOCK
 62
     0
100
AcDbLine
 10
5.463582
 20
-7.729985
 30
0.0
 11
59.463638
 21
-7.729985
 31
0.0
  0
SOLID
  5
1B4C
100
AcDbEntity
  8
0
  6
BYBLOCK
 62
     0
100
AcDbTrace
 10
5.463582
 20
-7.229985
 30
0.0
 11
5.463582
 21
-8.229985
 31
0.0
 12
2.463582
 22
-7.729985
 32
0.0
 13
2.463582
 23
-7.729985
 33
0.0
  0
SOLID
  5
1B4D
100
AcDbEntity
  8
0
  6
BYBLOCK
 62
     0
100
AcDbTrace
 10
59.463638
 20
-7.229985
 30
0.0
 11
59.463638
 21
-8.229985
 31
0.0
 12
62.463638
 22
-7.729985
 32
0.0
 13
62.463638
 23
-7.729985
 33
0.0
  0
MTEXT
  5
1B4E
100
AcDbEntity
  8
0
  6
BYBLOCK
 62
     0
100
AcDbMText
 10
32.46361
 20
-5.479985
 30
0.0
 40
2.5
 41
0.0
 71
     5
 72
     1
  1
\A1;60
  0
POINT
  5
1B4F
100
AcDbEntity
  8
DEFPOINTS
  6
BYBLOCK
 62
     0
100
AcDbPoint
 10
2.463582
 20
193.61372
 30
0.0
  0
POINT
  5
1B50
100
AcDbEntity
  8
DEFPOINTS
  6
BYBLOCK
 62
     0
100
AcDbPoint
 10
62.463638
 20
4.61733
 30
0.0
  0
POINT
  5
1B51
100
AcDbEntity
  8
DEFPOINTS
  6
BYBLOCK
 62
     0
100
AcDbPoint
 10
62.463638
 20
-7.729985
 30
0.0
  0
ENDBLK
  5
1B52
100
AcDbEntity
  8
0
100
AcDbBlockEnd
  0
BLOCK
  5
1B60
100
AcDbEntity
  8
0
100
AcDbBlockBegin
  2
*D8
 70
     1
 10
0.0
 20
0.0
 30
0.0
  3
*D8
  1

  0
LINE
  5
1B61
100
AcDbEntity
  8
0
  6
BYBLOCK
 62
     0
100
AcDbLine
 10
62.463638
 20
-1.740078
 30
0.0
 11
62.463638
 21
-7.909985
 31
0.0
  0
LINE
  5
1B62
100
AcDbEntity
  8
0
  6
BYBLOCK
 62
     0
100
AcDbLine
 10
142.463654
 20
4.026862
 30
0.0
 11
142.463654
 21
-7.909985
 31
0.0
  0
LINE
  5
1B63
100
AcDbEntity
  8
0
  6
BYBLOCK
 62
     0
100
AcDbLine
 10
65.463638
 20
-7.729985
 30
0.0
 11
139.463654
 21
-7.729985
 31
0.0
  0
SOLID
  5
1B64
100
AcDbEntity
  8
0
  6
BYBLOCK
 62
     0
100
AcDbTrace
 10
65.463638
 20
-7.229985
 30
0.0
 11
65.463638
 21
-8.229985
 31
0.0
 12
62.463638
 22
-7.729985
 32
0.0
 13
62.463638
 23
-7.729985
 33
0.0
  0
SOLID
  5
1B65
100
AcDbEntity
  8
0
  6
BYBLOCK
 62
     0
100
AcDbTrace
 10
139.463654
 20
-7.229985
 30
0.0
 11
139.463654
 21
-8.229985
 31
0.0
 12
142.463654
 22
-7.729985
 32
0.0
 13
142.463654
 23
-7.729985
 33
0.0
  0
MTEXT
  5
1B66
100
AcDbEntity
  8
0
  6
BYBLOCK
 62
     0
100
AcDbMText
 10
102.463646
 20
-5.479985
 30
0.0
 40
2.5
 41
0.0
 71
     5
 72
     1
  1
\A1;80
  0
POINT
  5
1B67
100
AcDbEntity
  8
DEFPOINTS
  6
BYBLOCK
 62
     0
100
AcDbPoint
 10
62.463638
 20
-1.677578
 30
0.0
  0
POINT
  5
1B68
100
AcDbEntity
  8
DEFPOINTS
  6
BYBLOCK
 62
     0
100
AcDbPoint
 10
142.463654
 20
4.089362
 30
0.0
  0
POINT
  5
1B69
100
AcDbEntity
  8
DEFPOINTS
  6
BYBLOCK
 62
     0
100
AcDbPoint
 10
142.463654
 20
-7.729985
 30
0.0
  0
ENDBLK
  5
1B6A
100
AcDbEntity
  8
0
100
AcDbBlockEnd
  0
BLOCK
  5
1B78
100
AcDbEntity
  8
0
100
AcDbBlockBegin
  2
*D9
 70
     1
 10
0.0
 20
0.0
 30
0.0
  3
*D9
  1

  0
LINE
  5
1B79
100
AcDbEntity
  8
0
  6
BYBLOCK
 62
     0
100
AcDbLine
 10
142.463654
 20
0.983836
 30
0.0
 11
142.463654
 21
-7.909985
 31
0.0
  0
LINE
  5
1B7A
100
AcDbEntity
  8
0
  6
BYBLOCK
 62
     0
100
AcDbLine
 10
222.4636
 20
4.026862
 30
0.0
 11
222.4636
 21
-7.909985
 31
0.0
  0
LINE
  5
1B7B
100
AcDbEntity
  8
0
  6
BYBLOCK
 62
     0
100
AcDbLine
 10
145.463654
 20
-7.729985
 30
0.0
 11
219.4636
 21
-7.729985
 31
0.0
  0
SOLID
  5
1B7C
100
AcDbEntity
  8
0
  6
BYBLOCK
 62
     0
100
AcDbTrace
 10
145.463654
 20
-7.229985
 30
0.0
 11
145.463654
 21
-8.229985
 31
0.0
 12
142.463654
 22
-7.729985
 32
0.0
 13
142.463654
 23
-7.729985
 33
0.0
  0
SOLID
  5
1B7D
100
AcDbEntity
  8
0
  6
BYBLOCK
 62
     0
100
AcDbTrace
 10
219.4636
 20
-7.229985
 30
0.0
 11
219.4636
 21
-8.229985
 31
0.0
 12
222.4636
 22
-7.729985
 32
0.0
 13
222.4636
 23
-7.729985
 33
0.0
  0
MTEXT
  5
1B7E
100
AcDbEntity
  8
0
  6
BYBLOCK
 62
     0
100
AcDbMText
 10
182.463627
 20
-5.479985
 30
0.0
 40
2.5
 41
0.0
 71
     5
 72
     1
  1
\A1;80
  0
POINT
  5
1B7F
100
AcDbEntity
  8
DEFPOINTS
  6
BYBLOCK
 62
     0
100
AcDbPoint
 10
142.463654
 20
1.046336
 30
0.0
  0
POINT
  5
1B80
100
AcDbEntity
  8
DEFPOINTS
  6
BYBLOCK
 62
     0
100
AcDbPoint
 10
222.4636
 20
4.089362
 30
0.0
  0
POINT
  5
1B81
100
AcDbEntity
  8
DEFPOINTS
  6
BYBLOCK
 62
     0
100
AcDbPoint
 10
222.4636
 20
-7.729985
 30
0.0
  0
ENDBLK
  5
1B82
100
AcDbEntity
  8
0
100
AcDbBlockEnd
  0
BLOCK
  5
1BA6
100
AcDbEntity
  8
0
100
AcDbBlockBegin
  2
*D10
 70
     1
 10
0.0
 20
0.0
 30
0.0
  3
*D10
  1

  0
LINE
  5
1BA7
100
AcDbEntity
  8
0
  6
BYBLOCK
 62
     0
100
AcDbLine
 10
222.4636
 20
-2.004061
 30
0.0
 11
222.4636
 21
-7.909985
 31
0.0
  0
LINE
  5
1BA8
100
AcDbEntity
  8
0
  6
BYBLOCK
 62
     0
100
AcDbLine
 10
311.463683
 20
95.556856
 30
0.0
 11
311.463683
 21
-7.909985
 31
0.0
  0
LINE
  5
1BA9
100
AcDbEntity
  8
0
  6
BYBLOCK
 62
     0
100
AcDbLine
 10
225.4636
 20
-7.729985
 30
0.0
 11
308.463683
 21
-7.729985
 31
0.0
  0
SOLID
  5
1BAA
100
AcDbEntity
  8
0
  6
BYBLOCK
 62
     0
100
AcDbTrace
 10
225.4636
 20
-7.229985
 30
0.0
 11
225.4636
 21
-8.229985
 31
0.0
 12
222.4636
 22
-7.729985
 32
0.0
 13
222.4636
 23
-7.729985
 33
0.0
  0
SOLID
  5
1BAB
100
AcDbEntity
  8
0
  6
BYBLOCK
 62
     0
100
AcDbTrace
 10
308.463683
 20
-7.229985
 30
0.0
 11
308.463683
 21
-8.229985
 31
0.0
 12
311.463683
 22
-7.729985
 32
0.0
 13
311.463683
 23
-7.729985
 33
0.0
  0
MTEXT
  5
1BAC
100
AcDbEntity
  8
0
  6
BYBLOCK
 62
     0
100
AcDbMText
 10
266.963642
 20
-5.479985
 30
0.0
 40
2.5
 41
0.0
 71
     5
 72
     1
  1
\A1;89
  0
POINT
  5
1BAD
100
AcDbEntity
  8
DEFPOINTS
  6
BYBLOCK
 62
     0
100
AcDbPoint
 10
222.4636
 20
-1.941561
 30
0.0
  0
POINT
  5
1BAE
100
AcDbEntity
  8
DEFPOINTS
  6
BYBLOCK
 62
     0
100
AcDbPoint
 10
311.463683
 20
95.619356
 30
0.0
  0
POINT
  5
1BAF
100
AcDbEntity
  8
DEFPOINTS
  6
BYBLOCK
 62
     0
100
AcDbPoint
 10
311.463683
 20
-7.729985
 30
0.0
  0
ENDBLK
  5
1BB0
100
AcDbEntity
  8
0
100
AcDbBlockEnd
  0
BLOCK
  5
1BB2
100
AcDbEntity
  8
0
100
AcDbBlockBegin
  2
*D11
 70
     1
 10
0.0
 20
0.0
 30
0.0
  3
*D11
  1

  0
LINE
  5
1BB3
100
AcDbEntity
  8
0
  6
BYBLOCK
 62
     0
100
AcDbLine
 10
62.963595
 20
51.111336
 30
0.0
 11
62.963595
 21
42.769776
 31
0.0
  0
LINE
  5
1BB4
100
AcDbEntity
  8
0
  6
BYBLOCK
 62
     0
100
AcDbLine
 10
2.463582
 20
69.560928
 30
0.0
 11
2.463582
 21
42.769776
 31
0.0
  0
LINE
  5
1BB5
100
AcDbEntity
  8
0
  6
BYBLOCK
 62
     0
100
AcDbLine
 10
59.963595
 20
42.949776
 30
0.0
 11
5.463582
 21
42.949776
 31
0.0
  0
SOLID
  5
1BB6
100
AcDbEntity
  8
0
  6
BYBLOCK
 62
     0
100
AcDbTrace
 10
59.963595
 20
43.449776
 30
0.0
 11
59.963595
 21
42.449776
 31
0.0
 12
62.963595
 22
42.949776
 32
0.0
 13
62.963595
 23
42.949776
 33
0.0
  0
SOLID
  5
1BB7
100
AcDbEntity
  8
0
  6
BYBLOCK
 62
     0
100
AcDbTrace
 10
5.463582
 20
43.449776
 30
0.0
 11
5.463582
 21
42.449776
 31
0.0
 12
2.463582
 22
42.949776
 32
0.0
 13
2.463582
 23
42.949776
 33
0.0
  0
MTEXT
  5
1BB8
100
AcDbEntity
  8
0
  6
BYBLOCK
 62
     0
100
AcDbMText
 10
32.713588
 20
45.199776
 30
0.0
 40
2.5
 41
0.0
 71
     5
 72
     1
  1
\A1;60.5
  0
POINT
  5
1BB9
100
AcDbEntity
  8
DEFPOINTS
  6
BYBLOCK
 62
     0
100
AcDbPoint
 10
62.963595
 20
51.173836
 30
0.0
  0
POINT
  5
1BBA
100
AcDbEntity
  8
DEFPOINTS
  6
BYBLOCK
 62
     0
100
AcDbPoint
 10
2.463582
 20
69.623428
 30
0.0
  0
POINT
  5
1BBB
100
AcDbEntity
  8
DEFPOINTS
  6
BYBLOCK
 62
     0
100
AcDbPoint
 10
2.463582
 20
42.949776
 30
0.0
  0
ENDBLK
  5
1BBC
100
AcDbEntity
  8
0
100
AcDbBlockEnd
  0
BLOCK
  5
1BCB
100
AcDbEntity
  8
0
100
AcDbBlockBegin
  2
*D12
 70
     1
 10
0.0
 20
0.0
 30
0.0
  3
*D12
  1

  0
LINE
  5
1BCC
100
AcDbEntity
  8
0
  6
BYBLOCK
 62
     0
100
AcDbLine
 10
62.963595
 20
51.048836
 30
0.0
 11
62.963595
 21
42.769776
 31
0.0
  0
LINE
  5
1BCD
100
AcDbEntity
  8
0
  6
BYBLOCK
 62
     0
100
AcDbLine
 10
242.963623
 20
52.816135
 30
0.0
 11
242.963623
 21
42.769776
 31
0.0
  0
LINE
  5
1BCE
100
AcDbEntity
  8
0
  6
BYBLOCK
 62
     0
100
AcDbLine
 10
65.963595
 20
42.949776
 30
0.0
 11
239.963623
 21
42.949776
 31
0.0
  0
SOLID
  5
1BCF
100
AcDbEntity
  8
0
  6
BYBLOCK
 62
     0
100
AcDbTrace
 10
65.963595
 20
43.449776
 30
0.0
 11
65.963595
 21
42.449776
 31
0.0
 12
62.963595
 22
42.949776
 32
0.0
 13
62.963595
 23
42.949776
 33
0.0
  0
SOLID
  5
1BD0
100
AcDbEntity
  8
0
  6
BYBLOCK
 62
     0
100
AcDbTrace
 10
239.963623
 20
43.449776
 30
0.0
 11
239.963623
 21
42.449776
 31
0.0
 12
242.963623
 22
42.949776
 32
0.0
 13
242.963623
 23
42.949776
 33
0.0
  0
MTEXT
  5
1BD1
100
AcDbEntity
  8
0
  6
BYBLOCK
 62
     0
100
AcDbMText
 10
152.963609
 20
45.199776
 30
0.0
 40
2.5
 41
0.0
 71
     5
 72
     1
  1
\A1;180
  0
POINT
  5
1BD2
100
AcDbEntity
  8
DEFPOINTS
  6
BYBLOCK
 62
     0
100
AcDbPoint
 10
62.963595
 20
51.111336
 30
0.0
  0
POINT
  5
1BD3
100
AcDbEntity
  8
DEFPOINTS
  6
BYBLOCK
 62
     0
100
AcDbPoint
 10
242.963623
 20
52.878635
 30
0.0
  0
POINT
  5
1BD4
100
AcDbEntity
  8
DEFPOINTS
  6
BYBLOCK
 62
     0
100
AcDbPoint
 10
242.963623
 20
42.949776
 30
0.0
  0
ENDBLK
  5
1BD5
100
AcDbEntity
  8
0
100
AcDbBlockEnd
  0
BLOCK
  5
1BE3
100
AcDbEntity
  8
0
100
AcDbBlockBegin
  2
*D13
 70
     1
 10
0.0
 20
0.0
 30
0.0
  3
*D13
  1

  0
LINE
  5
1BE4
100
AcDbEntity
  8
0
  6
BYBLOCK
 62
     0
100
AcDbLine
 10
242.963623
 20
44.906397
 30
0.0
 11
242.963623
 21
42.589776
 31
0.0
  0
LINE
  5
1BE5
100
AcDbEntity
  8
0
  6
BYBLOCK
 62
     0
100
AcDbLine
 10
311.463683
 20
73.580635
 30
0.0
 11
311.463683
 21
42.589776
 31
0.0
  0
LINE
  5
1BE6
100
AcDbEntity
  8
0
  6
BYBLOCK
 62
     0
100
AcDbLine
 10
245.963623
 20
42.769776
 30
0.0
 11
308.463683
 21
42.769776
 31
0.0
  0
SOLID
  5
1BE7
100
AcDbEntity
  8
0
  6
BYBLOCK
 62
     0
100
AcDbTrace
 10
245.963623
 20
43.269776
 30
0.0
 11
245.963623
 21
42.269776
 31
0.0
 12
242.963623
 22
42.769776
 32
0.0
 13
242.963623
 23
42.769776
 33
0.0
  0
SOLID
  5
1BE8
100
AcDbEntity
  8
0
  6
BYBLOCK
 62
     0
100
AcDbTrace
 10
308.463683
 20
43.269776
 30
0.0
 11
308.463683
 21
42.269776
 31
0.0
 12
311.463683
 22
42.769776
 32
0.0
 13
311.463683
 23
42.769776
 33
0.0
  0
MTEXT
  5
1BE9
100
AcDbEntity
  8
0
  6
BYBLOCK
 62
     0
100
AcDbMText
 10
277.213653
 20
45.019776
 30
0.0
 40
2.5
 41
0.0
 71
     5
 72
     1
  1
\A1;68.5
  0
POINT
  5
1BEA
100
AcDbEntity
  8
DEFPOINTS
  6
BYBLOCK
 62
     0
100
AcDbPoint
 10
242.963623
 20
44.968897
 30
0.0
  0
POINT
  5
1BEB
100
AcDbEntity
  8
DEFPOINTS
  6
BYBLOCK
 62
     0
100
AcDbPoint
 10
311.463683
 20
73.643135
 30
0.0
  0
POINT
  5
1BEC
100
AcDbEntity
  8
DEFPOINTS
  6
BYBLOCK
 62
     0
100
AcDbPoint
 10
311.463683
 20
42.769776
 30
0.0
  0
ENDBLK
  5
1BED
100
AcDbEntity
  8
0
100
AcDbBlockEnd
  0
BLOCK
  5
1CE1
100
AcDbEntity
  8
0
100
AcDbBlockBegin
  2
*D14
 70
     1
 10
0.0
 20
0.0
 30
0.0
  3
*D14
  1

  0
LINE
  5
1CE2
100
AcDbEntity
  8
0
  6
BYBLOCK
 62
     0
100
AcDbLine
 10
42.401143
 20
1.046336
 30
0.0
 11
-24.013367
 21
1.046336
 31
0.0
  0
LINE
  5
1CE3
100
AcDbEntity
  8
0
  6
BYBLOCK
 62
     0
100
AcDbLine
 10
50.993469
 20
63.046149
 30
0.0
 11
-24.013367
 21
63.046149
 31
0.0
  0
LINE
  5
1CE4
100
AcDbEntity
  8
0
  6
BYBLOCK
 62
     0
100
AcDbLine
 10
-23.833367
 20
4.046336
 30
0.0
 11
-23.833367
 21
60.046149
 31
0.0
  0
SOLID
  5
1CE5
100
AcDbEntity
  8
0
  6
BYBLOCK
 62
     0
100
AcDbTrace
 10
-24.333367
 20
4.046336
 30
0.0
 11
-23.333367
 21
4.046336
 31
0.0
 12
-23.833367
 22
1.046336
 32
0.0
 13
-23.833367
 23
1.046336
 33
0.0
  0
SOLID
  5
1CE6
100
AcDbEntity
  8
0
  6
BYBLOCK
 62
     0
100
AcDbTrace
 10
-24.333367
 20
60.046149
 30
0.0
 11
-23.333367
 21
60.046149
 31
0.0
 12
-23.833367
 22
63.046149
 32
0.0
 13
-23.833367
 23
63.046149
 33
0.0
  0
MTEXT
  5
1CE7
100
AcDbEntity
  8
0
  6
BYBLOCK
 62
     0
100
AcDbMText
 10
-26.083367
 20
32.046243
 30
0.0
 40
2.5
 41
0.0
 71
     5
 72
     1
  1
\A1;=
 11
0.0
 21
1.0
 31
0.0
  0
POINT
  5
1CE8
100
AcDbEntity
  8
DEFPOINTS
  6
BYBLOCK
 62
     0
100
AcDbPoint
 10
42.463643
 20
1.046336
 30
0.0
  0
POINT
  5
1CE9
100
AcDbEntity
  8
DEFPOINTS
  6
BYBLOCK
 62
     0
100
AcDbPoint
 10
51.055969
 20
63.046149
 30
0.0
  0
POINT
  5
1CEA
100
AcDbEntity
  8
DEFPOINTS
  6
BYBLOCK
 62
     0
100
AcDbPoint
 10
-23.833367
 20
63.046149
 30
0.0
  0
ENDBLK
  5
1CEB
100
AcDbEntity
  8
0
100
AcDbBlockEnd
  0
BLOCK
  5
1CB5
100
AcDbEntity
  8
0
100
AcDbBlockBegin
  2
*D15
 70
     1
 10
0.0
 20
0.0
 30
0.0
  3
*D15
  1

  0
LINE
  5
1CB6
100
AcDbEntity
  8
0
  6
BYBLOCK
 62
     0
100
AcDbLine
 10
42.401143
 20
305.046201
 30
0.0
 11
-24.013367
 21
305.046201
 31
0.0
  0
LINE
  5
1CB7
100
AcDbEntity
  8
0
  6
BYBLOCK
 62
     0
100
AcDbLine
 10
50.993469
 20
243.046212
 30
0.0
 11
-24.013367
 21
243.046212
 31
0.0
  0
LINE
  5
1CB8
100
AcDbEntity
  8
0
  6
BYBLOCK
 62
     0
100
AcDbLine
 10
-23.833367
 20
302.046201
 30
0.0
 11
-23.833367
 21
246.046212
 31
0.0
  0
SOLID
  5
1CB9
100
AcDbEntity
  8
0
  6
BYBLOCK
 62
     0
100
AcDbTrace
 10
-24.333367
 20
302.046201
 30
0.0
 11
-23.333367
 21
302.046201
 31
0.0
 12
-23.833367
 22
305.046201
 32
0.0
 13
-23.833367
 23
305.046201
 33
0.0
  0
SOLID
  5
1CBA
100
AcDbEntity
  8
0
  6
BYBLOCK
 62
     0
100
AcDbTrace
 10
-24.333367
 20
246.046212
 30
0.0
 11
-23.333367
 21
246.046212
 31
0.0
 12
-23.833367
 22
243.046212
 32
0.0
 13
-23.833367
 23
243.046212
 33
0.0
  0
MTEXT
  5
1CBB
100
AcDbEntity
  8
0
  6
BYBLOCK
 62
     0
100
AcDbMText
 10
-26.083367
 20
274.046207
 30
0.0
 40
2.5
 41
0.0
 71
     5
 72
     1
  1
\A1;=
 11
0.0
 21
1.0
 31
0.0
  0
POINT
  5
1CBC
100
AcDbEntity
  8
DEFPOINTS
  6
BYBLOCK
 62
     0
100
AcDbPoint
 10
42.463643
 20
305.046201
 30
0.0
  0
POINT
  5
1CBD
100
AcDbEntity
  8
DEFPOINTS
  6
BYBLOCK
 62
     0
100
AcDbPoint
 10
51.055969
 20
243.046212
 30
0.0
  0
POINT
  5
1CBE
100
AcDbEntity
  8
DEFPOINTS
  6
BYBLOCK
 62
     0
100
AcDbPoint
 10
-23.833367
 20
243.046212
 30
0.0
  0
ENDBLK
  5
1CBF
100
AcDbEntity
  8
0
100
AcDbBlockEnd
  0
BLOCK
  5
1CCB
100
AcDbEntity
  8
0
100
AcDbBlockBegin
  2
*D16
 70
     1
 10
0.0
 20
0.0
 30
0.0
  3
*D16
  1

  0
LINE
  5
1CCC
100
AcDbEntity
  8
0
  6
BYBLOCK
 62
     0
100
AcDbLine
 10
-4.026595
 20
243.046212
 30
0.0
 11
-24.013367
 21
243.046212
 31
0.0
  0
LINE
  5
1CCD
100
AcDbEntity
  8
0
  6
BYBLOCK
 62
     0
100
AcDbLine
 10
50.993469
 20
63.046149
 30
0.0
 11
-24.013367
 21
63.046149
 31
0.0
  0
LINE
  5
1CCE
100
AcDbEntity
  8
0
  6
BYBLOCK
 62
     0
100
AcDbLine
 10
-23.833367
 20
240.046212
 30
0.0
 11
-23.833367
 21
66.046149
 31
0.0
  0
SOLID
  5
1CCF
100
AcDbEntity
  8
0
  6
BYBLOCK
 62
     0
100
AcDbTrace
 10
-24.333367
 20
240.046212
 30
0.0
 11
-23.333367
 21
240.046212
 31
0.0
 12
-23.833367
 22
243.046212
 32
0.0
 13
-23.833367
 23
243.046212
 33
0.0
  0
SOLID
  5
1CD0
100
AcDbEntity
  8
0
  6
BYBLOCK
 62
     0
100
AcDbTrace
 10
-24.333367
 20
66.046149
 30
0.0
 11
-23.333367
 21
66.046149
 31
0.0
 12
-23.833367
 22
63.046149
 32
0.0
 13
-23.833367
 23
63.046149
 33
0.0
  0
MTEXT
  5
1CD1
100
AcDbEntity
  8
0
  6
BYBLOCK
 62
     0
100
AcDbMText
 10
-26.083367
 20
153.046181
 30
0.0
 40
2.5
 41
0.0
 71
     5
 72
     1
  1
\A1;180
 11
0.0
 21
1.0
 31
0.0
  0
POINT
  5
1CD2
100
AcDbEntity
  8
DEFPOINTS
  6
BYBLOCK
 62
     0
100
AcDbPoint
 10
-3.964095
 20
243.046212
 30
0.0
  0
POINT
  5
1CD3
100
AcDbEntity
  8
DEFPOINTS
  6
BYBLOCK
 62
     0
100
AcDbPoint
 10
51.055969
 20
63.046149
 30
0.0
  0
POINT
  5
1CD4
100
AcDbEntity
  8
DEFPOINTS
  6
BYBLOCK
 62
     0
100
AcDbPoint
 10
-23.833367
 20
63.046149
 30
0.0
  0
ENDBLK
  5
1CD5
100
AcDbEntity
  8
0
100
AcDbBlockEnd
  0
BLOCK
  5
1C68
100
AcDbEntity
  8
0
100
AcDbBlockBegin
  2
*D17
 70
     1
 10
0.0
 20
0.0
 30
0.0
  3
*D17
  1

  0
LINE
  5
1C69
100
AcDbEntity
  8
0
  6
BYBLOCK
 62
     0
100
AcDbLine
 10
237.056664
 20
285.049663
 30
0.0
 11
325.003779
 21
285.049663
 31
0.0
  0
LINE
  5
1C6A
100
AcDbEntity
  8
0
  6
BYBLOCK
 62
     0
100
AcDbLine
 10
237.056664
 20
21.049577
 30
0.0
 11
325.003779
 21
21.049577
 31
0.0
  0
LINE
  5
1C6B
100
AcDbEntity
  8
0
  6
BYBLOCK
 62
     0
100
AcDbLine
 10
324.823779
 20
282.049663
 30
0.0
 11
324.823779
 21
24.049577
 31
0.0
  0
SOLID
  5
1C6C
100
AcDbEntity
  8
0
  6
BYBLOCK
 62
     0
100
AcDbTrace
 10
324.323779
 20
282.049663
 30
0.0
 11
325.323779
 21
282.049663
 31
0.0
 12
324.823779
 22
285.049663
 32
0.0
 13
324.823779
 23
285.049663
 33
0.0
  0
SOLID
  5
1C6D
100
AcDbEntity
  8
0
  6
BYBLOCK
 62
     0
100
AcDbTrace
 10
324.323779
 20
24.049577
 30
0.0
 11
325.323779
 21
24.049577
 31
0.0
 12
324.823779
 22
21.049577
 32
0.0
 13
324.823779
 23
21.049577
 33
0.0
  0
MTEXT
  5
1C6E
100
AcDbEntity
  8
0
  6
BYBLOCK
 62
     0
100
AcDbMText
 10
322.573779
 20
153.04962
 30
0.0
 40
2.5
 41
0.0
 71
     5
 72
     1
  1
\A1;264
 11
0.0
 21
1.0
 31
0.0
  0
POINT
  5
1C6F
100
AcDbEntity
  8
DEFPOINTS
  6
BYBLOCK
 62
     0
100
AcDbPoint
 10
236.994164
 20
285.049663
 30
0.0
  0
POINT
  5
1C70
100
AcDbEntity
  8
DEFPOINTS
  6
BYBLOCK
 62
     0
100
AcDbPoint
 10
236.994164
 20
21.049577
 30
0.0
  0
POINT
  5
1C71
100
AcDbEntity
  8
DEFPOINTS
  6
BYBLOCK
 62
     0
100
AcDbPoint
 10
324.823779
 20
21.049577
 30
0.0
  0
ENDBLK
  5
1C72
100
AcDbEntity
  8
0
100
AcDbBlockEnd
  0
BLOCK
  5
1CED
100
AcDbEntity
  8
0
100
AcDbBlockBegin
  2
*D18
 70
     1
 10
0.0
 20
0.0
 30
0.0
  3
*D18
  1

  0
LINE
  5
1CEE
100
AcDbEntity
  8
0
  6
BYBLOCK
 62
     0
100
AcDbLine
 10
2.463582
 20
14.910957
 30
0.0
 11
2.463582
 21
-21.805274
 31
0.0
  0
LINE
  5
1CEF
100
AcDbEntity
  8
0
  6
BYBLOCK
 62
     0
100
AcDbLine
 10
311.463683
 20
14.910957
 30
0.0
 11
311.463683
 21
-21.805274
 31
0.0
  0
LINE
  5
1CF0
100
AcDbEntity
  8
0
  6
BYBLOCK
 62
     0
100
AcDbLine
 10
5.463582
 20
-21.625274
 30
0.0
 11
308.463683
 21
-21.625274
 31
0.0
  0
SOLID
  5
1CF1
100
AcDbEntity
  8
0
  6
BYBLOCK
 62
     0
100
AcDbTrace
 10
5.463582
 20
-21.125274
 30
0.0
 11
5.463582
 21
-22.125274
 31
0.0
 12
2.463582
 22
-21.625274
 32
0.0
 13
2.463582
 23
-21.625274
 33
0.0
  0
SOLID
  5
1CF2
100
AcDbEntity
  8
0
  6
BYBLOCK
 62
     0
100
AcDbTrace
 10
308.463683
 20
-21.125274
 30
0.0
 11
308.463683
 21
-22.125274
 31
0.0
 12
311.463683
 22
-21.625274
 32
0.0
 13
311.463683
 23
-21.625274
 33
0.0
  0
MTEXT
  5
1CF3
100
AcDbEntity
  8
0
  6
BYBLOCK
 62
     0
100
AcDbMText
 10
156.963632
 20
-19.375274
 30
0.0
 40
2.5
 41
0.0
 71
     5
 72
     1
  1
\A1;309
  0
POINT
  5
1CF4
100
AcDbEntity
  8
DEFPOINTS
  6
BYBLOCK
 62
     0
100
AcDbPoint
 10
2.463582
 20
14.973457
 30
0.0
  0
POINT
  5
1CF5
100
AcDbEntity
  8
DEFPOINTS
  6
BYBLOCK
 62
     0
100
AcDbPoint
 10
311.463683
 20
14.973457
 30
0.0
  0
POINT
  5
1CF6
100
AcDbEntity
  8
DEFPOINTS
  6
BYBLOCK
 62
     0
100
AcDbPoint
 10
311.463683
 20
-21.625274
 30
0.0
  0
ENDBLK
  5
1CF7
100
AcDbEntity
  8
0
100
AcDbBlockEnd
  0
ENDSEC
  0
SECTION
  2
ENTITIES
  0
INSERT
  5
CC
100
AcDbEntity
  8
0
100
AcDbBlockReference
  2
SCH_IS
 10
-68.718396
 20
-140.042541
 30
0.0
  0
INSERT
  5
EC
100
AcDbEntity
  8
COTATION1
100
AcDbBlockReference
  2
SCH_IS
 10
0.0
 20
0.0
 30
0.0
  0
POLYLINE
  5
1400
100
AcDbEntity
  8
ALPHA
100
AcDb2dPolyline
 66
     1
 10
0.0
 20
0.0
 30
0.0
  0
VERTEX
  5
1401
100
AcDbEntity
  8
ALPHA
100
AcDbVertex
100
AcDb2dVertex
 10
170.496752
 20
59.960049
 30
0.0
  0
VERTEX
  5
1402
100
AcDbEntity
  8
ALPHA
100
AcDbVertex
100
AcDb2dVertex
 10
170.381975
 20
58.532378
 30
0.0
  0
VERTEX
  5
1403
100
AcDbEntity
  8
ALPHA
100
AcDbVertex
100
AcDb2dVertex
 10
170.052221
 20
57.202881
 30
0.0
  0
VERTEX
  5
1404
100
AcDbEntity
  8
ALPHA
100
AcDbVertex
100
AcDb2dVertex
 10
169.529353
 20
55.999969
 30
0.0
  0
VERTEX
  5
1405
100
AcDbEntity
  8
ALPHA
100
AcDbVertex
100
AcDb2dVertex
 10
169.202334
 20
55.454861
 30
0.0
  0
VERTEX
  5
1406
100
AcDbEntity
  8
ALPHA
100
AcDbVertex
100
AcDb2dVertex
 10
168.835235
 20
54.952055
 30
0.0
  0
VERTEX
  5
1407
100
AcDbEntity
  8
ALPHA
100
AcDbVertex
100
AcDb2dVertex
 10
168.43079
 20
54.495102
 30
0.0
  0
VERTEX
  5
1408
100
AcDbEntity
  8
ALPHA
100
AcDbVertex
100
AcDb2dVertex
 10
167.991732
 20
54.087553
 30
0.0
  0
VERTEX
  5
1409
100
AcDbEntity
  8
ALPHA
100
AcDbVertex
100
AcDb2dVertex
 10
167.520794
 20
53.732959
 30
0.0
  0
VERTEX
  5
140A
100
AcDbEntity
  8
ALPHA
100
AcDbVertex
100
AcDb2dVertex
 10
167.020708
 20
53.434873
 30
0.0
  0
VERTEX
  5
140B
100
AcDbEntity
  8
ALPHA
100
AcDbVertex
100
AcDb2dVertex
 10
166.494208
 20
53.196846
 30
0.0
  0
VERTEX
  5
140C
100
AcDbEntity
  8
ALPHA
100
AcDbVertex
100
AcDb2dVertex
 10
165.944026
 20
53.02243
 30
0.0
  0
VERTEX
  5
140D
100
AcDbEntity
  8
ALPHA
100
AcDbVertex
100
AcDb2dVertex
 10
165.372897
 20
52.915175
 30
0.0
  0
VERTEX
  5
140E
100
AcDbEntity
  8
ALPHA
100
AcDbVertex
100
AcDb2dVertex
 10
164.783552
 20
52.878635
 30
0.0
  0
VERTEX
  5
140F
100
AcDbEntity
  8
ALPHA
100
AcDbVertex
100
AcDb2dVertex
 10
121.894205
 20
52.878635
 30
0.0
  0
VERTEX
  5
1410
100
AcDbEntity
  8
ALPHA
100
AcDbVertex
100
AcDb2dVertex
 10
121.30355
 20
52.915175
 30
0.0
  0
VERTEX
  5
1411
100
AcDbEntity
  8
ALPHA
100
AcDbVertex
100
AcDb2dVertex
 10
120.728692
 20
53.02243
 30
0.0
  0
VERTEX
  5
1412
100
AcDbEntity
  8
ALPHA
100
AcDbVertex
100
AcDb2dVertex
 10
120.172711
 20
53.196846
 30
0.0
  0
VERTEX
  5
1413
100
AcDbEntity
  8
ALPHA
100
AcDbVertex
100
AcDb2dVertex
 10
119.638685
 20
53.434873
 30
0.0
  0
VERTEX
  5
1414
100
AcDbEntity
  8
ALPHA
100
AcDbVertex
100
AcDb2dVertex
 10
119.129691
 20
53.732959
 30
0.0
  0
VERTEX
  5
1415
100
AcDbEntity
  8
ALPHA
100
AcDbVertex
100
AcDb2dVertex
 10
118.648808
 20
54.087553
 30
0.0
  0
VERTEX
  5
1416
100
AcDbEntity
  8
ALPHA
100
AcDbVertex
100
AcDb2dVertex
 10
118.199114
 20
54.495102
 30
0.0
  0
VERTEX
  5
1417
100
AcDbEntity
  8
ALPHA
100
AcDbVertex
100
AcDb2dVertex
 10
117.783687
 20
54.952055
 30
0.0
  0
VERTEX
  5
1418
100
AcDbEntity
  8
ALPHA
100
AcDbVertex
100
AcDb2dVertex
 10
117.405606
 20
55.454861
 30
0.0
  0
VERTEX
  5
1419
100
AcDbEntity
  8
ALPHA
100
AcDbVertex
100
AcDb2dVertex
 10
117.067948
 20
55.999969
 30
0.0
  0
VERTEX
  5
141A
100
AcDbEntity
  8
ALPHA
100
AcDbVertex
100
AcDb2dVertex
 10
116.526218
 20
57.202881
 30
0.0
  0
VERTEX
  5
141B
100
AcDbEntity
  8
ALPHA
100
AcDbVertex
100
AcDb2dVertex
 10
116.18312
 20
58.532378
 30
0.0
  0
VERTEX
  5
141C
100
AcDbEntity
  8
ALPHA
100
AcDbVertex
100
AcDb2dVertex
 10
116.063282
 20
59.960049
 30
0.0
  0
VERTEX
  5
141D
100
AcDbEntity
  8
ALPHA
100
AcDbVertex
100
AcDb2dVertex
 10
116.063282
 20
245.791776
 30
0.0
  0
VERTEX
  5
141E
100
AcDbEntity
  8
ALPHA
100
AcDbVertex
100
AcDb2dVertex
 10
116.178117
 20
247.219594
 30
0.0
  0
VERTEX
  5
141F
100
AcDbEntity
  8
ALPHA
100
AcDbVertex
100
AcDb2dVertex
 10
116.508025
 20
248.549479
 30
0.0
  0
VERTEX
  5
1420
100
AcDbEntity
  8
ALPHA
100
AcDbVertex
100
AcDb2dVertex
 10
117.031112
 20
249.752939
 30
0.0
  0
VERTEX
  5
1421
100
AcDbEntity
  8
ALPHA
100
AcDbVertex
100
AcDb2dVertex
 10
117.358255
 20
250.298355
 30
0.0
  0
VERTEX
  5
1422
100
AcDbEntity
  8
ALPHA
100
AcDbVertex
100
AcDb2dVertex
 10
117.725483
 20
250.801481
 30
0.0
  0
VERTEX
  5
1423
100
AcDbEntity
  8
ALPHA
100
AcDbVertex
100
AcDb2dVertex
 10
118.130059
 20
251.258753
 30
0.0
  0
VERTEX
  5
1424
100
AcDbEntity
  8
ALPHA
100
AcDbVertex
100
AcDb2dVertex
 10
118.569245
 20
251.666611
 30
0.0
  0
VERTEX
  5
1425
100
AcDbEntity
  8
ALPHA
100
AcDbVertex
100
AcDb2dVertex
 10
119.040305
 20
252.021494
 30
0.0
  0
VERTEX
  5
1426
100
AcDbEntity
  8
ALPHA
100
AcDbVertex
100
AcDb2dVertex
 10
119.540503
 20
252.319839
 30
0.0
  0
VERTEX
  5
1427
100
AcDbEntity
  8
ALPHA
100
AcDbVertex
100
AcDb2dVertex
 10
120.067101
 20
252.558085
 30
0.0
  0
VERTEX
  5
1428
100
AcDbEntity
  8
ALPHA
100
AcDbVertex
100
AcDb2dVertex
 10
120.617362
 20
252.73267
 30
0.0
  0
VERTEX
  5
1429
100
AcDbEntity
  8
ALPHA
100
AcDbVertex
100
AcDb2dVertex
 10
121.188551
 20
252.840033
 30
0.0
  0
VERTEX
  5
142A
100
AcDbEntity
  8
ALPHA
100
AcDbVertex
100
AcDb2dVertex
 10
121.77793
 20
252.876612
 30
0.0
  0
VERTEX
  5
142B
100
AcDbEntity
  8
ALPHA
100
AcDbVertex
100
AcDb2dVertex
 10
164.667311
 20
252.876612
 30
0.0
  0
VERTEX
  5
142C
100
AcDbEntity
  8
ALPHA
100
AcDbVertex
100
AcDb2dVertex
 10
165.257985
 20
252.840033
 30
0.0
  0
VERTEX
  5
142D
100
AcDbEntity
  8
ALPHA
100
AcDbVertex
100
AcDb2dVertex
 10
165.832821
 20
252.73267
 30
0.0
  0
VERTEX
  5
142E
100
AcDbEntity
  8
ALPHA
100
AcDbVertex
100
AcDb2dVertex
 10
166.388747
 20
252.558085
 30
0.0
  0
VERTEX
  5
142F
100
AcDbEntity
  8
ALPHA
100
AcDbVertex
100
AcDb2dVertex
 10
166.92269
 20
252.319839
 30
0.0
  0
VERTEX
  5
1430
100
AcDbEntity
  8
ALPHA
100
AcDbVertex
100
AcDb2dVertex
 10
167.431576
 20
252.021494
 30
0.0
  0
VERTEX
  5
1431
100
AcDbEntity
  8
ALPHA
100
AcDbVertex
100
AcDb2dVertex
 10
167.912333
 20
251.666611
 30
0.0
  0
VERTEX
  5
1432
100
AcDbEntity
  8
ALPHA
100
AcDbVertex
100
AcDb2dVertex
 10
168.361888
 20
251.258753
 30
0.0
  0
VERTEX
  5
1433
100
AcDbEntity
  8
ALPHA
100
AcDbVertex
100
AcDb2dVertex
 10
168.777168
 20
250.801481
 30
0.0
  0
VERTEX
  5
1434
100
AcDbEntity
  8
ALPHA
100
AcDbVertex
100
AcDb2dVertex
 10
169.1551
 20
250.298355
 30
0.0
  0
VERTEX
  5
1435
100
AcDbEntity
  8
ALPHA
100
AcDbVertex
100
AcDb2dVertex
 10
169.492611
 20
249.752939
 30
0.0
  0
VERTEX
  5
1436
100
AcDbEntity
  8
ALPHA
100
AcDbVertex
100
AcDb2dVertex
 10
170.034078
 20
248.549479
 30
0.0
  0
VERTEX
  5
1437
100
AcDbEntity
  8
ALPHA
100
AcDbVertex
100
AcDb2dVertex
 10
170.376987
 20
247.219594
 30
0.0
  0
VERTEX
  5
1438
100
AcDbEntity
  8
ALPHA
100
AcDbVertex
100
AcDb2dVertex
 10
170.496752
 20
245.791776
 30
0.0
  0
VERTEX
  5
1439
100
AcDbEntity
  8
ALPHA
100
AcDbVertex
100
AcDb2dVertex
 10
170.496752
 20
59.960049
 30
0.0
  0
SEQEND
  5
143A
100
AcDbEntity
  8
ALPHA
  0
POLYLINE
  5
143B
100
AcDbEntity
  8
ALPHA
100
AcDb2dPolyline
 66
     1
 10
0.0
 20
0.0
 30
0.0
  0
VERTEX
  5
143C
100
AcDbEntity
  8
ALPHA
100
AcDbVertex
100
AcDb2dVertex
 10
122.615071
 20
187.5984
 30
0.0
  0
VERTEX
  5
143D
100
AcDbEntity
  8
ALPHA
100
AcDbVertex
100
AcDb2dVertex
 10
165.112411
 20
187.5984
 30
0.0
  0
VERTEX
  5
143E
100
AcDbEntity
  8
ALPHA
100
AcDbVertex
100
AcDb2dVertex
 10
165.112411
 20
198.981375
 30
0.0
  0
VERTEX
  5
143F
100
AcDbEntity
  8
ALPHA
100
AcDbVertex
100
AcDb2dVertex
 10
122.615071
 20
198.981375
 30
0.0
  0
VERTEX
  5
1440
100
AcDbEntity
  8
ALPHA
100
AcDbVertex
100
AcDb2dVertex
 10
122.615071
 20
187.5984
 30
0.0
  0
SEQEND
  5
1441
100
AcDbEntity
  8
ALPHA
  0
POLYLINE
  5
1442
100
AcDbEntity
  8
ALPHA
100
AcDb2dPolyline
 66
     1
 10
0.0
 20
0.0
 30
0.0
  0
VERTEX
  5
1443
100
AcDbEntity
  8
ALPHA
100
AcDbVertex
100
AcDb2dVertex
 10
162.46365
 20
52.886925
 30
0.0
  0
VERTEX
  5
1444
100
AcDbEntity
  8
ALPHA
100
AcDbVertex
100
AcDb2dVertex
 10
162.46365
 20
1.046336
 30
0.0
  0
VERTEX
  5
1445
100
AcDbEntity
  8
ALPHA
100
AcDbVertex
100
AcDb2dVertex
 10
122.463659
 20
1.046336
 30
0.0
  0
VERTEX
  5
1446
100
AcDbEntity
  8
ALPHA
100
AcDbVertex
100
AcDb2dVertex
 10
122.463659
 20
53.044687
 30
0.0
  0
SEQEND
  5
1447
100
AcDbEntity
  8
ALPHA
  0
POLYLINE
  5
1448
100
AcDbEntity
  8
ALPHA
100
AcDb2dPolyline
 66
     1
 10
0.0
 20
0.0
 30
0.0
  0
VERTEX
  5
1449
100
AcDbEntity
  8
ALPHA
100
AcDbVertex
100
AcDb2dVertex
 10
175.809409
 20
238.045975
 30
0.0
  0
VERTEX
  5
144A
100
AcDbEntity
  8
ALPHA
100
AcDbVertex
100
AcDb2dVertex
 10
175.809409
 20
245.96125
 30
0.0
  0
VERTEX
  5
144B
100
AcDbEntity
  8
ALPHA
100
AcDbVertex
100
AcDb2dVertex
 10
175.775551
 20
246.656729
 30
0.0
  0
VERTEX
  5
144C
100
AcDbEntity
  8
ALPHA
100
AcDbVertex
100
AcDb2dVertex
 10
175.676096
 20
247.332415
 30
0.0
  0
VERTEX
  5
144D
100
AcDbEntity
  8
ALPHA
100
AcDbVertex
100
AcDb2dVertex
 10
175.514228
 20
247.985248
 30
0.0
  0
VERTEX
  5
144E
100
AcDbEntity
  8
ALPHA
100
AcDbVertex
100
AcDb2dVertex
 10
175.293127
 20
248.612167
 30
0.0
  0
VERTEX
  5
144F
100
AcDbEntity
  8
ALPHA
100
AcDbVertex
100
AcDb2dVertex
 10
175.015976
 20
249.21011
 30
0.0
  0
VERTEX
  5
1450
100
AcDbEntity
  8
ALPHA
100
AcDbVertex
100
AcDb2dVertex
 10
174.685956
 20
249.776017
 30
0.0
  0
VERTEX
  5
1451
100
AcDbEntity
  8
ALPHA
100
AcDbVertex
100
AcDb2dVertex
 10
174.306249
 20
250.306825
 30
0.0
  0
VERTEX
  5
1452
100
AcDbEntity
  8
ALPHA
100
AcDbVertex
100
AcDb2dVertex
 10
173.880037
 20
250.799474
 30
0.0
  0
VERTEX
  5
1453
100
AcDbEntity
  8
ALPHA
100
AcDbVertex
100
AcDb2dVertex
 10
173.410501
 20
251.250903
 30
0.0
  0
VERTEX
  5
1454
100
AcDbEntity
  8
ALPHA
100
AcDbVertex
100
AcDb2dVertex
 10
172.900824
 20
251.65805
 30
0.0
  0
VERTEX
  5
1455
100
AcDbEntity
  8
ALPHA
100
AcDbVertex
100
AcDb2dVertex
 10
172.354186
 20
252.017854
 30
0.0
  0
VERTEX
  5
1456
100
AcDbEntity
  8
ALPHA
100
AcDbVertex
100
AcDb2dVertex
 10
171.773771
 20
252.327254
 30
0.0
  0
VERTEX
  5
1457
100
AcDbEntity
  8
ALPHA
100
AcDbVertex
100
AcDb2dVertex
 10
171.162759
 20
252.583189
 30
0.0
  0
VERTEX
  5
1458
100
AcDbEntity
  8
ALPHA
100
AcDbVertex
100
AcDb2dVertex
 10
170.524333
 20
252.782598
 30
0.0
  0
VERTEX
  5
1459
100
AcDbEntity
  8
ALPHA
100
AcDbVertex
100
AcDb2dVertex
 10
169.861674
 20
252.922418
 30
0.0
  0
VERTEX
  5
145A
100
AcDbEntity
  8
ALPHA
100
AcDbVertex
100
AcDb2dVertex
 10
169.177963
 20
252.99959
 30
0.0
  0
VERTEX
  5
145B
100
AcDbEntity
  8
ALPHA
100
AcDbVertex
100
AcDb2dVertex
 10
162.46365
 20
252.99959
 30
0.0
  0
VERTEX
  5
145C
100
AcDbEntity
  8
ALPHA
100
AcDbVertex
100
AcDb2dVertex
 10
162.46365
 20
305.046201
 30
0.0
  0
VERTEX
  5
145D
100
AcDbEntity
  8
ALPHA
100
AcDbVertex
100
AcDb2dVertex
 10
122.463659
 20
305.046201
 30
0.0
  0
VERTEX
  5
145E
100
AcDbEntity
  8
ALPHA
100
AcDbVertex
100
AcDb2dVertex
 10
122.463659
 20
253.046086
 30
0.0
  0
VERTEX
  5
145F
100
AcDbEntity
  8
ALPHA
100
AcDbVertex
100
AcDb2dVertex
 10
110.393508
 20
253.046086
 30
0.0
  0
VERTEX
  5
1460
100
AcDbEntity
  8
ALPHA
100
AcDbVertex
100
AcDb2dVertex
 10
109.669307
 20
253.009505
 30
0.0
  0
VERTEX
  5
1461
100
AcDbEntity
  8
ALPHA
100
AcDbVertex
100
AcDb2dVertex
 10
108.96575
 20
252.902137
 30
0.0
  0
VERTEX
  5
1462
100
AcDbEntity
  8
ALPHA
100
AcDbVertex
100
AcDb2dVertex
 10
108.286455
 20
252.727545
 30
0.0
  0
VERTEX
  5
1463
100
AcDbEntity
  8
ALPHA
100
AcDbVertex
100
AcDb2dVertex
 10
107.635036
 20
252.489289
 30
0.0
  0
VERTEX
  5
1464
100
AcDbEntity
  8
ALPHA
100
AcDbVertex
100
AcDb2dVertex
 10
107.015112
 20
252.190934
 30
0.0
  0
VERTEX
  5
1465
100
AcDbEntity
  8
ALPHA
100
AcDbVertex
100
AcDb2dVertex
 10
106.430296
 20
251.836041
 30
0.0
  0
VERTEX
  5
1466
100
AcDbEntity
  8
ALPHA
100
AcDbVertex
100
AcDb2dVertex
 10
105.884206
 20
251.428173
 30
0.0
  0
VERTEX
  5
1467
100
AcDbEntity
  8
ALPHA
100
AcDbVertex
100
AcDb2dVertex
 10
105.380457
 20
250.970891
 30
0.0
  0
VERTEX
  5
1468
100
AcDbEntity
  8
ALPHA
100
AcDbVertex
100
AcDb2dVertex
 10
104.922665
 20
250.467759
 30
0.0
  0
VERTEX
  5
1469
100
AcDbEntity
  8
ALPHA
100
AcDbVertex
100
AcDb2dVertex
 10
104.514446
 20
249.922338
 30
0.0
  0
VERTEX
  5
146A
100
AcDbEntity
  8
ALPHA
100
AcDbVertex
100
AcDb2dVertex
 10
104.159417
 20
249.338192
 30
0.0
  0
VERTEX
  5
146B
100
AcDbEntity
  8
ALPHA
100
AcDbVertex
100
AcDb2dVertex
 10
103.861194
 20
248.718882
 30
0.0
  0
VERTEX
  5
146C
100
AcDbEntity
  8
ALPHA
100
AcDbVertex
100
AcDb2dVertex
 10
103.623391
 20
248.06797
 30
0.0
  0
VERTEX
  5
146D
100
AcDbEntity
  8
ALPHA
100
AcDbVertex
100
AcDb2dVertex
 10
103.449626
 20
247.389019
 30
0.0
  0
VERTEX
  5
146E
100
AcDbEntity
  8
ALPHA
100
AcDbVertex
100
AcDb2dVertex
 10
103.343515
 20
246.685592
 30
0.0
  0
VERTEX
  5
146F
100
AcDbEntity
  8
ALPHA
100
AcDbVertex
100
AcDb2dVertex
 10
103.308672
 20
245.96125
 30
0.0
  0
VERTEX
  5
1470
100
AcDbEntity
  8
ALPHA
100
AcDbVertex
100
AcDb2dVertex
 10
103.330227
 20
238.045975
 30
0.0
  0
VERTEX
  5
1471
100
AcDbEntity
  8
ALPHA
100
AcDbVertex
100
AcDb2dVertex
 10
103.360218
 20
237.452515
 30
0.0
  0
VERTEX
  5
1472
100
AcDbEntity
  8
ALPHA
100
AcDbVertex
100
AcDb2dVertex
 10
103.448248
 20
236.876078
 30
0.0
  0
VERTEX
  5
1473
100
AcDbEntity
  8
ALPHA
100
AcDbVertex
100
AcDb2dVertex
 10
103.591403
 20
236.3196
 30
0.0
  0
VERTEX
  5
1474
100
AcDbEntity
  8
ALPHA
100
AcDbVertex
100
AcDb2dVertex
 10
103.786768
 20
235.786013
 30
0.0
  0
VERTEX
  5
1475
100
AcDbEntity
  8
ALPHA
100
AcDbVertex
100
AcDb2dVertex
 10
104.03143
 20
235.278252
 30
0.0
  0
VERTEX
  5
1476
100
AcDbEntity
  8
ALPHA
100
AcDbVertex
100
AcDb2dVertex
 10
104.322473
 20
234.799252
 30
0.0
  0
VERTEX
  5
1477
100
AcDbEntity
  8
ALPHA
100
AcDbVertex
100
AcDb2dVertex
 10
104.656985
 20
234.351946
 30
0.0
  0
VERTEX
  5
1478
100
AcDbEntity
  8
ALPHA
100
AcDbVertex
100
AcDb2dVertex
 10
105.032049
 20
233.939267
 30
0.0
  0
VERTEX
  5
1479
100
AcDbEntity
  8
ALPHA
100
AcDbVertex
100
AcDb2dVertex
 10
105.444753
 20
233.564151
 30
0.0
  0
VERTEX
  5
147A
100
AcDbEntity
  8
ALPHA
100
AcDbVertex
100
AcDb2dVertex
 10
105.892181
 20
233.229531
 30
0.0
  0
VERTEX
  5
147B
100
AcDbEntity
  8
ALPHA
100
AcDbVertex
100
AcDb2dVertex
 10
106.37142
 20
232.938341
 30
0.0
  0
VERTEX
  5
147C
100
AcDbEntity
  8
ALPHA
100
AcDbVertex
100
AcDb2dVertex
 10
106.879555
 20
232.693516
 30
0.0
  0
VERTEX
  5
147D
100
AcDbEntity
  8
ALPHA
100
AcDbVertex
100
AcDb2dVertex
 10
107.413671
 20
232.497988
 30
0.0
  0
VERTEX
  5
147E
100
AcDbEntity
  8
ALPHA
100
AcDbVertex
100
AcDb2dVertex
 10
107.970856
 20
232.354694
 30
0.0
  0
VERTEX
  5
147F
100
AcDbEntity
  8
ALPHA
100
AcDbVertex
100
AcDb2dVertex
 10
108.548193
 20
232.266565
 30
0.0
  0
VERTEX
  5
1480
100
AcDbEntity
  8
ALPHA
100
AcDbVertex
100
AcDb2dVertex
 10
109.14277
 20
232.236537
 30
0.0
  0
VERTEX
  5
1481
100
AcDbEntity
  8
ALPHA
100
AcDbVertex
100
AcDb2dVertex
 10
109.14277
 20
60.132804
 30
0.0
  0
VERTEX
  5
1482
100
AcDbEntity
  8
ALPHA
100
AcDbVertex
100
AcDb2dVertex
 10
109.179351
 20
59.407293
 30
0.0
  0
VERTEX
  5
1483
100
AcDbEntity
  8
ALPHA
100
AcDbVertex
100
AcDb2dVertex
 10
109.28672
 20
58.702921
 30
0.0
  0
VERTEX
  5
1484
100
AcDbEntity
  8
ALPHA
100
AcDbVertex
100
AcDb2dVertex
 10
109.461314
 20
58.02323
 30
0.0
  0
VERTEX
  5
1485
100
AcDbEntity
  8
ALPHA
100
AcDbVertex
100
AcDb2dVertex
 10
109.699571
 20
57.371761
 30
0.0
  0
VERTEX
  5
1486
100
AcDbEntity
  8
ALPHA
100
AcDbVertex
100
AcDb2dVertex
 10
109.997929
 20
56.752056
 30
0.0
  0
VERTEX
  5
1487
100
AcDbEntity
  8
ALPHA
100
AcDbVertex
100
AcDb2dVertex
 10
110.352827
 20
56.167658
 30
0.0
  0
VERTEX
  5
1488
100
AcDbEntity
  8
ALPHA
100
AcDbVertex
100
AcDb2dVertex
 10
110.760701
 20
55.622107
 30
0.0
  0
VERTEX
  5
1489
100
AcDbEntity
  8
ALPHA
100
AcDbVertex
100
AcDb2dVertex
 10
111.21799
 20
55.118946
 30
0.0
  0
VERTEX
  5
148A
100
AcDbEntity
  8
ALPHA
100
AcDbVertex
100
AcDb2dVertex
 10
111.721132
 20
54.661716
 30
0.0
  0
VERTEX
  5
148B
100
AcDbEntity
  8
ALPHA
100
AcDbVertex
100
AcDb2dVertex
 10
112.266564
 20
54.253959
 30
0.0
  0
VERTEX
  5
148C
100
AcDbEntity
  8
ALPHA
100
AcDbVertex
100
AcDb2dVertex
 10
112.850725
 20
53.899216
 30
0.0
  0
VERTEX
  5
148D
100
AcDbEntity
  8
ALPHA
100
AcDbVertex
100
AcDb2dVertex
 10
113.470052
 20
53.601031
 30
0.0
  0
VERTEX
  5
148E
100
AcDbEntity
  8
ALPHA
100
AcDbVertex
100
AcDb2dVertex
 10
114.120984
 20
53.362943
 30
0.0
  0
VERTEX
  5
148F
100
AcDbEntity
  8
ALPHA
100
AcDbVertex
100
AcDb2dVertex
 10
114.799957
 20
53.188495
 30
0.0
  0
VERTEX
  5
1490
100
AcDbEntity
  8
ALPHA
100
AcDbVertex
100
AcDb2dVertex
 10
115.503411
 20
53.08123
 30
0.0
  0
VERTEX
  5
1491
100
AcDbEntity
  8
ALPHA
100
AcDbVertex
100
AcDb2dVertex
 10
116.227783
 20
53.044687
 30
0.0
  0
VERTEX
  5
1492
100
AcDbEntity
  8
ALPHA
100
AcDbVertex
100
AcDb2dVertex
 10
122.463659
 20
53.044687
 30
0.0
  0
SEQEND
  5
1493
100
AcDbEntity
  8
ALPHA
  0
POLYLINE
  5
1494
100
AcDbEntity
  8
ALPHA
100
AcDb2dPolyline
 66
     1
 10
0.0
 20
0.0
 30
0.0
  0
VERTEX
  5
1495
100
AcDbEntity
  8
ALPHA
100
AcDbVertex
100
AcDb2dVertex
 10
23.330105
 20
238.045975
 30
0.0
  0
VERTEX
  5
1496
100
AcDbEntity
  8
ALPHA
100
AcDbVertex
100
AcDb2dVertex
 10
23.360096
 20
237.452515
 30
0.0
  0
VERTEX
  5
1497
100
AcDbEntity
  8
ALPHA
100
AcDbVertex
100
AcDb2dVertex
 10
23.448127
 20
236.876078
 30
0.0
  0
VERTEX
  5
1498
100
AcDbEntity
  8
ALPHA
100
AcDbVertex
100
AcDb2dVertex
 10
23.591284
 20
236.3196
 30
0.0
  0
VERTEX
  5
1499
100
AcDbEntity
  8
ALPHA
100
AcDbVertex
100
AcDb2dVertex
 10
23.786651
 20
235.786013
 30
0.0
  0
VERTEX
  5
149A
100
AcDbEntity
  8
ALPHA
100
AcDbVertex
100
AcDb2dVertex
 10
24.031315
 20
235.278252
 30
0.0
  0
VERTEX
  5
149B
100
AcDbEntity
  8
ALPHA
100
AcDbVertex
100
AcDb2dVertex
 10
24.322361
 20
234.799252
 30
0.0
  0
VERTEX
  5
149C
100
AcDbEntity
  8
ALPHA
100
AcDbVertex
100
AcDb2dVertex
 10
24.656874
 20
234.351946
 30
0.0
  0
VERTEX
  5
149D
100
AcDbEntity
  8
ALPHA
100
AcDbVertex
100
AcDb2dVertex
 10
25.03194
 20
233.939267
 30
0.0
  0
VERTEX
  5
149E
100
AcDbEntity
  8
ALPHA
100
AcDbVertex
100
AcDb2dVertex
 10
25.444645
 20
233.564151
 30
0.0
  0
VERTEX
  5
149F
100
AcDbEntity
  8
ALPHA
100
AcDbVertex
100
AcDb2dVertex
 10
25.892074
 20
233.229531
 30
0.0
  0
VERTEX
  5
14A0
100
AcDbEntity
  8
ALPHA
100
AcDbVertex
100
AcDb2dVertex
 10
26.371313
 20
232.938341
 30
0.0
  0
VERTEX
  5
14A1
100
AcDbEntity
  8
ALPHA
100
AcDbVertex
100
AcDb2dVertex
 10
26.879447
 20
232.693516
 30
0.0
  0
VERTEX
  5
14A2
100
AcDbEntity
  8
ALPHA
100
AcDbVertex
100
AcDb2dVertex
 10
27.413562
 20
232.497988
 30
0.0
  0
VERTEX
  5
14A3
100
AcDbEntity
  8
ALPHA
100
AcDbVertex
100
AcDb2dVertex
 10
27.970744
 20
232.354694
 30
0.0
  0
VERTEX
  5
14A4
100
AcDbEntity
  8
ALPHA
100
AcDbVertex
100
AcDb2dVertex
 10
28.548077
 20
232.266565
 30
0.0
  0
VERTEX
  5
14A5
100
AcDbEntity
  8
ALPHA
100
AcDbVertex
100
AcDb2dVertex
 10
29.142648
 20
232.236537
 30
0.0
  0
VERTEX
  5
14A6
100
AcDbEntity
  8
ALPHA
100
AcDbVertex
100
AcDb2dVertex
 10
29.142648
 20
60.132804
 30
0.0
  0
VERTEX
  5
14A7
100
AcDbEntity
  8
ALPHA
100
AcDbVertex
100
AcDb2dVertex
 10
29.179229
 20
59.407293
 30
0.0
  0
VERTEX
  5
14A8
100
AcDbEntity
  8
ALPHA
100
AcDbVertex
100
AcDb2dVertex
 10
29.286598
 20
58.702921
 30
0.0
  0
VERTEX
  5
14A9
100
AcDbEntity
  8
ALPHA
100
AcDbVertex
100
AcDb2dVertex
 10
29.461191
 20
58.02323
 30
0.0
  0
VERTEX
  5
14AA
100
AcDbEntity
  8
ALPHA
100
AcDbVertex
100
AcDb2dVertex
 10
29.699449
 20
57.371761
 30
0.0
  0
VERTEX
  5
14AB
100
AcDbEntity
  8
ALPHA
100
AcDbVertex
100
AcDb2dVertex
 10
29.997807
 20
56.752056
 30
0.0
  0
VERTEX
  5
14AC
100
AcDbEntity
  8
ALPHA
100
AcDbVertex
100
AcDb2dVertex
 10
30.352704
 20
56.167658
 30
0.0
  0
VERTEX
  5
14AD
100
AcDbEntity
  8
ALPHA
100
AcDbVertex
100
AcDb2dVertex
 10
30.760579
 20
55.622107
 30
0.0
  0
VERTEX
  5
14AE
100
AcDbEntity
  8
ALPHA
100
AcDbVertex
100
AcDb2dVertex
 10
31.217868
 20
55.118946
 30
0.0
  0
VERTEX
  5
14AF
100
AcDbEntity
  8
ALPHA
100
AcDbVertex
100
AcDb2dVertex
 10
31.721009
 20
54.661716
 30
0.0
  0
VERTEX
  5
14B0
100
AcDbEntity
  8
ALPHA
100
AcDbVertex
100
AcDb2dVertex
 10
32.266442
 20
54.253959
 30
0.0
  0
VERTEX
  5
14B1
100
AcDbEntity
  8
ALPHA
100
AcDbVertex
100
AcDb2dVertex
 10
32.850603
 20
53.899216
 30
0.0
  0
VERTEX
  5
14B2
100
AcDbEntity
  8
ALPHA
100
AcDbVertex
100
AcDb2dVertex
 10
33.46993
 20
53.601031
 30
0.0
  0
VERTEX
  5
14B3
100
AcDbEntity
  8
ALPHA
100
AcDbVertex
100
AcDb2dVertex
 10
34.120861
 20
53.362943
 30
0.0
  0
VERTEX
  5
14B4
100
AcDbEntity
  8
ALPHA
100
AcDbVertex
100
AcDb2dVertex
 10
34.799835
 20
53.188495
 30
0.0
  0
VERTEX
  5
14B5
100
AcDbEntity
  8
ALPHA
100
AcDbVertex
100
AcDb2dVertex
 10
35.503289
 20
53.08123
 30
0.0
  0
VERTEX
  5
14B6
100
AcDbEntity
  8
ALPHA
100
AcDbVertex
100
AcDb2dVertex
 10
36.22766
 20
53.044687
 30
0.0
  0
VERTEX
  5
14B7
100
AcDbEntity
  8
ALPHA
100
AcDbVertex
100
AcDb2dVertex
 10
40.649448
 20
53.044687
 30
0.0
  0
SEQEND
  5
14B8
100
AcDbEntity
  8
ALPHA
  0
POLYLINE
  5
14B9
100
AcDbEntity
  8
ALPHA
100
AcDb2dPolyline
 66
     1
 10
0.0
 20
0.0
 30
0.0
  0
VERTEX
  5
14BA
100
AcDbEntity
  8
ALPHA
100
AcDbVertex
100
AcDb2dVertex
 10
101.618867
 20
68.044657
 30
0.0
  0
VERTEX
  5
14BB
100
AcDbEntity
  8
ALPHA
100
AcDbVertex
100
AcDb2dVertex
 10
101.588876
 20
68.638724
 30
0.0
  0
VERTEX
  5
14BC
100
AcDbEntity
  8
ALPHA
100
AcDbVertex
100
AcDb2dVertex
 10
101.50085
 20
69.215688
 30
0.0
  0
VERTEX
  5
14BD
100
AcDbEntity
  8
ALPHA
100
AcDbVertex
100
AcDb2dVertex
 10
101.357708
 20
69.772619
 30
0.0
  0
VERTEX
  5
14BE
100
AcDbEntity
  8
ALPHA
100
AcDbVertex
100
AcDb2dVertex
 10
101.162369
 20
70.306591
 30
0.0
  0
VERTEX
  5
14BF
100
AcDbEntity
  8
ALPHA
100
AcDbVertex
100
AcDb2dVertex
 10
100.91775
 20
70.814673
 30
0.0
  0
VERTEX
  5
14C0
100
AcDbEntity
  8
ALPHA
100
AcDbVertex
100
AcDb2dVertex
 10
100.626773
 20
71.293938
 30
0.0
  0
VERTEX
  5
14C1
100
AcDbEntity
  8
ALPHA
100
AcDbVertex
100
AcDb2dVertex
 10
100.292355
 20
71.741457
 30
0.0
  0
VERTEX
  5
14C2
100
AcDbEntity
  8
ALPHA
100
AcDbVertex
100
AcDb2dVertex
 10
99.917415
 20
72.154302
 30
0.0
  0
VERTEX
  5
14C3
100
AcDbEntity
  8
ALPHA
100
AcDbVertex
100
AcDb2dVertex
 10
99.504873
 20
72.529545
 30
0.0
  0
VERTEX
  5
14C4
100
AcDbEntity
  8
ALPHA
100
AcDbVertex
100
AcDb2dVertex
 10
99.057647
 20
72.864256
 30
0.0
  0
VERTEX
  5
14C5
100
AcDbEntity
  8
ALPHA
100
AcDbVertex
100
AcDb2dVertex
 10
98.578656
 20
73.155508
 30
0.0
  0
VERTEX
  5
14C6
100
AcDbEntity
  8
ALPHA
100
AcDbVertex
100
AcDb2dVertex
 10
98.070819
 20
73.400371
 30
0.0
  0
VERTEX
  5
14C7
100
AcDbEntity
  8
ALPHA
100
AcDbVertex
100
AcDb2dVertex
 10
97.537056
 20
73.595918
 30
0.0
  0
VERTEX
  5
14C8
100
AcDbEntity
  8
ALPHA
100
AcDbVertex
100
AcDb2dVertex
 10
96.980284
 20
73.739221
 30
0.0
  0
VERTEX
  5
14C9
100
AcDbEntity
  8
ALPHA
100
AcDbVertex
100
AcDb2dVertex
 10
96.403424
 20
73.82735
 30
0.0
  0
VERTEX
  5
14CA
100
AcDbEntity
  8
ALPHA
100
AcDbVertex
100
AcDb2dVertex
 10
95.809393
 20
73.857377
 30
0.0
  0
VERTEX
  5
14CB
100
AcDbEntity
  8
ALPHA
100
AcDbVertex
100
AcDb2dVertex
 10
95.809393
 20
238.045975
 30
0.0
  0
SEQEND
  5
14CC
100
AcDbEntity
  8
ALPHA
  0
POLYLINE
  5
14CD
100
AcDbEntity
  8
ALPHA
100
AcDb2dPolyline
 66
     1
 10
0.0
 20
0.0
 30
0.0
  0
VERTEX
  5
14CE
100
AcDbEntity
  8
ALPHA
100
AcDbVertex
100
AcDb2dVertex
 10
90.496701
 20
59.960049
 30
0.0
  0
VERTEX
  5
14CF
100
AcDbEntity
  8
ALPHA
100
AcDbVertex
100
AcDb2dVertex
 10
90.381925
 20
58.532378
 30
0.0
  0
VERTEX
  5
14D0
100
AcDbEntity
  8
ALPHA
100
AcDbVertex
100
AcDb2dVertex
 10
90.052175
 20
57.202881
 30
0.0
  0
VERTEX
  5
14D1
100
AcDbEntity
  8
ALPHA
100
AcDbVertex
100
AcDb2dVertex
 10
89.529312
 20
55.999969
 30
0.0
  0
VERTEX
  5
14D2
100
AcDbEntity
  8
ALPHA
100
AcDbVertex
100
AcDb2dVertex
 10
89.202296
 20
55.454861
 30
0.0
  0
VERTEX
  5
14D3
100
AcDbEntity
  8
ALPHA
100
AcDbVertex
100
AcDb2dVertex
 10
88.835201
 20
54.952055
 30
0.0
  0
VERTEX
  5
14D4
100
AcDbEntity
  8
ALPHA
100
AcDbVertex
100
AcDb2dVertex
 10
88.43076
 20
54.495102
 30
0.0
  0
VERTEX
  5
14D5
100
AcDbEntity
  8
ALPHA
100
AcDbVertex
100
AcDb2dVertex
 10
87.991705
 20
54.087553
 30
0.0
  0
VERTEX
  5
14D6
100
AcDbEntity
  8
ALPHA
100
AcDbVertex
100
AcDb2dVertex
 10
87.520769
 20
53.732959
 30
0.0
  0
VERTEX
  5
14D7
100
AcDbEntity
  8
ALPHA
100
AcDbVertex
100
AcDb2dVertex
 10
87.020686
 20
53.434873
 30
0.0
  0
VERTEX
  5
14D8
100
AcDbEntity
  8
ALPHA
100
AcDbVertex
100
AcDb2dVertex
 10
86.494188
 20
53.196846
 30
0.0
  0
VERTEX
  5
14D9
100
AcDbEntity
  8
ALPHA
100
AcDbVertex
100
AcDb2dVertex
 10
85.944008
 20
53.02243
 30
0.0
  0
VERTEX
  5
14DA
100
AcDbEntity
  8
ALPHA
100
AcDbVertex
100
AcDb2dVertex
 10
85.37288
 20
52.915175
 30
0.0
  0
VERTEX
  5
14DB
100
AcDbEntity
  8
ALPHA
100
AcDbVertex
100
AcDb2dVertex
 10
84.783535
 20
52.878635
 30
0.0
  0
VERTEX
  5
14DC
100
AcDbEntity
  8
ALPHA
100
AcDbVertex
100
AcDb2dVertex
 10
41.894153
 20
52.878635
 30
0.0
  0
VERTEX
  5
14DD
100
AcDbEntity
  8
ALPHA
100
AcDbVertex
100
AcDb2dVertex
 10
41.303491
 20
52.915175
 30
0.0
  0
VERTEX
  5
14DE
100
AcDbEntity
  8
ALPHA
100
AcDbVertex
100
AcDb2dVertex
 10
40.728628
 20
53.02243
 30
0.0
  0
VERTEX
  5
14DF
100
AcDbEntity
  8
ALPHA
100
AcDbVertex
100
AcDb2dVertex
 10
40.17264
 20
53.196846
 30
0.0
  0
VERTEX
  5
14E0
100
AcDbEntity
  8
ALPHA
100
AcDbVertex
100
AcDb2dVertex
 10
39.638607
 20
53.434873
 30
0.0
  0
VERTEX
  5
14E1
100
AcDbEntity
  8
ALPHA
100
AcDbVertex
100
AcDb2dVertex
 10
39.129607
 20
53.732959
 30
0.0
  0
VERTEX
  5
14E2
100
AcDbEntity
  8
ALPHA
100
AcDbVertex
100
AcDb2dVertex
 10
38.648718
 20
54.087553
 30
0.0
  0
VERTEX
  5
14E3
100
AcDbEntity
  8
ALPHA
100
AcDbVertex
100
AcDb2dVertex
 10
38.199019
 20
54.495102
 30
0.0
  0
VERTEX
  5
14E4
100
AcDbEntity
  8
ALPHA
100
AcDbVertex
100
AcDb2dVertex
 10
37.783587
 20
54.952055
 30
0.0
  0
VERTEX
  5
14E5
100
AcDbEntity
  8
ALPHA
100
AcDbVertex
100
AcDb2dVertex
 10
37.405501
 20
55.454861
 30
0.0
  0
VERTEX
  5
14E6
100
AcDbEntity
  8
ALPHA
100
AcDbVertex
100
AcDb2dVertex
 10
37.067839
 20
55.999969
 30
0.0
  0
VERTEX
  5
14E7
100
AcDbEntity
  8
ALPHA
100
AcDbVertex
100
AcDb2dVertex
 10
36.526102
 20
57.202881
 30
0.0
  0
VERTEX
  5
14E8
100
AcDbEntity
  8
ALPHA
100
AcDbVertex
100
AcDb2dVertex
 10
36.183
 20
58.532378
 30
0.0
  0
VERTEX
  5
14E9
100
AcDbEntity
  8
ALPHA
100
AcDbVertex
100
AcDb2dVertex
 10
36.06316
 20
59.960049
 30
0.0
  0
VERTEX
  5
14EA
100
AcDbEntity
  8
ALPHA
100
AcDbVertex
100
AcDb2dVertex
 10
36.06316
 20
245.791776
 30
0.0
  0
VERTEX
  5
14EB
100
AcDbEntity
  8
ALPHA
100
AcDbVertex
100
AcDb2dVertex
 10
36.177996
 20
247.219594
 30
0.0
  0
VERTEX
  5
14EC
100
AcDbEntity
  8
ALPHA
100
AcDbVertex
100
AcDb2dVertex
 10
36.507909
 20
248.549479
 30
0.0
  0
VERTEX
  5
14ED
100
AcDbEntity
  8
ALPHA
100
AcDbVertex
100
AcDb2dVertex
 10
37.031004
 20
249.752939
 30
0.0
  0
VERTEX
  5
14EE
100
AcDbEntity
  8
ALPHA
100
AcDbVertex
100
AcDb2dVertex
 10
37.358153
 20
250.298355
 30
0.0
  0
VERTEX
  5
14EF
100
AcDbEntity
  8
ALPHA
100
AcDbVertex
100
AcDb2dVertex
 10
37.725387
 20
250.801481
 30
0.0
  0
VERTEX
  5
14F0
100
AcDbEntity
  8
ALPHA
100
AcDbVertex
100
AcDb2dVertex
 10
38.12997
 20
251.258753
 30
0.0
  0
VERTEX
  5
14F1
100
AcDbEntity
  8
ALPHA
100
AcDbVertex
100
AcDb2dVertex
 10
38.569164
 20
251.666611
 30
0.0
  0
VERTEX
  5
14F2
100
AcDbEntity
  8
ALPHA
100
AcDbVertex
100
AcDb2dVertex
 10
39.040233
 20
252.021494
 30
0.0
  0
VERTEX
  5
14F3
100
AcDbEntity
  8
ALPHA
100
AcDbVertex
100
AcDb2dVertex
 10
39.54044
 20
252.319839
 30
0.0
  0
VERTEX
  5
14F4
100
AcDbEntity
  8
ALPHA
100
AcDbVertex
100
AcDb2dVertex
 10
40.067048
 20
252.558085
 30
0.0
  0
VERTEX
  5
14F5
100
AcDbEntity
  8
ALPHA
100
AcDbVertex
100
AcDb2dVertex
 10
40.617321
 20
252.73267
 30
0.0
  0
VERTEX
  5
14F6
100
AcDbEntity
  8
ALPHA
100
AcDbVertex
100
AcDb2dVertex
 10
41.188522
 20
252.840033
 30
0.0
  0
VERTEX
  5
14F7
100
AcDbEntity
  8
ALPHA
100
AcDbVertex
100
AcDb2dVertex
 10
41.777913
 20
252.876612
 30
0.0
  0
VERTEX
  5
14F8
100
AcDbEntity
  8
ALPHA
100
AcDbVertex
100
AcDb2dVertex
 10
84.66726
 20
252.876612
 30
0.0
  0
VERTEX
  5
14F9
100
AcDbEntity
  8
ALPHA
100
AcDbVertex
100
AcDb2dVertex
 10
85.257939
 20
252.840033
 30
0.0
  0
VERTEX
  5
14FA
100
AcDbEntity
  8
ALPHA
100
AcDbVertex
100
AcDb2dVertex
 10
85.83278
 20
252.73267
 30
0.0
  0
VERTEX
  5
14FB
100
AcDbEntity
  8
ALPHA
100
AcDbVertex
100
AcDb2dVertex
 10
86.388708
 20
252.558085
 30
0.0
  0
VERTEX
  5
14FC
100
AcDbEntity
  8
ALPHA
100
AcDbVertex
100
AcDb2dVertex
 10
86.922653
 20
252.319839
 30
0.0
  0
VERTEX
  5
14FD
100
AcDbEntity
  8
ALPHA
100
AcDbVertex
100
AcDb2dVertex
 10
87.43154
 20
252.021494
 30
0.0
  0
VERTEX
  5
14FE
100
AcDbEntity
  8
ALPHA
100
AcDbVertex
100
AcDb2dVertex
 10
87.912297
 20
251.666611
 30
0.0
  0
VERTEX
  5
14FF
100
AcDbEntity
  8
ALPHA
100
AcDbVertex
100
AcDb2dVertex
 10
88.361851
 20
251.258753
 30
0.0
  0
VERTEX
  5
1500
100
AcDbEntity
  8
ALPHA
100
AcDbVertex
100
AcDb2dVertex
 10
88.77713
 20
250.801481
 30
0.0
  0
VERTEX
  5
1501
100
AcDbEntity
  8
ALPHA
100
AcDbVertex
100
AcDb2dVertex
 10
89.15506
 20
250.298355
 30
0.0
  0
VERTEX
  5
1502
100
AcDbEntity
  8
ALPHA
100
AcDbVertex
100
AcDb2dVertex
 10
89.492569
 20
249.752939
 30
0.0
  0
VERTEX
  5
1503
100
AcDbEntity
  8
ALPHA
100
AcDbVertex
100
AcDb2dVertex
 10
90.034032
 20
248.549479
 30
0.0
  0
VERTEX
  5
1504
100
AcDbEntity
  8
ALPHA
100
AcDbVertex
100
AcDb2dVertex
 10
90.376936
 20
247.219594
 30
0.0
  0
VERTEX
  5
1505
100
AcDbEntity
  8
ALPHA
100
AcDbVertex
100
AcDb2dVertex
 10
90.496701
 20
245.791776
 30
0.0
  0
VERTEX
  5
1506
100
AcDbEntity
  8
ALPHA
100
AcDbVertex
100
AcDb2dVertex
 10
90.496701
 20
59.960049
 30
0.0
  0
SEQEND
  5
1507
100
AcDbEntity
  8
ALPHA
  0
POLYLINE
  5
1508
100
AcDbEntity
  8
ALPHA
100
AcDb2dPolyline
 66
     1
 10
0.0
 20
0.0
 30
0.0
  0
VERTEX
  5
1509
100
AcDbEntity
  8
ALPHA
100
AcDbVertex
100
AcDb2dVertex
 10
23.30855
 20
229.297157
 30
0.0
  0
VERTEX
  5
150A
100
AcDbEntity
  8
ALPHA
100
AcDbVertex
100
AcDb2dVertex
 10
8.308545
 20
229.297157
 30
0.0
  0
VERTEX
  5
150B
100
AcDbEntity
  8
ALPHA
100
AcDbVertex
100
AcDb2dVertex
 10
8.308545
 20
76.793652
 30
0.0
  0
VERTEX
  5
150C
100
AcDbEntity
  8
ALPHA
100
AcDbVertex
100
AcDb2dVertex
 10
23.30855
 20
76.793652
 30
0.0
  0
SEQEND
  5
150D
100
AcDbEntity
  8
ALPHA
  0
POLYLINE
  5
150E
100
AcDbEntity
  8
ALPHA
100
AcDb2dPolyline
 66
     1
 10
0.0
 20
0.0
 30
0.0
  0
VERTEX
  5
150F
100
AcDbEntity
  8
ALPHA
100
AcDbVertex
100
AcDb2dVertex
 10
12.475309
 20
141.804493
 30
0.0
  0
VERTEX
  5
1510
100
AcDbEntity
  8
ALPHA
100
AcDbVertex
100
AcDb2dVertex
 10
19.141645
 20
141.804493
 30
0.0
  0
VERTEX
  5
1511
100
AcDbEntity
  8
ALPHA
100
AcDbVertex
100
AcDb2dVertex
 10
19.141645
 20
156.784461
 30
0.0
  0
VERTEX
  5
1512
100
AcDbEntity
  8
ALPHA
100
AcDbVertex
100
AcDb2dVertex
 10
12.475309
 20
156.784461
 30
0.0
  0
VERTEX
  5
1513
100
AcDbEntity
  8
ALPHA
100
AcDbVertex
100
AcDb2dVertex
 10
12.475309
 20
141.804493
 30
0.0
  0
SEQEND
  5
1514
100
AcDbEntity
  8
ALPHA
  0
POLYLINE
  5
1515
100
AcDbEntity
  8
ALPHA
100
AcDb2dPolyline
 66
     1
 10
0.0
 20
0.0
 30
0.0
  0
VERTEX
  5
1516
100
AcDbEntity
  8
ALPHA
100
AcDbVertex
100
AcDb2dVertex
 10
8.308545
 20
133.889218
 30
0.0
  0
VERTEX
  5
1517
100
AcDbEntity
  8
ALPHA
100
AcDbVertex
100
AcDb2dVertex
 10
23.30855
 20
133.889218
 30
0.0
  0
VERTEX
  5
1518
100
AcDbEntity
  8
ALPHA
100
AcDbVertex
100
AcDb2dVertex
 10
23.30855
 20
164.703158
 30
0.0
  0
VERTEX
  5
1519
100
AcDbEntity
  8
ALPHA
100
AcDbVertex
100
AcDb2dVertex
 10
8.308545
 20
164.703158
 30
0.0
  0
SEQEND
  5
151A
100
AcDbEntity
  8
ALPHA
  0
POLYLINE
  5
151B
100
AcDbEntity
  8
POINTILLE_COURT
100
AcDb2dPolyline
 66
     1
 10
0.0
 20
0.0
 30
0.0
  0
VERTEX
  5
151C
100
AcDbEntity
  8
POINTILLE_COURT
100
AcDbVertex
100
AcDb2dVertex
 10
44.963673
 20
257.791547
 30
0.0
  0
VERTEX
  5
151D
100
AcDbEntity
  8
POINTILLE_COURT
100
AcDbVertex
100
AcDb2dVertex
 10
80.963693
 20
257.791547
 30
0.0
  0
VERTEX
  5
151E
100
AcDbEntity
  8
POINTILLE_COURT
100
AcDbVertex
100
AcDb2dVertex
 10
80.963693
 20
4.61733
 30
0.0
  0
VERTEX
  5
151F
100
AcDbEntity
  8
POINTILLE_COURT
100
AcDbVertex
100
AcDb2dVertex
 10
44.963673
 20
4.61733
 30
0.0
  0
VERTEX
  5
1520
100
AcDbEntity
  8
POINTILLE_COURT
100
AcDbVertex
100
AcDb2dVertex
 10
44.963673
 20
257.791547
 30
0.0
  0
SEQEND
  5
1521
100
AcDbEntity
  8
POINTILLE_COURT
  0
POLYLINE
  5
1522
100
AcDbEntity
  8
ALPHA
100
AcDb2dPolyline
 66
     1
 10
0.0
 20
0.0
 30
0.0
  0
VERTEX
  5
1523
100
AcDbEntity
  8
ALPHA
100
AcDbVertex
100
AcDb2dVertex
 10
29.142648
 20
72.568574
 30
0.0
  0
VERTEX
  5
1524
100
AcDbEntity
  8
ALPHA
100
AcDbVertex
100
AcDb2dVertex
 10
23.30855
 20
72.568574
 30
0.0
  0
VERTEX
  5
1525
100
AcDbEntity
  8
ALPHA
100
AcDbVertex
100
AcDb2dVertex
 10
23.30855
 20
76.793652
 30
0.0
  0
VERTEX
  5
1526
100
AcDbEntity
  8
ALPHA
100
AcDbVertex
100
AcDb2dVertex
 10
23.30855
 20
245.96125
 30
0.0
  0
VERTEX
  5
1527
100
AcDbEntity
  8
ALPHA
100
AcDbVertex
100
AcDb2dVertex
 10
23.345148
 20
246.685597
 30
0.0
  0
VERTEX
  5
1528
100
AcDbEntity
  8
ALPHA
100
AcDbVertex
100
AcDb2dVertex
 10
23.452563
 20
247.389028
 30
0.0
  0
VERTEX
  5
1529
100
AcDbEntity
  8
ALPHA
100
AcDbVertex
100
AcDb2dVertex
 10
23.627226
 20
248.067981
 30
0.0
  0
VERTEX
  5
152A
100
AcDbEntity
  8
ALPHA
100
AcDbVertex
100
AcDb2dVertex
 10
23.865567
 20
248.718894
 30
0.0
  0
VERTEX
  5
152B
100
AcDbEntity
  8
ALPHA
100
AcDbVertex
100
AcDb2dVertex
 10
24.164018
 20
249.338205
 30
0.0
  0
VERTEX
  5
152C
100
AcDbEntity
  8
ALPHA
100
AcDbVertex
100
AcDb2dVertex
 10
24.519008
 20
249.922351
 30
0.0
  0
VERTEX
  5
152D
100
AcDbEntity
  8
ALPHA
100
AcDbVertex
100
AcDb2dVertex
 10
24.92697
 20
250.467771
 30
0.0
  0
VERTEX
  5
152E
100
AcDbEntity
  8
ALPHA
100
AcDbVertex
100
AcDb2dVertex
 10
25.384334
 20
250.970902
 30
0.0
  0
VERTEX
  5
152F
100
AcDbEntity
  8
ALPHA
100
AcDbVertex
100
AcDb2dVertex
 10
25.887531
 20
251.428182
 30
0.0
  0
VERTEX
  5
1530
100
AcDbEntity
  8
ALPHA
100
AcDbVertex
100
AcDb2dVertex
 10
26.432992
 20
251.836049
 30
0.0
  0
VERTEX
  5
1531
100
AcDbEntity
  8
ALPHA
100
AcDbVertex
100
AcDb2dVertex
 10
27.017147
 20
252.19094
 30
0.0
  0
VERTEX
  5
1532
100
AcDbEntity
  8
ALPHA
100
AcDbVertex
100
AcDb2dVertex
 10
27.636427
 20
252.489293
 30
0.0
  0
VERTEX
  5
1533
100
AcDbEntity
  8
ALPHA
100
AcDbVertex
100
AcDb2dVertex
 10
28.287264
 20
252.727547
 30
0.0
  0
VERTEX
  5
1534
100
AcDbEntity
  8
ALPHA
100
AcDbVertex
100
AcDb2dVertex
 10
28.966088
 20
252.902139
 30
0.0
  0
VERTEX
  5
1535
100
AcDbEntity
  8
ALPHA
100
AcDbVertex
100
AcDb2dVertex
 10
29.66933
 20
253.009506
 30
0.0
  0
VERTEX
  5
1536
100
AcDbEntity
  8
ALPHA
100
AcDbVertex
100
AcDb2dVertex
 10
30.393422
 20
253.046086
 30
0.0
  0
VERTEX
  5
1537
100
AcDbEntity
  8
ALPHA
100
AcDbVertex
100
AcDb2dVertex
 10
42.463643
 20
253.046086
 30
0.0
  0
VERTEX
  5
1538
100
AcDbEntity
  8
ALPHA
100
AcDbVertex
100
AcDb2dVertex
 10
42.463643
 20
305.046201
 30
0.0
  0
VERTEX
  5
1539
100
AcDbEntity
  8
ALPHA
100
AcDbVertex
100
AcDb2dVertex
 10
82.463598
 20
305.046201
 30
0.0
  0
VERTEX
  5
153A
100
AcDbEntity
  8
ALPHA
100
AcDbVertex
100
AcDb2dVertex
 10
82.463598
 20
253.046086
 30
0.0
  0
VERTEX
  5
153B
100
AcDbEntity
  8
ALPHA
100
AcDbVertex
100
AcDb2dVertex
 10
89.177947
 20
252.99959
 30
0.0
  0
VERTEX
  5
153C
100
AcDbEntity
  8
ALPHA
100
AcDbVertex
100
AcDb2dVertex
 10
89.861657
 20
252.922418
 30
0.0
  0
VERTEX
  5
153D
100
AcDbEntity
  8
ALPHA
100
AcDbVertex
100
AcDb2dVertex
 10
90.524316
 20
252.782598
 30
0.0
  0
VERTEX
  5
153E
100
AcDbEntity
  8
ALPHA
100
AcDbVertex
100
AcDb2dVertex
 10
91.162743
 20
252.583189
 30
0.0
  0
VERTEX
  5
153F
100
AcDbEntity
  8
ALPHA
100
AcDbVertex
100
AcDb2dVertex
 10
91.773755
 20
252.327254
 30
0.0
  0
VERTEX
  5
1540
100
AcDbEntity
  8
ALPHA
100
AcDbVertex
100
AcDb2dVertex
 10
92.35417
 20
252.017854
 30
0.0
  0
VERTEX
  5
1541
100
AcDbEntity
  8
ALPHA
100
AcDbVertex
100
AcDb2dVertex
 10
92.900807
 20
251.65805
 30
0.0
  0
VERTEX
  5
1542
100
AcDbEntity
  8
ALPHA
100
AcDbVertex
100
AcDb2dVertex
 10
93.410485
 20
251.250903
 30
0.0
  0
VERTEX
  5
1543
100
AcDbEntity
  8
ALPHA
100
AcDbVertex
100
AcDb2dVertex
 10
93.88002
 20
250.799474
 30
0.0
  0
VERTEX
  5
1544
100
AcDbEntity
  8
ALPHA
100
AcDbVertex
100
AcDb2dVertex
 10
94.306233
 20
250.306825
 30
0.0
  0
VERTEX
  5
1545
100
AcDbEntity
  8
ALPHA
100
AcDbVertex
100
AcDb2dVertex
 10
94.68594
 20
249.776017
 30
0.0
  0
VERTEX
  5
1546
100
AcDbEntity
  8
ALPHA
100
AcDbVertex
100
AcDb2dVertex
 10
95.01596
 20
249.21011
 30
0.0
  0
VERTEX
  5
1547
100
AcDbEntity
  8
ALPHA
100
AcDbVertex
100
AcDb2dVertex
 10
95.293111
 20
248.612167
 30
0.0
  0
VERTEX
  5
1548
100
AcDbEntity
  8
ALPHA
100
AcDbVertex
100
AcDb2dVertex
 10
95.514212
 20
247.985248
 30
0.0
  0
VERTEX
  5
1549
100
AcDbEntity
  8
ALPHA
100
AcDbVertex
100
AcDb2dVertex
 10
95.67608
 20
247.332415
 30
0.0
  0
VERTEX
  5
154A
100
AcDbEntity
  8
ALPHA
100
AcDbVertex
100
AcDb2dVertex
 10
95.775534
 20
246.656729
 30
0.0
  0
VERTEX
  5
154B
100
AcDbEntity
  8
ALPHA
100
AcDbVertex
100
AcDb2dVertex
 10
95.809393
 20
245.96125
 30
0.0
  0
VERTEX
  5
154C
100
AcDbEntity
  8
ALPHA
100
AcDbVertex
100
AcDb2dVertex
 10
95.809393
 20
238.045975
 30
0.0
  0
SEQEND
  5
154D
100
AcDbEntity
  8
ALPHA
  0
POLYLINE
  5
154E
100
AcDbEntity
  8
ALPHA
100
AcDb2dPolyline
 66
     1
 10
0.0
 20
0.0
 30
0.0
  0
VERTEX
  5
154F
100
AcDbEntity
  8
ALPHA
100
AcDbVertex
100
AcDb2dVertex
 10
62.463638
 20
28.516472
 30
0.0
  0
VERTEX
  5
1550
100
AcDbEntity
  8
ALPHA
100
AcDbVertex
100
AcDb2dVertex
 10
63.226162
 20
28.477937
 30
0.0
  0
VERTEX
  5
1551
100
AcDbEntity
  8
ALPHA
100
AcDbVertex
100
AcDb2dVertex
 10
63.96675
 20
28.364832
 30
0.0
  0
VERTEX
  5
1552
100
AcDbEntity
  8
ALPHA
100
AcDbVertex
100
AcDb2dVertex
 10
64.681639
 20
28.180903
 30
0.0
  0
VERTEX
  5
1553
100
AcDbEntity
  8
ALPHA
100
AcDbVertex
100
AcDb2dVertex
 10
65.367068
 20
27.929897
 30
0.0
  0
VERTEX
  5
1554
100
AcDbEntity
  8
ALPHA
100
AcDbVertex
100
AcDb2dVertex
 10
66.019278
 20
27.615559
 30
0.0
  0
VERTEX
  5
1555
100
AcDbEntity
  8
ALPHA
100
AcDbVertex
100
AcDb2dVertex
 10
66.634505
 20
27.241638
 30
0.0
  0
VERTEX
  5
1556
100
AcDbEntity
  8
ALPHA
100
AcDbVertex
100
AcDb2dVertex
 10
67.20899
 20
26.811879
 30
0.0
  0
VERTEX
  5
1557
100
AcDbEntity
  8
ALPHA
100
AcDbVertex
100
AcDb2dVertex
 10
67.738971
 20
26.33003
 30
0.0
  0
VERTEX
  5
1558
100
AcDbEntity
  8
ALPHA
100
AcDbVertex
100
AcDb2dVertex
 10
68.220687
 20
25.799837
 30
0.0
  0
VERTEX
  5
1559
100
AcDbEntity
  8
ALPHA
100
AcDbVertex
100
AcDb2dVertex
 10
68.650377
 20
25.225046
 30
0.0
  0
VERTEX
  5
155A
100
AcDbEntity
  8
ALPHA
100
AcDbVertex
100
AcDb2dVertex
 10
69.02428
 20
24.609406
 30
0.0
  0
VERTEX
  5
155B
100
AcDbEntity
  8
ALPHA
100
AcDbVertex
100
AcDb2dVertex
 10
69.338634
 20
23.956661
 30
0.0
  0
VERTEX
  5
155C
100
AcDbEntity
  8
ALPHA
100
AcDbVertex
100
AcDb2dVertex
 10
69.589679
 20
23.270559
 30
0.0
  0
VERTEX
  5
155D
100
AcDbEntity
  8
ALPHA
100
AcDbVertex
100
AcDb2dVertex
 10
69.773654
 20
22.554847
 30
0.0
  0
VERTEX
  5
155E
100
AcDbEntity
  8
ALPHA
100
AcDbVertex
100
AcDb2dVertex
 10
69.886796
 20
21.81327
 30
0.0
  0
VERTEX
  5
155F
100
AcDbEntity
  8
ALPHA
100
AcDbVertex
100
AcDb2dVertex
 10
69.925347
 20
21.049577
 30
0.0
  0
VERTEX
  5
1560
100
AcDbEntity
  8
ALPHA
100
AcDbVertex
100
AcDb2dVertex
 10
69.886796
 20
20.2865
 30
0.0
  0
VERTEX
  5
1561
100
AcDbEntity
  8
ALPHA
100
AcDbVertex
100
AcDb2dVertex
 10
69.773654
 20
19.545538
 30
0.0
  0
VERTEX
  5
1562
100
AcDbEntity
  8
ALPHA
100
AcDbVertex
100
AcDb2dVertex
 10
69.589679
 20
18.830433
 30
0.0
  0
VERTEX
  5
1563
100
AcDbEntity
  8
ALPHA
100
AcDbVertex
100
AcDb2dVertex
 10
69.338634
 20
18.144925
 30
0.0
  0
VERTEX
  5
1564
100
AcDbEntity
  8
ALPHA
100
AcDbVertex
100
AcDb2dVertex
 10
69.02428
 20
17.492757
 30
0.0
  0
VERTEX
  5
1565
100
AcDbEntity
  8
ALPHA
100
AcDbVertex
100
AcDb2dVertex
 10
68.650377
 20
16.877671
 30
0.0
  0
VERTEX
  5
1566
100
AcDbEntity
  8
ALPHA
100
AcDbVertex
100
AcDb2dVertex
 10
68.220687
 20
16.303406
 30
0.0
  0
VERTEX
  5
1567
100
AcDbEntity
  8
ALPHA
100
AcDbVertex
100
AcDb2dVertex
 10
67.738971
 20
15.773706
 30
0.0
  0
VERTEX
  5
1568
100
AcDbEntity
  8
ALPHA
100
AcDbVertex
100
AcDb2dVertex
 10
67.20899
 20
15.292311
 30
0.0
  0
VERTEX
  5
1569
100
AcDbEntity
  8
ALPHA
100
AcDbVertex
100
AcDb2dVertex
 10
66.634505
 20
14.862964
 30
0.0
  0
VERTEX
  5
156A
100
AcDbEntity
  8
ALPHA
100
AcDbVertex
100
AcDb2dVertex
 10
66.019278
 20
14.489404
 30
0.0
  0
VERTEX
  5
156B
100
AcDbEntity
  8
ALPHA
100
AcDbVertex
100
AcDb2dVertex
 10
65.367068
 20
14.175375
 30
0.0
  0
VERTEX
  5
156C
100
AcDbEntity
  8
ALPHA
100
AcDbVertex
100
AcDb2dVertex
 10
64.681639
 20
13.924617
 30
0.0
  0
VERTEX
  5
156D
100
AcDbEntity
  8
ALPHA
100
AcDbVertex
100
AcDb2dVertex
 10
63.96675
 20
13.740872
 30
0.0
  0
VERTEX
  5
156E
100
AcDbEntity
  8
ALPHA
100
AcDbVertex
100
AcDb2dVertex
 10
63.226162
 20
13.627881
 30
0.0
  0
VERTEX
  5
156F
100
AcDbEntity
  8
ALPHA
100
AcDbVertex
100
AcDb2dVertex
 10
62.463638
 20
13.589386
 30
0.0
  0
VERTEX
  5
1570
100
AcDbEntity
  8
ALPHA
100
AcDbVertex
100
AcDb2dVertex
 10
61.700504
 20
13.627881
 30
0.0
  0
VERTEX
  5
1571
100
AcDbEntity
  8
ALPHA
100
AcDbVertex
100
AcDb2dVertex
 10
60.959383
 20
13.740872
 30
0.0
  0
VERTEX
  5
1572
100
AcDbEntity
  8
ALPHA
100
AcDbVertex
100
AcDb2dVertex
 10
60.244031
 20
13.924617
 30
0.0
  0
VERTEX
  5
1573
100
AcDbEntity
  8
ALPHA
100
AcDbVertex
100
AcDb2dVertex
 10
59.558203
 20
14.175375
 30
0.0
  0
VERTEX
  5
1574
100
AcDbEntity
  8
ALPHA
100
AcDbVertex
100
AcDb2dVertex
 10
58.905656
 20
14.489404
 30
0.0
  0
VERTEX
  5
1575
100
AcDbEntity
  8
ALPHA
100
AcDbVertex
100
AcDb2dVertex
 10
58.290146
 20
14.862964
 30
0.0
  0
VERTEX
  5
1576
100
AcDbEntity
  8
ALPHA
100
AcDbVertex
100
AcDb2dVertex
 10
57.71543
 20
15.292311
 30
0.0
  0
VERTEX
  5
1577
100
AcDbEntity
  8
ALPHA
100
AcDbVertex
100
AcDb2dVertex
 10
57.185262
 20
15.773706
 30
0.0
  0
VERTEX
  5
1578
100
AcDbEntity
  8
ALPHA
100
AcDbVertex
100
AcDb2dVertex
 10
56.7034
 20
16.303406
 30
0.0
  0
VERTEX
  5
1579
100
AcDbEntity
  8
ALPHA
100
AcDbVertex
100
AcDb2dVertex
 10
56.2736
 20
16.877671
 30
0.0
  0
VERTEX
  5
157A
100
AcDbEntity
  8
ALPHA
100
AcDbVertex
100
AcDb2dVertex
 10
55.899617
 20
17.492757
 30
0.0
  0
VERTEX
  5
157B
100
AcDbEntity
  8
ALPHA
100
AcDbVertex
100
AcDb2dVertex
 10
55.585209
 20
18.144925
 30
0.0
  0
VERTEX
  5
157C
100
AcDbEntity
  8
ALPHA
100
AcDbVertex
100
AcDb2dVertex
 10
55.33413
 20
18.830433
 30
0.0
  0
VERTEX
  5
157D
100
AcDbEntity
  8
ALPHA
100
AcDbVertex
100
AcDb2dVertex
 10
55.150138
 20
19.545538
 30
0.0
  0
VERTEX
  5
157E
100
AcDbEntity
  8
ALPHA
100
AcDbVertex
100
AcDb2dVertex
 10
55.036988
 20
20.2865
 30
0.0
  0
VERTEX
  5
157F
100
AcDbEntity
  8
ALPHA
100
AcDbVertex
100
AcDb2dVertex
 10
54.998437
 20
21.049577
 30
0.0
  0
VERTEX
  5
1580
100
AcDbEntity
  8
ALPHA
100
AcDbVertex
100
AcDb2dVertex
 10
55.036988
 20
21.81327
 30
0.0
  0
VERTEX
  5
1581
100
AcDbEntity
  8
ALPHA
100
AcDbVertex
100
AcDb2dVertex
 10
55.150138
 20
22.554847
 30
0.0
  0
VERTEX
  5
1582
100
AcDbEntity
  8
ALPHA
100
AcDbVertex
100
AcDb2dVertex
 10
55.33413
 20
23.270559
 30
0.0
  0
VERTEX
  5
1583
100
AcDbEntity
  8
ALPHA
100
AcDbVertex
100
AcDb2dVertex
 10
55.585209
 20
23.956661
 30
0.0
  0
VERTEX
  5
1584
100
AcDbEntity
  8
ALPHA
100
AcDbVertex
100
AcDb2dVertex
 10
55.899617
 20
24.609406
 30
0.0
  0
VERTEX
  5
1585
100
AcDbEntity
  8
ALPHA
100
AcDbVertex
100
AcDb2dVertex
 10
56.2736
 20
25.225046
 30
0.0
  0
VERTEX
  5
1586
100
AcDbEntity
  8
ALPHA
100
AcDbVertex
100
AcDb2dVertex
 10
56.7034
 20
25.799837
 30
0.0
  0
VERTEX
  5
1587
100
AcDbEntity
  8
ALPHA
100
AcDbVertex
100
AcDb2dVertex
 10
57.185262
 20
26.33003
 30
0.0
  0
VERTEX
  5
1588
100
AcDbEntity
  8
ALPHA
100
AcDbVertex
100
AcDb2dVertex
 10
57.71543
 20
26.811879
 30
0.0
  0
VERTEX
  5
1589
100
AcDbEntity
  8
ALPHA
100
AcDbVertex
100
AcDb2dVertex
 10
58.290146
 20
27.241638
 30
0.0
  0
VERTEX
  5
158A
100
AcDbEntity
  8
ALPHA
100
AcDbVertex
100
AcDb2dVertex
 10
58.905656
 20
27.615559
 30
0.0
  0
VERTEX
  5
158B
100
AcDbEntity
  8
ALPHA
100
AcDbVertex
100
AcDb2dVertex
 10
59.558203
 20
27.929897
 30
0.0
  0
VERTEX
  5
158C
100
AcDbEntity
  8
ALPHA
100
AcDbVertex
100
AcDb2dVertex
 10
60.244031
 20
28.180903
 30
0.0
  0
VERTEX
  5
158D
100
AcDbEntity
  8
ALPHA
100
AcDbVertex
100
AcDb2dVertex
 10
60.959383
 20
28.364832
 30
0.0
  0
VERTEX
  5
158E
100
AcDbEntity
  8
ALPHA
100
AcDbVertex
100
AcDb2dVertex
 10
61.700504
 20
28.477937
 30
0.0
  0
VERTEX
  5
158F
100
AcDbEntity
  8
ALPHA
100
AcDbVertex
100
AcDb2dVertex
 10
62.463638
 20
28.516472
 30
0.0
  0
SEQEND
  5
1590
100
AcDbEntity
  8
ALPHA
  0
POLYLINE
  5
1591
100
AcDbEntity
  8
ALPHA
100
AcDb2dPolyline
 66
     1
 10
0.0
 20
0.0
 30
0.0
  0
VERTEX
  5
1592
100
AcDbEntity
  8
ALPHA
100
AcDbVertex
100
AcDb2dVertex
 10
55.39189
 20
8.806389
 30
0.0
  0
VERTEX
  5
1593
100
AcDbEntity
  8
ALPHA
100
AcDbVertex
100
AcDb2dVertex
 10
69.53521
 20
8.806389
 30
0.0
  0
VERTEX
  5
1594
100
AcDbEntity
  8
ALPHA
100
AcDbVertex
100
AcDb2dVertex
 10
76.605053
 20
21.049577
 30
0.0
  0
VERTEX
  5
1595
100
AcDbEntity
  8
ALPHA
100
AcDbVertex
100
AcDb2dVertex
 10
69.53521
 20
33.299468
 30
0.0
  0
VERTEX
  5
1596
100
AcDbEntity
  8
ALPHA
100
AcDbVertex
100
AcDb2dVertex
 10
55.39189
 20
33.299468
 30
0.0
  0
VERTEX
  5
1597
100
AcDbEntity
  8
ALPHA
100
AcDbVertex
100
AcDb2dVertex
 10
48.320495
 20
21.049577
 30
0.0
  0
VERTEX
  5
1598
100
AcDbEntity
  8
ALPHA
100
AcDbVertex
100
AcDb2dVertex
 10
55.39189
 20
8.806389
 30
0.0
  0
SEQEND
  5
1599
100
AcDbEntity
  8
ALPHA
  0
POLYLINE
  5
159A
100
AcDbEntity
  8
AXE
100
AcDb2dPolyline
 66
     1
 10
0.0
 20
0.0
 30
0.0
  0
VERTEX
  5
159B
100
AcDbEntity
  8
AXE
100
AcDbVertex
100
AcDb2dVertex
 10
75.486535
 20
63.046149
 30
0.0
  0
VERTEX
  5
159C
100
AcDbEntity
  8
AXE
100
AcDbVertex
100
AcDb2dVertex
 10
51.055969
 20
63.046149
 30
0.0
  0
SEQEND
  5
159D
100
AcDbEntity
  8
AXE
  0
POLYLINE
  5
159E
100
AcDbEntity
  8
POINTILLE_COURT
100
AcDb2dPolyline
 66
     1
 10
0.0
 20
0.0
 30
0.0
  0
VERTEX
  5
159F
100
AcDbEntity
  8
POINTILLE_COURT
100
AcDbVertex
100
AcDb2dVertex
 10
57.713626
 20
63.046149
 30
0.0
  0
VERTEX
  5
15A0
100
AcDbEntity
  8
POINTILLE_COURT
100
AcDbVertex
100
AcDb2dVertex
 10
57.740732
 20
63.582946
 30
0.0
  0
VERTEX
  5
15A1
100
AcDbEntity
  8
POINTILLE_COURT
100
AcDbVertex
100
AcDb2dVertex
 10
57.820291
 20
64.104233
 30
0.0
  0
VERTEX
  5
15A2
100
AcDbEntity
  8
POINTILLE_COURT
100
AcDbVertex
100
AcDb2dVertex
 10
57.949663
 20
64.607373
 30
0.0
  0
VERTEX
  5
15A3
100
AcDbEntity
  8
POINTILLE_COURT
100
AcDbVertex
100
AcDb2dVertex
 10
58.126209
 20
65.089725
 30
0.0
  0
VERTEX
  5
15A4
100
AcDbEntity
  8
POINTILLE_COURT
100
AcDbVertex
100
AcDb2dVertex
 10
58.34729
 20
65.548652
 30
0.0
  0
VERTEX
  5
15A5
100
AcDbEntity
  8
POINTILLE_COURT
100
AcDbVertex
100
AcDb2dVertex
 10
58.610265
 20
65.981515
 30
0.0
  0
VERTEX
  5
15A6
100
AcDbEntity
  8
POINTILLE_COURT
100
AcDbVertex
100
AcDb2dVertex
 10
58.912497
 20
66.385676
 30
0.0
  0
VERTEX
  5
15A7
100
AcDbEntity
  8
POINTILLE_COURT
100
AcDbVertex
100
AcDb2dVertex
 10
59.251345
 20
66.758496
 30
0.0
  0
VERTEX
  5
15A8
100
AcDbEntity
  8
POINTILLE_COURT
100
AcDbVertex
100
AcDb2dVertex
 10
59.62417
 20
67.097336
 30
0.0
  0
VERTEX
  5
15A9
100
AcDbEntity
  8
POINTILLE_COURT
100
AcDbVertex
100
AcDb2dVertex
 10
60.028333
 20
67.399558
 30
0.0
  0
VERTEX
  5
15AA
100
AcDbEntity
  8
POINTILLE_COURT
100
AcDbVertex
100
AcDb2dVertex
 10
60.461193
 20
67.662523
 30
0.0
  0
VERTEX
  5
15AB
100
AcDbEntity
  8
POINTILLE_COURT
100
AcDbVertex
100
AcDb2dVertex
 10
60.920113
 20
67.883594
 30
0.0
  0
VERTEX
  5
15AC
100
AcDbEntity
  8
POINTILLE_COURT
100
AcDbVertex
100
AcDb2dVertex
 10
61.402453
 20
68.06013
 30
0.0
  0
VERTEX
  5
15AD
100
AcDbEntity
  8
POINTILLE_COURT
100
AcDbVertex
100
AcDb2dVertex
 10
61.905572
 20
68.189495
 30
0.0
  0
VERTEX
  5
15AE
100
AcDbEntity
  8
POINTILLE_COURT
100
AcDbVertex
100
AcDb2dVertex
 10
62.426833
 20
68.269048
 30
0.0
  0
VERTEX
  5
15AF
100
AcDbEntity
  8
POINTILLE_COURT
100
AcDbVertex
100
AcDb2dVertex
 10
62.963595
 20
68.296153
 30
0.0
  0
VERTEX
  5
15B0
100
AcDbEntity
  8
POINTILLE_COURT
100
AcDbVertex
100
AcDb2dVertex
 10
63.500387
 20
68.269048
 30
0.0
  0
VERTEX
  5
15B1
100
AcDbEntity
  8
POINTILLE_COURT
100
AcDbVertex
100
AcDb2dVertex
 10
64.021675
 20
68.189495
 30
0.0
  0
VERTEX
  5
15B2
100
AcDbEntity
  8
POINTILLE_COURT
100
AcDbVertex
100
AcDb2dVertex
 10
64.524818
 20
68.06013
 30
0.0
  0
VERTEX
  5
15B3
100
AcDbEntity
  8
POINTILLE_COURT
100
AcDbVertex
100
AcDb2dVertex
 10
65.007178
 20
67.883594
 30
0.0
  0
VERTEX
  5
15B4
100
AcDbEntity
  8
POINTILLE_COURT
100
AcDbVertex
100
AcDb2dVertex
 10
65.466115
 20
67.662523
 30
0.0
  0
VERTEX
  5
15B5
100
AcDbEntity
  8
POINTILLE_COURT
100
AcDbVertex
100
AcDb2dVertex
 10
65.89899
 20
67.399558
 30
0.0
  0
VERTEX
  5
15B6
100
AcDbEntity
  8
POINTILLE_COURT
100
AcDbVertex
100
AcDb2dVertex
 10
66.303164
 20
67.097336
 30
0.0
  0
VERTEX
  5
15B7
100
AcDbEntity
  8
POINTILLE_COURT
100
AcDbVertex
100
AcDb2dVertex
 10
66.675999
 20
66.758496
 30
0.0
  0
VERTEX
  5
15B8
100
AcDbEntity
  8
POINTILLE_COURT
100
AcDbVertex
100
AcDb2dVertex
 10
67.014854
 20
66.385676
 30
0.0
  0
VERTEX
  5
15B9
100
AcDbEntity
  8
POINTILLE_COURT
100
AcDbVertex
100
AcDb2dVertex
 10
67.317091
 20
65.981515
 30
0.0
  0
VERTEX
  5
15BA
100
AcDbEntity
  8
POINTILLE_COURT
100
AcDbVertex
100
AcDb2dVertex
 10
67.58007
 20
65.548652
 30
0.0
  0
VERTEX
  5
15BB
100
AcDbEntity
  8
POINTILLE_COURT
100
AcDbVertex
100
AcDb2dVertex
 10
67.801154
 20
65.089725
 30
0.0
  0
VERTEX
  5
15BC
100
AcDbEntity
  8
POINTILLE_COURT
100
AcDbVertex
100
AcDb2dVertex
 10
67.977701
 20
64.607373
 30
0.0
  0
VERTEX
  5
15BD
100
AcDbEntity
  8
POINTILLE_COURT
100
AcDbVertex
100
AcDb2dVertex
 10
68.107074
 20
64.104233
 30
0.0
  0
VERTEX
  5
15BE
100
AcDbEntity
  8
POINTILLE_COURT
100
AcDbVertex
100
AcDb2dVertex
 10
68.186633
 20
63.582946
 30
0.0
  0
VERTEX
  5
15BF
100
AcDbEntity
  8
POINTILLE_COURT
100
AcDbVertex
100
AcDb2dVertex
 10
68.213739
 20
63.046149
 30
0.0
  0
VERTEX
  5
15C0
100
AcDbEntity
  8
POINTILLE_COURT
100
AcDbVertex
100
AcDb2dVertex
 10
68.186633
 20
62.509358
 30
0.0
  0
VERTEX
  5
15C1
100
AcDbEntity
  8
POINTILLE_COURT
100
AcDbVertex
100
AcDb2dVertex
 10
68.107074
 20
61.988076
 30
0.0
  0
VERTEX
  5
15C2
100
AcDbEntity
  8
POINTILLE_COURT
100
AcDbVertex
100
AcDb2dVertex
 10
67.977701
 20
61.484942
 30
0.0
  0
VERTEX
  5
15C3
100
AcDbEntity
  8
POINTILLE_COURT
100
AcDbVertex
100
AcDb2dVertex
 10
67.801154
 20
61.002593
 30
0.0
  0
VERTEX
  5
15C4
100
AcDbEntity
  8
POINTILLE_COURT
100
AcDbVertex
100
AcDb2dVertex
 10
67.58007
 20
60.54367
 30
0.0
  0
VERTEX
  5
15C5
100
AcDbEntity
  8
POINTILLE_COURT
100
AcDbVertex
100
AcDb2dVertex
 10
67.317091
 20
60.110809
 30
0.0
  0
VERTEX
  5
15C6
100
AcDbEntity
  8
POINTILLE_COURT
100
AcDbVertex
100
AcDb2dVertex
 10
67.014854
 20
59.706651
 30
0.0
  0
VERTEX
  5
15C7
100
AcDbEntity
  8
POINTILLE_COURT
100
AcDbVertex
100
AcDb2dVertex
 10
66.675999
 20
59.333833
 30
0.0
  0
VERTEX
  5
15C8
100
AcDbEntity
  8
POINTILLE_COURT
100
AcDbVertex
100
AcDb2dVertex
 10
66.303164
 20
58.994994
 30
0.0
  0
VERTEX
  5
15C9
100
AcDbEntity
  8
POINTILLE_COURT
100
AcDbVertex
100
AcDb2dVertex
 10
65.89899
 20
58.692773
 30
0.0
  0
VERTEX
  5
15CA
100
AcDbEntity
  8
POINTILLE_COURT
100
AcDbVertex
100
AcDb2dVertex
 10
65.466115
 20
58.429809
 30
0.0
  0
VERTEX
  5
15CB
100
AcDbEntity
  8
POINTILLE_COURT
100
AcDbVertex
100
AcDb2dVertex
 10
65.007178
 20
58.208739
 30
0.0
  0
VERTEX
  5
15CC
100
AcDbEntity
  8
POINTILLE_COURT
100
AcDbVertex
100
AcDb2dVertex
 10
64.524818
 20
58.032202
 30
0.0
  0
VERTEX
  5
15CD
100
AcDbEntity
  8
POINTILLE_COURT
100
AcDbVertex
100
AcDb2dVertex
 10
64.021675
 20
57.902838
 30
0.0
  0
VERTEX
  5
15CE
100
AcDbEntity
  8
POINTILLE_COURT
100
AcDbVertex
100
AcDb2dVertex
 10
63.500387
 20
57.823285
 30
0.0
  0
VERTEX
  5
15CF
100
AcDbEntity
  8
POINTILLE_COURT
100
AcDbVertex
100
AcDb2dVertex
 10
62.963595
 20
57.796181
 30
0.0
  0
VERTEX
  5
15D0
100
AcDbEntity
  8
POINTILLE_COURT
100
AcDbVertex
100
AcDb2dVertex
 10
62.426833
 20
57.823285
 30
0.0
  0
VERTEX
  5
15D1
100
AcDbEntity
  8
POINTILLE_COURT
100
AcDbVertex
100
AcDb2dVertex
 10
61.905572
 20
57.902838
 30
0.0
  0
VERTEX
  5
15D2
100
AcDbEntity
  8
POINTILLE_COURT
100
AcDbVertex
100
AcDb2dVertex
 10
61.402453
 20
58.032202
 30
0.0
  0
VERTEX
  5
15D3
100
AcDbEntity
  8
POINTILLE_COURT
100
AcDbVertex
100
AcDb2dVertex
 10
60.920113
 20
58.208739
 30
0.0
  0
VERTEX
  5
15D4
100
AcDbEntity
  8
POINTILLE_COURT
100
AcDbVertex
100
AcDb2dVertex
 10
60.461193
 20
58.429809
 30
0.0
  0
VERTEX
  5
15D5
100
AcDbEntity
  8
POINTILLE_COURT
100
AcDbVertex
100
AcDb2dVertex
 10
60.028333
 20
58.692773
 30
0.0
  0
VERTEX
  5
15D6
100
AcDbEntity
  8
POINTILLE_COURT
100
AcDbVertex
100
AcDb2dVertex
 10
59.62417
 20
58.994994
 30
0.0
  0
VERTEX
  5
15D7
100
AcDbEntity
  8
POINTILLE_COURT
100
AcDbVertex
100
AcDb2dVertex
 10
59.251345
 20
59.333833
 30
0.0
  0
VERTEX
  5
15D8
100
AcDbEntity
  8
POINTILLE_COURT
100
AcDbVertex
100
AcDb2dVertex
 10
58.912497
 20
59.706651
 30
0.0
  0
VERTEX
  5
15D9
100
AcDbEntity
  8
POINTILLE_COURT
100
AcDbVertex
100
AcDb2dVertex
 10
58.610265
 20
60.110809
 30
0.0
  0
VERTEX
  5
15DA
100
AcDbEntity
  8
POINTILLE_COURT
100
AcDbVertex
100
AcDb2dVertex
 10
58.34729
 20
60.54367
 30
0.0
  0
VERTEX
  5
15DB
100
AcDbEntity
  8
POINTILLE_COURT
100
AcDbVertex
100
AcDb2dVertex
 10
58.126209
 20
61.002593
 30
0.0
  0
VERTEX
  5
15DC
100
AcDbEntity
  8
POINTILLE_COURT
100
AcDbVertex
100
AcDb2dVertex
 10
57.949663
 20
61.484942
 30
0.0
  0
VERTEX
  5
15DD
100
AcDbEntity
  8
POINTILLE_COURT
100
AcDbVertex
100
AcDb2dVertex
 10
57.820291
 20
61.988076
 30
0.0
  0
VERTEX
  5
15DE
100
AcDbEntity
  8
POINTILLE_COURT
100
AcDbVertex
100
AcDb2dVertex
 10
57.740732
 20
62.509358
 30
0.0
  0
VERTEX
  5
15DF
100
AcDbEntity
  8
POINTILLE_COURT
100
AcDbVertex
100
AcDb2dVertex
 10
57.713626
 20
63.046149
 30
0.0
  0
SEQEND
  5
15E0
100
AcDbEntity
  8
POINTILLE_COURT
  0
POLYLINE
  5
15E1
100
AcDbEntity
  8
ALPHA
100
AcDb2dPolyline
 66
     1
 10
0.0
 20
0.0
 30
0.0
  0
VERTEX
  5
15E2
100
AcDbEntity
  8
ALPHA
100
AcDbVertex
100
AcDb2dVertex
 10
42.463643
 20
52.910702
 30
0.0
  0
VERTEX
  5
15E3
100
AcDbEntity
  8
ALPHA
100
AcDbVertex
100
AcDb2dVertex
 10
42.463643
 20
1.046336
 30
0.0
  0
VERTEX
  5
15E4
100
AcDbEntity
  8
ALPHA
100
AcDbVertex
100
AcDb2dVertex
 10
82.463598
 20
1.046336
 30
0.0
  0
VERTEX
  5
15E5
100
AcDbEntity
  8
ALPHA
100
AcDbVertex
100
AcDb2dVertex
 10
82.463598
 20
53.091219
 30
0.0
  0
VERTEX
  5
15E6
100
AcDbEntity
  8
ALPHA
100
AcDbVertex
100
AcDb2dVertex
 10
94.987385
 20
53.091219
 30
0.0
  0
VERTEX
  5
15E7
100
AcDbEntity
  8
ALPHA
100
AcDbVertex
100
AcDb2dVertex
 10
95.671096
 20
53.168389
 30
0.0
  0
VERTEX
  5
15E8
100
AcDbEntity
  8
ALPHA
100
AcDbVertex
100
AcDb2dVertex
 10
96.333757
 20
53.30821
 30
0.0
  0
VERTEX
  5
15E9
100
AcDbEntity
  8
ALPHA
100
AcDbVertex
100
AcDb2dVertex
 10
96.972185
 20
53.507626
 30
0.0
  0
VERTEX
  5
15EA
100
AcDbEntity
  8
ALPHA
100
AcDbVertex
100
AcDb2dVertex
 10
97.583199
 20
53.763581
 30
0.0
  0
VERTEX
  5
15EB
100
AcDbEntity
  8
ALPHA
100
AcDbVertex
100
AcDb2dVertex
 10
98.163617
 20
54.073018
 30
0.0
  0
VERTEX
  5
15EC
100
AcDbEntity
  8
ALPHA
100
AcDbVertex
100
AcDb2dVertex
 10
98.710257
 20
54.432884
 30
0.0
  0
VERTEX
  5
15ED
100
AcDbEntity
  8
ALPHA
100
AcDbVertex
100
AcDb2dVertex
 10
99.219938
 20
54.840121
 30
0.0
  0
VERTEX
  5
15EE
100
AcDbEntity
  8
ALPHA
100
AcDbVertex
100
AcDb2dVertex
 10
99.689477
 20
55.291674
 30
0.0
  0
VERTEX
  5
15EF
100
AcDbEntity
  8
ALPHA
100
AcDbVertex
100
AcDb2dVertex
 10
100.115692
 20
55.784488
 30
0.0
  0
VERTEX
  5
15F0
100
AcDbEntity
  8
ALPHA
100
AcDbVertex
100
AcDb2dVertex
 10
100.495402
 20
56.315507
 30
0.0
  0
VERTEX
  5
15F1
100
AcDbEntity
  8
ALPHA
100
AcDbVertex
100
AcDb2dVertex
 10
100.825425
 20
56.881675
 30
0.0
  0
VERTEX
  5
15F2
100
AcDbEntity
  8
ALPHA
100
AcDbVertex
100
AcDb2dVertex
 10
101.102579
 20
57.479937
 30
0.0
  0
VERTEX
  5
15F3
100
AcDbEntity
  8
ALPHA
100
AcDbVertex
100
AcDb2dVertex
 10
101.323682
 20
58.107236
 30
0.0
  0
VERTEX
  5
15F4
100
AcDbEntity
  8
ALPHA
100
AcDbVertex
100
AcDb2dVertex
 10
101.485552
 20
58.760518
 30
0.0
  0
VERTEX
  5
15F5
100
AcDbEntity
  8
ALPHA
100
AcDbVertex
100
AcDb2dVertex
 10
101.585008
 20
59.436726
 30
0.0
  0
VERTEX
  5
15F6
100
AcDbEntity
  8
ALPHA
100
AcDbVertex
100
AcDb2dVertex
 10
101.618867
 20
60.132804
 30
0.0
  0
VERTEX
  5
15F7
100
AcDbEntity
  8
ALPHA
100
AcDbVertex
100
AcDb2dVertex
 10
101.618867
 20
68.044657
 30
0.0
  0
SEQEND
  5
15F8
100
AcDbEntity
  8
ALPHA
  0
POLYLINE
  5
15F9
100
AcDbEntity
  8
AXE
100
AcDb2dPolyline
 66
     1
 10
0.0
 20
0.0
 30
0.0
  0
VERTEX
  5
15FA
100
AcDbEntity
  8
AXE
100
AcDbVertex
100
AcDb2dVertex
 10
62.963595
 20
75.604403
 30
0.0
  0
VERTEX
  5
15FB
100
AcDbEntity
  8
AXE
100
AcDbVertex
100
AcDb2dVertex
 10
62.963595
 20
51.173836
 30
0.0
  0
SEQEND
  5
15FC
100
AcDbEntity
  8
AXE
  0
POLYLINE
  5
15FD
100
AcDbEntity
  8
AXE
100
AcDb2dPolyline
 66
     1
 10
0.0
 20
0.0
 30
0.0
  0
VERTEX
  5
15FE
100
AcDbEntity
  8
AXE
100
AcDbVertex
100
AcDb2dVertex
 10
62.463638
 20
4.089362
 30
0.0
  0
VERTEX
  5
15FF
100
AcDbEntity
  8
AXE
100
AcDbVertex
100
AcDb2dVertex
 10
62.463638
 20
36.353395
 30
0.0
  0
SEQEND
  5
1600
100
AcDbEntity
  8
AXE
  0
POLYLINE
  5
1601
100
AcDbEntity
  8
ALPHA
100
AcDb2dPolyline
 66
     1
 10
0.0
 20
0.0
 30
0.0
  0
VERTEX
  5
1602
100
AcDbEntity
  8
ALPHA
100
AcDbVertex
100
AcDb2dVertex
 10
135.395363
 20
8.806389
 30
0.0
  0
VERTEX
  5
1603
100
AcDbEntity
  8
ALPHA
100
AcDbVertex
100
AcDb2dVertex
 10
149.538507
 20
8.806389
 30
0.0
  0
VERTEX
  5
1604
100
AcDbEntity
  8
ALPHA
100
AcDbVertex
100
AcDb2dVertex
 10
156.606798
 20
21.049577
 30
0.0
  0
VERTEX
  5
1605
100
AcDbEntity
  8
ALPHA
100
AcDbVertex
100
AcDb2dVertex
 10
149.538507
 20
33.299468
 30
0.0
  0
VERTEX
  5
1606
100
AcDbEntity
  8
ALPHA
100
AcDbVertex
100
AcDb2dVertex
 10
135.395363
 20
33.299468
 30
0.0
  0
VERTEX
  5
1607
100
AcDbEntity
  8
ALPHA
100
AcDbVertex
100
AcDb2dVertex
 10
128.323933
 20
21.049577
 30
0.0
  0
VERTEX
  5
1608
100
AcDbEntity
  8
ALPHA
100
AcDbVertex
100
AcDb2dVertex
 10
135.395363
 20
8.806389
 30
0.0
  0
SEQEND
  5
1609
100
AcDbEntity
  8
ALPHA
  0
POLYLINE
  5
160A
100
AcDbEntity
  8
AXE
100
AcDb2dPolyline
 66
     1
 10
0.0
 20
0.0
 30
0.0
  0
VERTEX
  5
160B
100
AcDbEntity
  8
AXE
100
AcDbVertex
100
AcDb2dVertex
 10
142.463654
 20
4.089362
 30
0.0
  0
VERTEX
  5
160C
100
AcDbEntity
  8
AXE
100
AcDbVertex
100
AcDb2dVertex
 10
142.463654
 20
36.353395
 30
0.0
  0
SEQEND
  5
160D
100
AcDbEntity
  8
AXE
  0
POLYLINE
  5
160E
100
AcDbEntity
  8
ALPHA
100
AcDb2dPolyline
 66
     1
 10
0.0
 20
0.0
 30
0.0
  0
VERTEX
  5
160F
100
AcDbEntity
  8
ALPHA
100
AcDbVertex
100
AcDb2dVertex
 10
142.463654
 20
28.516472
 30
0.0
  0
VERTEX
  5
1610
100
AcDbEntity
  8
ALPHA
100
AcDbVertex
100
AcDb2dVertex
 10
143.226807
 20
28.477975
 30
0.0
  0
VERTEX
  5
1611
100
AcDbEntity
  8
ALPHA
100
AcDbVertex
100
AcDb2dVertex
 10
143.967982
 20
28.364979
 30
0.0
  0
VERTEX
  5
1612
100
AcDbEntity
  8
ALPHA
100
AcDbVertex
100
AcDb2dVertex
 10
144.683418
 20
28.181226
 30
0.0
  0
VERTEX
  5
1613
100
AcDbEntity
  8
ALPHA
100
AcDbVertex
100
AcDb2dVertex
 10
145.369354
 20
27.930458
 30
0.0
  0
VERTEX
  5
1614
100
AcDbEntity
  8
ALPHA
100
AcDbVertex
100
AcDb2dVertex
 10
146.022029
 20
27.616419
 30
0.0
  0
VERTEX
  5
1615
100
AcDbEntity
  8
ALPHA
100
AcDbVertex
100
AcDb2dVertex
 10
146.637682
 20
27.242849
 30
0.0
  0
VERTEX
  5
1616
100
AcDbEntity
  8
ALPHA
100
AcDbVertex
100
AcDb2dVertex
 10
147.212551
 20
26.813492
 30
0.0
  0
VERTEX
  5
1617
100
AcDbEntity
  8
ALPHA
100
AcDbVertex
100
AcDb2dVertex
 10
147.742877
 20
26.332089
 30
0.0
  0
VERTEX
  5
1618
100
AcDbEntity
  8
ALPHA
100
AcDbVertex
100
AcDb2dVertex
 10
148.224897
 20
25.802384
 30
0.0
  0
VERTEX
  5
1619
100
AcDbEntity
  8
ALPHA
100
AcDbVertex
100
AcDb2dVertex
 10
148.65485
 20
25.228118
 30
0.0
  0
VERTEX
  5
161A
100
AcDbEntity
  8
ALPHA
100
AcDbVertex
100
AcDb2dVertex
 10
149.028975
 20
24.613033
 30
0.0
  0
VERTEX
  5
161B
100
AcDbEntity
  8
ALPHA
100
AcDbVertex
100
AcDb2dVertex
 10
149.343512
 20
23.960873
 30
0.0
  0
VERTEX
  5
161C
100
AcDbEntity
  8
ALPHA
100
AcDbVertex
100
AcDb2dVertex
 10
149.594699
 20
23.275378
 30
0.0
  0
VERTEX
  5
161D
100
AcDbEntity
  8
ALPHA
100
AcDbVertex
100
AcDb2dVertex
 10
149.778775
 20
22.560292
 30
0.0
  0
VERTEX
  5
161E
100
AcDbEntity
  8
ALPHA
100
AcDbVertex
100
AcDb2dVertex
 10
149.891978
 20
21.819357
 30
0.0
  0
VERTEX
  5
161F
100
AcDbEntity
  8
ALPHA
100
AcDbVertex
100
AcDb2dVertex
 10
149.930549
 20
21.056315
 30
0.0
  0
VERTEX
  5
1620
100
AcDbEntity
  8
ALPHA
100
AcDbVertex
100
AcDb2dVertex
 10
149.891978
 20
20.292622
 30
0.0
  0
VERTEX
  5
1621
100
AcDbEntity
  8
ALPHA
100
AcDbVertex
100
AcDb2dVertex
 10
149.778775
 20
19.551045
 30
0.0
  0
VERTEX
  5
1622
100
AcDbEntity
  8
ALPHA
100
AcDbVertex
100
AcDb2dVertex
 10
149.594699
 20
18.835331
 30
0.0
  0
VERTEX
  5
1623
100
AcDbEntity
  8
ALPHA
100
AcDbVertex
100
AcDb2dVertex
 10
149.343512
 20
18.149226
 30
0.0
  0
VERTEX
  5
1624
100
AcDbEntity
  8
ALPHA
100
AcDbVertex
100
AcDb2dVertex
 10
149.028975
 20
17.496479
 30
0.0
  0
VERTEX
  5
1625
100
AcDbEntity
  8
ALPHA
100
AcDbVertex
100
AcDb2dVertex
 10
148.65485
 20
16.880835
 30
0.0
  0
VERTEX
  5
1626
100
AcDbEntity
  8
ALPHA
100
AcDbVertex
100
AcDb2dVertex
 10
148.224897
 20
16.306041
 30
0.0
  0
VERTEX
  5
1627
100
AcDbEntity
  8
ALPHA
100
AcDbVertex
100
AcDb2dVertex
 10
147.742877
 20
15.775845
 30
0.0
  0
VERTEX
  5
1628
100
AcDbEntity
  8
ALPHA
100
AcDbVertex
100
AcDb2dVertex
 10
147.212551
 20
15.293992
 30
0.0
  0
VERTEX
  5
1629
100
AcDbEntity
  8
ALPHA
100
AcDbVertex
100
AcDb2dVertex
 10
146.637682
 20
14.864231
 30
0.0
  0
VERTEX
  5
162A
100
AcDbEntity
  8
ALPHA
100
AcDbVertex
100
AcDb2dVertex
 10
146.022029
 20
14.490306
 30
0.0
  0
VERTEX
  5
162B
100
AcDbEntity
  8
ALPHA
100
AcDbVertex
100
AcDb2dVertex
 10
145.369354
 20
14.175966
 30
0.0
  0
VERTEX
  5
162C
100
AcDbEntity
  8
ALPHA
100
AcDbVertex
100
AcDb2dVertex
 10
144.683418
 20
13.924957
 30
0.0
  0
VERTEX
  5
162D
100
AcDbEntity
  8
ALPHA
100
AcDbVertex
100
AcDb2dVertex
 10
143.967982
 20
13.741027
 30
0.0
  0
VERTEX
  5
162E
100
AcDbEntity
  8
ALPHA
100
AcDbVertex
100
AcDb2dVertex
 10
143.226807
 20
13.62792
 30
0.0
  0
VERTEX
  5
162F
100
AcDbEntity
  8
ALPHA
100
AcDbVertex
100
AcDb2dVertex
 10
142.463654
 20
13.589386
 30
0.0
  0
VERTEX
  5
1630
100
AcDbEntity
  8
ALPHA
100
AcDbVertex
100
AcDb2dVertex
 10
141.699977
 20
13.62792
 30
0.0
  0
VERTEX
  5
1631
100
AcDbEntity
  8
ALPHA
100
AcDbVertex
100
AcDb2dVertex
 10
140.958493
 20
13.741027
 30
0.0
  0
VERTEX
  5
1632
100
AcDbEntity
  8
ALPHA
100
AcDbVertex
100
AcDb2dVertex
 10
140.242939
 20
13.924957
 30
0.0
  0
VERTEX
  5
1633
100
AcDbEntity
  8
ALPHA
100
AcDbVertex
100
AcDb2dVertex
 10
139.557052
 20
14.175966
 30
0.0
  0
VERTEX
  5
1634
100
AcDbEntity
  8
ALPHA
100
AcDbVertex
100
AcDb2dVertex
 10
138.904565
 20
14.490306
 30
0.0
  0
VERTEX
  5
1635
100
AcDbEntity
  8
ALPHA
100
AcDbVertex
100
AcDb2dVertex
 10
138.289217
 20
14.864231
 30
0.0
  0
VERTEX
  5
1636
100
AcDbEntity
  8
ALPHA
100
AcDbVertex
100
AcDb2dVertex
 10
137.714742
 20
15.293992
 30
0.0
  0
VERTEX
  5
1637
100
AcDbEntity
  8
ALPHA
100
AcDbVertex
100
AcDb2dVertex
 10
137.184877
 20
15.775845
 30
0.0
  0
VERTEX
  5
1638
100
AcDbEntity
  8
ALPHA
100
AcDbVertex
100
AcDb2dVertex
 10
136.703358
 20
16.306041
 30
0.0
  0
VERTEX
  5
1639
100
AcDbEntity
  8
ALPHA
100
AcDbVertex
100
AcDb2dVertex
 10
136.27392
 20
16.880835
 30
0.0
  0
VERTEX
  5
163A
100
AcDbEntity
  8
ALPHA
100
AcDbVertex
100
AcDb2dVertex
 10
135.900299
 20
17.496479
 30
0.0
  0
VERTEX
  5
163B
100
AcDbEntity
  8
ALPHA
100
AcDbVertex
100
AcDb2dVertex
 10
135.586232
 20
18.149226
 30
0.0
  0
VERTEX
  5
163C
100
AcDbEntity
  8
ALPHA
100
AcDbVertex
100
AcDb2dVertex
 10
135.335455
 20
18.835331
 30
0.0
  0
VERTEX
  5
163D
100
AcDbEntity
  8
ALPHA
100
AcDbVertex
100
AcDb2dVertex
 10
135.151702
 20
19.551045
 30
0.0
  0
VERTEX
  5
163E
100
AcDbEntity
  8
ALPHA
100
AcDbVertex
100
AcDb2dVertex
 10
135.038711
 20
20.292622
 30
0.0
  0
VERTEX
  5
163F
100
AcDbEntity
  8
ALPHA
100
AcDbVertex
100
AcDb2dVertex
 10
135.000217
 20
21.056315
 30
0.0
  0
VERTEX
  5
1640
100
AcDbEntity
  8
ALPHA
100
AcDbVertex
100
AcDb2dVertex
 10
135.038711
 20
21.819357
 30
0.0
  0
VERTEX
  5
1641
100
AcDbEntity
  8
ALPHA
100
AcDbVertex
100
AcDb2dVertex
 10
135.151702
 20
22.560292
 30
0.0
  0
VERTEX
  5
1642
100
AcDbEntity
  8
ALPHA
100
AcDbVertex
100
AcDb2dVertex
 10
135.335455
 20
23.275378
 30
0.0
  0
VERTEX
  5
1643
100
AcDbEntity
  8
ALPHA
100
AcDbVertex
100
AcDb2dVertex
 10
135.586232
 20
23.960873
 30
0.0
  0
VERTEX
  5
1644
100
AcDbEntity
  8
ALPHA
100
AcDbVertex
100
AcDb2dVertex
 10
135.900299
 20
24.613033
 30
0.0
  0
VERTEX
  5
1645
100
AcDbEntity
  8
ALPHA
100
AcDbVertex
100
AcDb2dVertex
 10
136.27392
 20
25.228118
 30
0.0
  0
VERTEX
  5
1646
100
AcDbEntity
  8
ALPHA
100
AcDbVertex
100
AcDb2dVertex
 10
136.703358
 20
25.802384
 30
0.0
  0
VERTEX
  5
1647
100
AcDbEntity
  8
ALPHA
100
AcDbVertex
100
AcDb2dVertex
 10
137.184877
 20
26.332089
 30
0.0
  0
VERTEX
  5
1648
100
AcDbEntity
  8
ALPHA
100
AcDbVertex
100
AcDb2dVertex
 10
137.714742
 20
26.813492
 30
0.0
  0
VERTEX
  5
1649
100
AcDbEntity
  8
ALPHA
100
AcDbVertex
100
AcDb2dVertex
 10
138.289217
 20
27.242849
 30
0.0
  0
VERTEX
  5
164A
100
AcDbEntity
  8
ALPHA
100
AcDbVertex
100
AcDb2dVertex
 10
138.904565
 20
27.616419
 30
0.0
  0
VERTEX
  5
164B
100
AcDbEntity
  8
ALPHA
100
AcDbVertex
100
AcDb2dVertex
 10
139.557052
 20
27.930458
 30
0.0
  0
VERTEX
  5
164C
100
AcDbEntity
  8
ALPHA
100
AcDbVertex
100
AcDb2dVertex
 10
140.242939
 20
28.181226
 30
0.0
  0
VERTEX
  5
164D
100
AcDbEntity
  8
ALPHA
100
AcDbVertex
100
AcDb2dVertex
 10
140.958493
 20
28.364979
 30
0.0
  0
VERTEX
  5
164E
100
AcDbEntity
  8
ALPHA
100
AcDbVertex
100
AcDb2dVertex
 10
141.699977
 20
28.477975
 30
0.0
  0
VERTEX
  5
164F
100
AcDbEntity
  8
ALPHA
100
AcDbVertex
100
AcDb2dVertex
 10
142.463654
 20
28.516472
 30
0.0
  0
SEQEND
  5
1650
100
AcDbEntity
  8
ALPHA
  0
POLYLINE
  5
1651
100
AcDbEntity
  8
ALPHA
100
AcDb2dPolyline
 66
     1
 10
0.0
 20
0.0
 30
0.0
  0
VERTEX
  5
1652
100
AcDbEntity
  8
ALPHA
100
AcDbVertex
100
AcDb2dVertex
 10
99.455351
 20
72.568574
 30
0.0
  0
VERTEX
  5
1653
100
AcDbEntity
  8
ALPHA
100
AcDbVertex
100
AcDb2dVertex
 10
109.14277
 20
72.568574
 30
0.0
  0
SEQEND
  5
1654
100
AcDbEntity
  8
ALPHA
  0
POLYLINE
  5
1655
100
AcDbEntity
  8
ALPHA
100
AcDb2dPolyline
 66
     1
 10
0.0
 20
0.0
 30
0.0
  0
VERTEX
  5
1656
100
AcDbEntity
  8
ALPHA
100
AcDbVertex
100
AcDb2dVertex
 10
90.49603
 20
69.086798
 30
0.0
  0
VERTEX
  5
1657
100
AcDbEntity
  8
ALPHA
100
AcDbVertex
100
AcDb2dVertex
 10
90.880434
 20
69.475606
 30
0.0
  0
VERTEX
  5
1658
100
AcDbEntity
  8
ALPHA
100
AcDbVertex
100
AcDb2dVertex
 10
91.302937
 20
69.823339
 30
0.0
  0
VERTEX
  5
1659
100
AcDbEntity
  8
ALPHA
100
AcDbVertex
100
AcDb2dVertex
 10
91.760229
 20
70.126679
 30
0.0
  0
VERTEX
  5
165A
100
AcDbEntity
  8
ALPHA
100
AcDbVertex
100
AcDb2dVertex
 10
92.249001
 20
70.382308
 30
0.0
  0
VERTEX
  5
165B
100
AcDbEntity
  8
ALPHA
100
AcDbVertex
100
AcDb2dVertex
 10
92.765945
 20
70.586907
 30
0.0
  0
VERTEX
  5
165C
100
AcDbEntity
  8
ALPHA
100
AcDbVertex
100
AcDb2dVertex
 10
93.307751
 20
70.737158
 30
0.0
  0
VERTEX
  5
165D
100
AcDbEntity
  8
ALPHA
100
AcDbVertex
100
AcDb2dVertex
 10
93.871111
 20
70.829742
 30
0.0
  0
VERTEX
  5
165E
100
AcDbEntity
  8
ALPHA
100
AcDbVertex
100
AcDb2dVertex
 10
94.452715
 20
70.861341
 30
0.0
  0
VERTEX
  5
165F
100
AcDbEntity
  8
ALPHA
100
AcDbVertex
100
AcDb2dVertex
 10
94.995617
 20
70.833918
 30
0.0
  0
VERTEX
  5
1660
100
AcDbEntity
  8
ALPHA
100
AcDbVertex
100
AcDb2dVertex
 10
95.522745
 20
70.753433
 30
0.0
  0
VERTEX
  5
1661
100
AcDbEntity
  8
ALPHA
100
AcDbVertex
100
AcDb2dVertex
 10
96.031443
 20
70.622561
 30
0.0
  0
VERTEX
  5
1662
100
AcDbEntity
  8
ALPHA
100
AcDbVertex
100
AcDb2dVertex
 10
96.519053
 20
70.443979
 30
0.0
  0
VERTEX
  5
1663
100
AcDbEntity
  8
ALPHA
100
AcDbVertex
100
AcDb2dVertex
 10
96.982921
 20
70.220361
 30
0.0
  0
VERTEX
  5
1664
100
AcDbEntity
  8
ALPHA
100
AcDbVertex
100
AcDb2dVertex
 10
97.420389
 20
69.954384
 30
0.0
  0
VERTEX
  5
1665
100
AcDbEntity
  8
ALPHA
100
AcDbVertex
100
AcDb2dVertex
 10
97.8288
 20
69.648723
 30
0.0
  0
VERTEX
  5
1666
100
AcDbEntity
  8
ALPHA
100
AcDbVertex
100
AcDb2dVertex
 10
98.205499
 20
69.306054
 30
0.0
  0
VERTEX
  5
1667
100
AcDbEntity
  8
ALPHA
100
AcDbVertex
100
AcDb2dVertex
 10
98.547829
 20
68.929052
 30
0.0
  0
VERTEX
  5
1668
100
AcDbEntity
  8
ALPHA
100
AcDbVertex
100
AcDb2dVertex
 10
98.853134
 20
68.520393
 30
0.0
  0
VERTEX
  5
1669
100
AcDbEntity
  8
ALPHA
100
AcDbVertex
100
AcDb2dVertex
 10
99.118757
 20
68.082753
 30
0.0
  0
VERTEX
  5
166A
100
AcDbEntity
  8
ALPHA
100
AcDbVertex
100
AcDb2dVertex
 10
99.342042
 20
67.618808
 30
0.0
  0
VERTEX
  5
166B
100
AcDbEntity
  8
ALPHA
100
AcDbVertex
100
AcDb2dVertex
 10
99.520332
 20
67.131232
 30
0.0
  0
VERTEX
  5
166C
100
AcDbEntity
  8
ALPHA
100
AcDbVertex
100
AcDb2dVertex
 10
99.650971
 20
66.622702
 30
0.0
  0
VERTEX
  5
166D
100
AcDbEntity
  8
ALPHA
100
AcDbVertex
100
AcDb2dVertex
 10
99.731302
 20
66.095893
 30
0.0
  0
VERTEX
  5
166E
100
AcDbEntity
  8
ALPHA
100
AcDbVertex
100
AcDb2dVertex
 10
99.75867
 20
65.553482
 30
0.0
  0
VERTEX
  5
166F
100
AcDbEntity
  8
ALPHA
100
AcDbVertex
100
AcDb2dVertex
 10
99.731302
 20
65.012285
 30
0.0
  0
VERTEX
  5
1670
100
AcDbEntity
  8
ALPHA
100
AcDbVertex
100
AcDb2dVertex
 10
99.650971
 20
64.486536
 30
0.0
  0
VERTEX
  5
1671
100
AcDbEntity
  8
ALPHA
100
AcDbVertex
100
AcDb2dVertex
 10
99.520332
 20
63.978921
 30
0.0
  0
VERTEX
  5
1672
100
AcDbEntity
  8
ALPHA
100
AcDbVertex
100
AcDb2dVertex
 10
99.342042
 20
63.492126
 30
0.0
  0
VERTEX
  5
1673
100
AcDbEntity
  8
ALPHA
100
AcDbVertex
100
AcDb2dVertex
 10
99.118757
 20
63.028837
 30
0.0
  0
VERTEX
  5
1674
100
AcDbEntity
  8
ALPHA
100
AcDbVertex
100
AcDb2dVertex
 10
98.853134
 20
62.591741
 30
0.0
  0
VERTEX
  5
1675
100
AcDbEntity
  8
ALPHA
100
AcDbVertex
100
AcDb2dVertex
 10
98.547829
 20
62.183523
 30
0.0
  0
VERTEX
  5
1676
100
AcDbEntity
  8
ALPHA
100
AcDbVertex
100
AcDb2dVertex
 10
98.205499
 20
61.806871
 30
0.0
  0
VERTEX
  5
1677
100
AcDbEntity
  8
ALPHA
100
AcDbVertex
100
AcDb2dVertex
 10
97.8288
 20
61.464471
 30
0.0
  0
VERTEX
  5
1678
100
AcDbEntity
  8
ALPHA
100
AcDbVertex
100
AcDb2dVertex
 10
97.420389
 20
61.159009
 30
0.0
  0
VERTEX
  5
1679
100
AcDbEntity
  8
ALPHA
100
AcDbVertex
100
AcDb2dVertex
 10
96.982921
 20
60.89317
 30
0.0
  0
VERTEX
  5
167A
100
AcDbEntity
  8
ALPHA
100
AcDbVertex
100
AcDb2dVertex
 10
96.519053
 20
60.669642
 30
0.0
  0
VERTEX
  5
167B
100
AcDbEntity
  8
ALPHA
100
AcDbVertex
100
AcDb2dVertex
 10
96.031443
 20
60.491111
 30
0.0
  0
VERTEX
  5
167C
100
AcDbEntity
  8
ALPHA
100
AcDbVertex
100
AcDb2dVertex
 10
95.522745
 20
60.360263
 30
0.0
  0
VERTEX
  5
167D
100
AcDbEntity
  8
ALPHA
100
AcDbVertex
100
AcDb2dVertex
 10
94.995617
 20
60.279784
 30
0.0
  0
VERTEX
  5
167E
100
AcDbEntity
  8
ALPHA
100
AcDbVertex
100
AcDb2dVertex
 10
94.452715
 20
60.252361
 30
0.0
  0
VERTEX
  5
167F
100
AcDbEntity
  8
ALPHA
100
AcDbVertex
100
AcDb2dVertex
 10
93.871002
 20
60.283958
 30
0.0
  0
VERTEX
  5
1680
100
AcDbEntity
  8
ALPHA
100
AcDbVertex
100
AcDb2dVertex
 10
93.307577
 20
60.37653
 30
0.0
  0
VERTEX
  5
1681
100
AcDbEntity
  8
ALPHA
100
AcDbVertex
100
AcDb2dVertex
 10
92.765743
 20
60.526749
 30
0.0
  0
VERTEX
  5
1682
100
AcDbEntity
  8
ALPHA
100
AcDbVertex
100
AcDb2dVertex
 10
92.248802
 20
60.731287
 30
0.0
  0
VERTEX
  5
1683
100
AcDbEntity
  8
ALPHA
100
AcDbVertex
100
AcDb2dVertex
 10
91.760058
 20
60.986815
 30
0.0
  0
VERTEX
  5
1684
100
AcDbEntity
  8
ALPHA
100
AcDbVertex
100
AcDb2dVertex
 10
91.302813
 20
61.290005
 30
0.0
  0
VERTEX
  5
1685
100
AcDbEntity
  8
ALPHA
100
AcDbVertex
100
AcDb2dVertex
 10
90.880369
 20
61.637528
 30
0.0
  0
VERTEX
  5
1686
100
AcDbEntity
  8
ALPHA
100
AcDbVertex
100
AcDb2dVertex
 10
90.49603
 20
62.026057
 30
0.0
  0
SEQEND
  5
1687
100
AcDbEntity
  8
ALPHA
  0
POLYLINE
  5
1688
100
AcDbEntity
  8
ALPHA
100
AcDb2dPolyline
 66
     1
 10
0.0
 20
0.0
 30
0.0
  0
VERTEX
  5
1689
100
AcDbEntity
  8
ALPHA
100
AcDbVertex
100
AcDb2dVertex
 10
42.615055
 20
187.5984
 30
0.0
  0
VERTEX
  5
168A
100
AcDbEntity
  8
ALPHA
100
AcDbVertex
100
AcDb2dVertex
 10
85.112359
 20
187.5984
 30
0.0
  0
VERTEX
  5
168B
100
AcDbEntity
  8
ALPHA
100
AcDbVertex
100
AcDb2dVertex
 10
85.112359
 20
198.981375
 30
0.0
  0
VERTEX
  5
168C
100
AcDbEntity
  8
ALPHA
100
AcDbVertex
100
AcDb2dVertex
 10
42.615055
 20
198.981375
 30
0.0
  0
VERTEX
  5
168D
100
AcDbEntity
  8
ALPHA
100
AcDbVertex
100
AcDb2dVertex
 10
42.615055
 20
187.5984
 30
0.0
  0
SEQEND
  5
168E
100
AcDbEntity
  8
ALPHA
  0
POLYLINE
  5
168F
100
AcDbEntity
  8
ALPHA
100
AcDb2dPolyline
 66
     1
 10
0.0
 20
0.0
 30
0.0
  0
VERTEX
  5
1690
100
AcDbEntity
  8
ALPHA
100
AcDbVertex
100
AcDb2dVertex
 10
62.463638
 20
277.582769
 30
0.0
  0
VERTEX
  5
1691
100
AcDbEntity
  8
ALPHA
100
AcDbVertex
100
AcDb2dVertex
 10
63.226162
 20
277.621303
 30
0.0
  0
VERTEX
  5
1692
100
AcDbEntity
  8
ALPHA
100
AcDbVertex
100
AcDb2dVertex
 10
63.96675
 20
277.734408
 30
0.0
  0
VERTEX
  5
1693
100
AcDbEntity
  8
ALPHA
100
AcDbVertex
100
AcDb2dVertex
 10
64.681639
 20
277.918337
 30
0.0
  0
VERTEX
  5
1694
100
AcDbEntity
  8
ALPHA
100
AcDbVertex
100
AcDb2dVertex
 10
65.367068
 20
278.169344
 30
0.0
  0
VERTEX
  5
1695
100
AcDbEntity
  8
ALPHA
100
AcDbVertex
100
AcDb2dVertex
 10
66.019278
 20
278.483681
 30
0.0
  0
VERTEX
  5
1696
100
AcDbEntity
  8
ALPHA
100
AcDbVertex
100
AcDb2dVertex
 10
66.634505
 20
278.857602
 30
0.0
  0
VERTEX
  5
1697
100
AcDbEntity
  8
ALPHA
100
AcDbVertex
100
AcDb2dVertex
 10
67.20899
 20
279.287361
 30
0.0
  0
VERTEX
  5
1698
100
AcDbEntity
  8
ALPHA
100
AcDbVertex
100
AcDb2dVertex
 10
67.738971
 20
279.76921
 30
0.0
  0
VERTEX
  5
1699
100
AcDbEntity
  8
ALPHA
100
AcDbVertex
100
AcDb2dVertex
 10
68.220687
 20
280.299404
 30
0.0
  0
VERTEX
  5
169A
100
AcDbEntity
  8
ALPHA
100
AcDbVertex
100
AcDb2dVertex
 10
68.650377
 20
280.874194
 30
0.0
  0
VERTEX
  5
169B
100
AcDbEntity
  8
ALPHA
100
AcDbVertex
100
AcDb2dVertex
 10
69.02428
 20
281.489835
 30
0.0
  0
VERTEX
  5
169C
100
AcDbEntity
  8
ALPHA
100
AcDbVertex
100
AcDb2dVertex
 10
69.338634
 20
282.14258
 30
0.0
  0
VERTEX
  5
169D
100
AcDbEntity
  8
ALPHA
100
AcDbVertex
100
AcDb2dVertex
 10
69.589679
 20
282.828682
 30
0.0
  0
VERTEX
  5
169E
100
AcDbEntity
  8
ALPHA
100
AcDbVertex
100
AcDb2dVertex
 10
69.773654
 20
283.544394
 30
0.0
  0
VERTEX
  5
169F
100
AcDbEntity
  8
ALPHA
100
AcDbVertex
100
AcDb2dVertex
 10
69.886796
 20
284.28597
 30
0.0
  0
VERTEX
  5
16A0
100
AcDbEntity
  8
ALPHA
100
AcDbVertex
100
AcDb2dVertex
 10
69.925347
 20
285.049663
 30
0.0
  0
VERTEX
  5
16A1
100
AcDbEntity
  8
ALPHA
100
AcDbVertex
100
AcDb2dVertex
 10
69.886796
 20
285.81274
 30
0.0
  0
VERTEX
  5
16A2
100
AcDbEntity
  8
ALPHA
100
AcDbVertex
100
AcDb2dVertex
 10
69.773654
 20
286.553702
 30
0.0
  0
VERTEX
  5
16A3
100
AcDbEntity
  8
ALPHA
100
AcDbVertex
100
AcDb2dVertex
 10
69.589679
 20
287.268808
 30
0.0
  0
VERTEX
  5
16A4
100
AcDbEntity
  8
ALPHA
100
AcDbVertex
100
AcDb2dVertex
 10
69.338634
 20
287.954315
 30
0.0
  0
VERTEX
  5
16A5
100
AcDbEntity
  8
ALPHA
100
AcDbVertex
100
AcDb2dVertex
 10
69.02428
 20
288.606483
 30
0.0
  0
VERTEX
  5
16A6
100
AcDbEntity
  8
ALPHA
100
AcDbVertex
100
AcDb2dVertex
 10
68.650377
 20
289.22157
 30
0.0
  0
VERTEX
  5
16A7
100
AcDbEntity
  8
ALPHA
100
AcDbVertex
100
AcDb2dVertex
 10
68.220687
 20
289.795834
 30
0.0
  0
VERTEX
  5
16A8
100
AcDbEntity
  8
ALPHA
100
AcDbVertex
100
AcDb2dVertex
 10
67.738971
 20
290.325534
 30
0.0
  0
VERTEX
  5
16A9
100
AcDbEntity
  8
ALPHA
100
AcDbVertex
100
AcDb2dVertex
 10
67.20899
 20
290.806929
 30
0.0
  0
VERTEX
  5
16AA
100
AcDbEntity
  8
ALPHA
100
AcDbVertex
100
AcDb2dVertex
 10
66.634505
 20
291.236277
 30
0.0
  0
VERTEX
  5
16AB
100
AcDbEntity
  8
ALPHA
100
AcDbVertex
100
AcDb2dVertex
 10
66.019278
 20
291.609836
 30
0.0
  0
VERTEX
  5
16AC
100
AcDbEntity
  8
ALPHA
100
AcDbVertex
100
AcDb2dVertex
 10
65.367068
 20
291.923866
 30
0.0
  0
VERTEX
  5
16AD
100
AcDbEntity
  8
ALPHA
100
AcDbVertex
100
AcDb2dVertex
 10
64.681639
 20
292.174624
 30
0.0
  0
VERTEX
  5
16AE
100
AcDbEntity
  8
ALPHA
100
AcDbVertex
100
AcDb2dVertex
 10
63.96675
 20
292.358369
 30
0.0
  0
VERTEX
  5
16AF
100
AcDbEntity
  8
ALPHA
100
AcDbVertex
100
AcDb2dVertex
 10
63.226162
 20
292.47136
 30
0.0
  0
VERTEX
  5
16B0
100
AcDbEntity
  8
ALPHA
100
AcDbVertex
100
AcDb2dVertex
 10
62.463638
 20
292.509855
 30
0.0
  0
VERTEX
  5
16B1
100
AcDbEntity
  8
ALPHA
100
AcDbVertex
100
AcDb2dVertex
 10
61.700504
 20
292.47136
 30
0.0
  0
VERTEX
  5
16B2
100
AcDbEntity
  8
ALPHA
100
AcDbVertex
100
AcDb2dVertex
 10
60.959383
 20
292.358369
 30
0.0
  0
VERTEX
  5
16B3
100
AcDbEntity
  8
ALPHA
100
AcDbVertex
100
AcDb2dVertex
 10
60.244031
 20
292.174624
 30
0.0
  0
VERTEX
  5
16B4
100
AcDbEntity
  8
ALPHA
100
AcDbVertex
100
AcDb2dVertex
 10
59.558203
 20
291.923866
 30
0.0
  0
VERTEX
  5
16B5
100
AcDbEntity
  8
ALPHA
100
AcDbVertex
100
AcDb2dVertex
 10
58.905656
 20
291.609836
 30
0.0
  0
VERTEX
  5
16B6
100
AcDbEntity
  8
ALPHA
100
AcDbVertex
100
AcDb2dVertex
 10
58.290146
 20
291.236277
 30
0.0
  0
VERTEX
  5
16B7
100
AcDbEntity
  8
ALPHA
100
AcDbVertex
100
AcDb2dVertex
 10
57.71543
 20
290.806929
 30
0.0
  0
VERTEX
  5
16B8
100
AcDbEntity
  8
ALPHA
100
AcDbVertex
100
AcDb2dVertex
 10
57.185262
 20
290.325534
 30
0.0
  0
VERTEX
  5
16B9
100
AcDbEntity
  8
ALPHA
100
AcDbVertex
100
AcDb2dVertex
 10
56.7034
 20
289.795834
 30
0.0
  0
VERTEX
  5
16BA
100
AcDbEntity
  8
ALPHA
100
AcDbVertex
100
AcDb2dVertex
 10
56.2736
 20
289.22157
 30
0.0
  0
VERTEX
  5
16BB
100
AcDbEntity
  8
ALPHA
100
AcDbVertex
100
AcDb2dVertex
 10
55.899617
 20
288.606483
 30
0.0
  0
VERTEX
  5
16BC
100
AcDbEntity
  8
ALPHA
100
AcDbVertex
100
AcDb2dVertex
 10
55.585209
 20
287.954315
 30
0.0
  0
VERTEX
  5
16BD
100
AcDbEntity
  8
ALPHA
100
AcDbVertex
100
AcDb2dVertex
 10
55.33413
 20
287.268808
 30
0.0
  0
VERTEX
  5
16BE
100
AcDbEntity
  8
ALPHA
100
AcDbVertex
100
AcDb2dVertex
 10
55.150138
 20
286.553702
 30
0.0
  0
VERTEX
  5
16BF
100
AcDbEntity
  8
ALPHA
100
AcDbVertex
100
AcDb2dVertex
 10
55.036988
 20
285.81274
 30
0.0
  0
VERTEX
  5
16C0
100
AcDbEntity
  8
ALPHA
100
AcDbVertex
100
AcDb2dVertex
 10
54.998437
 20
285.049663
 30
0.0
  0
VERTEX
  5
16C1
100
AcDbEntity
  8
ALPHA
100
AcDbVertex
100
AcDb2dVertex
 10
55.036988
 20
284.28597
 30
0.0
  0
VERTEX
  5
16C2
100
AcDbEntity
  8
ALPHA
100
AcDbVertex
100
AcDb2dVertex
 10
55.150138
 20
283.544394
 30
0.0
  0
VERTEX
  5
16C3
100
AcDbEntity
  8
ALPHA
100
AcDbVertex
100
AcDb2dVertex
 10
55.33413
 20
282.828682
 30
0.0
  0
VERTEX
  5
16C4
100
AcDbEntity
  8
ALPHA
100
AcDbVertex
100
AcDb2dVertex
 10
55.585209
 20
282.14258
 30
0.0
  0
VERTEX
  5
16C5
100
AcDbEntity
  8
ALPHA
100
AcDbVertex
100
AcDb2dVertex
 10
55.899617
 20
281.489835
 30
0.0
  0
VERTEX
  5
16C6
100
AcDbEntity
  8
ALPHA
100
AcDbVertex
100
AcDb2dVertex
 10
56.2736
 20
280.874194
 30
0.0
  0
VERTEX
  5
16C7
100
AcDbEntity
  8
ALPHA
100
AcDbVertex
100
AcDb2dVertex
 10
56.7034
 20
280.299404
 30
0.0
  0
VERTEX
  5
16C8
100
AcDbEntity
  8
ALPHA
100
AcDbVertex
100
AcDb2dVertex
 10
57.185262
 20
279.76921
 30
0.0
  0
VERTEX
  5
16C9
100
AcDbEntity
  8
ALPHA
100
AcDbVertex
100
AcDb2dVertex
 10
57.71543
 20
279.287361
 30
0.0
  0
VERTEX
  5
16CA
100
AcDbEntity
  8
ALPHA
100
AcDbVertex
100
AcDb2dVertex
 10
58.290146
 20
278.857602
 30
0.0
  0
VERTEX
  5
16CB
100
AcDbEntity
  8
ALPHA
100
AcDbVertex
100
AcDb2dVertex
 10
58.905656
 20
278.483681
 30
0.0
  0
VERTEX
  5
16CC
100
AcDbEntity
  8
ALPHA
100
AcDbVertex
100
AcDb2dVertex
 10
59.558203
 20
278.169344
 30
0.0
  0
VERTEX
  5
16CD
100
AcDbEntity
  8
ALPHA
100
AcDbVertex
100
AcDb2dVertex
 10
60.244031
 20
277.918337
 30
0.0
  0
VERTEX
  5
16CE
100
AcDbEntity
  8
ALPHA
100
AcDbVertex
100
AcDb2dVertex
 10
60.959383
 20
277.734408
 30
0.0
  0
VERTEX
  5
16CF
100
AcDbEntity
  8
ALPHA
100
AcDbVertex
100
AcDb2dVertex
 10
61.700504
 20
277.621303
 30
0.0
  0
VERTEX
  5
16D0
100
AcDbEntity
  8
ALPHA
100
AcDbVertex
100
AcDb2dVertex
 10
62.463638
 20
277.582769
 30
0.0
  0
SEQEND
  5
16D1
100
AcDbEntity
  8
ALPHA
  0
POLYLINE
  5
16D2
100
AcDbEntity
  8
ALPHA
100
AcDb2dPolyline
 66
     1
 10
0.0
 20
0.0
 30
0.0
  0
VERTEX
  5
16D3
100
AcDbEntity
  8
ALPHA
100
AcDbVertex
100
AcDb2dVertex
 10
55.39189
 20
297.292851
 30
0.0
  0
VERTEX
  5
16D4
100
AcDbEntity
  8
ALPHA
100
AcDbVertex
100
AcDb2dVertex
 10
69.53521
 20
297.292851
 30
0.0
  0
VERTEX
  5
16D5
100
AcDbEntity
  8
ALPHA
100
AcDbVertex
100
AcDb2dVertex
 10
76.605053
 20
285.049663
 30
0.0
  0
VERTEX
  5
16D6
100
AcDbEntity
  8
ALPHA
100
AcDbVertex
100
AcDb2dVertex
 10
69.53521
 20
272.799772
 30
0.0
  0
VERTEX
  5
16D7
100
AcDbEntity
  8
ALPHA
100
AcDbVertex
100
AcDb2dVertex
 10
55.39189
 20
272.799772
 30
0.0
  0
VERTEX
  5
16D8
100
AcDbEntity
  8
ALPHA
100
AcDbVertex
100
AcDb2dVertex
 10
48.320495
 20
285.049663
 30
0.0
  0
VERTEX
  5
16D9
100
AcDbEntity
  8
ALPHA
100
AcDbVertex
100
AcDb2dVertex
 10
55.39189
 20
297.292851
 30
0.0
  0
SEQEND
  5
16DA
100
AcDbEntity
  8
ALPHA
  0
POLYLINE
  5
16DB
100
AcDbEntity
  8
AXE
100
AcDb2dPolyline
 66
     1
 10
0.0
 20
0.0
 30
0.0
  0
VERTEX
  5
16DC
100
AcDbEntity
  8
AXE
100
AcDbVertex
100
AcDb2dVertex
 10
75.486535
 20
243.046212
 30
0.0
  0
VERTEX
  5
16DD
100
AcDbEntity
  8
AXE
100
AcDbVertex
100
AcDb2dVertex
 10
51.055969
 20
243.046212
 30
0.0
  0
SEQEND
  5
16DE
100
AcDbEntity
  8
AXE
  0
POLYLINE
  5
16DF
100
AcDbEntity
  8
POINTILLE_COURT
100
AcDb2dPolyline
 66
     1
 10
0.0
 20
0.0
 30
0.0
  0
VERTEX
  5
16E0
100
AcDbEntity
  8
POINTILLE_COURT
100
AcDbVertex
100
AcDb2dVertex
 10
57.713626
 20
243.046212
 30
0.0
  0
VERTEX
  5
16E1
100
AcDbEntity
  8
POINTILLE_COURT
100
AcDbVertex
100
AcDb2dVertex
 10
57.740732
 20
243.582974
 30
0.0
  0
VERTEX
  5
16E2
100
AcDbEntity
  8
POINTILLE_COURT
100
AcDbVertex
100
AcDb2dVertex
 10
57.820291
 20
244.104235
 30
0.0
  0
VERTEX
  5
16E3
100
AcDbEntity
  8
POINTILLE_COURT
100
AcDbVertex
100
AcDb2dVertex
 10
57.949663
 20
244.607354
 30
0.0
  0
VERTEX
  5
16E4
100
AcDbEntity
  8
POINTILLE_COURT
100
AcDbVertex
100
AcDb2dVertex
 10
58.126209
 20
245.089694
 30
0.0
  0
VERTEX
  5
16E5
100
AcDbEntity
  8
POINTILLE_COURT
100
AcDbVertex
100
AcDb2dVertex
 10
58.34729
 20
245.548613
 30
0.0
  0
VERTEX
  5
16E6
100
AcDbEntity
  8
POINTILLE_COURT
100
AcDbVertex
100
AcDb2dVertex
 10
58.610265
 20
245.981474
 30
0.0
  0
VERTEX
  5
16E7
100
AcDbEntity
  8
POINTILLE_COURT
100
AcDbVertex
100
AcDb2dVertex
 10
58.912497
 20
246.385637
 30
0.0
  0
VERTEX
  5
16E8
100
AcDbEntity
  8
POINTILLE_COURT
100
AcDbVertex
100
AcDb2dVertex
 10
59.251345
 20
246.758462
 30
0.0
  0
VERTEX
  5
16E9
100
AcDbEntity
  8
POINTILLE_COURT
100
AcDbVertex
100
AcDb2dVertex
 10
59.62417
 20
247.09731
 30
0.0
  0
VERTEX
  5
16EA
100
AcDbEntity
  8
POINTILLE_COURT
100
AcDbVertex
100
AcDb2dVertex
 10
60.028333
 20
247.399541
 30
0.0
  0
VERTEX
  5
16EB
100
AcDbEntity
  8
POINTILLE_COURT
100
AcDbVertex
100
AcDb2dVertex
 10
60.461193
 20
247.662517
 30
0.0
  0
VERTEX
  5
16EC
100
AcDbEntity
  8
POINTILLE_COURT
100
AcDbVertex
100
AcDb2dVertex
 10
60.920113
 20
247.883598
 30
0.0
  0
VERTEX
  5
16ED
100
AcDbEntity
  8
POINTILLE_COURT
100
AcDbVertex
100
AcDb2dVertex
 10
61.402453
 20
248.060144
 30
0.0
  0
VERTEX
  5
16EE
100
AcDbEntity
  8
POINTILLE_COURT
100
AcDbVertex
100
AcDb2dVertex
 10
61.905572
 20
248.189516
 30
0.0
  0
VERTEX
  5
16EF
100
AcDbEntity
  8
POINTILLE_COURT
100
AcDbVertex
100
AcDb2dVertex
 10
62.426833
 20
248.269074
 30
0.0
  0
VERTEX
  5
16F0
100
AcDbEntity
  8
POINTILLE_COURT
100
AcDbVertex
100
AcDb2dVertex
 10
62.963595
 20
248.296181
 30
0.0
  0
VERTEX
  5
16F1
100
AcDbEntity
  8
POINTILLE_COURT
100
AcDbVertex
100
AcDb2dVertex
 10
63.500387
 20
248.269074
 30
0.0
  0
VERTEX
  5
16F2
100
AcDbEntity
  8
POINTILLE_COURT
100
AcDbVertex
100
AcDb2dVertex
 10
64.021675
 20
248.189516
 30
0.0
  0
VERTEX
  5
16F3
100
AcDbEntity
  8
POINTILLE_COURT
100
AcDbVertex
100
AcDb2dVertex
 10
64.524818
 20
248.060144
 30
0.0
  0
VERTEX
  5
16F4
100
AcDbEntity
  8
POINTILLE_COURT
100
AcDbVertex
100
AcDb2dVertex
 10
65.007178
 20
247.883598
 30
0.0
  0
VERTEX
  5
16F5
100
AcDbEntity
  8
POINTILLE_COURT
100
AcDbVertex
100
AcDb2dVertex
 10
65.466115
 20
247.662517
 30
0.0
  0
VERTEX
  5
16F6
100
AcDbEntity
  8
POINTILLE_COURT
100
AcDbVertex
100
AcDb2dVertex
 10
65.89899
 20
247.399541
 30
0.0
  0
VERTEX
  5
16F7
100
AcDbEntity
  8
POINTILLE_COURT
100
AcDbVertex
100
AcDb2dVertex
 10
66.303164
 20
247.09731
 30
0.0
  0
VERTEX
  5
16F8
100
AcDbEntity
  8
POINTILLE_COURT
100
AcDbVertex
100
AcDb2dVertex
 10
66.675999
 20
246.758462
 30
0.0
  0
VERTEX
  5
16F9
100
AcDbEntity
  8
POINTILLE_COURT
100
AcDbVertex
100
AcDb2dVertex
 10
67.014854
 20
246.385637
 30
0.0
  0
VERTEX
  5
16FA
100
AcDbEntity
  8
POINTILLE_COURT
100
AcDbVertex
100
AcDb2dVertex
 10
67.317091
 20
245.981474
 30
0.0
  0
VERTEX
  5
16FB
100
AcDbEntity
  8
POINTILLE_COURT
100
AcDbVertex
100
AcDb2dVertex
 10
67.58007
 20
245.548613
 30
0.0
  0
VERTEX
  5
16FC
100
AcDbEntity
  8
POINTILLE_COURT
100
AcDbVertex
100
AcDb2dVertex
 10
67.801154
 20
245.089694
 30
0.0
  0
VERTEX
  5
16FD
100
AcDbEntity
  8
POINTILLE_COURT
100
AcDbVertex
100
AcDb2dVertex
 10
67.977701
 20
244.607354
 30
0.0
  0
VERTEX
  5
16FE
100
AcDbEntity
  8
POINTILLE_COURT
100
AcDbVertex
100
AcDb2dVertex
 10
68.107074
 20
244.104235
 30
0.0
  0
VERTEX
  5
16FF
100
AcDbEntity
  8
POINTILLE_COURT
100
AcDbVertex
100
AcDb2dVertex
 10
68.186633
 20
243.582974
 30
0.0
  0
VERTEX
  5
1700
100
AcDbEntity
  8
POINTILLE_COURT
100
AcDbVertex
100
AcDb2dVertex
 10
68.213739
 20
243.046212
 30
0.0
  0
VERTEX
  5
1701
100
AcDbEntity
  8
POINTILLE_COURT
100
AcDbVertex
100
AcDb2dVertex
 10
68.186633
 20
242.509444
 30
0.0
  0
VERTEX
  5
1702
100
AcDbEntity
  8
POINTILLE_COURT
100
AcDbVertex
100
AcDb2dVertex
 10
68.107074
 20
241.988178
 30
0.0
  0
VERTEX
  5
1703
100
AcDbEntity
  8
POINTILLE_COURT
100
AcDbVertex
100
AcDb2dVertex
 10
67.977701
 20
241.485054
 30
0.0
  0
VERTEX
  5
1704
100
AcDbEntity
  8
POINTILLE_COURT
100
AcDbVertex
100
AcDb2dVertex
 10
67.801154
 20
241.002711
 30
0.0
  0
VERTEX
  5
1705
100
AcDbEntity
  8
POINTILLE_COURT
100
AcDbVertex
100
AcDb2dVertex
 10
67.58007
 20
240.543787
 30
0.0
  0
VERTEX
  5
1706
100
AcDbEntity
  8
POINTILLE_COURT
100
AcDbVertex
100
AcDb2dVertex
 10
67.317091
 20
240.110924
 30
0.0
  0
VERTEX
  5
1707
100
AcDbEntity
  8
POINTILLE_COURT
100
AcDbVertex
100
AcDb2dVertex
 10
67.014854
 20
239.706759
 30
0.0
  0
VERTEX
  5
1708
100
AcDbEntity
  8
POINTILLE_COURT
100
AcDbVertex
100
AcDb2dVertex
 10
66.675999
 20
239.333932
 30
0.0
  0
VERTEX
  5
1709
100
AcDbEntity
  8
POINTILLE_COURT
100
AcDbVertex
100
AcDb2dVertex
 10
66.303164
 20
238.995082
 30
0.0
  0
VERTEX
  5
170A
100
AcDbEntity
  8
POINTILLE_COURT
100
AcDbVertex
100
AcDb2dVertex
 10
65.89899
 20
238.69285
 30
0.0
  0
VERTEX
  5
170B
100
AcDbEntity
  8
POINTILLE_COURT
100
AcDbVertex
100
AcDb2dVertex
 10
65.466115
 20
238.429873
 30
0.0
  0
VERTEX
  5
170C
100
AcDbEntity
  8
POINTILLE_COURT
100
AcDbVertex
100
AcDb2dVertex
 10
65.007178
 20
238.208792
 30
0.0
  0
VERTEX
  5
170D
100
AcDbEntity
  8
POINTILLE_COURT
100
AcDbVertex
100
AcDb2dVertex
 10
64.524818
 20
238.032246
 30
0.0
  0
VERTEX
  5
170E
100
AcDbEntity
  8
POINTILLE_COURT
100
AcDbVertex
100
AcDb2dVertex
 10
64.021675
 20
237.902874
 30
0.0
  0
VERTEX
  5
170F
100
AcDbEntity
  8
POINTILLE_COURT
100
AcDbVertex
100
AcDb2dVertex
 10
63.500387
 20
237.823315
 30
0.0
  0
VERTEX
  5
1710
100
AcDbEntity
  8
POINTILLE_COURT
100
AcDbVertex
100
AcDb2dVertex
 10
62.963595
 20
237.796209
 30
0.0
  0
VERTEX
  5
1711
100
AcDbEntity
  8
POINTILLE_COURT
100
AcDbVertex
100
AcDb2dVertex
 10
62.426833
 20
237.823315
 30
0.0
  0
VERTEX
  5
1712
100
AcDbEntity
  8
POINTILLE_COURT
100
AcDbVertex
100
AcDb2dVertex
 10
61.905572
 20
237.902874
 30
0.0
  0
VERTEX
  5
1713
100
AcDbEntity
  8
POINTILLE_COURT
100
AcDbVertex
100
AcDb2dVertex
 10
61.402453
 20
238.032246
 30
0.0
  0
VERTEX
  5
1714
100
AcDbEntity
  8
POINTILLE_COURT
100
AcDbVertex
100
AcDb2dVertex
 10
60.920113
 20
238.208792
 30
0.0
  0
VERTEX
  5
1715
100
AcDbEntity
  8
POINTILLE_COURT
100
AcDbVertex
100
AcDb2dVertex
 10
60.461193
 20
238.429873
 30
0.0
  0
VERTEX
  5
1716
100
AcDbEntity
  8
POINTILLE_COURT
100
AcDbVertex
100
AcDb2dVertex
 10
60.028333
 20
238.69285
 30
0.0
  0
VERTEX
  5
1717
100
AcDbEntity
  8
POINTILLE_COURT
100
AcDbVertex
100
AcDb2dVertex
 10
59.62417
 20
238.995082
 30
0.0
  0
VERTEX
  5
1718
100
AcDbEntity
  8
POINTILLE_COURT
100
AcDbVertex
100
AcDb2dVertex
 10
59.251345
 20
239.333932
 30
0.0
  0
VERTEX
  5
1719
100
AcDbEntity
  8
POINTILLE_COURT
100
AcDbVertex
100
AcDb2dVertex
 10
58.912497
 20
239.706759
 30
0.0
  0
VERTEX
  5
171A
100
AcDbEntity
  8
POINTILLE_COURT
100
AcDbVertex
100
AcDb2dVertex
 10
58.610265
 20
240.110924
 30
0.0
  0
VERTEX
  5
171B
100
AcDbEntity
  8
POINTILLE_COURT
100
AcDbVertex
100
AcDb2dVertex
 10
58.34729
 20
240.543787
 30
0.0
  0
VERTEX
  5
171C
100
AcDbEntity
  8
POINTILLE_COURT
100
AcDbVertex
100
AcDb2dVertex
 10
58.126209
 20
241.002711
 30
0.0
  0
VERTEX
  5
171D
100
AcDbEntity
  8
POINTILLE_COURT
100
AcDbVertex
100
AcDb2dVertex
 10
57.949663
 20
241.485054
 30
0.0
  0
VERTEX
  5
171E
100
AcDbEntity
  8
POINTILLE_COURT
100
AcDbVertex
100
AcDb2dVertex
 10
57.820291
 20
241.988178
 30
0.0
  0
VERTEX
  5
171F
100
AcDbEntity
  8
POINTILLE_COURT
100
AcDbVertex
100
AcDb2dVertex
 10
57.740732
 20
242.509444
 30
0.0
  0
VERTEX
  5
1720
100
AcDbEntity
  8
POINTILLE_COURT
100
AcDbVertex
100
AcDb2dVertex
 10
57.713626
 20
243.046212
 30
0.0
  0
SEQEND
  5
1721
100
AcDbEntity
  8
POINTILLE_COURT
  0
POLYLINE
  5
1722
100
AcDbEntity
  8
ALPHA
100
AcDb2dPolyline
 66
     1
 10
0.0
 20
0.0
 30
0.0
  0
VERTEX
  5
1723
100
AcDbEntity
  8
ALPHA
100
AcDbVertex
100
AcDb2dVertex
 10
8.308545
 20
210.128483
 30
0.0
  0
VERTEX
  5
1724
100
AcDbEntity
  8
ALPHA
100
AcDbVertex
100
AcDb2dVertex
 10
17.060785
 20
210.128483
 30
0.0
  0
VERTEX
  5
1725
100
AcDbEntity
  8
ALPHA
100
AcDbVertex
100
AcDb2dVertex
 10
17.060785
 20
217.213319
 30
0.0
  0
VERTEX
  5
1726
100
AcDbEntity
  8
ALPHA
100
AcDbVertex
100
AcDb2dVertex
 10
8.308545
 20
217.213319
 30
0.0
  0
SEQEND
  5
1727
100
AcDbEntity
  8
ALPHA
  0
POLYLINE
  5
1728
100
AcDbEntity
  8
ALPHA
100
AcDb2dPolyline
 66
     1
 10
0.0
 20
0.0
 30
0.0
  0
VERTEX
  5
1729
100
AcDbEntity
  8
ALPHA
100
AcDbVertex
100
AcDb2dVertex
 10
8.308545
 20
193.61372
 30
0.0
  0
VERTEX
  5
172A
100
AcDbEntity
  8
ALPHA
100
AcDbVertex
100
AcDb2dVertex
 10
2.463582
 20
193.61372
 30
0.0
  0
VERTEX
  5
172B
100
AcDbEntity
  8
ALPHA
100
AcDbVertex
100
AcDb2dVertex
 10
2.463582
 20
208.613831
 30
0.0
  0
VERTEX
  5
172C
100
AcDbEntity
  8
ALPHA
100
AcDbVertex
100
AcDb2dVertex
 10
8.308545
 20
208.613831
 30
0.0
  0
SEQEND
  5
172D
100
AcDbEntity
  8
ALPHA
  0
POLYLINE
  5
172E
100
AcDbEntity
  8
ALPHA
100
AcDb2dPolyline
 66
     1
 10
0.0
 20
0.0
 30
0.0
  0
VERTEX
  5
172F
100
AcDbEntity
  8
ALPHA
100
AcDbVertex
100
AcDb2dVertex
 10
2.463582
 20
197.048329
 30
0.0
  0
VERTEX
  5
1730
100
AcDbEntity
  8
ALPHA
100
AcDbVertex
100
AcDb2dVertex
 10
8.304312
 20
197.048329
 30
0.0
  0
SEQEND
  5
1731
100
AcDbEntity
  8
ALPHA
  0
POLYLINE
  5
1732
100
AcDbEntity
  8
ALPHA
100
AcDb2dPolyline
 66
     1
 10
0.0
 20
0.0
 30
0.0
  0
VERTEX
  5
1733
100
AcDbEntity
  8
ALPHA
100
AcDbVertex
100
AcDb2dVertex
 10
2.463582
 20
205.172696
 30
0.0
  0
VERTEX
  5
1734
100
AcDbEntity
  8
ALPHA
100
AcDbVertex
100
AcDb2dVertex
 10
8.304312
 20
205.172696
 30
0.0
  0
SEQEND
  5
1735
100
AcDbEntity
  8
ALPHA
  0
POLYLINE
  5
1736
100
AcDbEntity
  8
ALPHA
100
AcDb2dPolyline
 66
     1
 10
0.0
 20
0.0
 30
0.0
  0
VERTEX
  5
1737
100
AcDbEntity
  8
ALPHA
100
AcDbVertex
100
AcDb2dVertex
 10
36.064536
 20
242.731499
 30
0.0
  0
VERTEX
  5
1738
100
AcDbEntity
  8
ALPHA
100
AcDbVertex
100
AcDb2dVertex
 10
35.706247
 20
243.395816
 30
0.0
  0
VERTEX
  5
1739
100
AcDbEntity
  8
ALPHA
100
AcDbVertex
100
AcDb2dVertex
 10
35.260397
 20
243.999098
 30
0.0
  0
VERTEX
  5
173A
100
AcDbEntity
  8
ALPHA
100
AcDbVertex
100
AcDb2dVertex
 10
34.735508
 20
244.532856
 30
0.0
  0
VERTEX
  5
173B
100
AcDbEntity
  8
ALPHA
100
AcDbVertex
100
AcDb2dVertex
 10
34.140107
 20
244.988602
 30
0.0
  0
VERTEX
  5
173C
100
AcDbEntity
  8
ALPHA
100
AcDbVertex
100
AcDb2dVertex
 10
33.482717
 20
245.357848
 30
0.0
  0
VERTEX
  5
173D
100
AcDbEntity
  8
ALPHA
100
AcDbVertex
100
AcDb2dVertex
 10
32.771863
 20
245.632105
 30
0.0
  0
VERTEX
  5
173E
100
AcDbEntity
  8
ALPHA
100
AcDbVertex
100
AcDb2dVertex
 10
32.016069
 20
245.802884
 30
0.0
  0
VERTEX
  5
173F
100
AcDbEntity
  8
ALPHA
100
AcDbVertex
100
AcDb2dVertex
 10
31.22386
 20
245.861696
 30
0.0
  0
VERTEX
  5
1740
100
AcDbEntity
  8
ALPHA
100
AcDbVertex
100
AcDb2dVertex
 10
30.681787
 20
245.834308
 30
0.0
  0
VERTEX
  5
1741
100
AcDbEntity
  8
ALPHA
100
AcDbVertex
100
AcDb2dVertex
 10
30.155343
 20
245.753922
 30
0.0
  0
VERTEX
  5
1742
100
AcDbEntity
  8
ALPHA
100
AcDbVertex
100
AcDb2dVertex
 10
29.647195
 20
245.623204
 30
0.0
  0
VERTEX
  5
1743
100
AcDbEntity
  8
ALPHA
100
AcDbVertex
100
AcDb2dVertex
 10
29.160013
 20
245.444822
 30
0.0
  0
VERTEX
  5
1744
100
AcDbEntity
  8
ALPHA
100
AcDbVertex
100
AcDb2dVertex
 10
28.696468
 20
245.221442
 30
0.0
  0
VERTEX
  5
1745
100
AcDbEntity
  8
ALPHA
100
AcDbVertex
100
AcDb2dVertex
 10
28.259226
 20
244.955731
 30
0.0
  0
VERTEX
  5
1746
100
AcDbEntity
  8
ALPHA
100
AcDbVertex
100
AcDb2dVertex
 10
27.850959
 20
244.650356
 30
0.0
  0
VERTEX
  5
1747
100
AcDbEntity
  8
ALPHA
100
AcDbVertex
100
AcDb2dVertex
 10
27.474335
 20
244.307984
 30
0.0
  0
VERTEX
  5
1748
100
AcDbEntity
  8
ALPHA
100
AcDbVertex
100
AcDb2dVertex
 10
27.132024
 20
243.931281
 30
0.0
  0
VERTEX
  5
1749
100
AcDbEntity
  8
ALPHA
100
AcDbVertex
100
AcDb2dVertex
 10
26.826694
 20
243.522914
 30
0.0
  0
VERTEX
  5
174A
100
AcDbEntity
  8
ALPHA
100
AcDbVertex
100
AcDb2dVertex
 10
26.561014
 20
243.085551
 30
0.0
  0
VERTEX
  5
174B
100
AcDbEntity
  8
ALPHA
100
AcDbVertex
100
AcDb2dVertex
 10
26.337654
 20
242.621857
 30
0.0
  0
VERTEX
  5
174C
100
AcDbEntity
  8
ALPHA
100
AcDbVertex
100
AcDb2dVertex
 10
26.159284
 20
242.1345
 30
0.0
  0
VERTEX
  5
174D
100
AcDbEntity
  8
ALPHA
100
AcDbVertex
100
AcDb2dVertex
 10
26.028572
 20
241.626147
 30
0.0
  0
VERTEX
  5
174E
100
AcDbEntity
  8
ALPHA
100
AcDbVertex
100
AcDb2dVertex
 10
25.948187
 20
241.099464
 30
0.0
  0
VERTEX
  5
174F
100
AcDbEntity
  8
ALPHA
100
AcDbVertex
100
AcDb2dVertex
 10
25.920799
 20
240.557118
 30
0.0
  0
VERTEX
  5
1750
100
AcDbEntity
  8
ALPHA
100
AcDbVertex
100
AcDb2dVertex
 10
25.948187
 20
240.014782
 30
0.0
  0
VERTEX
  5
1751
100
AcDbEntity
  8
ALPHA
100
AcDbVertex
100
AcDb2dVertex
 10
26.028572
 20
239.488186
 30
0.0
  0
VERTEX
  5
1752
100
AcDbEntity
  8
ALPHA
100
AcDbVertex
100
AcDb2dVertex
 10
26.159284
 20
238.979986
 30
0.0
  0
VERTEX
  5
1753
100
AcDbEntity
  8
ALPHA
100
AcDbVertex
100
AcDb2dVertex
 10
26.337654
 20
238.492839
 30
0.0
  0
VERTEX
  5
1754
100
AcDbEntity
  8
ALPHA
100
AcDbVertex
100
AcDb2dVertex
 10
26.561014
 20
238.029401
 30
0.0
  0
VERTEX
  5
1755
100
AcDbEntity
  8
ALPHA
100
AcDbVertex
100
AcDb2dVertex
 10
26.826694
 20
237.592327
 30
0.0
  0
VERTEX
  5
1756
100
AcDbEntity
  8
ALPHA
100
AcDbVertex
100
AcDb2dVertex
 10
27.132024
 20
237.184274
 30
0.0
  0
VERTEX
  5
1757
100
AcDbEntity
  8
ALPHA
100
AcDbVertex
100
AcDb2dVertex
 10
27.474335
 20
236.807897
 30
0.0
  0
VERTEX
  5
1758
100
AcDbEntity
  8
ALPHA
100
AcDbVertex
100
AcDb2dVertex
 10
27.850959
 20
236.465853
 30
0.0
  0
VERTEX
  5
1759
100
AcDbEntity
  8
ALPHA
100
AcDbVertex
100
AcDb2dVertex
 10
28.259226
 20
236.160798
 30
0.0
  0
VERTEX
  5
175A
100
AcDbEntity
  8
ALPHA
100
AcDbVertex
100
AcDb2dVertex
 10
28.696468
 20
235.895387
 30
0.0
  0
VERTEX
  5
175B
100
AcDbEntity
  8
ALPHA
100
AcDbVertex
100
AcDb2dVertex
 10
29.160013
 20
235.672276
 30
0.0
  0
VERTEX
  5
175C
100
AcDbEntity
  8
ALPHA
100
AcDbVertex
100
AcDb2dVertex
 10
29.647195
 20
235.494123
 30
0.0
  0
VERTEX
  5
175D
100
AcDbEntity
  8
ALPHA
100
AcDbVertex
100
AcDb2dVertex
 10
30.155343
 20
235.363582
 30
0.0
  0
VERTEX
  5
175E
100
AcDbEntity
  8
ALPHA
100
AcDbVertex
100
AcDb2dVertex
 10
30.681787
 20
235.283309
 30
0.0
  0
VERTEX
  5
175F
100
AcDbEntity
  8
ALPHA
100
AcDbVertex
100
AcDb2dVertex
 10
31.22386
 20
235.255962
 30
0.0
  0
VERTEX
  5
1760
100
AcDbEntity
  8
ALPHA
100
AcDbVertex
100
AcDb2dVertex
 10
32.016011
 20
235.314677
 30
0.0
  0
VERTEX
  5
1761
100
AcDbEntity
  8
ALPHA
100
AcDbVertex
100
AcDb2dVertex
 10
32.771763
 20
235.48519
 30
0.0
  0
VERTEX
  5
1762
100
AcDbEntity
  8
ALPHA
100
AcDbVertex
100
AcDb2dVertex
 10
33.482593
 20
235.759053
 30
0.0
  0
VERTEX
  5
1763
100
AcDbEntity
  8
ALPHA
100
AcDbVertex
100
AcDb2dVertex
 10
34.139974
 20
236.127817
 30
0.0
  0
VERTEX
  5
1764
100
AcDbEntity
  8
ALPHA
100
AcDbVertex
100
AcDb2dVertex
 10
34.735384
 20
236.583033
 30
0.0
  0
VERTEX
  5
1765
100
AcDbEntity
  8
ALPHA
100
AcDbVertex
100
AcDb2dVertex
 10
35.260297
 20
237.116254
 30
0.0
  0
VERTEX
  5
1766
100
AcDbEntity
  8
ALPHA
100
AcDbVertex
100
AcDb2dVertex
 10
35.70619
 20
237.71903
 30
0.0
  0
VERTEX
  5
1767
100
AcDbEntity
  8
ALPHA
100
AcDbVertex
100
AcDb2dVertex
 10
36.064536
 20
238.382913
 30
0.0
  0
SEQEND
  5
1768
100
AcDbEntity
  8
ALPHA
  0
POLYLINE
  5
1769
100
AcDbEntity
  8
AXE
100
AcDb2dPolyline
 66
     1
 10
0.0
 20
0.0
 30
0.0
  0
VERTEX
  5
176A
100
AcDbEntity
  8
AXE
100
AcDbVertex
100
AcDb2dVertex
 10
62.963595
 20
255.47609
 30
0.0
  0
VERTEX
  5
176B
100
AcDbEntity
  8
AXE
100
AcDbVertex
100
AcDb2dVertex
 10
62.963595
 20
231.045559
 30
0.0
  0
SEQEND
  5
176C
100
AcDbEntity
  8
AXE
  0
POLYLINE
  5
176D
100
AcDbEntity
  8
ALPHA
100
AcDb2dPolyline
 66
     1
 10
0.0
 20
0.0
 30
0.0
  0
VERTEX
  5
176E
100
AcDbEntity
  8
ALPHA
100
AcDbVertex
100
AcDb2dVertex
 10
116.064658
 20
242.731499
 30
0.0
  0
VERTEX
  5
176F
100
AcDbEntity
  8
ALPHA
100
AcDbVertex
100
AcDb2dVertex
 10
115.706368
 20
243.395816
 30
0.0
  0
VERTEX
  5
1770
100
AcDbEntity
  8
ALPHA
100
AcDbVertex
100
AcDb2dVertex
 10
115.260513
 20
243.999098
 30
0.0
  0
VERTEX
  5
1771
100
AcDbEntity
  8
ALPHA
100
AcDbVertex
100
AcDb2dVertex
 10
114.735619
 20
244.532856
 30
0.0
  0
VERTEX
  5
1772
100
AcDbEntity
  8
ALPHA
100
AcDbVertex
100
AcDb2dVertex
 10
114.140211
 20
244.988602
 30
0.0
  0
VERTEX
  5
1773
100
AcDbEntity
  8
ALPHA
100
AcDbVertex
100
AcDb2dVertex
 10
113.482815
 20
245.357848
 30
0.0
  0
VERTEX
  5
1774
100
AcDbEntity
  8
ALPHA
100
AcDbVertex
100
AcDb2dVertex
 10
112.771955
 20
245.632105
 30
0.0
  0
VERTEX
  5
1775
100
AcDbEntity
  8
ALPHA
100
AcDbVertex
100
AcDb2dVertex
 10
112.016157
 20
245.802884
 30
0.0
  0
VERTEX
  5
1776
100
AcDbEntity
  8
ALPHA
100
AcDbVertex
100
AcDb2dVertex
 10
111.223947
 20
245.861696
 30
0.0
  0
VERTEX
  5
1777
100
AcDbEntity
  8
ALPHA
100
AcDbVertex
100
AcDb2dVertex
 10
110.681875
 20
245.834308
 30
0.0
  0
VERTEX
  5
1778
100
AcDbEntity
  8
ALPHA
100
AcDbVertex
100
AcDb2dVertex
 10
110.155431
 20
245.753922
 30
0.0
  0
VERTEX
  5
1779
100
AcDbEntity
  8
ALPHA
100
AcDbVertex
100
AcDb2dVertex
 10
109.647285
 20
245.623204
 30
0.0
  0
VERTEX
  5
177A
100
AcDbEntity
  8
ALPHA
100
AcDbVertex
100
AcDb2dVertex
 10
109.160106
 20
245.444822
 30
0.0
  0
VERTEX
  5
177B
100
AcDbEntity
  8
ALPHA
100
AcDbVertex
100
AcDb2dVertex
 10
108.696563
 20
245.221442
 30
0.0
  0
VERTEX
  5
177C
100
AcDbEntity
  8
ALPHA
100
AcDbVertex
100
AcDb2dVertex
 10
108.259325
 20
244.955731
 30
0.0
  0
VERTEX
  5
177D
100
AcDbEntity
  8
ALPHA
100
AcDbVertex
100
AcDb2dVertex
 10
107.851061
 20
244.650356
 30
0.0
  0
VERTEX
  5
177E
100
AcDbEntity
  8
ALPHA
100
AcDbVertex
100
AcDb2dVertex
 10
107.47444
 20
244.307984
 30
0.0
  0
VERTEX
  5
177F
100
AcDbEntity
  8
ALPHA
100
AcDbVertex
100
AcDb2dVertex
 10
107.132132
 20
243.931281
 30
0.0
  0
VERTEX
  5
1780
100
AcDbEntity
  8
ALPHA
100
AcDbVertex
100
AcDb2dVertex
 10
106.826805
 20
243.522914
 30
0.0
  0
VERTEX
  5
1781
100
AcDbEntity
  8
ALPHA
100
AcDbVertex
100
AcDb2dVertex
 10
106.561128
 20
243.085551
 30
0.0
  0
VERTEX
  5
1782
100
AcDbEntity
  8
ALPHA
100
AcDbVertex
100
AcDb2dVertex
 10
106.337771
 20
242.621857
 30
0.0
  0
VERTEX
  5
1783
100
AcDbEntity
  8
ALPHA
100
AcDbVertex
100
AcDb2dVertex
 10
106.159403
 20
242.1345
 30
0.0
  0
VERTEX
  5
1784
100
AcDbEntity
  8
ALPHA
100
AcDbVertex
100
AcDb2dVertex
 10
106.028693
 20
241.626147
 30
0.0
  0
VERTEX
  5
1785
100
AcDbEntity
  8
ALPHA
100
AcDbVertex
100
AcDb2dVertex
 10
105.948309
 20
241.099464
 30
0.0
  0
VERTEX
  5
1786
100
AcDbEntity
  8
ALPHA
100
AcDbVertex
100
AcDb2dVertex
 10
105.920921
 20
240.557118
 30
0.0
  0
VERTEX
  5
1787
100
AcDbEntity
  8
ALPHA
100
AcDbVertex
100
AcDb2dVertex
 10
105.948309
 20
240.014782
 30
0.0
  0
VERTEX
  5
1788
100
AcDbEntity
  8
ALPHA
100
AcDbVertex
100
AcDb2dVertex
 10
106.028693
 20
239.488186
 30
0.0
  0
VERTEX
  5
1789
100
AcDbEntity
  8
ALPHA
100
AcDbVertex
100
AcDb2dVertex
 10
106.159403
 20
238.979986
 30
0.0
  0
VERTEX
  5
178A
100
AcDbEntity
  8
ALPHA
100
AcDbVertex
100
AcDb2dVertex
 10
106.337771
 20
238.492839
 30
0.0
  0
VERTEX
  5
178B
100
AcDbEntity
  8
ALPHA
100
AcDbVertex
100
AcDb2dVertex
 10
106.561128
 20
238.029401
 30
0.0
  0
VERTEX
  5
178C
100
AcDbEntity
  8
ALPHA
100
AcDbVertex
100
AcDb2dVertex
 10
106.826805
 20
237.592327
 30
0.0
  0
VERTEX
  5
178D
100
AcDbEntity
  8
ALPHA
100
AcDbVertex
100
AcDb2dVertex
 10
107.132132
 20
237.184274
 30
0.0
  0
VERTEX
  5
178E
100
AcDbEntity
  8
ALPHA
100
AcDbVertex
100
AcDb2dVertex
 10
107.47444
 20
236.807897
 30
0.0
  0
VERTEX
  5
178F
100
AcDbEntity
  8
ALPHA
100
AcDbVertex
100
AcDb2dVertex
 10
107.851061
 20
236.465853
 30
0.0
  0
VERTEX
  5
1790
100
AcDbEntity
  8
ALPHA
100
AcDbVertex
100
AcDb2dVertex
 10
108.259325
 20
236.160798
 30
0.0
  0
VERTEX
  5
1791
100
AcDbEntity
  8
ALPHA
100
AcDbVertex
100
AcDb2dVertex
 10
108.696563
 20
235.895387
 30
0.0
  0
VERTEX
  5
1792
100
AcDbEntity
  8
ALPHA
100
AcDbVertex
100
AcDb2dVertex
 10
109.160106
 20
235.672276
 30
0.0
  0
VERTEX
  5
1793
100
AcDbEntity
  8
ALPHA
100
AcDbVertex
100
AcDb2dVertex
 10
109.647285
 20
235.494123
 30
0.0
  0
VERTEX
  5
1794
100
AcDbEntity
  8
ALPHA
100
AcDbVertex
100
AcDb2dVertex
 10
110.155431
 20
235.363582
 30
0.0
  0
VERTEX
  5
1795
100
AcDbEntity
  8
ALPHA
100
AcDbVertex
100
AcDb2dVertex
 10
110.681875
 20
235.283309
 30
0.0
  0
VERTEX
  5
1796
100
AcDbEntity
  8
ALPHA
100
AcDbVertex
100
AcDb2dVertex
 10
111.223947
 20
235.255962
 30
0.0
  0
VERTEX
  5
1797
100
AcDbEntity
  8
ALPHA
100
AcDbVertex
100
AcDb2dVertex
 10
112.0161
 20
235.314677
 30
0.0
  0
VERTEX
  5
1798
100
AcDbEntity
  8
ALPHA
100
AcDbVertex
100
AcDb2dVertex
 10
112.771856
 20
235.48519
 30
0.0
  0
VERTEX
  5
1799
100
AcDbEntity
  8
ALPHA
100
AcDbVertex
100
AcDb2dVertex
 10
113.482691
 20
235.759053
 30
0.0
  0
VERTEX
  5
179A
100
AcDbEntity
  8
ALPHA
100
AcDbVertex
100
AcDb2dVertex
 10
114.140079
 20
236.127817
 30
0.0
  0
VERTEX
  5
179B
100
AcDbEntity
  8
ALPHA
100
AcDbVertex
100
AcDb2dVertex
 10
114.735495
 20
236.583033
 30
0.0
  0
VERTEX
  5
179C
100
AcDbEntity
  8
ALPHA
100
AcDbVertex
100
AcDb2dVertex
 10
115.260414
 20
237.116254
 30
0.0
  0
VERTEX
  5
179D
100
AcDbEntity
  8
ALPHA
100
AcDbVertex
100
AcDb2dVertex
 10
115.70631
 20
237.71903
 30
0.0
  0
VERTEX
  5
179E
100
AcDbEntity
  8
ALPHA
100
AcDbVertex
100
AcDb2dVertex
 10
116.064658
 20
238.382913
 30
0.0
  0
SEQEND
  5
179F
100
AcDbEntity
  8
ALPHA
  0
POLYLINE
  5
17A0
100
AcDbEntity
  8
ALPHA
100
AcDb2dPolyline
 66
     1
 10
0.0
 20
0.0
 30
0.0
  0
VERTEX
  5
17A1
100
AcDbEntity
  8
ALPHA
100
AcDbVertex
100
AcDb2dVertex
 10
95.809393
 20
239.288459
 30
0.0
  0
VERTEX
  5
17A2
100
AcDbEntity
  8
ALPHA
100
AcDbVertex
100
AcDb2dVertex
 10
103.308672
 20
239.288459
 30
0.0
  0
SEQEND
  5
17A3
100
AcDbEntity
  8
ALPHA
  0
POLYLINE
  5
17A4
100
AcDbEntity
  8
ALPHA
100
AcDb2dPolyline
 66
     1
 10
0.0
 20
0.0
 30
0.0
  0
VERTEX
  5
17A5
100
AcDbEntity
  8
ALPHA
100
AcDbVertex
100
AcDb2dVertex
 10
135.395363
 20
297.292851
 30
0.0
  0
VERTEX
  5
17A6
100
AcDbEntity
  8
ALPHA
100
AcDbVertex
100
AcDb2dVertex
 10
149.538507
 20
297.292851
 30
0.0
  0
VERTEX
  5
17A7
100
AcDbEntity
  8
ALPHA
100
AcDbVertex
100
AcDb2dVertex
 10
156.606798
 20
285.049663
 30
0.0
  0
VERTEX
  5
17A8
100
AcDbEntity
  8
ALPHA
100
AcDbVertex
100
AcDb2dVertex
 10
149.538507
 20
272.799772
 30
0.0
  0
VERTEX
  5
17A9
100
AcDbEntity
  8
ALPHA
100
AcDbVertex
100
AcDb2dVertex
 10
135.395363
 20
272.799772
 30
0.0
  0
VERTEX
  5
17AA
100
AcDbEntity
  8
ALPHA
100
AcDbVertex
100
AcDb2dVertex
 10
128.323933
 20
285.049663
 30
0.0
  0
VERTEX
  5
17AB
100
AcDbEntity
  8
ALPHA
100
AcDbVertex
100
AcDb2dVertex
 10
135.395363
 20
297.292851
 30
0.0
  0
SEQEND
  5
17AC
100
AcDbEntity
  8
ALPHA
  0
POLYLINE
  5
17AD
100
AcDbEntity
  8
ALPHA
100
AcDb2dPolyline
 66
     1
 10
0.0
 20
0.0
 30
0.0
  0
VERTEX
  5
17AE
100
AcDbEntity
  8
ALPHA
100
AcDbVertex
100
AcDb2dVertex
 10
142.463654
 20
277.582769
 30
0.0
  0
VERTEX
  5
17AF
100
AcDbEntity
  8
ALPHA
100
AcDbVertex
100
AcDb2dVertex
 10
143.226807
 20
277.621266
 30
0.0
  0
VERTEX
  5
17B0
100
AcDbEntity
  8
ALPHA
100
AcDbVertex
100
AcDb2dVertex
 10
143.967982
 20
277.734262
 30
0.0
  0
VERTEX
  5
17B1
100
AcDbEntity
  8
ALPHA
100
AcDbVertex
100
AcDb2dVertex
 10
144.683418
 20
277.918015
 30
0.0
  0
VERTEX
  5
17B2
100
AcDbEntity
  8
ALPHA
100
AcDbVertex
100
AcDb2dVertex
 10
145.369354
 20
278.168783
 30
0.0
  0
VERTEX
  5
17B3
100
AcDbEntity
  8
ALPHA
100
AcDbVertex
100
AcDb2dVertex
 10
146.022029
 20
278.482823
 30
0.0
  0
VERTEX
  5
17B4
100
AcDbEntity
  8
ALPHA
100
AcDbVertex
100
AcDb2dVertex
 10
146.637682
 20
278.856393
 30
0.0
  0
VERTEX
  5
17B5
100
AcDbEntity
  8
ALPHA
100
AcDbVertex
100
AcDb2dVertex
 10
147.212551
 20
279.285752
 30
0.0
  0
VERTEX
  5
17B6
100
AcDbEntity
  8
ALPHA
100
AcDbVertex
100
AcDb2dVertex
 10
147.742877
 20
279.767155
 30
0.0
  0
VERTEX
  5
17B7
100
AcDbEntity
  8
ALPHA
100
AcDbVertex
100
AcDb2dVertex
 10
148.224897
 20
280.296863
 30
0.0
  0
VERTEX
  5
17B8
100
AcDbEntity
  8
ALPHA
100
AcDbVertex
100
AcDb2dVertex
 10
148.65485
 20
280.871131
 30
0.0
  0
VERTEX
  5
17B9
100
AcDbEntity
  8
ALPHA
100
AcDbVertex
100
AcDb2dVertex
 10
149.028975
 20
281.486219
 30
0.0
  0
VERTEX
  5
17BA
100
AcDbEntity
  8
ALPHA
100
AcDbVertex
100
AcDb2dVertex
 10
149.343512
 20
282.138383
 30
0.0
  0
VERTEX
  5
17BB
100
AcDbEntity
  8
ALPHA
100
AcDbVertex
100
AcDb2dVertex
 10
149.594699
 20
282.823881
 30
0.0
  0
VERTEX
  5
17BC
100
AcDbEntity
  8
ALPHA
100
AcDbVertex
100
AcDb2dVertex
 10
149.778775
 20
283.538972
 30
0.0
  0
VERTEX
  5
17BD
100
AcDbEntity
  8
ALPHA
100
AcDbVertex
100
AcDb2dVertex
 10
149.891978
 20
284.279912
 30
0.0
  0
VERTEX
  5
17BE
100
AcDbEntity
  8
ALPHA
100
AcDbVertex
100
AcDb2dVertex
 10
149.930549
 20
285.04296
 30
0.0
  0
VERTEX
  5
17BF
100
AcDbEntity
  8
ALPHA
100
AcDbVertex
100
AcDb2dVertex
 10
149.891978
 20
285.806648
 30
0.0
  0
VERTEX
  5
17C0
100
AcDbEntity
  8
ALPHA
100
AcDbVertex
100
AcDb2dVertex
 10
149.778775
 20
286.548219
 30
0.0
  0
VERTEX
  5
17C1
100
AcDbEntity
  8
ALPHA
100
AcDbVertex
100
AcDb2dVertex
 10
149.594699
 20
287.263929
 30
0.0
  0
VERTEX
  5
17C2
100
AcDbEntity
  8
ALPHA
100
AcDbVertex
100
AcDb2dVertex
 10
149.343512
 20
287.950029
 30
0.0
  0
VERTEX
  5
17C3
100
AcDbEntity
  8
ALPHA
100
AcDbVertex
100
AcDb2dVertex
 10
149.028975
 20
288.602773
 30
0.0
  0
VERTEX
  5
17C4
100
AcDbEntity
  8
ALPHA
100
AcDbVertex
100
AcDb2dVertex
 10
148.65485
 20
289.218414
 30
0.0
  0
VERTEX
  5
17C5
100
AcDbEntity
  8
ALPHA
100
AcDbVertex
100
AcDb2dVertex
 10
148.224897
 20
289.793205
 30
0.0
  0
VERTEX
  5
17C6
100
AcDbEntity
  8
ALPHA
100
AcDbVertex
100
AcDb2dVertex
 10
147.742877
 20
290.3234
 30
0.0
  0
VERTEX
  5
17C7
100
AcDbEntity
  8
ALPHA
100
AcDbVertex
100
AcDb2dVertex
 10
147.212551
 20
290.805251
 30
0.0
  0
VERTEX
  5
17C8
100
AcDbEntity
  8
ALPHA
100
AcDbVertex
100
AcDb2dVertex
 10
146.637682
 20
291.235012
 30
0.0
  0
VERTEX
  5
17C9
100
AcDbEntity
  8
ALPHA
100
AcDbVertex
100
AcDb2dVertex
 10
146.022029
 20
291.608935
 30
0.0
  0
VERTEX
  5
17CA
100
AcDbEntity
  8
ALPHA
100
AcDbVertex
100
AcDb2dVertex
 10
145.369354
 20
291.923275
 30
0.0
  0
VERTEX
  5
17CB
100
AcDbEntity
  8
ALPHA
100
AcDbVertex
100
AcDb2dVertex
 10
144.683418
 20
292.174283
 30
0.0
  0
VERTEX
  5
17CC
100
AcDbEntity
  8
ALPHA
100
AcDbVertex
100
AcDb2dVertex
 10
143.967982
 20
292.358214
 30
0.0
  0
VERTEX
  5
17CD
100
AcDbEntity
  8
ALPHA
100
AcDbVertex
100
AcDb2dVertex
 10
143.226807
 20
292.47132
 30
0.0
  0
VERTEX
  5
17CE
100
AcDbEntity
  8
ALPHA
100
AcDbVertex
100
AcDb2dVertex
 10
142.463654
 20
292.509855
 30
0.0
  0
VERTEX
  5
17CF
100
AcDbEntity
  8
ALPHA
100
AcDbVertex
100
AcDb2dVertex
 10
141.699977
 20
292.47132
 30
0.0
  0
VERTEX
  5
17D0
100
AcDbEntity
  8
ALPHA
100
AcDbVertex
100
AcDb2dVertex
 10
140.958493
 20
292.358214
 30
0.0
  0
VERTEX
  5
17D1
100
AcDbEntity
  8
ALPHA
100
AcDbVertex
100
AcDb2dVertex
 10
140.242939
 20
292.174283
 30
0.0
  0
VERTEX
  5
17D2
100
AcDbEntity
  8
ALPHA
100
AcDbVertex
100
AcDb2dVertex
 10
139.557052
 20
291.923275
 30
0.0
  0
VERTEX
  5
17D3
100
AcDbEntity
  8
ALPHA
100
AcDbVertex
100
AcDb2dVertex
 10
138.904565
 20
291.608935
 30
0.0
  0
VERTEX
  5
17D4
100
AcDbEntity
  8
ALPHA
100
AcDbVertex
100
AcDb2dVertex
 10
138.289217
 20
291.235012
 30
0.0
  0
VERTEX
  5
17D5
100
AcDbEntity
  8
ALPHA
100
AcDbVertex
100
AcDb2dVertex
 10
137.714742
 20
290.805251
 30
0.0
  0
VERTEX
  5
17D6
100
AcDbEntity
  8
ALPHA
100
AcDbVertex
100
AcDb2dVertex
 10
137.184877
 20
290.3234
 30
0.0
  0
VERTEX
  5
17D7
100
AcDbEntity
  8
ALPHA
100
AcDbVertex
100
AcDb2dVertex
 10
136.703358
 20
289.793205
 30
0.0
  0
VERTEX
  5
17D8
100
AcDbEntity
  8
ALPHA
100
AcDbVertex
100
AcDb2dVertex
 10
136.27392
 20
289.218414
 30
0.0
  0
VERTEX
  5
17D9
100
AcDbEntity
  8
ALPHA
100
AcDbVertex
100
AcDb2dVertex
 10
135.900299
 20
288.602773
 30
0.0
  0
VERTEX
  5
17DA
100
AcDbEntity
  8
ALPHA
100
AcDbVertex
100
AcDb2dVertex
 10
135.586232
 20
287.950029
 30
0.0
  0
VERTEX
  5
17DB
100
AcDbEntity
  8
ALPHA
100
AcDbVertex
100
AcDb2dVertex
 10
135.335455
 20
287.263929
 30
0.0
  0
VERTEX
  5
17DC
100
AcDbEntity
  8
ALPHA
100
AcDbVertex
100
AcDb2dVertex
 10
135.151702
 20
286.548219
 30
0.0
  0
VERTEX
  5
17DD
100
AcDbEntity
  8
ALPHA
100
AcDbVertex
100
AcDb2dVertex
 10
135.038711
 20
285.806648
 30
0.0
  0
VERTEX
  5
17DE
100
AcDbEntity
  8
ALPHA
100
AcDbVertex
100
AcDb2dVertex
 10
135.000217
 20
285.04296
 30
0.0
  0
VERTEX
  5
17DF
100
AcDbEntity
  8
ALPHA
100
AcDbVertex
100
AcDb2dVertex
 10
135.038711
 20
284.279912
 30
0.0
  0
VERTEX
  5
17E0
100
AcDbEntity
  8
ALPHA
100
AcDbVertex
100
AcDb2dVertex
 10
135.151702
 20
283.538972
 30
0.0
  0
VERTEX
  5
17E1
100
AcDbEntity
  8
ALPHA
100
AcDbVertex
100
AcDb2dVertex
 10
135.335455
 20
282.823881
 30
0.0
  0
VERTEX
  5
17E2
100
AcDbEntity
  8
ALPHA
100
AcDbVertex
100
AcDb2dVertex
 10
135.586232
 20
282.138383
 30
0.0
  0
VERTEX
  5
17E3
100
AcDbEntity
  8
ALPHA
100
AcDbVertex
100
AcDb2dVertex
 10
135.900299
 20
281.486219
 30
0.0
  0
VERTEX
  5
17E4
100
AcDbEntity
  8
ALPHA
100
AcDbVertex
100
AcDb2dVertex
 10
136.27392
 20
280.871131
 30
0.0
  0
VERTEX
  5
17E5
100
AcDbEntity
  8
ALPHA
100
AcDbVertex
100
AcDb2dVertex
 10
136.703358
 20
280.296863
 30
0.0
  0
VERTEX
  5
17E6
100
AcDbEntity
  8
ALPHA
100
AcDbVertex
100
AcDb2dVertex
 10
137.184877
 20
279.767155
 30
0.0
  0
VERTEX
  5
17E7
100
AcDbEntity
  8
ALPHA
100
AcDbVertex
100
AcDb2dVertex
 10
137.714742
 20
279.285752
 30
0.0
  0
VERTEX
  5
17E8
100
AcDbEntity
  8
ALPHA
100
AcDbVertex
100
AcDb2dVertex
 10
138.289217
 20
278.856393
 30
0.0
  0
VERTEX
  5
17E9
100
AcDbEntity
  8
ALPHA
100
AcDbVertex
100
AcDb2dVertex
 10
138.904565
 20
278.482823
 30
0.0
  0
VERTEX
  5
17EA
100
AcDbEntity
  8
ALPHA
100
AcDbVertex
100
AcDb2dVertex
 10
139.557052
 20
278.168783
 30
0.0
  0
VERTEX
  5
17EB
100
AcDbEntity
  8
ALPHA
100
AcDbVertex
100
AcDb2dVertex
 10
140.242939
 20
277.918015
 30
0.0
  0
VERTEX
  5
17EC
100
AcDbEntity
  8
ALPHA
100
AcDbVertex
100
AcDb2dVertex
 10
140.958493
 20
277.734262
 30
0.0
  0
VERTEX
  5
17ED
100
AcDbEntity
  8
ALPHA
100
AcDbVertex
100
AcDb2dVertex
 10
141.699977
 20
277.621266
 30
0.0
  0
VERTEX
  5
17EE
100
AcDbEntity
  8
ALPHA
100
AcDbVertex
100
AcDb2dVertex
 10
142.463654
 20
277.582769
 30
0.0
  0
SEQEND
  5
17EF
100
AcDbEntity
  8
ALPHA
  0
POLYLINE
  5
17F0
100
AcDbEntity
  8
ALPHA
100
AcDb2dPolyline
 66
     1
 10
0.0
 20
0.0
 30
0.0
  0
VERTEX
  5
17F1
100
AcDbEntity
  8
ALPHA
100
AcDbVertex
100
AcDb2dVertex
 10
181.618883
 20
68.044657
 30
0.0
  0
VERTEX
  5
17F2
100
AcDbEntity
  8
ALPHA
100
AcDbVertex
100
AcDb2dVertex
 10
181.588893
 20
68.638724
 30
0.0
  0
VERTEX
  5
17F3
100
AcDbEntity
  8
ALPHA
100
AcDbVertex
100
AcDb2dVertex
 10
181.500867
 20
69.215688
 30
0.0
  0
VERTEX
  5
17F4
100
AcDbEntity
  8
ALPHA
100
AcDbVertex
100
AcDb2dVertex
 10
181.357724
 20
69.772619
 30
0.0
  0
VERTEX
  5
17F5
100
AcDbEntity
  8
ALPHA
100
AcDbVertex
100
AcDb2dVertex
 10
181.162385
 20
70.306591
 30
0.0
  0
VERTEX
  5
17F6
100
AcDbEntity
  8
ALPHA
100
AcDbVertex
100
AcDb2dVertex
 10
180.917767
 20
70.814673
 30
0.0
  0
VERTEX
  5
17F7
100
AcDbEntity
  8
ALPHA
100
AcDbVertex
100
AcDb2dVertex
 10
180.626789
 20
71.293938
 30
0.0
  0
VERTEX
  5
17F8
100
AcDbEntity
  8
ALPHA
100
AcDbVertex
100
AcDb2dVertex
 10
180.292371
 20
71.741457
 30
0.0
  0
VERTEX
  5
17F9
100
AcDbEntity
  8
ALPHA
100
AcDbVertex
100
AcDb2dVertex
 10
179.917432
 20
72.154302
 30
0.0
  0
VERTEX
  5
17FA
100
AcDbEntity
  8
ALPHA
100
AcDbVertex
100
AcDb2dVertex
 10
179.504889
 20
72.529545
 30
0.0
  0
VERTEX
  5
17FB
100
AcDbEntity
  8
ALPHA
100
AcDbVertex
100
AcDb2dVertex
 10
179.057663
 20
72.864256
 30
0.0
  0
VERTEX
  5
17FC
100
AcDbEntity
  8
ALPHA
100
AcDbVertex
100
AcDb2dVertex
 10
178.578672
 20
73.155508
 30
0.0
  0
VERTEX
  5
17FD
100
AcDbEntity
  8
ALPHA
100
AcDbVertex
100
AcDb2dVertex
 10
178.070836
 20
73.400371
 30
0.0
  0
VERTEX
  5
17FE
100
AcDbEntity
  8
ALPHA
100
AcDbVertex
100
AcDb2dVertex
 10
177.537072
 20
73.595918
 30
0.0
  0
VERTEX
  5
17FF
100
AcDbEntity
  8
ALPHA
100
AcDbVertex
100
AcDb2dVertex
 10
176.9803
 20
73.739221
 30
0.0
  0
VERTEX
  5
1800
100
AcDbEntity
  8
ALPHA
100
AcDbVertex
100
AcDb2dVertex
 10
176.40344
 20
73.82735
 30
0.0
  0
VERTEX
  5
1801
100
AcDbEntity
  8
ALPHA
100
AcDbVertex
100
AcDb2dVertex
 10
175.809409
 20
73.857377
 30
0.0
  0
VERTEX
  5
1802
100
AcDbEntity
  8
ALPHA
100
AcDbVertex
100
AcDb2dVertex
 10
175.809409
 20
238.045975
 30
0.0
  0
SEQEND
  5
1803
100
AcDbEntity
  8
ALPHA
  0
POLYLINE
  5
1804
100
AcDbEntity
  8
ALPHA
100
AcDb2dPolyline
 66
     1
 10
0.0
 20
0.0
 30
0.0
  0
VERTEX
  5
1805
100
AcDbEntity
  8
ALPHA
100
AcDbVertex
100
AcDb2dVertex
 10
261.618829
 20
68.044657
 30
0.0
  0
VERTEX
  5
1806
100
AcDbEntity
  8
ALPHA
100
AcDbVertex
100
AcDb2dVertex
 10
261.588838
 20
68.638724
 30
0.0
  0
VERTEX
  5
1807
100
AcDbEntity
  8
ALPHA
100
AcDbVertex
100
AcDb2dVertex
 10
261.500813
 20
69.215688
 30
0.0
  0
VERTEX
  5
1808
100
AcDbEntity
  8
ALPHA
100
AcDbVertex
100
AcDb2dVertex
 10
261.35767
 20
69.772619
 30
0.0
  0
VERTEX
  5
1809
100
AcDbEntity
  8
ALPHA
100
AcDbVertex
100
AcDb2dVertex
 10
261.162331
 20
70.306591
 30
0.0
  0
VERTEX
  5
180A
100
AcDbEntity
  8
ALPHA
100
AcDbVertex
100
AcDb2dVertex
 10
260.917713
 20
70.814673
 30
0.0
  0
VERTEX
  5
180B
100
AcDbEntity
  8
ALPHA
100
AcDbVertex
100
AcDb2dVertex
 10
260.626735
 20
71.293938
 30
0.0
  0
VERTEX
  5
180C
100
AcDbEntity
  8
ALPHA
100
AcDbVertex
100
AcDb2dVertex
 10
260.292317
 20
71.741457
 30
0.0
  0
VERTEX
  5
180D
100
AcDbEntity
  8
ALPHA
100
AcDbVertex
100
AcDb2dVertex
 10
259.917377
 20
72.154302
 30
0.0
  0
VERTEX
  5
180E
100
AcDbEntity
  8
ALPHA
100
AcDbVertex
100
AcDb2dVertex
 10
259.504835
 20
72.529545
 30
0.0
  0
VERTEX
  5
180F
100
AcDbEntity
  8
ALPHA
100
AcDbVertex
100
AcDb2dVertex
 10
259.057609
 20
72.864256
 30
0.0
  0
VERTEX
  5
1810
100
AcDbEntity
  8
ALPHA
100
AcDbVertex
100
AcDb2dVertex
 10
258.578618
 20
73.155508
 30
0.0
  0
VERTEX
  5
1811
100
AcDbEntity
  8
ALPHA
100
AcDbVertex
100
AcDb2dVertex
 10
258.070781
 20
73.400371
 30
0.0
  0
VERTEX
  5
1812
100
AcDbEntity
  8
ALPHA
100
AcDbVertex
100
AcDb2dVertex
 10
257.537018
 20
73.595918
 30
0.0
  0
VERTEX
  5
1813
100
AcDbEntity
  8
ALPHA
100
AcDbVertex
100
AcDb2dVertex
 10
256.980246
 20
73.739221
 30
0.0
  0
VERTEX
  5
1814
100
AcDbEntity
  8
ALPHA
100
AcDbVertex
100
AcDb2dVertex
 10
256.403386
 20
73.82735
 30
0.0
  0
VERTEX
  5
1815
100
AcDbEntity
  8
ALPHA
100
AcDbVertex
100
AcDb2dVertex
 10
255.809355
 20
73.857377
 30
0.0
  0
VERTEX
  5
1816
100
AcDbEntity
  8
ALPHA
100
AcDbVertex
100
AcDb2dVertex
 10
255.809355
 20
238.045975
 30
0.0
  0
SEQEND
  5
1817
100
AcDbEntity
  8
ALPHA
  0
POLYLINE
  5
1818
100
AcDbEntity
  8
ALPHA
100
AcDb2dPolyline
 66
     1
 10
0.0
 20
0.0
 30
0.0
  0
VERTEX
  5
1819
100
AcDbEntity
  8
ALPHA
100
AcDbVertex
100
AcDb2dVertex
 10
250.496698
 20
59.960049
 30
0.0
  0
VERTEX
  5
181A
100
AcDbEntity
  8
ALPHA
100
AcDbVertex
100
AcDb2dVertex
 10
250.381921
 20
58.532378
 30
0.0
  0
VERTEX
  5
181B
100
AcDbEntity
  8
ALPHA
100
AcDbVertex
100
AcDb2dVertex
 10
250.052167
 20
57.202881
 30
0.0
  0
VERTEX
  5
181C
100
AcDbEntity
  8
ALPHA
100
AcDbVertex
100
AcDb2dVertex
 10
249.529299
 20
55.999969
 30
0.0
  0
VERTEX
  5
181D
100
AcDbEntity
  8
ALPHA
100
AcDbVertex
100
AcDb2dVertex
 10
249.20228
 20
55.454861
 30
0.0
  0
VERTEX
  5
181E
100
AcDbEntity
  8
ALPHA
100
AcDbVertex
100
AcDb2dVertex
 10
248.835181
 20
54.952055
 30
0.0
  0
VERTEX
  5
181F
100
AcDbEntity
  8
ALPHA
100
AcDbVertex
100
AcDb2dVertex
 10
248.430736
 20
54.495102
 30
0.0
  0
VERTEX
  5
1820
100
AcDbEntity
  8
ALPHA
100
AcDbVertex
100
AcDb2dVertex
 10
247.991678
 20
54.087553
 30
0.0
  0
VERTEX
  5
1821
100
AcDbEntity
  8
ALPHA
100
AcDbVertex
100
AcDb2dVertex
 10
247.520739
 20
53.732959
 30
0.0
  0
VERTEX
  5
1822
100
AcDbEntity
  8
ALPHA
100
AcDbVertex
100
AcDb2dVertex
 10
247.020654
 20
53.434873
 30
0.0
  0
VERTEX
  5
1823
100
AcDbEntity
  8
ALPHA
100
AcDbVertex
100
AcDb2dVertex
 10
246.494153
 20
53.196846
 30
0.0
  0
VERTEX
  5
1824
100
AcDbEntity
  8
ALPHA
100
AcDbVertex
100
AcDb2dVertex
 10
245.943972
 20
53.02243
 30
0.0
  0
VERTEX
  5
1825
100
AcDbEntity
  8
ALPHA
100
AcDbVertex
100
AcDb2dVertex
 10
245.372842
 20
52.915175
 30
0.0
  0
VERTEX
  5
1826
100
AcDbEntity
  8
ALPHA
100
AcDbVertex
100
AcDb2dVertex
 10
244.783497
 20
52.878635
 30
0.0
  0
VERTEX
  5
1827
100
AcDbEntity
  8
ALPHA
100
AcDbVertex
100
AcDb2dVertex
 10
201.894151
 20
52.878635
 30
0.0
  0
VERTEX
  5
1828
100
AcDbEntity
  8
ALPHA
100
AcDbVertex
100
AcDb2dVertex
 10
201.303514
 20
52.915175
 30
0.0
  0
VERTEX
  5
1829
100
AcDbEntity
  8
ALPHA
100
AcDbVertex
100
AcDb2dVertex
 10
200.728672
 20
53.02243
 30
0.0
  0
VERTEX
  5
182A
100
AcDbEntity
  8
ALPHA
100
AcDbVertex
100
AcDb2dVertex
 10
200.172703
 20
53.196846
 30
0.0
  0
VERTEX
  5
182B
100
AcDbEntity
  8
ALPHA
100
AcDbVertex
100
AcDb2dVertex
 10
199.638686
 20
53.434873
 30
0.0
  0
VERTEX
  5
182C
100
AcDbEntity
  8
ALPHA
100
AcDbVertex
100
AcDb2dVertex
 10
199.1297
 20
53.732959
 30
0.0
  0
VERTEX
  5
182D
100
AcDbEntity
  8
ALPHA
100
AcDbVertex
100
AcDb2dVertex
 10
198.648822
 20
54.087553
 30
0.0
  0
VERTEX
  5
182E
100
AcDbEntity
  8
ALPHA
100
AcDbVertex
100
AcDb2dVertex
 10
198.199132
 20
54.495102
 30
0.0
  0
VERTEX
  5
182F
100
AcDbEntity
  8
ALPHA
100
AcDbVertex
100
AcDb2dVertex
 10
197.783708
 20
54.952055
 30
0.0
  0
VERTEX
  5
1830
100
AcDbEntity
  8
ALPHA
100
AcDbVertex
100
AcDb2dVertex
 10
197.405628
 20
55.454861
 30
0.0
  0
VERTEX
  5
1831
100
AcDbEntity
  8
ALPHA
100
AcDbVertex
100
AcDb2dVertex
 10
197.06797
 20
55.999969
 30
0.0
  0
VERTEX
  5
1832
100
AcDbEntity
  8
ALPHA
100
AcDbVertex
100
AcDb2dVertex
 10
196.526238
 20
57.202881
 30
0.0
  0
VERTEX
  5
1833
100
AcDbEntity
  8
ALPHA
100
AcDbVertex
100
AcDb2dVertex
 10
196.183138
 20
58.532378
 30
0.0
  0
VERTEX
  5
1834
100
AcDbEntity
  8
ALPHA
100
AcDbVertex
100
AcDb2dVertex
 10
196.063299
 20
59.960049
 30
0.0
  0
VERTEX
  5
1835
100
AcDbEntity
  8
ALPHA
100
AcDbVertex
100
AcDb2dVertex
 10
196.063299
 20
245.791776
 30
0.0
  0
VERTEX
  5
1836
100
AcDbEntity
  8
ALPHA
100
AcDbVertex
100
AcDb2dVertex
 10
196.178135
 20
247.219594
 30
0.0
  0
VERTEX
  5
1837
100
AcDbEntity
  8
ALPHA
100
AcDbVertex
100
AcDb2dVertex
 10
196.508045
 20
248.549479
 30
0.0
  0
VERTEX
  5
1838
100
AcDbEntity
  8
ALPHA
100
AcDbVertex
100
AcDb2dVertex
 10
197.031134
 20
249.752939
 30
0.0
  0
VERTEX
  5
1839
100
AcDbEntity
  8
ALPHA
100
AcDbVertex
100
AcDb2dVertex
 10
197.358277
 20
250.298355
 30
0.0
  0
VERTEX
  5
183A
100
AcDbEntity
  8
ALPHA
100
AcDbVertex
100
AcDb2dVertex
 10
197.725504
 20
250.801481
 30
0.0
  0
VERTEX
  5
183B
100
AcDbEntity
  8
ALPHA
100
AcDbVertex
100
AcDb2dVertex
 10
198.130077
 20
251.258753
 30
0.0
  0
VERTEX
  5
183C
100
AcDbEntity
  8
ALPHA
100
AcDbVertex
100
AcDb2dVertex
 10
198.569259
 20
251.666611
 30
0.0
  0
VERTEX
  5
183D
100
AcDbEntity
  8
ALPHA
100
AcDbVertex
100
AcDb2dVertex
 10
199.040314
 20
252.021494
 30
0.0
  0
VERTEX
  5
183E
100
AcDbEntity
  8
ALPHA
100
AcDbVertex
100
AcDb2dVertex
 10
199.540504
 20
252.319839
 30
0.0
  0
VERTEX
  5
183F
100
AcDbEntity
  8
ALPHA
100
AcDbVertex
100
AcDb2dVertex
 10
200.067092
 20
252.558085
 30
0.0
  0
VERTEX
  5
1840
100
AcDbEntity
  8
ALPHA
100
AcDbVertex
100
AcDb2dVertex
 10
200.617342
 20
252.73267
 30
0.0
  0
VERTEX
  5
1841
100
AcDbEntity
  8
ALPHA
100
AcDbVertex
100
AcDb2dVertex
 10
201.188515
 20
252.840033
 30
0.0
  0
VERTEX
  5
1842
100
AcDbEntity
  8
ALPHA
100
AcDbVertex
100
AcDb2dVertex
 10
201.777875
 20
252.876612
 30
0.0
  0
VERTEX
  5
1843
100
AcDbEntity
  8
ALPHA
100
AcDbVertex
100
AcDb2dVertex
 10
244.667222
 20
252.876612
 30
0.0
  0
VERTEX
  5
1844
100
AcDbEntity
  8
ALPHA
100
AcDbVertex
100
AcDb2dVertex
 10
245.257902
 20
252.840033
 30
0.0
  0
VERTEX
  5
1845
100
AcDbEntity
  8
ALPHA
100
AcDbVertex
100
AcDb2dVertex
 10
245.832743
 20
252.73267
 30
0.0
  0
VERTEX
  5
1846
100
AcDbEntity
  8
ALPHA
100
AcDbVertex
100
AcDb2dVertex
 10
246.388674
 20
252.558085
 30
0.0
  0
VERTEX
  5
1847
100
AcDbEntity
  8
ALPHA
100
AcDbVertex
100
AcDb2dVertex
 10
246.922621
 20
252.319839
 30
0.0
  0
VERTEX
  5
1848
100
AcDbEntity
  8
ALPHA
100
AcDbVertex
100
AcDb2dVertex
 10
247.43151
 20
252.021494
 30
0.0
  0
VERTEX
  5
1849
100
AcDbEntity
  8
ALPHA
100
AcDbVertex
100
AcDb2dVertex
 10
247.91227
 20
251.666611
 30
0.0
  0
VERTEX
  5
184A
100
AcDbEntity
  8
ALPHA
100
AcDbVertex
100
AcDb2dVertex
 10
248.361828
 20
251.258753
 30
0.0
  0
VERTEX
  5
184B
100
AcDbEntity
  8
ALPHA
100
AcDbVertex
100
AcDb2dVertex
 10
248.777109
 20
250.801481
 30
0.0
  0
VERTEX
  5
184C
100
AcDbEntity
  8
ALPHA
100
AcDbVertex
100
AcDb2dVertex
 10
249.155043
 20
250.298355
 30
0.0
  0
VERTEX
  5
184D
100
AcDbEntity
  8
ALPHA
100
AcDbVertex
100
AcDb2dVertex
 10
249.492555
 20
249.752939
 30
0.0
  0
VERTEX
  5
184E
100
AcDbEntity
  8
ALPHA
100
AcDbVertex
100
AcDb2dVertex
 10
250.034024
 20
248.549479
 30
0.0
  0
VERTEX
  5
184F
100
AcDbEntity
  8
ALPHA
100
AcDbVertex
100
AcDb2dVertex
 10
250.376932
 20
247.219594
 30
0.0
  0
VERTEX
  5
1850
100
AcDbEntity
  8
ALPHA
100
AcDbVertex
100
AcDb2dVertex
 10
250.496698
 20
245.791776
 30
0.0
  0
VERTEX
  5
1851
100
AcDbEntity
  8
ALPHA
100
AcDbVertex
100
AcDb2dVertex
 10
250.496698
 20
59.960049
 30
0.0
  0
SEQEND
  5
1852
100
AcDbEntity
  8
ALPHA
  0
POLYLINE
  5
1853
100
AcDbEntity
  8
ALPHA
100
AcDb2dPolyline
 66
     1
 10
0.0
 20
0.0
 30
0.0
  0
VERTEX
  5
1854
100
AcDbEntity
  8
ALPHA
100
AcDbVertex
100
AcDb2dVertex
 10
255.809355
 20
238.045975
 30
0.0
  0
VERTEX
  5
1855
100
AcDbEntity
  8
ALPHA
100
AcDbVertex
100
AcDb2dVertex
 10
255.809355
 20
245.96125
 30
0.0
  0
VERTEX
  5
1856
100
AcDbEntity
  8
ALPHA
100
AcDbVertex
100
AcDb2dVertex
 10
255.775497
 20
246.656729
 30
0.0
  0
VERTEX
  5
1857
100
AcDbEntity
  8
ALPHA
100
AcDbVertex
100
AcDb2dVertex
 10
255.676042
 20
247.332415
 30
0.0
  0
VERTEX
  5
1858
100
AcDbEntity
  8
ALPHA
100
AcDbVertex
100
AcDb2dVertex
 10
255.514174
 20
247.985248
 30
0.0
  0
VERTEX
  5
1859
100
AcDbEntity
  8
ALPHA
100
AcDbVertex
100
AcDb2dVertex
 10
255.293073
 20
248.612167
 30
0.0
  0
VERTEX
  5
185A
100
AcDbEntity
  8
ALPHA
100
AcDbVertex
100
AcDb2dVertex
 10
255.015922
 20
249.21011
 30
0.0
  0
VERTEX
  5
185B
100
AcDbEntity
  8
ALPHA
100
AcDbVertex
100
AcDb2dVertex
 10
254.685902
 20
249.776017
 30
0.0
  0
VERTEX
  5
185C
100
AcDbEntity
  8
ALPHA
100
AcDbVertex
100
AcDb2dVertex
 10
254.306195
 20
250.306825
 30
0.0
  0
VERTEX
  5
185D
100
AcDbEntity
  8
ALPHA
100
AcDbVertex
100
AcDb2dVertex
 10
253.879983
 20
250.799474
 30
0.0
  0
VERTEX
  5
185E
100
AcDbEntity
  8
ALPHA
100
AcDbVertex
100
AcDb2dVertex
 10
253.410447
 20
251.250903
 30
0.0
  0
VERTEX
  5
185F
100
AcDbEntity
  8
ALPHA
100
AcDbVertex
100
AcDb2dVertex
 10
252.90077
 20
251.65805
 30
0.0
  0
VERTEX
  5
1860
100
AcDbEntity
  8
ALPHA
100
AcDbVertex
100
AcDb2dVertex
 10
252.354132
 20
252.017854
 30
0.0
  0
VERTEX
  5
1861
100
AcDbEntity
  8
ALPHA
100
AcDbVertex
100
AcDb2dVertex
 10
251.773717
 20
252.327254
 30
0.0
  0
VERTEX
  5
1862
100
AcDbEntity
  8
ALPHA
100
AcDbVertex
100
AcDb2dVertex
 10
251.162705
 20
252.583189
 30
0.0
  0
VERTEX
  5
1863
100
AcDbEntity
  8
ALPHA
100
AcDbVertex
100
AcDb2dVertex
 10
250.524279
 20
252.782598
 30
0.0
  0
VERTEX
  5
1864
100
AcDbEntity
  8
ALPHA
100
AcDbVertex
100
AcDb2dVertex
 10
249.861619
 20
252.922418
 30
0.0
  0
VERTEX
  5
1865
100
AcDbEntity
  8
ALPHA
100
AcDbVertex
100
AcDb2dVertex
 10
249.177909
 20
252.99959
 30
0.0
  0
VERTEX
  5
1866
100
AcDbEntity
  8
ALPHA
100
AcDbVertex
100
AcDb2dVertex
 10
242.463595
 20
252.99959
 30
0.0
  0
VERTEX
  5
1867
100
AcDbEntity
  8
ALPHA
100
AcDbVertex
100
AcDb2dVertex
 10
242.463595
 20
305.046201
 30
0.0
  0
VERTEX
  5
1868
100
AcDbEntity
  8
ALPHA
100
AcDbVertex
100
AcDb2dVertex
 10
202.463605
 20
305.046201
 30
0.0
  0
VERTEX
  5
1869
100
AcDbEntity
  8
ALPHA
100
AcDbVertex
100
AcDb2dVertex
 10
202.463605
 20
253.046086
 30
0.0
  0
VERTEX
  5
186A
100
AcDbEntity
  8
ALPHA
100
AcDbVertex
100
AcDb2dVertex
 10
190.39356
 20
253.046086
 30
0.0
  0
VERTEX
  5
186B
100
AcDbEntity
  8
ALPHA
100
AcDbVertex
100
AcDb2dVertex
 10
189.669353
 20
253.009505
 30
0.0
  0
VERTEX
  5
186C
100
AcDbEntity
  8
ALPHA
100
AcDbVertex
100
AcDb2dVertex
 10
188.965792
 20
252.902137
 30
0.0
  0
VERTEX
  5
186D
100
AcDbEntity
  8
ALPHA
100
AcDbVertex
100
AcDb2dVertex
 10
188.286495
 20
252.727545
 30
0.0
  0
VERTEX
  5
186E
100
AcDbEntity
  8
ALPHA
100
AcDbVertex
100
AcDb2dVertex
 10
187.635076
 20
252.489289
 30
0.0
  0
VERTEX
  5
186F
100
AcDbEntity
  8
ALPHA
100
AcDbVertex
100
AcDb2dVertex
 10
187.015151
 20
252.190934
 30
0.0
  0
VERTEX
  5
1870
100
AcDbEntity
  8
ALPHA
100
AcDbVertex
100
AcDb2dVertex
 10
186.430337
 20
251.836041
 30
0.0
  0
VERTEX
  5
1871
100
AcDbEntity
  8
ALPHA
100
AcDbVertex
100
AcDb2dVertex
 10
185.884248
 20
251.428173
 30
0.0
  0
VERTEX
  5
1872
100
AcDbEntity
  8
ALPHA
100
AcDbVertex
100
AcDb2dVertex
 10
185.380502
 20
250.970891
 30
0.0
  0
VERTEX
  5
1873
100
AcDbEntity
  8
ALPHA
100
AcDbVertex
100
AcDb2dVertex
 10
184.922712
 20
250.467759
 30
0.0
  0
VERTEX
  5
1874
100
AcDbEntity
  8
ALPHA
100
AcDbVertex
100
AcDb2dVertex
 10
184.514496
 20
249.922338
 30
0.0
  0
VERTEX
  5
1875
100
AcDbEntity
  8
ALPHA
100
AcDbVertex
100
AcDb2dVertex
 10
184.15947
 20
249.338192
 30
0.0
  0
VERTEX
  5
1876
100
AcDbEntity
  8
ALPHA
100
AcDbVertex
100
AcDb2dVertex
 10
183.861248
 20
248.718882
 30
0.0
  0
VERTEX
  5
1877
100
AcDbEntity
  8
ALPHA
100
AcDbVertex
100
AcDb2dVertex
 10
183.623446
 20
248.06797
 30
0.0
  0
VERTEX
  5
1878
100
AcDbEntity
  8
ALPHA
100
AcDbVertex
100
AcDb2dVertex
 10
183.449682
 20
247.389019
 30
0.0
  0
VERTEX
  5
1879
100
AcDbEntity
  8
ALPHA
100
AcDbVertex
100
AcDb2dVertex
 10
183.343569
 20
246.685592
 30
0.0
  0
VERTEX
  5
187A
100
AcDbEntity
  8
ALPHA
100
AcDbVertex
100
AcDb2dVertex
 10
183.308724
 20
245.96125
 30
0.0
  0
VERTEX
  5
187B
100
AcDbEntity
  8
ALPHA
100
AcDbVertex
100
AcDb2dVertex
 10
183.330243
 20
238.045975
 30
0.0
  0
VERTEX
  5
187C
100
AcDbEntity
  8
ALPHA
100
AcDbVertex
100
AcDb2dVertex
 10
183.360235
 20
237.452515
 30
0.0
  0
VERTEX
  5
187D
100
AcDbEntity
  8
ALPHA
100
AcDbVertex
100
AcDb2dVertex
 10
183.448266
 20
236.876078
 30
0.0
  0
VERTEX
  5
187E
100
AcDbEntity
  8
ALPHA
100
AcDbVertex
100
AcDb2dVertex
 10
183.591422
 20
236.3196
 30
0.0
  0
VERTEX
  5
187F
100
AcDbEntity
  8
ALPHA
100
AcDbVertex
100
AcDb2dVertex
 10
183.78679
 20
235.786013
 30
0.0
  0
VERTEX
  5
1880
100
AcDbEntity
  8
ALPHA
100
AcDbVertex
100
AcDb2dVertex
 10
184.031453
 20
235.278252
 30
0.0
  0
VERTEX
  5
1881
100
AcDbEntity
  8
ALPHA
100
AcDbVertex
100
AcDb2dVertex
 10
184.322499
 20
234.799252
 30
0.0
  0
VERTEX
  5
1882
100
AcDbEntity
  8
ALPHA
100
AcDbVertex
100
AcDb2dVertex
 10
184.657012
 20
234.351946
 30
0.0
  0
VERTEX
  5
1883
100
AcDbEntity
  8
ALPHA
100
AcDbVertex
100
AcDb2dVertex
 10
185.032079
 20
233.939267
 30
0.0
  0
VERTEX
  5
1884
100
AcDbEntity
  8
ALPHA
100
AcDbVertex
100
AcDb2dVertex
 10
185.444784
 20
233.564151
 30
0.0
  0
VERTEX
  5
1885
100
AcDbEntity
  8
ALPHA
100
AcDbVertex
100
AcDb2dVertex
 10
185.892213
 20
233.229531
 30
0.0
  0
VERTEX
  5
1886
100
AcDbEntity
  8
ALPHA
100
AcDbVertex
100
AcDb2dVertex
 10
186.371452
 20
232.938341
 30
0.0
  0
VERTEX
  5
1887
100
AcDbEntity
  8
ALPHA
100
AcDbVertex
100
AcDb2dVertex
 10
186.879586
 20
232.693516
 30
0.0
  0
VERTEX
  5
1888
100
AcDbEntity
  8
ALPHA
100
AcDbVertex
100
AcDb2dVertex
 10
187.413701
 20
232.497988
 30
0.0
  0
VERTEX
  5
1889
100
AcDbEntity
  8
ALPHA
100
AcDbVertex
100
AcDb2dVertex
 10
187.970882
 20
232.354694
 30
0.0
  0
VERTEX
  5
188A
100
AcDbEntity
  8
ALPHA
100
AcDbVertex
100
AcDb2dVertex
 10
188.548216
 20
232.266565
 30
0.0
  0
VERTEX
  5
188B
100
AcDbEntity
  8
ALPHA
100
AcDbVertex
100
AcDb2dVertex
 10
189.142787
 20
232.236537
 30
0.0
  0
VERTEX
  5
188C
100
AcDbEntity
  8
ALPHA
100
AcDbVertex
100
AcDb2dVertex
 10
189.142787
 20
60.132804
 30
0.0
  0
VERTEX
  5
188D
100
AcDbEntity
  8
ALPHA
100
AcDbVertex
100
AcDb2dVertex
 10
189.179368
 20
59.407293
 30
0.0
  0
VERTEX
  5
188E
100
AcDbEntity
  8
ALPHA
100
AcDbVertex
100
AcDb2dVertex
 10
189.286736
 20
58.702921
 30
0.0
  0
VERTEX
  5
188F
100
AcDbEntity
  8
ALPHA
100
AcDbVertex
100
AcDb2dVertex
 10
189.46133
 20
58.02323
 30
0.0
  0
VERTEX
  5
1890
100
AcDbEntity
  8
ALPHA
100
AcDbVertex
100
AcDb2dVertex
 10
189.699587
 20
57.371761
 30
0.0
  0
VERTEX
  5
1891
100
AcDbEntity
  8
ALPHA
100
AcDbVertex
100
AcDb2dVertex
 10
189.997946
 20
56.752056
 30
0.0
  0
VERTEX
  5
1892
100
AcDbEntity
  8
ALPHA
100
AcDbVertex
100
AcDb2dVertex
 10
190.352843
 20
56.167658
 30
0.0
  0
VERTEX
  5
1893
100
AcDbEntity
  8
ALPHA
100
AcDbVertex
100
AcDb2dVertex
 10
190.760717
 20
55.622107
 30
0.0
  0
VERTEX
  5
1894
100
AcDbEntity
  8
ALPHA
100
AcDbVertex
100
AcDb2dVertex
 10
191.218006
 20
55.118946
 30
0.0
  0
VERTEX
  5
1895
100
AcDbEntity
  8
ALPHA
100
AcDbVertex
100
AcDb2dVertex
 10
191.721148
 20
54.661716
 30
0.0
  0
VERTEX
  5
1896
100
AcDbEntity
  8
ALPHA
100
AcDbVertex
100
AcDb2dVertex
 10
192.26658
 20
54.253959
 30
0.0
  0
VERTEX
  5
1897
100
AcDbEntity
  8
ALPHA
100
AcDbVertex
100
AcDb2dVertex
 10
192.850741
 20
53.899216
 30
0.0
  0
VERTEX
  5
1898
100
AcDbEntity
  8
ALPHA
100
AcDbVertex
100
AcDb2dVertex
 10
193.470068
 20
53.601031
 30
0.0
  0
VERTEX
  5
1899
100
AcDbEntity
  8
ALPHA
100
AcDbVertex
100
AcDb2dVertex
 10
194.121
 20
53.362943
 30
0.0
  0
VERTEX
  5
189A
100
AcDbEntity
  8
ALPHA
100
AcDbVertex
100
AcDb2dVertex
 10
194.799974
 20
53.188495
 30
0.0
  0
VERTEX
  5
189B
100
AcDbEntity
  8
ALPHA
100
AcDbVertex
100
AcDb2dVertex
 10
195.503427
 20
53.08123
 30
0.0
  0
VERTEX
  5
189C
100
AcDbEntity
  8
ALPHA
100
AcDbVertex
100
AcDb2dVertex
 10
196.227799
 20
53.044687
 30
0.0
  0
VERTEX
  5
189D
100
AcDbEntity
  8
ALPHA
100
AcDbVertex
100
AcDb2dVertex
 10
202.463605
 20
53.044687
 30
0.0
  0
SEQEND
  5
189E
100
AcDbEntity
  8
ALPHA
  0
POLYLINE
  5
189F
100
AcDbEntity
  8
ALPHA
100
AcDb2dPolyline
 66
     1
 10
0.0
 20
0.0
 30
0.0
  0
VERTEX
  5
18A0
100
AcDbEntity
  8
ALPHA
100
AcDbVertex
100
AcDb2dVertex
 10
255.809355
 20
78.951805
 30
0.0
  0
VERTEX
  5
18A1
100
AcDbEntity
  8
ALPHA
100
AcDbVertex
100
AcDb2dVertex
 10
290.227943
 20
78.951805
 30
0.0
  0
VERTEX
  5
18A2
100
AcDbEntity
  8
ALPHA
100
AcDbVertex
100
AcDb2dVertex
 10
302.970311
 20
95.619356
 30
0.0
  0
VERTEX
  5
18A3
100
AcDbEntity
  8
ALPHA
100
AcDbVertex
100
AcDb2dVertex
 10
311.463683
 20
95.619356
 30
0.0
  0
VERTEX
  5
18A4
100
AcDbEntity
  8
ALPHA
100
AcDbVertex
100
AcDb2dVertex
 10
311.463683
 20
210.616127
 30
0.0
  0
VERTEX
  5
18A5
100
AcDbEntity
  8
ALPHA
100
AcDbVertex
100
AcDb2dVertex
 10
302.970311
 20
210.616127
 30
0.0
  0
VERTEX
  5
18A6
100
AcDbEntity
  8
ALPHA
100
AcDbVertex
100
AcDb2dVertex
 10
290.227943
 20
227.286782
 30
0.0
  0
VERTEX
  5
18A7
100
AcDbEntity
  8
ALPHA
100
AcDbVertex
100
AcDb2dVertex
 10
255.809355
 20
227.286782
 30
0.0
  0
SEQEND
  5
18A8
100
AcDbEntity
  8
ALPHA
  0
POLYLINE
  5
18A9
100
AcDbEntity
  8
POINTILLE_COURT
100
AcDb2dPolyline
 66
     1
 10
0.0
 20
0.0
 30
0.0
  0
VERTEX
  5
18AA
100
AcDbEntity
  8
POINTILLE_COURT
100
AcDbVertex
100
AcDb2dVertex
 10
242.463595
 20
48.300814
 30
0.0
  0
VERTEX
  5
18AB
100
AcDbEntity
  8
POINTILLE_COURT
100
AcDbVertex
100
AcDb2dVertex
 10
224.963525
 20
48.300814
 30
0.0
  0
VERTEX
  5
18AC
100
AcDbEntity
  8
POINTILLE_COURT
100
AcDbVertex
100
AcDb2dVertex
 10
224.963525
 20
301.475032
 30
0.0
  0
VERTEX
  5
18AD
100
AcDbEntity
  8
POINTILLE_COURT
100
AcDbVertex
100
AcDb2dVertex
 10
242.463595
 20
301.475032
 30
0.0
  0
SEQEND
  5
18AE
100
AcDbEntity
  8
POINTILLE_COURT
  0
POLYLINE
  5
18AF
100
AcDbEntity
  8
POINTILLE_COURT
100
AcDb2dPolyline
 66
     1
 10
0.0
 20
0.0
 30
0.0
  0
VERTEX
  5
18B0
100
AcDbEntity
  8
POINTILLE_COURT
100
AcDbVertex
100
AcDb2dVertex
 10
260.96358
 20
227.286606
 30
0.0
  0
VERTEX
  5
18B1
100
AcDbEntity
  8
POINTILLE_COURT
100
AcDbVertex
100
AcDb2dVertex
 10
260.96358
 20
78.951982
 30
0.0
  0
SEQEND
  5
18B2
100
AcDbEntity
  8
POINTILLE_COURT
  0
POLYLINE
  5
18B3
100
AcDbEntity
  8
AXE
100
AcDb2dPolyline
 66
     1
 10
0.0
 20
0.0
 30
0.0
  0
VERTEX
  5
18B4
100
AcDbEntity
  8
AXE
100
AcDbVertex
100
AcDb2dVertex
 10
230.440717
 20
63.046149
 30
0.0
  0
VERTEX
  5
18B5
100
AcDbEntity
  8
AXE
100
AcDbVertex
100
AcDb2dVertex
 10
254.871248
 20
63.046149
 30
0.0
  0
SEQEND
  5
18B6
100
AcDbEntity
  8
AXE
  0
POLYLINE
  5
18B7
100
AcDbEntity
  8
ALPHA
100
AcDb2dPolyline
 66
     1
 10
0.0
 20
0.0
 30
0.0
  0
VERTEX
  5
18B8
100
AcDbEntity
  8
ALPHA
100
AcDbVertex
100
AcDb2dVertex
 10
250.495993
 20
69.086798
 30
0.0
  0
VERTEX
  5
18B9
100
AcDbEntity
  8
ALPHA
100
AcDbVertex
100
AcDb2dVertex
 10
250.880397
 20
69.475606
 30
0.0
  0
VERTEX
  5
18BA
100
AcDbEntity
  8
ALPHA
100
AcDbVertex
100
AcDb2dVertex
 10
251.302899
 20
69.823339
 30
0.0
  0
VERTEX
  5
18BB
100
AcDbEntity
  8
ALPHA
100
AcDbVertex
100
AcDb2dVertex
 10
251.760191
 20
70.126679
 30
0.0
  0
VERTEX
  5
18BC
100
AcDbEntity
  8
ALPHA
100
AcDbVertex
100
AcDb2dVertex
 10
252.248963
 20
70.382308
 30
0.0
  0
VERTEX
  5
18BD
100
AcDbEntity
  8
ALPHA
100
AcDbVertex
100
AcDb2dVertex
 10
252.765907
 20
70.586907
 30
0.0
  0
VERTEX
  5
18BE
100
AcDbEntity
  8
ALPHA
100
AcDbVertex
100
AcDb2dVertex
 10
253.307713
 20
70.737158
 30
0.0
  0
VERTEX
  5
18BF
100
AcDbEntity
  8
ALPHA
100
AcDbVertex
100
AcDb2dVertex
 10
253.871073
 20
70.829742
 30
0.0
  0
VERTEX
  5
18C0
100
AcDbEntity
  8
ALPHA
100
AcDbVertex
100
AcDb2dVertex
 10
254.452678
 20
70.861341
 30
0.0
  0
VERTEX
  5
18C1
100
AcDbEntity
  8
ALPHA
100
AcDbVertex
100
AcDb2dVertex
 10
254.99558
 20
70.833918
 30
0.0
  0
VERTEX
  5
18C2
100
AcDbEntity
  8
ALPHA
100
AcDbVertex
100
AcDb2dVertex
 10
255.522707
 20
70.753433
 30
0.0
  0
VERTEX
  5
18C3
100
AcDbEntity
  8
ALPHA
100
AcDbVertex
100
AcDb2dVertex
 10
256.031405
 20
70.622561
 30
0.0
  0
VERTEX
  5
18C4
100
AcDbEntity
  8
ALPHA
100
AcDbVertex
100
AcDb2dVertex
 10
256.519016
 20
70.443979
 30
0.0
  0
VERTEX
  5
18C5
100
AcDbEntity
  8
ALPHA
100
AcDbVertex
100
AcDb2dVertex
 10
256.982883
 20
70.220361
 30
0.0
  0
VERTEX
  5
18C6
100
AcDbEntity
  8
ALPHA
100
AcDbVertex
100
AcDb2dVertex
 10
257.420351
 20
69.954384
 30
0.0
  0
VERTEX
  5
18C7
100
AcDbEntity
  8
ALPHA
100
AcDbVertex
100
AcDb2dVertex
 10
257.828762
 20
69.648723
 30
0.0
  0
VERTEX
  5
18C8
100
AcDbEntity
  8
ALPHA
100
AcDbVertex
100
AcDb2dVertex
 10
258.205461
 20
69.306054
 30
0.0
  0
VERTEX
  5
18C9
100
AcDbEntity
  8
ALPHA
100
AcDbVertex
100
AcDb2dVertex
 10
258.547792
 20
68.929052
 30
0.0
  0
VERTEX
  5
18CA
100
AcDbEntity
  8
ALPHA
100
AcDbVertex
100
AcDb2dVertex
 10
258.853096
 20
68.520393
 30
0.0
  0
VERTEX
  5
18CB
100
AcDbEntity
  8
ALPHA
100
AcDbVertex
100
AcDb2dVertex
 10
259.118719
 20
68.082753
 30
0.0
  0
VERTEX
  5
18CC
100
AcDbEntity
  8
ALPHA
100
AcDbVertex
100
AcDb2dVertex
 10
259.342004
 20
67.618808
 30
0.0
  0
VERTEX
  5
18CD
100
AcDbEntity
  8
ALPHA
100
AcDbVertex
100
AcDb2dVertex
 10
259.520294
 20
67.131232
 30
0.0
  0
VERTEX
  5
18CE
100
AcDbEntity
  8
ALPHA
100
AcDbVertex
100
AcDb2dVertex
 10
259.650933
 20
66.622702
 30
0.0
  0
VERTEX
  5
18CF
100
AcDbEntity
  8
ALPHA
100
AcDbVertex
100
AcDb2dVertex
 10
259.731264
 20
66.095893
 30
0.0
  0
VERTEX
  5
18D0
100
AcDbEntity
  8
ALPHA
100
AcDbVertex
100
AcDb2dVertex
 10
259.758632
 20
65.553482
 30
0.0
  0
VERTEX
  5
18D1
100
AcDbEntity
  8
ALPHA
100
AcDbVertex
100
AcDb2dVertex
 10
259.731264
 20
65.012285
 30
0.0
  0
VERTEX
  5
18D2
100
AcDbEntity
  8
ALPHA
100
AcDbVertex
100
AcDb2dVertex
 10
259.650933
 20
64.486536
 30
0.0
  0
VERTEX
  5
18D3
100
AcDbEntity
  8
ALPHA
100
AcDbVertex
100
AcDb2dVertex
 10
259.520294
 20
63.978921
 30
0.0
  0
VERTEX
  5
18D4
100
AcDbEntity
  8
ALPHA
100
AcDbVertex
100
AcDb2dVertex
 10
259.342004
 20
63.492126
 30
0.0
  0
VERTEX
  5
18D5
100
AcDbEntity
  8
ALPHA
100
AcDbVertex
100
AcDb2dVertex
 10
259.118719
 20
63.028837
 30
0.0
  0
VERTEX
  5
18D6
100
AcDbEntity
  8
ALPHA
100
AcDbVertex
100
AcDb2dVertex
 10
258.853096
 20
62.591741
 30
0.0
  0
VERTEX
  5
18D7
100
AcDbEntity
  8
ALPHA
100
AcDbVertex
100
AcDb2dVertex
 10
258.547792
 20
62.183523
 30
0.0
  0
VERTEX
  5
18D8
100
AcDbEntity
  8
ALPHA
100
AcDbVertex
100
AcDb2dVertex
 10
258.205461
 20
61.806871
 30
0.0
  0
VERTEX
  5
18D9
100
AcDbEntity
  8
ALPHA
100
AcDbVertex
100
AcDb2dVertex
 10
257.828762
 20
61.464471
 30
0.0
  0
VERTEX
  5
18DA
100
AcDbEntity
  8
ALPHA
100
AcDbVertex
100
AcDb2dVertex
 10
257.420351
 20
61.159009
 30
0.0
  0
VERTEX
  5
18DB
100
AcDbEntity
  8
ALPHA
100
AcDbVertex
100
AcDb2dVertex
 10
256.982883
 20
60.89317
 30
0.0
  0
VERTEX
  5
18DC
100
AcDbEntity
  8
ALPHA
100
AcDbVertex
100
AcDb2dVertex
 10
256.519016
 20
60.669642
 30
0.0
  0
VERTEX
  5
18DD
100
AcDbEntity
  8
ALPHA
100
AcDbVertex
100
AcDb2dVertex
 10
256.031405
 20
60.491111
 30
0.0
  0
VERTEX
  5
18DE
100
AcDbEntity
  8
ALPHA
100
AcDbVertex
100
AcDb2dVertex
 10
255.522707
 20
60.360263
 30
0.0
  0
VERTEX
  5
18DF
100
AcDbEntity
  8
ALPHA
100
AcDbVertex
100
AcDb2dVertex
 10
254.99558
 20
60.279784
 30
0.0
  0
VERTEX
  5
18E0
100
AcDbEntity
  8
ALPHA
100
AcDbVertex
100
AcDb2dVertex
 10
254.452678
 20
60.252361
 30
0.0
  0
VERTEX
  5
18E1
100
AcDbEntity
  8
ALPHA
100
AcDbVertex
100
AcDb2dVertex
 10
253.870965
 20
60.283958
 30
0.0
  0
VERTEX
  5
18E2
100
AcDbEntity
  8
ALPHA
100
AcDbVertex
100
AcDb2dVertex
 10
253.307539
 20
60.37653
 30
0.0
  0
VERTEX
  5
18E3
100
AcDbEntity
  8
ALPHA
100
AcDbVertex
100
AcDb2dVertex
 10
252.765705
 20
60.526749
 30
0.0
  0
VERTEX
  5
18E4
100
AcDbEntity
  8
ALPHA
100
AcDbVertex
100
AcDb2dVertex
 10
252.248765
 20
60.731287
 30
0.0
  0
VERTEX
  5
18E5
100
AcDbEntity
  8
ALPHA
100
AcDbVertex
100
AcDb2dVertex
 10
251.76002
 20
60.986815
 30
0.0
  0
VERTEX
  5
18E6
100
AcDbEntity
  8
ALPHA
100
AcDbVertex
100
AcDb2dVertex
 10
251.302775
 20
61.290005
 30
0.0
  0
VERTEX
  5
18E7
100
AcDbEntity
  8
ALPHA
100
AcDbVertex
100
AcDb2dVertex
 10
250.880332
 20
61.637528
 30
0.0
  0
VERTEX
  5
18E8
100
AcDbEntity
  8
ALPHA
100
AcDbVertex
100
AcDb2dVertex
 10
250.495993
 20
62.026057
 30
0.0
  0
SEQEND
  5
18E9
100
AcDbEntity
  8
ALPHA
  0
POLYLINE
  5
18EA
100
AcDbEntity
  8
ALPHA
100
AcDb2dPolyline
 66
     1
 10
0.0
 20
0.0
 30
0.0
  0
VERTEX
  5
18EB
100
AcDbEntity
  8
ALPHA
100
AcDbVertex
100
AcDb2dVertex
 10
246.186001
 20
53.091219
 30
0.0
  0
VERTEX
  5
18EC
100
AcDbEntity
  8
ALPHA
100
AcDbVertex
100
AcDb2dVertex
 10
254.987348
 20
53.091219
 30
0.0
  0
VERTEX
  5
18ED
100
AcDbEntity
  8
ALPHA
100
AcDbVertex
100
AcDb2dVertex
 10
255.671058
 20
53.168389
 30
0.0
  0
VERTEX
  5
18EE
100
AcDbEntity
  8
ALPHA
100
AcDbVertex
100
AcDb2dVertex
 10
256.333719
 20
53.30821
 30
0.0
  0
VERTEX
  5
18EF
100
AcDbEntity
  8
ALPHA
100
AcDbVertex
100
AcDb2dVertex
 10
256.972147
 20
53.507626
 30
0.0
  0
VERTEX
  5
18F0
100
AcDbEntity
  8
ALPHA
100
AcDbVertex
100
AcDb2dVertex
 10
257.583161
 20
53.763581
 30
0.0
  0
VERTEX
  5
18F1
100
AcDbEntity
  8
ALPHA
100
AcDbVertex
100
AcDb2dVertex
 10
258.163579
 20
54.073018
 30
0.0
  0
VERTEX
  5
18F2
100
AcDbEntity
  8
ALPHA
100
AcDbVertex
100
AcDb2dVertex
 10
258.710219
 20
54.432884
 30
0.0
  0
VERTEX
  5
18F3
100
AcDbEntity
  8
ALPHA
100
AcDbVertex
100
AcDb2dVertex
 10
259.2199
 20
54.840121
 30
0.0
  0
VERTEX
  5
18F4
100
AcDbEntity
  8
ALPHA
100
AcDbVertex
100
AcDb2dVertex
 10
259.689439
 20
55.291674
 30
0.0
  0
VERTEX
  5
18F5
100
AcDbEntity
  8
ALPHA
100
AcDbVertex
100
AcDb2dVertex
 10
260.115654
 20
55.784488
 30
0.0
  0
VERTEX
  5
18F6
100
AcDbEntity
  8
ALPHA
100
AcDbVertex
100
AcDb2dVertex
 10
260.495365
 20
56.315507
 30
0.0
  0
VERTEX
  5
18F7
100
AcDbEntity
  8
ALPHA
100
AcDbVertex
100
AcDb2dVertex
 10
260.825388
 20
56.881675
 30
0.0
  0
VERTEX
  5
18F8
100
AcDbEntity
  8
ALPHA
100
AcDbVertex
100
AcDb2dVertex
 10
261.102542
 20
57.479937
 30
0.0
  0
VERTEX
  5
18F9
100
AcDbEntity
  8
ALPHA
100
AcDbVertex
100
AcDb2dVertex
 10
261.323644
 20
58.107236
 30
0.0
  0
VERTEX
  5
18FA
100
AcDbEntity
  8
ALPHA
100
AcDbVertex
100
AcDb2dVertex
 10
261.485515
 20
58.760518
 30
0.0
  0
VERTEX
  5
18FB
100
AcDbEntity
  8
ALPHA
100
AcDbVertex
100
AcDb2dVertex
 10
261.58497
 20
59.436726
 30
0.0
  0
VERTEX
  5
18FC
100
AcDbEntity
  8
ALPHA
100
AcDbVertex
100
AcDb2dVertex
 10
261.618829
 20
60.132804
 30
0.0
  0
VERTEX
  5
18FD
100
AcDbEntity
  8
ALPHA
100
AcDbVertex
100
AcDb2dVertex
 10
261.618829
 20
68.044657
 30
0.0
  0
SEQEND
  5
18FE
100
AcDbEntity
  8
ALPHA
  0
POLYLINE
  5
18FF
100
AcDbEntity
  8
ALPHA
100
AcDb2dPolyline
 66
     1
 10
0.0
 20
0.0
 30
0.0
  0
VERTEX
  5
1900
100
AcDbEntity
  8
ALPHA
100
AcDbVertex
100
AcDb2dVertex
 10
260.96358
 20
57.162451
 30
0.0
  0
VERTEX
  5
1901
100
AcDbEntity
  8
ALPHA
100
AcDbVertex
100
AcDb2dVertex
 10
260.96358
 20
48.300814
 30
0.0
  0
VERTEX
  5
1902
100
AcDbEntity
  8
ALPHA
100
AcDbVertex
100
AcDb2dVertex
 10
242.463595
 20
48.300814
 30
0.0
  0
SEQEND
  5
1903
100
AcDbEntity
  8
ALPHA
  0
POLYLINE
  5
1904
100
AcDbEntity
  8
AXE
100
AcDb2dPolyline
 66
     1
 10
0.0
 20
0.0
 30
0.0
  0
VERTEX
  5
1905
100
AcDbEntity
  8
AXE
100
AcDbVertex
100
AcDb2dVertex
 10
242.963623
 20
50.616271
 30
0.0
  0
VERTEX
  5
1906
100
AcDbEntity
  8
AXE
100
AcDbVertex
100
AcDb2dVertex
 10
242.963623
 20
75.046802
 30
0.0
  0
SEQEND
  5
1907
100
AcDbEntity
  8
AXE
  0
POLYLINE
  5
1908
100
AcDbEntity
  8
POINTILLE_COURT
100
AcDb2dPolyline
 66
     1
 10
0.0
 20
0.0
 30
0.0
  0
VERTEX
  5
1909
100
AcDbEntity
  8
POINTILLE_COURT
100
AcDbVertex
100
AcDb2dVertex
 10
248.213626
 20
63.046149
 30
0.0
  0
VERTEX
  5
190A
100
AcDbEntity
  8
POINTILLE_COURT
100
AcDbVertex
100
AcDb2dVertex
 10
248.18652
 20
62.509387
 30
0.0
  0
VERTEX
  5
190B
100
AcDbEntity
  8
POINTILLE_COURT
100
AcDbVertex
100
AcDb2dVertex
 10
248.106961
 20
61.988127
 30
0.0
  0
VERTEX
  5
190C
100
AcDbEntity
  8
POINTILLE_COURT
100
AcDbVertex
100
AcDb2dVertex
 10
247.977589
 20
61.485007
 30
0.0
  0
VERTEX
  5
190D
100
AcDbEntity
  8
POINTILLE_COURT
100
AcDbVertex
100
AcDb2dVertex
 10
247.801043
 20
61.002668
 30
0.0
  0
VERTEX
  5
190E
100
AcDbEntity
  8
POINTILLE_COURT
100
AcDbVertex
100
AcDb2dVertex
 10
247.579962
 20
60.543748
 30
0.0
  0
VERTEX
  5
190F
100
AcDbEntity
  8
POINTILLE_COURT
100
AcDbVertex
100
AcDb2dVertex
 10
247.316985
 20
60.110887
 30
0.0
  0
VERTEX
  5
1910
100
AcDbEntity
  8
POINTILLE_COURT
100
AcDbVertex
100
AcDb2dVertex
 10
247.014753
 20
59.706724
 30
0.0
  0
VERTEX
  5
1911
100
AcDbEntity
  8
POINTILLE_COURT
100
AcDbVertex
100
AcDb2dVertex
 10
246.675903
 20
59.333899
 30
0.0
  0
VERTEX
  5
1912
100
AcDbEntity
  8
POINTILLE_COURT
100
AcDbVertex
100
AcDb2dVertex
 10
246.303076
 20
58.995051
 30
0.0
  0
VERTEX
  5
1913
100
AcDbEntity
  8
POINTILLE_COURT
100
AcDbVertex
100
AcDb2dVertex
 10
245.898911
 20
58.69282
 30
0.0
  0
VERTEX
  5
1914
100
AcDbEntity
  8
POINTILLE_COURT
100
AcDbVertex
100
AcDb2dVertex
 10
245.466048
 20
58.429844
 30
0.0
  0
VERTEX
  5
1915
100
AcDbEntity
  8
POINTILLE_COURT
100
AcDbVertex
100
AcDb2dVertex
 10
245.007124
 20
58.208764
 30
0.0
  0
VERTEX
  5
1916
100
AcDbEntity
  8
POINTILLE_COURT
100
AcDbVertex
100
AcDb2dVertex
 10
244.524781
 20
58.032218
 30
0.0
  0
VERTEX
  5
1917
100
AcDbEntity
  8
POINTILLE_COURT
100
AcDbVertex
100
AcDb2dVertex
 10
244.021657
 20
57.902846
 30
0.0
  0
VERTEX
  5
1918
100
AcDbEntity
  8
POINTILLE_COURT
100
AcDbVertex
100
AcDb2dVertex
 10
243.500391
 20
57.823287
 30
0.0
  0
VERTEX
  5
1919
100
AcDbEntity
  8
POINTILLE_COURT
100
AcDbVertex
100
AcDb2dVertex
 10
242.963623
 20
57.796181
 30
0.0
  0
VERTEX
  5
191A
100
AcDbEntity
  8
POINTILLE_COURT
100
AcDbVertex
100
AcDb2dVertex
 10
242.42683
 20
57.823287
 30
0.0
  0
VERTEX
  5
191B
100
AcDbEntity
  8
POINTILLE_COURT
100
AcDbVertex
100
AcDb2dVertex
 10
241.905542
 20
57.902846
 30
0.0
  0
VERTEX
  5
191C
100
AcDbEntity
  8
POINTILLE_COURT
100
AcDbVertex
100
AcDb2dVertex
 10
241.402399
 20
58.032218
 30
0.0
  0
VERTEX
  5
191D
100
AcDbEntity
  8
POINTILLE_COURT
100
AcDbVertex
100
AcDb2dVertex
 10
240.920039
 20
58.208764
 30
0.0
  0
VERTEX
  5
191E
100
AcDbEntity
  8
POINTILLE_COURT
100
AcDbVertex
100
AcDb2dVertex
 10
240.461102
 20
58.429844
 30
0.0
  0
VERTEX
  5
191F
100
AcDbEntity
  8
POINTILLE_COURT
100
AcDbVertex
100
AcDb2dVertex
 10
240.028227
 20
58.69282
 30
0.0
  0
VERTEX
  5
1920
100
AcDbEntity
  8
POINTILLE_COURT
100
AcDbVertex
100
AcDb2dVertex
 10
239.624053
 20
58.995051
 30
0.0
  0
VERTEX
  5
1921
100
AcDbEntity
  8
POINTILLE_COURT
100
AcDbVertex
100
AcDb2dVertex
 10
239.251219
 20
59.333899
 30
0.0
  0
VERTEX
  5
1922
100
AcDbEntity
  8
POINTILLE_COURT
100
AcDbVertex
100
AcDb2dVertex
 10
238.912363
 20
59.706724
 30
0.0
  0
VERTEX
  5
1923
100
AcDbEntity
  8
POINTILLE_COURT
100
AcDbVertex
100
AcDb2dVertex
 10
238.610126
 20
60.110887
 30
0.0
  0
VERTEX
  5
1924
100
AcDbEntity
  8
POINTILLE_COURT
100
AcDbVertex
100
AcDb2dVertex
 10
238.347147
 20
60.543748
 30
0.0
  0
VERTEX
  5
1925
100
AcDbEntity
  8
POINTILLE_COURT
100
AcDbVertex
100
AcDb2dVertex
 10
238.126064
 20
61.002668
 30
0.0
  0
VERTEX
  5
1926
100
AcDbEntity
  8
POINTILLE_COURT
100
AcDbVertex
100
AcDb2dVertex
 10
237.949516
 20
61.485007
 30
0.0
  0
VERTEX
  5
1927
100
AcDbEntity
  8
POINTILLE_COURT
100
AcDbVertex
100
AcDb2dVertex
 10
237.820143
 20
61.988127
 30
0.0
  0
VERTEX
  5
1928
100
AcDbEntity
  8
POINTILLE_COURT
100
AcDbVertex
100
AcDb2dVertex
 10
237.740584
 20
62.509387
 30
0.0
  0
VERTEX
  5
1929
100
AcDbEntity
  8
POINTILLE_COURT
100
AcDbVertex
100
AcDb2dVertex
 10
237.713478
 20
63.046149
 30
0.0
  0
VERTEX
  5
192A
100
AcDbEntity
  8
POINTILLE_COURT
100
AcDbVertex
100
AcDb2dVertex
 10
237.740584
 20
63.582917
 30
0.0
  0
VERTEX
  5
192B
100
AcDbEntity
  8
POINTILLE_COURT
100
AcDbVertex
100
AcDb2dVertex
 10
237.820143
 20
64.104183
 30
0.0
  0
VERTEX
  5
192C
100
AcDbEntity
  8
POINTILLE_COURT
100
AcDbVertex
100
AcDb2dVertex
 10
237.949516
 20
64.607307
 30
0.0
  0
VERTEX
  5
192D
100
AcDbEntity
  8
POINTILLE_COURT
100
AcDbVertex
100
AcDb2dVertex
 10
238.126064
 20
65.089651
 30
0.0
  0
VERTEX
  5
192E
100
AcDbEntity
  8
POINTILLE_COURT
100
AcDbVertex
100
AcDb2dVertex
 10
238.347147
 20
65.548574
 30
0.0
  0
VERTEX
  5
192F
100
AcDbEntity
  8
POINTILLE_COURT
100
AcDbVertex
100
AcDb2dVertex
 10
238.610126
 20
65.981438
 30
0.0
  0
VERTEX
  5
1930
100
AcDbEntity
  8
POINTILLE_COURT
100
AcDbVertex
100
AcDb2dVertex
 10
238.912363
 20
66.385603
 30
0.0
  0
VERTEX
  5
1931
100
AcDbEntity
  8
POINTILLE_COURT
100
AcDbVertex
100
AcDb2dVertex
 10
239.251219
 20
66.75843
 30
0.0
  0
VERTEX
  5
1932
100
AcDbEntity
  8
POINTILLE_COURT
100
AcDbVertex
100
AcDb2dVertex
 10
239.624053
 20
67.097279
 30
0.0
  0
VERTEX
  5
1933
100
AcDbEntity
  8
POINTILLE_COURT
100
AcDbVertex
100
AcDb2dVertex
 10
240.028227
 20
67.399511
 30
0.0
  0
VERTEX
  5
1934
100
AcDbEntity
  8
POINTILLE_COURT
100
AcDbVertex
100
AcDb2dVertex
 10
240.461102
 20
67.662488
 30
0.0
  0
VERTEX
  5
1935
100
AcDbEntity
  8
POINTILLE_COURT
100
AcDbVertex
100
AcDb2dVertex
 10
240.920039
 20
67.883569
 30
0.0
  0
VERTEX
  5
1936
100
AcDbEntity
  8
POINTILLE_COURT
100
AcDbVertex
100
AcDb2dVertex
 10
241.402399
 20
68.060115
 30
0.0
  0
VERTEX
  5
1937
100
AcDbEntity
  8
POINTILLE_COURT
100
AcDbVertex
100
AcDb2dVertex
 10
241.905542
 20
68.189488
 30
0.0
  0
VERTEX
  5
1938
100
AcDbEntity
  8
POINTILLE_COURT
100
AcDbVertex
100
AcDb2dVertex
 10
242.42683
 20
68.269046
 30
0.0
  0
VERTEX
  5
1939
100
AcDbEntity
  8
POINTILLE_COURT
100
AcDbVertex
100
AcDb2dVertex
 10
242.963623
 20
68.296153
 30
0.0
  0
VERTEX
  5
193A
100
AcDbEntity
  8
POINTILLE_COURT
100
AcDbVertex
100
AcDb2dVertex
 10
243.500391
 20
68.269046
 30
0.0
  0
VERTEX
  5
193B
100
AcDbEntity
  8
POINTILLE_COURT
100
AcDbVertex
100
AcDb2dVertex
 10
244.021657
 20
68.189488
 30
0.0
  0
VERTEX
  5
193C
100
AcDbEntity
  8
POINTILLE_COURT
100
AcDbVertex
100
AcDb2dVertex
 10
244.524781
 20
68.060115
 30
0.0
  0
VERTEX
  5
193D
100
AcDbEntity
  8
POINTILLE_COURT
100
AcDbVertex
100
AcDb2dVertex
 10
245.007124
 20
67.883569
 30
0.0
  0
VERTEX
  5
193E
100
AcDbEntity
  8
POINTILLE_COURT
100
AcDbVertex
100
AcDb2dVertex
 10
245.466048
 20
67.662488
 30
0.0
  0
VERTEX
  5
193F
100
AcDbEntity
  8
POINTILLE_COURT
100
AcDbVertex
100
AcDb2dVertex
 10
245.898911
 20
67.399511
 30
0.0
  0
VERTEX
  5
1940
100
AcDbEntity
  8
POINTILLE_COURT
100
AcDbVertex
100
AcDb2dVertex
 10
246.303076
 20
67.097279
 30
0.0
  0
VERTEX
  5
1941
100
AcDbEntity
  8
POINTILLE_COURT
100
AcDbVertex
100
AcDb2dVertex
 10
246.675903
 20
66.75843
 30
0.0
  0
VERTEX
  5
1942
100
AcDbEntity
  8
POINTILLE_COURT
100
AcDbVertex
100
AcDb2dVertex
 10
247.014753
 20
66.385603
 30
0.0
  0
VERTEX
  5
1943
100
AcDbEntity
  8
POINTILLE_COURT
100
AcDbVertex
100
AcDb2dVertex
 10
247.316985
 20
65.981438
 30
0.0
  0
VERTEX
  5
1944
100
AcDbEntity
  8
POINTILLE_COURT
100
AcDbVertex
100
AcDb2dVertex
 10
247.579962
 20
65.548574
 30
0.0
  0
VERTEX
  5
1945
100
AcDbEntity
  8
POINTILLE_COURT
100
AcDbVertex
100
AcDb2dVertex
 10
247.801043
 20
65.089651
 30
0.0
  0
VERTEX
  5
1946
100
AcDbEntity
  8
POINTILLE_COURT
100
AcDbVertex
100
AcDb2dVertex
 10
247.977589
 20
64.607307
 30
0.0
  0
VERTEX
  5
1947
100
AcDbEntity
  8
POINTILLE_COURT
100
AcDbVertex
100
AcDb2dVertex
 10
248.106961
 20
64.104183
 30
0.0
  0
VERTEX
  5
1948
100
AcDbEntity
  8
POINTILLE_COURT
100
AcDbVertex
100
AcDb2dVertex
 10
248.18652
 20
63.582917
 30
0.0
  0
VERTEX
  5
1949
100
AcDbEntity
  8
POINTILLE_COURT
100
AcDbVertex
100
AcDb2dVertex
 10
248.213626
 20
63.046149
 30
0.0
  0
SEQEND
  5
194A
100
AcDbEntity
  8
POINTILLE_COURT
  0
POLYLINE
  5
194B
100
AcDbEntity
  8
ALPHA
100
AcDb2dPolyline
 66
     1
 10
0.0
 20
0.0
 30
0.0
  0
VERTEX
  5
194C
100
AcDbEntity
  8
ALPHA
100
AcDbVertex
100
AcDb2dVertex
 10
166.186055
 20
53.091219
 30
0.0
  0
VERTEX
  5
194D
100
AcDbEntity
  8
ALPHA
100
AcDbVertex
100
AcDb2dVertex
 10
174.987437
 20
53.091219
 30
0.0
  0
VERTEX
  5
194E
100
AcDbEntity
  8
ALPHA
100
AcDbVertex
100
AcDb2dVertex
 10
175.671147
 20
53.168389
 30
0.0
  0
VERTEX
  5
194F
100
AcDbEntity
  8
ALPHA
100
AcDbVertex
100
AcDb2dVertex
 10
176.333807
 20
53.30821
 30
0.0
  0
VERTEX
  5
1950
100
AcDbEntity
  8
ALPHA
100
AcDbVertex
100
AcDb2dVertex
 10
176.972233
 20
53.507626
 30
0.0
  0
VERTEX
  5
1951
100
AcDbEntity
  8
ALPHA
100
AcDbVertex
100
AcDb2dVertex
 10
177.583245
 20
53.763581
 30
0.0
  0
VERTEX
  5
1952
100
AcDbEntity
  8
ALPHA
100
AcDbVertex
100
AcDb2dVertex
 10
178.16366
 20
54.073018
 30
0.0
  0
VERTEX
  5
1953
100
AcDbEntity
  8
ALPHA
100
AcDbVertex
100
AcDb2dVertex
 10
178.710298
 20
54.432884
 30
0.0
  0
VERTEX
  5
1954
100
AcDbEntity
  8
ALPHA
100
AcDbVertex
100
AcDb2dVertex
 10
179.219975
 20
54.840121
 30
0.0
  0
VERTEX
  5
1955
100
AcDbEntity
  8
ALPHA
100
AcDbVertex
100
AcDb2dVertex
 10
179.689511
 20
55.291674
 30
0.0
  0
VERTEX
  5
1956
100
AcDbEntity
  8
ALPHA
100
AcDbVertex
100
AcDb2dVertex
 10
180.115723
 20
55.784488
 30
0.0
  0
VERTEX
  5
1957
100
AcDbEntity
  8
ALPHA
100
AcDbVertex
100
AcDb2dVertex
 10
180.49543
 20
56.315507
 30
0.0
  0
VERTEX
  5
1958
100
AcDbEntity
  8
ALPHA
100
AcDbVertex
100
AcDb2dVertex
 10
180.82545
 20
56.881675
 30
0.0
  0
VERTEX
  5
1959
100
AcDbEntity
  8
ALPHA
100
AcDbVertex
100
AcDb2dVertex
 10
181.102601
 20
57.479937
 30
0.0
  0
VERTEX
  5
195A
100
AcDbEntity
  8
ALPHA
100
AcDbVertex
100
AcDb2dVertex
 10
181.323702
 20
58.107236
 30
0.0
  0
VERTEX
  5
195B
100
AcDbEntity
  8
ALPHA
100
AcDbVertex
100
AcDb2dVertex
 10
181.48557
 20
58.760518
 30
0.0
  0
VERTEX
  5
195C
100
AcDbEntity
  8
ALPHA
100
AcDbVertex
100
AcDb2dVertex
 10
181.585025
 20
59.436726
 30
0.0
  0
VERTEX
  5
195D
100
AcDbEntity
  8
ALPHA
100
AcDbVertex
100
AcDb2dVertex
 10
181.618883
 20
60.132804
 30
0.0
  0
VERTEX
  5
195E
100
AcDbEntity
  8
ALPHA
100
AcDbVertex
100
AcDb2dVertex
 10
181.618883
 20
68.044657
 30
0.0
  0
SEQEND
  5
195F
100
AcDbEntity
  8
ALPHA
  0
POLYLINE
  5
1960
100
AcDbEntity
  8
AXE
100
AcDb2dPolyline
 66
     1
 10
0.0
 20
0.0
 30
0.0
  0
VERTEX
  5
1961
100
AcDbEntity
  8
AXE
100
AcDbVertex
100
AcDb2dVertex
 10
236.994164
 20
21.049577
 30
0.0
  0
VERTEX
  5
1962
100
AcDbEntity
  8
AXE
100
AcDbVertex
100
AcDb2dVertex
 10
204.730132
 20
21.049577
 30
0.0
  0
SEQEND
  5
1963
100
AcDbEntity
  8
AXE
  0
POLYLINE
  5
1964
100
AcDbEntity
  8
ALPHA
100
AcDb2dPolyline
 66
     1
 10
0.0
 20
0.0
 30
0.0
  0
VERTEX
  5
1965
100
AcDbEntity
  8
ALPHA
100
AcDbVertex
100
AcDb2dVertex
 10
242.463595
 20
52.886925
 30
0.0
  0
VERTEX
  5
1966
100
AcDbEntity
  8
ALPHA
100
AcDbVertex
100
AcDb2dVertex
 10
242.463595
 20
1.046336
 30
0.0
  0
VERTEX
  5
1967
100
AcDbEntity
  8
ALPHA
100
AcDbVertex
100
AcDb2dVertex
 10
202.463605
 20
1.046336
 30
0.0
  0
VERTEX
  5
1968
100
AcDbEntity
  8
ALPHA
100
AcDbVertex
100
AcDb2dVertex
 10
202.463605
 20
53.044687
 30
0.0
  0
SEQEND
  5
1969
100
AcDbEntity
  8
ALPHA
  0
POLYLINE
  5
196A
100
AcDbEntity
  8
AXE
100
AcDb2dPolyline
 66
     1
 10
0.0
 20
0.0
 30
0.0
  0
VERTEX
  5
196B
100
AcDbEntity
  8
AXE
100
AcDbVertex
100
AcDb2dVertex
 10
222.4636
 20
4.089362
 30
0.0
  0
VERTEX
  5
196C
100
AcDbEntity
  8
AXE
100
AcDbVertex
100
AcDb2dVertex
 10
222.4636
 20
36.353395
 30
0.0
  0
SEQEND
  5
196D
100
AcDbEntity
  8
AXE
  0
POLYLINE
  5
196E
100
AcDbEntity
  8
ALPHA
100
AcDb2dPolyline
 66
     1
 10
0.0
 20
0.0
 30
0.0
  0
VERTEX
  5
196F
100
AcDbEntity
  8
ALPHA
100
AcDbVertex
100
AcDb2dVertex
 10
215.395309
 20
8.806389
 30
0.0
  0
VERTEX
  5
1970
100
AcDbEntity
  8
ALPHA
100
AcDbVertex
100
AcDb2dVertex
 10
229.538453
 20
8.806389
 30
0.0
  0
VERTEX
  5
1971
100
AcDbEntity
  8
ALPHA
100
AcDbVertex
100
AcDb2dVertex
 10
236.606743
 20
21.049577
 30
0.0
  0
VERTEX
  5
1972
100
AcDbEntity
  8
ALPHA
100
AcDbVertex
100
AcDb2dVertex
 10
229.538453
 20
33.299468
 30
0.0
  0
VERTEX
  5
1973
100
AcDbEntity
  8
ALPHA
100
AcDbVertex
100
AcDb2dVertex
 10
215.395309
 20
33.299468
 30
0.0
  0
VERTEX
  5
1974
100
AcDbEntity
  8
ALPHA
100
AcDbVertex
100
AcDb2dVertex
 10
208.323879
 20
21.049577
 30
0.0
  0
VERTEX
  5
1975
100
AcDbEntity
  8
ALPHA
100
AcDbVertex
100
AcDb2dVertex
 10
215.395309
 20
8.806389
 30
0.0
  0
SEQEND
  5
1976
100
AcDbEntity
  8
ALPHA
  0
POLYLINE
  5
1977
100
AcDbEntity
  8
ALPHA
100
AcDb2dPolyline
 66
     1
 10
0.0
 20
0.0
 30
0.0
  0
VERTEX
  5
1978
100
AcDbEntity
  8
ALPHA
100
AcDbVertex
100
AcDb2dVertex
 10
222.4636
 20
28.516472
 30
0.0
  0
VERTEX
  5
1979
100
AcDbEntity
  8
ALPHA
100
AcDbVertex
100
AcDb2dVertex
 10
223.226753
 20
28.477975
 30
0.0
  0
VERTEX
  5
197A
100
AcDbEntity
  8
ALPHA
100
AcDbVertex
100
AcDb2dVertex
 10
223.967927
 20
28.364979
 30
0.0
  0
VERTEX
  5
197B
100
AcDbEntity
  8
ALPHA
100
AcDbVertex
100
AcDb2dVertex
 10
224.683363
 20
28.181226
 30
0.0
  0
VERTEX
  5
197C
100
AcDbEntity
  8
ALPHA
100
AcDbVertex
100
AcDb2dVertex
 10
225.3693
 20
27.930458
 30
0.0
  0
VERTEX
  5
197D
100
AcDbEntity
  8
ALPHA
100
AcDbVertex
100
AcDb2dVertex
 10
226.021975
 20
27.616419
 30
0.0
  0
VERTEX
  5
197E
100
AcDbEntity
  8
ALPHA
100
AcDbVertex
100
AcDb2dVertex
 10
226.637628
 20
27.242849
 30
0.0
  0
VERTEX
  5
197F
100
AcDbEntity
  8
ALPHA
100
AcDbVertex
100
AcDb2dVertex
 10
227.212497
 20
26.813492
 30
0.0
  0
VERTEX
  5
1980
100
AcDbEntity
  8
ALPHA
100
AcDbVertex
100
AcDb2dVertex
 10
227.742823
 20
26.332089
 30
0.0
  0
VERTEX
  5
1981
100
AcDbEntity
  8
ALPHA
100
AcDbVertex
100
AcDb2dVertex
 10
228.224842
 20
25.802384
 30
0.0
  0
VERTEX
  5
1982
100
AcDbEntity
  8
ALPHA
100
AcDbVertex
100
AcDb2dVertex
 10
228.654796
 20
25.228118
 30
0.0
  0
VERTEX
  5
1983
100
AcDbEntity
  8
ALPHA
100
AcDbVertex
100
AcDb2dVertex
 10
229.028921
 20
24.613033
 30
0.0
  0
VERTEX
  5
1984
100
AcDbEntity
  8
ALPHA
100
AcDbVertex
100
AcDb2dVertex
 10
229.343458
 20
23.960873
 30
0.0
  0
VERTEX
  5
1985
100
AcDbEntity
  8
ALPHA
100
AcDbVertex
100
AcDb2dVertex
 10
229.594645
 20
23.275378
 30
0.0
  0
VERTEX
  5
1986
100
AcDbEntity
  8
ALPHA
100
AcDbVertex
100
AcDb2dVertex
 10
229.778721
 20
22.560292
 30
0.0
  0
VERTEX
  5
1987
100
AcDbEntity
  8
ALPHA
100
AcDbVertex
100
AcDb2dVertex
 10
229.891924
 20
21.819357
 30
0.0
  0
VERTEX
  5
1988
100
AcDbEntity
  8
ALPHA
100
AcDbVertex
100
AcDb2dVertex
 10
229.930495
 20
21.056315
 30
0.0
  0
VERTEX
  5
1989
100
AcDbEntity
  8
ALPHA
100
AcDbVertex
100
AcDb2dVertex
 10
229.891924
 20
20.292622
 30
0.0
  0
VERTEX
  5
198A
100
AcDbEntity
  8
ALPHA
100
AcDbVertex
100
AcDb2dVertex
 10
229.778721
 20
19.551045
 30
0.0
  0
VERTEX
  5
198B
100
AcDbEntity
  8
ALPHA
100
AcDbVertex
100
AcDb2dVertex
 10
229.594645
 20
18.835331
 30
0.0
  0
VERTEX
  5
198C
100
AcDbEntity
  8
ALPHA
100
AcDbVertex
100
AcDb2dVertex
 10
229.343458
 20
18.149226
 30
0.0
  0
VERTEX
  5
198D
100
AcDbEntity
  8
ALPHA
100
AcDbVertex
100
AcDb2dVertex
 10
229.028921
 20
17.496479
 30
0.0
  0
VERTEX
  5
198E
100
AcDbEntity
  8
ALPHA
100
AcDbVertex
100
AcDb2dVertex
 10
228.654796
 20
16.880835
 30
0.0
  0
VERTEX
  5
198F
100
AcDbEntity
  8
ALPHA
100
AcDbVertex
100
AcDb2dVertex
 10
228.224842
 20
16.306041
 30
0.0
  0
VERTEX
  5
1990
100
AcDbEntity
  8
ALPHA
100
AcDbVertex
100
AcDb2dVertex
 10
227.742823
 20
15.775845
 30
0.0
  0
VERTEX
  5
1991
100
AcDbEntity
  8
ALPHA
100
AcDbVertex
100
AcDb2dVertex
 10
227.212497
 20
15.293992
 30
0.0
  0
VERTEX
  5
1992
100
AcDbEntity
  8
ALPHA
100
AcDbVertex
100
AcDb2dVertex
 10
226.637628
 20
14.864231
 30
0.0
  0
VERTEX
  5
1993
100
AcDbEntity
  8
ALPHA
100
AcDbVertex
100
AcDb2dVertex
 10
226.021975
 20
14.490306
 30
0.0
  0
VERTEX
  5
1994
100
AcDbEntity
  8
ALPHA
100
AcDbVertex
100
AcDb2dVertex
 10
225.3693
 20
14.175966
 30
0.0
  0
VERTEX
  5
1995
100
AcDbEntity
  8
ALPHA
100
AcDbVertex
100
AcDb2dVertex
 10
224.683363
 20
13.924957
 30
0.0
  0
VERTEX
  5
1996
100
AcDbEntity
  8
ALPHA
100
AcDbVertex
100
AcDb2dVertex
 10
223.967927
 20
13.741027
 30
0.0
  0
VERTEX
  5
1997
100
AcDbEntity
  8
ALPHA
100
AcDbVertex
100
AcDb2dVertex
 10
223.226753
 20
13.62792
 30
0.0
  0
VERTEX
  5
1998
100
AcDbEntity
  8
ALPHA
100
AcDbVertex
100
AcDb2dVertex
 10
222.4636
 20
13.589386
 30
0.0
  0
VERTEX
  5
1999
100
AcDbEntity
  8
ALPHA
100
AcDbVertex
100
AcDb2dVertex
 10
221.699916
 20
13.62792
 30
0.0
  0
VERTEX
  5
199A
100
AcDbEntity
  8
ALPHA
100
AcDbVertex
100
AcDb2dVertex
 10
220.958427
 20
13.741027
 30
0.0
  0
VERTEX
  5
199B
100
AcDbEntity
  8
ALPHA
100
AcDbVertex
100
AcDb2dVertex
 10
220.242869
 20
13.924957
 30
0.0
  0
VERTEX
  5
199C
100
AcDbEntity
  8
ALPHA
100
AcDbVertex
100
AcDb2dVertex
 10
219.556977
 20
14.175966
 30
0.0
  0
VERTEX
  5
199D
100
AcDbEntity
  8
ALPHA
100
AcDbVertex
100
AcDb2dVertex
 10
218.904487
 20
14.490306
 30
0.0
  0
VERTEX
  5
199E
100
AcDbEntity
  8
ALPHA
100
AcDbVertex
100
AcDb2dVertex
 10
218.289136
 20
14.864231
 30
0.0
  0
VERTEX
  5
199F
100
AcDbEntity
  8
ALPHA
100
AcDbVertex
100
AcDb2dVertex
 10
217.714659
 20
15.293992
 30
0.0
  0
VERTEX
  5
19A0
100
AcDbEntity
  8
ALPHA
100
AcDbVertex
100
AcDb2dVertex
 10
217.184792
 20
15.775845
 30
0.0
  0
VERTEX
  5
19A1
100
AcDbEntity
  8
ALPHA
100
AcDbVertex
100
AcDb2dVertex
 10
216.703271
 20
16.306041
 30
0.0
  0
VERTEX
  5
19A2
100
AcDbEntity
  8
ALPHA
100
AcDbVertex
100
AcDb2dVertex
 10
216.273832
 20
16.880835
 30
0.0
  0
VERTEX
  5
19A3
100
AcDbEntity
  8
ALPHA
100
AcDbVertex
100
AcDb2dVertex
 10
215.900211
 20
17.496479
 30
0.0
  0
VERTEX
  5
19A4
100
AcDbEntity
  8
ALPHA
100
AcDbVertex
100
AcDb2dVertex
 10
215.586143
 20
18.149226
 30
0.0
  0
VERTEX
  5
19A5
100
AcDbEntity
  8
ALPHA
100
AcDbVertex
100
AcDb2dVertex
 10
215.335365
 20
18.835331
 30
0.0
  0
VERTEX
  5
19A6
100
AcDbEntity
  8
ALPHA
100
AcDbVertex
100
AcDb2dVertex
 10
215.151613
 20
19.551045
 30
0.0
  0
VERTEX
  5
19A7
100
AcDbEntity
  8
ALPHA
100
AcDbVertex
100
AcDb2dVertex
 10
215.038622
 20
20.292622
 30
0.0
  0
VERTEX
  5
19A8
100
AcDbEntity
  8
ALPHA
100
AcDbVertex
100
AcDb2dVertex
 10
215.000128
 20
21.056315
 30
0.0
  0
VERTEX
  5
19A9
100
AcDbEntity
  8
ALPHA
100
AcDbVertex
100
AcDb2dVertex
 10
215.038622
 20
21.819357
 30
0.0
  0
VERTEX
  5
19AA
100
AcDbEntity
  8
ALPHA
100
AcDbVertex
100
AcDb2dVertex
 10
215.151613
 20
22.560292
 30
0.0
  0
VERTEX
  5
19AB
100
AcDbEntity
  8
ALPHA
100
AcDbVertex
100
AcDb2dVertex
 10
215.335365
 20
23.275378
 30
0.0
  0
VERTEX
  5
19AC
100
AcDbEntity
  8
ALPHA
100
AcDbVertex
100
AcDb2dVertex
 10
215.586143
 20
23.960873
 30
0.0
  0
VERTEX
  5
19AD
100
AcDbEntity
  8
ALPHA
100
AcDbVertex
100
AcDb2dVertex
 10
215.900211
 20
24.613033
 30
0.0
  0
VERTEX
  5
19AE
100
AcDbEntity
  8
ALPHA
100
AcDbVertex
100
AcDb2dVertex
 10
216.273832
 20
25.228118
 30
0.0
  0
VERTEX
  5
19AF
100
AcDbEntity
  8
ALPHA
100
AcDbVertex
100
AcDb2dVertex
 10
216.703271
 20
25.802384
 30
0.0
  0
VERTEX
  5
19B0
100
AcDbEntity
  8
ALPHA
100
AcDbVertex
100
AcDb2dVertex
 10
217.184792
 20
26.332089
 30
0.0
  0
VERTEX
  5
19B1
100
AcDbEntity
  8
ALPHA
100
AcDbVertex
100
AcDb2dVertex
 10
217.714659
 20
26.813492
 30
0.0
  0
VERTEX
  5
19B2
100
AcDbEntity
  8
ALPHA
100
AcDbVertex
100
AcDb2dVertex
 10
218.289136
 20
27.242849
 30
0.0
  0
VERTEX
  5
19B3
100
AcDbEntity
  8
ALPHA
100
AcDbVertex
100
AcDb2dVertex
 10
218.904487
 20
27.616419
 30
0.0
  0
VERTEX
  5
19B4
100
AcDbEntity
  8
ALPHA
100
AcDbVertex
100
AcDb2dVertex
 10
219.556977
 20
27.930458
 30
0.0
  0
VERTEX
  5
19B5
100
AcDbEntity
  8
ALPHA
100
AcDbVertex
100
AcDb2dVertex
 10
220.242869
 20
28.181226
 30
0.0
  0
VERTEX
  5
19B6
100
AcDbEntity
  8
ALPHA
100
AcDbVertex
100
AcDb2dVertex
 10
220.958427
 20
28.364979
 30
0.0
  0
VERTEX
  5
19B7
100
AcDbEntity
  8
ALPHA
100
AcDbVertex
100
AcDb2dVertex
 10
221.699916
 20
28.477975
 30
0.0
  0
VERTEX
  5
19B8
100
AcDbEntity
  8
ALPHA
100
AcDbVertex
100
AcDb2dVertex
 10
222.4636
 20
28.516472
 30
0.0
  0
SEQEND
  5
19B9
100
AcDbEntity
  8
ALPHA
  0
POLYLINE
  5
19BA
100
AcDbEntity
  8
ALPHA
100
AcDb2dPolyline
 66
     1
 10
0.0
 20
0.0
 30
0.0
  0
VERTEX
  5
19BB
100
AcDbEntity
  8
ALPHA
100
AcDbVertex
100
AcDb2dVertex
 10
179.455368
 20
72.568574
 30
0.0
  0
VERTEX
  5
19BC
100
AcDbEntity
  8
ALPHA
100
AcDbVertex
100
AcDb2dVertex
 10
189.142787
 20
72.568574
 30
0.0
  0
SEQEND
  5
19BD
100
AcDbEntity
  8
ALPHA
  0
POLYLINE
  5
19BE
100
AcDbEntity
  8
ALPHA
100
AcDb2dPolyline
 66
     1
 10
0.0
 20
0.0
 30
0.0
  0
VERTEX
  5
19BF
100
AcDbEntity
  8
ALPHA
100
AcDbVertex
100
AcDb2dVertex
 10
170.496047
 20
69.086798
 30
0.0
  0
VERTEX
  5
19C0
100
AcDbEntity
  8
ALPHA
100
AcDbVertex
100
AcDb2dVertex
 10
170.880451
 20
69.475606
 30
0.0
  0
VERTEX
  5
19C1
100
AcDbEntity
  8
ALPHA
100
AcDbVertex
100
AcDb2dVertex
 10
171.302953
 20
69.823339
 30
0.0
  0
VERTEX
  5
19C2
100
AcDbEntity
  8
ALPHA
100
AcDbVertex
100
AcDb2dVertex
 10
171.760245
 20
70.126679
 30
0.0
  0
VERTEX
  5
19C3
100
AcDbEntity
  8
ALPHA
100
AcDbVertex
100
AcDb2dVertex
 10
172.249017
 20
70.382308
 30
0.0
  0
VERTEX
  5
19C4
100
AcDbEntity
  8
ALPHA
100
AcDbVertex
100
AcDb2dVertex
 10
172.765961
 20
70.586907
 30
0.0
  0
VERTEX
  5
19C5
100
AcDbEntity
  8
ALPHA
100
AcDbVertex
100
AcDb2dVertex
 10
173.307767
 20
70.737158
 30
0.0
  0
VERTEX
  5
19C6
100
AcDbEntity
  8
ALPHA
100
AcDbVertex
100
AcDb2dVertex
 10
173.871127
 20
70.829742
 30
0.0
  0
VERTEX
  5
19C7
100
AcDbEntity
  8
ALPHA
100
AcDbVertex
100
AcDb2dVertex
 10
174.452732
 20
70.861341
 30
0.0
  0
VERTEX
  5
19C8
100
AcDbEntity
  8
ALPHA
100
AcDbVertex
100
AcDb2dVertex
 10
174.995634
 20
70.833918
 30
0.0
  0
VERTEX
  5
19C9
100
AcDbEntity
  8
ALPHA
100
AcDbVertex
100
AcDb2dVertex
 10
175.522763
 20
70.753433
 30
0.0
  0
VERTEX
  5
19CA
100
AcDbEntity
  8
ALPHA
100
AcDbVertex
100
AcDb2dVertex
 10
176.031462
 20
70.622561
 30
0.0
  0
VERTEX
  5
19CB
100
AcDbEntity
  8
ALPHA
100
AcDbVertex
100
AcDb2dVertex
 10
176.519075
 20
70.443979
 30
0.0
  0
VERTEX
  5
19CC
100
AcDbEntity
  8
ALPHA
100
AcDbVertex
100
AcDb2dVertex
 10
176.982945
 20
70.220361
 30
0.0
  0
VERTEX
  5
19CD
100
AcDbEntity
  8
ALPHA
100
AcDbVertex
100
AcDb2dVertex
 10
177.420416
 20
69.954384
 30
0.0
  0
VERTEX
  5
19CE
100
AcDbEntity
  8
ALPHA
100
AcDbVertex
100
AcDb2dVertex
 10
177.828831
 20
69.648723
 30
0.0
  0
VERTEX
  5
19CF
100
AcDbEntity
  8
ALPHA
100
AcDbVertex
100
AcDb2dVertex
 10
178.205533
 20
69.306054
 30
0.0
  0
VERTEX
  5
19D0
100
AcDbEntity
  8
ALPHA
100
AcDbVertex
100
AcDb2dVertex
 10
178.547867
 20
68.929052
 30
0.0
  0
VERTEX
  5
19D1
100
AcDbEntity
  8
ALPHA
100
AcDbVertex
100
AcDb2dVertex
 10
178.853175
 20
68.520393
 30
0.0
  0
VERTEX
  5
19D2
100
AcDbEntity
  8
ALPHA
100
AcDbVertex
100
AcDb2dVertex
 10
179.118801
 20
68.082753
 30
0.0
  0
VERTEX
  5
19D3
100
AcDbEntity
  8
ALPHA
100
AcDbVertex
100
AcDb2dVertex
 10
179.342088
 20
67.618808
 30
0.0
  0
VERTEX
  5
19D4
100
AcDbEntity
  8
ALPHA
100
AcDbVertex
100
AcDb2dVertex
 10
179.52038
 20
67.131232
 30
0.0
  0
VERTEX
  5
19D5
100
AcDbEntity
  8
ALPHA
100
AcDbVertex
100
AcDb2dVertex
 10
179.651021
 20
66.622702
 30
0.0
  0
VERTEX
  5
19D6
100
AcDbEntity
  8
ALPHA
100
AcDbVertex
100
AcDb2dVertex
 10
179.731353
 20
66.095893
 30
0.0
  0
VERTEX
  5
19D7
100
AcDbEntity
  8
ALPHA
100
AcDbVertex
100
AcDb2dVertex
 10
179.758721
 20
65.553482
 30
0.0
  0
VERTEX
  5
19D8
100
AcDbEntity
  8
ALPHA
100
AcDbVertex
100
AcDb2dVertex
 10
179.731353
 20
65.012285
 30
0.0
  0
VERTEX
  5
19D9
100
AcDbEntity
  8
ALPHA
100
AcDbVertex
100
AcDb2dVertex
 10
179.651021
 20
64.486536
 30
0.0
  0
VERTEX
  5
19DA
100
AcDbEntity
  8
ALPHA
100
AcDbVertex
100
AcDb2dVertex
 10
179.52038
 20
63.978921
 30
0.0
  0
VERTEX
  5
19DB
100
AcDbEntity
  8
ALPHA
100
AcDbVertex
100
AcDb2dVertex
 10
179.342088
 20
63.492126
 30
0.0
  0
VERTEX
  5
19DC
100
AcDbEntity
  8
ALPHA
100
AcDbVertex
100
AcDb2dVertex
 10
179.118801
 20
63.028837
 30
0.0
  0
VERTEX
  5
19DD
100
AcDbEntity
  8
ALPHA
100
AcDbVertex
100
AcDb2dVertex
 10
178.853175
 20
62.591741
 30
0.0
  0
VERTEX
  5
19DE
100
AcDbEntity
  8
ALPHA
100
AcDbVertex
100
AcDb2dVertex
 10
178.547867
 20
62.183523
 30
0.0
  0
VERTEX
  5
19DF
100
AcDbEntity
  8
ALPHA
100
AcDbVertex
100
AcDb2dVertex
 10
178.205533
 20
61.806871
 30
0.0
  0
VERTEX
  5
19E0
100
AcDbEntity
  8
ALPHA
100
AcDbVertex
100
AcDb2dVertex
 10
177.828831
 20
61.464471
 30
0.0
  0
VERTEX
  5
19E1
100
AcDbEntity
  8
ALPHA
100
AcDbVertex
100
AcDb2dVertex
 10
177.420416
 20
61.159009
 30
0.0
  0
VERTEX
  5
19E2
100
AcDbEntity
  8
ALPHA
100
AcDbVertex
100
AcDb2dVertex
 10
176.982945
 20
60.89317
 30
0.0
  0
VERTEX
  5
19E3
100
AcDbEntity
  8
ALPHA
100
AcDbVertex
100
AcDb2dVertex
 10
176.519075
 20
60.669642
 30
0.0
  0
VERTEX
  5
19E4
100
AcDbEntity
  8
ALPHA
100
AcDbVertex
100
AcDb2dVertex
 10
176.031462
 20
60.491111
 30
0.0
  0
VERTEX
  5
19E5
100
AcDbEntity
  8
ALPHA
100
AcDbVertex
100
AcDb2dVertex
 10
175.522763
 20
60.360263
 30
0.0
  0
VERTEX
  5
19E6
100
AcDbEntity
  8
ALPHA
100
AcDbVertex
100
AcDb2dVertex
 10
174.995634
 20
60.279784
 30
0.0
  0
VERTEX
  5
19E7
100
AcDbEntity
  8
ALPHA
100
AcDbVertex
100
AcDb2dVertex
 10
174.452732
 20
60.252361
 30
0.0
  0
VERTEX
  5
19E8
100
AcDbEntity
  8
ALPHA
100
AcDbVertex
100
AcDb2dVertex
 10
173.871019
 20
60.283958
 30
0.0
  0
VERTEX
  5
19E9
100
AcDbEntity
  8
ALPHA
100
AcDbVertex
100
AcDb2dVertex
 10
173.307594
 20
60.37653
 30
0.0
  0
VERTEX
  5
19EA
100
AcDbEntity
  8
ALPHA
100
AcDbVertex
100
AcDb2dVertex
 10
172.765759
 20
60.526749
 30
0.0
  0
VERTEX
  5
19EB
100
AcDbEntity
  8
ALPHA
100
AcDbVertex
100
AcDb2dVertex
 10
172.248819
 20
60.731287
 30
0.0
  0
VERTEX
  5
19EC
100
AcDbEntity
  8
ALPHA
100
AcDbVertex
100
AcDb2dVertex
 10
171.760074
 20
60.986815
 30
0.0
  0
VERTEX
  5
19ED
100
AcDbEntity
  8
ALPHA
100
AcDbVertex
100
AcDb2dVertex
 10
171.302829
 20
61.290005
 30
0.0
  0
VERTEX
  5
19EE
100
AcDbEntity
  8
ALPHA
100
AcDbVertex
100
AcDb2dVertex
 10
170.880386
 20
61.637528
 30
0.0
  0
VERTEX
  5
19EF
100
AcDbEntity
  8
ALPHA
100
AcDbVertex
100
AcDb2dVertex
 10
170.496047
 20
62.026057
 30
0.0
  0
SEQEND
  5
19F0
100
AcDbEntity
  8
ALPHA
  0
POLYLINE
  5
19F1
100
AcDbEntity
  8
ALPHA
100
AcDb2dPolyline
 66
     1
 10
0.0
 20
0.0
 30
0.0
  0
VERTEX
  5
19F2
100
AcDbEntity
  8
ALPHA
100
AcDbVertex
100
AcDb2dVertex
 10
260.96358
 20
70.725098
 30
0.0
  0
VERTEX
  5
19F3
100
AcDbEntity
  8
ALPHA
100
AcDbVertex
100
AcDb2dVertex
 10
260.96358
 20
57.162451
 30
0.0
  0
SEQEND
  5
19F4
100
AcDbEntity
  8
ALPHA
  0
POLYLINE
  5
19F5
100
AcDbEntity
  8
ALPHA
100
AcDb2dPolyline
 66
     1
 10
0.0
 20
0.0
 30
0.0
  0
VERTEX
  5
19F6
100
AcDbEntity
  8
ALPHA
100
AcDbVertex
100
AcDb2dVertex
 10
255.809355
 20
105.77671
 30
0.0
  0
VERTEX
  5
19F7
100
AcDbEntity
  8
ALPHA
100
AcDbVertex
100
AcDb2dVertex
 10
311.463683
 20
105.77671
 30
0.0
  0
SEQEND
  5
19F8
100
AcDbEntity
  8
ALPHA
  0
POLYLINE
  5
19F9
100
AcDbEntity
  8
ALPHA
100
AcDb2dPolyline
 66
     1
 10
0.0
 20
0.0
 30
0.0
  0
VERTEX
  5
19FA
100
AcDbEntity
  8
ALPHA
100
AcDbVertex
100
AcDb2dVertex
 10
255.809355
 20
115.601783
 30
0.0
  0
VERTEX
  5
19FB
100
AcDbEntity
  8
ALPHA
100
AcDbVertex
100
AcDb2dVertex
 10
311.463683
 20
115.601783
 30
0.0
  0
SEQEND
  5
19FC
100
AcDbEntity
  8
ALPHA
  0
POLYLINE
  5
19FD
100
AcDbEntity
  8
ALPHA
100
AcDb2dPolyline
 66
     1
 10
0.0
 20
0.0
 30
0.0
  0
VERTEX
  5
19FE
100
AcDbEntity
  8
ALPHA
100
AcDbVertex
100
AcDb2dVertex
 10
255.809355
 20
129.494136
 30
0.0
  0
VERTEX
  5
19FF
100
AcDbEntity
  8
ALPHA
100
AcDbVertex
100
AcDb2dVertex
 10
311.463683
 20
129.494136
 30
0.0
  0
SEQEND
  5
1A00
100
AcDbEntity
  8
ALPHA
  0
POLYLINE
  5
1A01
100
AcDbEntity
  8
ALPHA
100
AcDb2dPolyline
 66
     1
 10
0.0
 20
0.0
 30
0.0
  0
VERTEX
  5
1A02
100
AcDbEntity
  8
ALPHA
100
AcDbVertex
100
AcDb2dVertex
 10
255.809355
 20
139.319209
 30
0.0
  0
VERTEX
  5
1A03
100
AcDbEntity
  8
ALPHA
100
AcDbVertex
100
AcDb2dVertex
 10
311.463683
 20
139.319209
 30
0.0
  0
SEQEND
  5
1A04
100
AcDbEntity
  8
ALPHA
  0
POLYLINE
  5
1A05
100
AcDbEntity
  8
ALPHA
100
AcDb2dPolyline
 66
     1
 10
0.0
 20
0.0
 30
0.0
  0
VERTEX
  5
1A06
100
AcDbEntity
  8
ALPHA
100
AcDbVertex
100
AcDb2dVertex
 10
260.96358
 20
78.951982
 30
0.0
  0
VERTEX
  5
1A07
100
AcDbEntity
  8
ALPHA
100
AcDbVertex
100
AcDb2dVertex
 10
260.96358
 20
70.725098
 30
0.0
  0
SEQEND
  5
1A08
100
AcDbEntity
  8
ALPHA
  0
POLYLINE
  5
1A09
100
AcDbEntity
  8
ALPHA
100
AcDb2dPolyline
 66
     1
 10
0.0
 20
0.0
 30
0.0
  0
VERTEX
  5
1A0A
100
AcDbEntity
  8
ALPHA
100
AcDbVertex
100
AcDb2dVertex
 10
274.303483
 20
126.185786
 30
0.0
  0
VERTEX
  5
1A0B
100
AcDbEntity
  8
ALPHA
100
AcDbVertex
100
AcDb2dVertex
 10
287.041548
 20
126.185786
 30
0.0
  0
VERTEX
  5
1A0C
100
AcDbEntity
  8
ALPHA
100
AcDbVertex
100
AcDb2dVertex
 10
287.041548
 20
118.405061
 30
0.0
  0
VERTEX
  5
1A0D
100
AcDbEntity
  8
ALPHA
100
AcDbVertex
100
AcDb2dVertex
 10
274.303483
 20
118.405061
 30
0.0
  0
VERTEX
  5
1A0E
100
AcDbEntity
  8
ALPHA
100
AcDbVertex
100
AcDb2dVertex
 10
274.303483
 20
126.185786
 30
0.0
  0
SEQEND
  5
1A0F
100
AcDbEntity
  8
ALPHA
  0
POLYLINE
  5
1A10
100
AcDbEntity
  8
AXE
100
AcDb2dPolyline
 66
     1
 10
0.0
 20
0.0
 30
0.0
  0
VERTEX
  5
1A11
100
AcDbEntity
  8
AXE
100
AcDbVertex
100
AcDb2dVertex
 10
230.440717
 20
243.046212
 30
0.0
  0
VERTEX
  5
1A12
100
AcDbEntity
  8
AXE
100
AcDbVertex
100
AcDb2dVertex
 10
254.871248
 20
243.046212
 30
0.0
  0
SEQEND
  5
1A13
100
AcDbEntity
  8
AXE
  0
POLYLINE
  5
1A14
100
AcDbEntity
  8
ALPHA
100
AcDb2dPolyline
 66
     1
 10
0.0
 20
0.0
 30
0.0
  0
VERTEX
  5
1A15
100
AcDbEntity
  8
ALPHA
100
AcDbVertex
100
AcDb2dVertex
 10
242.463595
 20
260.776047
 30
0.0
  0
VERTEX
  5
1A16
100
AcDbEntity
  8
ALPHA
100
AcDbVertex
100
AcDb2dVertex
 10
260.96358
 20
260.776047
 30
0.0
  0
SEQEND
  5
1A17
100
AcDbEntity
  8
ALPHA
  0
POLYLINE
  5
1A18
100
AcDbEntity
  8
ALPHA
100
AcDb2dPolyline
 66
     1
 10
0.0
 20
0.0
 30
0.0
  0
VERTEX
  5
1A19
100
AcDbEntity
  8
ALPHA
100
AcDbVertex
100
AcDb2dVertex
 10
242.463595
 20
301.475032
 30
0.0
  0
VERTEX
  5
1A1A
100
AcDbEntity
  8
ALPHA
100
AcDbVertex
100
AcDb2dVertex
 10
260.96358
 20
301.475032
 30
0.0
  0
VERTEX
  5
1A1B
100
AcDbEntity
  8
ALPHA
100
AcDbVertex
100
AcDb2dVertex
 10
260.96358
 20
227.286606
 30
0.0
  0
SEQEND
  5
1A1C
100
AcDbEntity
  8
ALPHA
  0
POLYLINE
  5
1A1D
100
AcDbEntity
  8
ALPHA
100
AcDb2dPolyline
 66
     1
 10
0.0
 20
0.0
 30
0.0
  0
VERTEX
  5
1A1E
100
AcDbEntity
  8
ALPHA
100
AcDbVertex
100
AcDb2dVertex
 10
242.463737
 20
291.77777
 30
0.0
  0
VERTEX
  5
1A1F
100
AcDbEntity
  8
ALPHA
100
AcDbVertex
100
AcDb2dVertex
 10
250.037452
 20
291.77777
 30
0.0
  0
VERTEX
  5
1A20
100
AcDbEntity
  8
ALPHA
100
AcDbVertex
100
AcDb2dVertex
 10
257.105743
 20
279.534582
 30
0.0
  0
VERTEX
  5
1A21
100
AcDbEntity
  8
ALPHA
100
AcDbVertex
100
AcDb2dVertex
 10
250.037452
 20
267.284691
 30
0.0
  0
VERTEX
  5
1A22
100
AcDbEntity
  8
ALPHA
100
AcDbVertex
100
AcDb2dVertex
 10
242.463737
 20
267.284691
 30
0.0
  0
SEQEND
  5
1A23
100
AcDbEntity
  8
ALPHA
  0
POLYLINE
  5
1A24
100
AcDbEntity
  8
POINTILLE_COURT
100
AcDb2dPolyline
 66
     1
 10
0.0
 20
0.0
 30
0.0
  0
VERTEX
  5
1A25
100
AcDbEntity
  8
POINTILLE_COURT
100
AcDbVertex
100
AcDb2dVertex
 10
248.213626
 20
243.046212
 30
0.0
  0
VERTEX
  5
1A26
100
AcDbEntity
  8
POINTILLE_COURT
100
AcDbVertex
100
AcDb2dVertex
 10
248.18652
 20
242.509415
 30
0.0
  0
VERTEX
  5
1A27
100
AcDbEntity
  8
POINTILLE_COURT
100
AcDbVertex
100
AcDb2dVertex
 10
248.106961
 20
241.988128
 30
0.0
  0
VERTEX
  5
1A28
100
AcDbEntity
  8
POINTILLE_COURT
100
AcDbVertex
100
AcDb2dVertex
 10
247.977589
 20
241.484989
 30
0.0
  0
VERTEX
  5
1A29
100
AcDbEntity
  8
POINTILLE_COURT
100
AcDbVertex
100
AcDb2dVertex
 10
247.801043
 20
241.002636
 30
0.0
  0
VERTEX
  5
1A2A
100
AcDbEntity
  8
POINTILLE_COURT
100
AcDbVertex
100
AcDb2dVertex
 10
247.579962
 20
240.543709
 30
0.0
  0
VERTEX
  5
1A2B
100
AcDbEntity
  8
POINTILLE_COURT
100
AcDbVertex
100
AcDb2dVertex
 10
247.316985
 20
240.110846
 30
0.0
  0
VERTEX
  5
1A2C
100
AcDbEntity
  8
POINTILLE_COURT
100
AcDbVertex
100
AcDb2dVertex
 10
247.014753
 20
239.706685
 30
0.0
  0
VERTEX
  5
1A2D
100
AcDbEntity
  8
POINTILLE_COURT
100
AcDbVertex
100
AcDb2dVertex
 10
246.675903
 20
239.333866
 30
0.0
  0
VERTEX
  5
1A2E
100
AcDbEntity
  8
POINTILLE_COURT
100
AcDbVertex
100
AcDb2dVertex
 10
246.303076
 20
238.995025
 30
0.0
  0
VERTEX
  5
1A2F
100
AcDbEntity
  8
POINTILLE_COURT
100
AcDbVertex
100
AcDb2dVertex
 10
245.898911
 20
238.692803
 30
0.0
  0
VERTEX
  5
1A30
100
AcDbEntity
  8
POINTILLE_COURT
100
AcDbVertex
100
AcDb2dVertex
 10
245.466048
 20
238.429838
 30
0.0
  0
VERTEX
  5
1A31
100
AcDbEntity
  8
POINTILLE_COURT
100
AcDbVertex
100
AcDb2dVertex
 10
245.007124
 20
238.208767
 30
0.0
  0
VERTEX
  5
1A32
100
AcDbEntity
  8
POINTILLE_COURT
100
AcDbVertex
100
AcDb2dVertex
 10
244.524781
 20
238.032231
 30
0.0
  0
VERTEX
  5
1A33
100
AcDbEntity
  8
POINTILLE_COURT
100
AcDbVertex
100
AcDb2dVertex
 10
244.021657
 20
237.902866
 30
0.0
  0
VERTEX
  5
1A34
100
AcDbEntity
  8
POINTILLE_COURT
100
AcDbVertex
100
AcDb2dVertex
 10
243.500391
 20
237.823313
 30
0.0
  0
VERTEX
  5
1A35
100
AcDbEntity
  8
POINTILLE_COURT
100
AcDbVertex
100
AcDb2dVertex
 10
242.963623
 20
237.796209
 30
0.0
  0
VERTEX
  5
1A36
100
AcDbEntity
  8
POINTILLE_COURT
100
AcDbVertex
100
AcDb2dVertex
 10
242.42683
 20
237.823313
 30
0.0
  0
VERTEX
  5
1A37
100
AcDbEntity
  8
POINTILLE_COURT
100
AcDbVertex
100
AcDb2dVertex
 10
241.905542
 20
237.902866
 30
0.0
  0
VERTEX
  5
1A38
100
AcDbEntity
  8
POINTILLE_COURT
100
AcDbVertex
100
AcDb2dVertex
 10
241.402399
 20
238.032231
 30
0.0
  0
VERTEX
  5
1A39
100
AcDbEntity
  8
POINTILLE_COURT
100
AcDbVertex
100
AcDb2dVertex
 10
240.920039
 20
238.208767
 30
0.0
  0
VERTEX
  5
1A3A
100
AcDbEntity
  8
POINTILLE_COURT
100
AcDbVertex
100
AcDb2dVertex
 10
240.461102
 20
238.429838
 30
0.0
  0
VERTEX
  5
1A3B
100
AcDbEntity
  8
POINTILLE_COURT
100
AcDbVertex
100
AcDb2dVertex
 10
240.028227
 20
238.692803
 30
0.0
  0
VERTEX
  5
1A3C
100
AcDbEntity
  8
POINTILLE_COURT
100
AcDbVertex
100
AcDb2dVertex
 10
239.624053
 20
238.995025
 30
0.0
  0
VERTEX
  5
1A3D
100
AcDbEntity
  8
POINTILLE_COURT
100
AcDbVertex
100
AcDb2dVertex
 10
239.251219
 20
239.333866
 30
0.0
  0
VERTEX
  5
1A3E
100
AcDbEntity
  8
POINTILLE_COURT
100
AcDbVertex
100
AcDb2dVertex
 10
238.912363
 20
239.706685
 30
0.0
  0
VERTEX
  5
1A3F
100
AcDbEntity
  8
POINTILLE_COURT
100
AcDbVertex
100
AcDb2dVertex
 10
238.610126
 20
240.110846
 30
0.0
  0
VERTEX
  5
1A40
100
AcDbEntity
  8
POINTILLE_COURT
100
AcDbVertex
100
AcDb2dVertex
 10
238.347147
 20
240.543709
 30
0.0
  0
VERTEX
  5
1A41
100
AcDbEntity
  8
POINTILLE_COURT
100
AcDbVertex
100
AcDb2dVertex
 10
238.126064
 20
241.002636
 30
0.0
  0
VERTEX
  5
1A42
100
AcDbEntity
  8
POINTILLE_COURT
100
AcDbVertex
100
AcDb2dVertex
 10
237.949516
 20
241.484989
 30
0.0
  0
VERTEX
  5
1A43
100
AcDbEntity
  8
POINTILLE_COURT
100
AcDbVertex
100
AcDb2dVertex
 10
237.820143
 20
241.988128
 30
0.0
  0
VERTEX
  5
1A44
100
AcDbEntity
  8
POINTILLE_COURT
100
AcDbVertex
100
AcDb2dVertex
 10
237.740584
 20
242.509415
 30
0.0
  0
VERTEX
  5
1A45
100
AcDbEntity
  8
POINTILLE_COURT
100
AcDbVertex
100
AcDb2dVertex
 10
237.713478
 20
243.046212
 30
0.0
  0
VERTEX
  5
1A46
100
AcDbEntity
  8
POINTILLE_COURT
100
AcDbVertex
100
AcDb2dVertex
 10
237.740584
 20
243.583003
 30
0.0
  0
VERTEX
  5
1A47
100
AcDbEntity
  8
POINTILLE_COURT
100
AcDbVertex
100
AcDb2dVertex
 10
237.820143
 20
244.104285
 30
0.0
  0
VERTEX
  5
1A48
100
AcDbEntity
  8
POINTILLE_COURT
100
AcDbVertex
100
AcDb2dVertex
 10
237.949516
 20
244.60742
 30
0.0
  0
VERTEX
  5
1A49
100
AcDbEntity
  8
POINTILLE_COURT
100
AcDbVertex
100
AcDb2dVertex
 10
238.126064
 20
245.089768
 30
0.0
  0
VERTEX
  5
1A4A
100
AcDbEntity
  8
POINTILLE_COURT
100
AcDbVertex
100
AcDb2dVertex
 10
238.347147
 20
245.548692
 30
0.0
  0
VERTEX
  5
1A4B
100
AcDbEntity
  8
POINTILLE_COURT
100
AcDbVertex
100
AcDb2dVertex
 10
238.610126
 20
245.981552
 30
0.0
  0
VERTEX
  5
1A4C
100
AcDbEntity
  8
POINTILLE_COURT
100
AcDbVertex
100
AcDb2dVertex
 10
238.912363
 20
246.38571
 30
0.0
  0
VERTEX
  5
1A4D
100
AcDbEntity
  8
POINTILLE_COURT
100
AcDbVertex
100
AcDb2dVertex
 10
239.251219
 20
246.758528
 30
0.0
  0
VERTEX
  5
1A4E
100
AcDbEntity
  8
POINTILLE_COURT
100
AcDbVertex
100
AcDb2dVertex
 10
239.624053
 20
247.097367
 30
0.0
  0
VERTEX
  5
1A4F
100
AcDbEntity
  8
POINTILLE_COURT
100
AcDbVertex
100
AcDb2dVertex
 10
240.028227
 20
247.399588
 30
0.0
  0
VERTEX
  5
1A50
100
AcDbEntity
  8
POINTILLE_COURT
100
AcDbVertex
100
AcDb2dVertex
 10
240.461102
 20
247.662553
 30
0.0
  0
VERTEX
  5
1A51
100
AcDbEntity
  8
POINTILLE_COURT
100
AcDbVertex
100
AcDb2dVertex
 10
240.920039
 20
247.883622
 30
0.0
  0
VERTEX
  5
1A52
100
AcDbEntity
  8
POINTILLE_COURT
100
AcDbVertex
100
AcDb2dVertex
 10
241.402399
 20
248.060159
 30
0.0
  0
VERTEX
  5
1A53
100
AcDbEntity
  8
POINTILLE_COURT
100
AcDbVertex
100
AcDb2dVertex
 10
241.905542
 20
248.189523
 30
0.0
  0
VERTEX
  5
1A54
100
AcDbEntity
  8
POINTILLE_COURT
100
AcDbVertex
100
AcDb2dVertex
 10
242.42683
 20
248.269076
 30
0.0
  0
VERTEX
  5
1A55
100
AcDbEntity
  8
POINTILLE_COURT
100
AcDbVertex
100
AcDb2dVertex
 10
242.963623
 20
248.296181
 30
0.0
  0
VERTEX
  5
1A56
100
AcDbEntity
  8
POINTILLE_COURT
100
AcDbVertex
100
AcDb2dVertex
 10
243.500391
 20
248.269076
 30
0.0
  0
VERTEX
  5
1A57
100
AcDbEntity
  8
POINTILLE_COURT
100
AcDbVertex
100
AcDb2dVertex
 10
244.021657
 20
248.189523
 30
0.0
  0
VERTEX
  5
1A58
100
AcDbEntity
  8
POINTILLE_COURT
100
AcDbVertex
100
AcDb2dVertex
 10
244.524781
 20
248.060159
 30
0.0
  0
VERTEX
  5
1A59
100
AcDbEntity
  8
POINTILLE_COURT
100
AcDbVertex
100
AcDb2dVertex
 10
245.007124
 20
247.883622
 30
0.0
  0
VERTEX
  5
1A5A
100
AcDbEntity
  8
POINTILLE_COURT
100
AcDbVertex
100
AcDb2dVertex
 10
245.466048
 20
247.662553
 30
0.0
  0
VERTEX
  5
1A5B
100
AcDbEntity
  8
POINTILLE_COURT
100
AcDbVertex
100
AcDb2dVertex
 10
245.898911
 20
247.399588
 30
0.0
  0
VERTEX
  5
1A5C
100
AcDbEntity
  8
POINTILLE_COURT
100
AcDbVertex
100
AcDb2dVertex
 10
246.303076
 20
247.097367
 30
0.0
  0
VERTEX
  5
1A5D
100
AcDbEntity
  8
POINTILLE_COURT
100
AcDbVertex
100
AcDb2dVertex
 10
246.675903
 20
246.758528
 30
0.0
  0
VERTEX
  5
1A5E
100
AcDbEntity
  8
POINTILLE_COURT
100
AcDbVertex
100
AcDb2dVertex
 10
247.014753
 20
246.38571
 30
0.0
  0
VERTEX
  5
1A5F
100
AcDbEntity
  8
POINTILLE_COURT
100
AcDbVertex
100
AcDb2dVertex
 10
247.316985
 20
245.981552
 30
0.0
  0
VERTEX
  5
1A60
100
AcDbEntity
  8
POINTILLE_COURT
100
AcDbVertex
100
AcDb2dVertex
 10
247.579962
 20
245.548692
 30
0.0
  0
VERTEX
  5
1A61
100
AcDbEntity
  8
POINTILLE_COURT
100
AcDbVertex
100
AcDb2dVertex
 10
247.801043
 20
245.089768
 30
0.0
  0
VERTEX
  5
1A62
100
AcDbEntity
  8
POINTILLE_COURT
100
AcDbVertex
100
AcDb2dVertex
 10
247.977589
 20
244.60742
 30
0.0
  0
VERTEX
  5
1A63
100
AcDbEntity
  8
POINTILLE_COURT
100
AcDbVertex
100
AcDb2dVertex
 10
248.106961
 20
244.104285
 30
0.0
  0
VERTEX
  5
1A64
100
AcDbEntity
  8
POINTILLE_COURT
100
AcDbVertex
100
AcDb2dVertex
 10
248.18652
 20
243.583003
 30
0.0
  0
VERTEX
  5
1A65
100
AcDbEntity
  8
POINTILLE_COURT
100
AcDbVertex
100
AcDb2dVertex
 10
248.213626
 20
243.046212
 30
0.0
  0
SEQEND
  5
1A66
100
AcDbEntity
  8
POINTILLE_COURT
  0
POLYLINE
  5
1A67
100
AcDbEntity
  8
AXE
100
AcDb2dPolyline
 66
     1
 10
0.0
 20
0.0
 30
0.0
  0
VERTEX
  5
1A68
100
AcDbEntity
  8
AXE
100
AcDbVertex
100
AcDb2dVertex
 10
242.963623
 20
230.487958
 30
0.0
  0
VERTEX
  5
1A69
100
AcDbEntity
  8
AXE
100
AcDbVertex
100
AcDb2dVertex
 10
242.963623
 20
254.918525
 30
0.0
  0
SEQEND
  5
1A6A
100
AcDbEntity
  8
AXE
  0
POLYLINE
  5
1A6B
100
AcDbEntity
  8
ALPHA
100
AcDb2dPolyline
 66
     1
 10
0.0
 20
0.0
 30
0.0
  0
VERTEX
  5
1A6C
100
AcDbEntity
  8
ALPHA
100
AcDbVertex
100
AcDb2dVertex
 10
202.615017
 20
187.5984
 30
0.0
  0
VERTEX
  5
1A6D
100
AcDbEntity
  8
ALPHA
100
AcDbVertex
100
AcDb2dVertex
 10
245.112357
 20
187.5984
 30
0.0
  0
VERTEX
  5
1A6E
100
AcDbEntity
  8
ALPHA
100
AcDbVertex
100
AcDb2dVertex
 10
245.112357
 20
198.981375
 30
0.0
  0
VERTEX
  5
1A6F
100
AcDbEntity
  8
ALPHA
100
AcDbVertex
100
AcDb2dVertex
 10
202.615017
 20
198.981375
 30
0.0
  0
VERTEX
  5
1A70
100
AcDbEntity
  8
ALPHA
100
AcDbVertex
100
AcDb2dVertex
 10
202.615017
 20
187.5984
 30
0.0
  0
SEQEND
  5
1A71
100
AcDbEntity
  8
ALPHA
  0
POLYLINE
  5
1A72
100
AcDbEntity
  8
ALPHA
100
AcDb2dPolyline
 66
     1
 10
0.0
 20
0.0
 30
0.0
  0
VERTEX
  5
1A73
100
AcDbEntity
  8
ALPHA
100
AcDbVertex
100
AcDb2dVertex
 10
175.809409
 20
239.288459
 30
0.0
  0
VERTEX
  5
1A74
100
AcDbEntity
  8
ALPHA
100
AcDbVertex
100
AcDb2dVertex
 10
183.308724
 20
239.288459
 30
0.0
  0
SEQEND
  5
1A75
100
AcDbEntity
  8
ALPHA
  0
POLYLINE
  5
1A76
100
AcDbEntity
  8
ALPHA
100
AcDb2dPolyline
 66
     1
 10
0.0
 20
0.0
 30
0.0
  0
VERTEX
  5
1A77
100
AcDbEntity
  8
ALPHA
100
AcDbVertex
100
AcDb2dVertex
 10
196.064675
 20
242.731499
 30
0.0
  0
VERTEX
  5
1A78
100
AcDbEntity
  8
ALPHA
100
AcDbVertex
100
AcDb2dVertex
 10
195.706386
 20
243.395816
 30
0.0
  0
VERTEX
  5
1A79
100
AcDbEntity
  8
ALPHA
100
AcDbVertex
100
AcDb2dVertex
 10
195.260535
 20
243.999098
 30
0.0
  0
VERTEX
  5
1A7A
100
AcDbEntity
  8
ALPHA
100
AcDbVertex
100
AcDb2dVertex
 10
194.735647
 20
244.532856
 30
0.0
  0
VERTEX
  5
1A7B
100
AcDbEntity
  8
ALPHA
100
AcDbVertex
100
AcDb2dVertex
 10
194.140245
 20
244.988602
 30
0.0
  0
VERTEX
  5
1A7C
100
AcDbEntity
  8
ALPHA
100
AcDbVertex
100
AcDb2dVertex
 10
193.482855
 20
245.357848
 30
0.0
  0
VERTEX
  5
1A7D
100
AcDbEntity
  8
ALPHA
100
AcDbVertex
100
AcDb2dVertex
 10
192.772001
 20
245.632105
 30
0.0
  0
VERTEX
  5
1A7E
100
AcDbEntity
  8
ALPHA
100
AcDbVertex
100
AcDb2dVertex
 10
192.016208
 20
245.802884
 30
0.0
  0
VERTEX
  5
1A7F
100
AcDbEntity
  8
ALPHA
100
AcDbVertex
100
AcDb2dVertex
 10
191.223999
 20
245.861696
 30
0.0
  0
VERTEX
  5
1A80
100
AcDbEntity
  8
ALPHA
100
AcDbVertex
100
AcDb2dVertex
 10
190.681926
 20
245.834308
 30
0.0
  0
VERTEX
  5
1A81
100
AcDbEntity
  8
ALPHA
100
AcDbVertex
100
AcDb2dVertex
 10
190.155481
 20
245.753922
 30
0.0
  0
VERTEX
  5
1A82
100
AcDbEntity
  8
ALPHA
100
AcDbVertex
100
AcDb2dVertex
 10
189.647333
 20
245.623204
 30
0.0
  0
VERTEX
  5
1A83
100
AcDbEntity
  8
ALPHA
100
AcDbVertex
100
AcDb2dVertex
 10
189.160152
 20
245.444822
 30
0.0
  0
VERTEX
  5
1A84
100
AcDbEntity
  8
ALPHA
100
AcDbVertex
100
AcDb2dVertex
 10
188.696606
 20
245.221442
 30
0.0
  0
VERTEX
  5
1A85
100
AcDbEntity
  8
ALPHA
100
AcDbVertex
100
AcDb2dVertex
 10
188.259365
 20
244.955731
 30
0.0
  0
VERTEX
  5
1A86
100
AcDbEntity
  8
ALPHA
100
AcDbVertex
100
AcDb2dVertex
 10
187.851098
 20
244.650356
 30
0.0
  0
VERTEX
  5
1A87
100
AcDbEntity
  8
ALPHA
100
AcDbVertex
100
AcDb2dVertex
 10
187.474474
 20
244.307984
 30
0.0
  0
VERTEX
  5
1A88
100
AcDbEntity
  8
ALPHA
100
AcDbVertex
100
AcDb2dVertex
 10
187.132162
 20
243.931281
 30
0.0
  0
VERTEX
  5
1A89
100
AcDbEntity
  8
ALPHA
100
AcDbVertex
100
AcDb2dVertex
 10
186.826832
 20
243.522914
 30
0.0
  0
VERTEX
  5
1A8A
100
AcDbEntity
  8
ALPHA
100
AcDbVertex
100
AcDb2dVertex
 10
186.561153
 20
243.085551
 30
0.0
  0
VERTEX
  5
1A8B
100
AcDbEntity
  8
ALPHA
100
AcDbVertex
100
AcDb2dVertex
 10
186.337793
 20
242.621857
 30
0.0
  0
VERTEX
  5
1A8C
100
AcDbEntity
  8
ALPHA
100
AcDbVertex
100
AcDb2dVertex
 10
186.159423
 20
242.1345
 30
0.0
  0
VERTEX
  5
1A8D
100
AcDbEntity
  8
ALPHA
100
AcDbVertex
100
AcDb2dVertex
 10
186.02871
 20
241.626147
 30
0.0
  0
VERTEX
  5
1A8E
100
AcDbEntity
  8
ALPHA
100
AcDbVertex
100
AcDb2dVertex
 10
185.948326
 20
241.099464
 30
0.0
  0
VERTEX
  5
1A8F
100
AcDbEntity
  8
ALPHA
100
AcDbVertex
100
AcDb2dVertex
 10
185.920938
 20
240.557118
 30
0.0
  0
VERTEX
  5
1A90
100
AcDbEntity
  8
ALPHA
100
AcDbVertex
100
AcDb2dVertex
 10
185.948326
 20
240.014782
 30
0.0
  0
VERTEX
  5
1A91
100
AcDbEntity
  8
ALPHA
100
AcDbVertex
100
AcDb2dVertex
 10
186.02871
 20
239.488186
 30
0.0
  0
VERTEX
  5
1A92
100
AcDbEntity
  8
ALPHA
100
AcDbVertex
100
AcDb2dVertex
 10
186.159423
 20
238.979986
 30
0.0
  0
VERTEX
  5
1A93
100
AcDbEntity
  8
ALPHA
100
AcDbVertex
100
AcDb2dVertex
 10
186.337793
 20
238.492839
 30
0.0
  0
VERTEX
  5
1A94
100
AcDbEntity
  8
ALPHA
100
AcDbVertex
100
AcDb2dVertex
 10
186.561153
 20
238.029401
 30
0.0
  0
VERTEX
  5
1A95
100
AcDbEntity
  8
ALPHA
100
AcDbVertex
100
AcDb2dVertex
 10
186.826832
 20
237.592327
 30
0.0
  0
VERTEX
  5
1A96
100
AcDbEntity
  8
ALPHA
100
AcDbVertex
100
AcDb2dVertex
 10
187.132162
 20
237.184274
 30
0.0
  0
VERTEX
  5
1A97
100
AcDbEntity
  8
ALPHA
100
AcDbVertex
100
AcDb2dVertex
 10
187.474474
 20
236.807897
 30
0.0
  0
VERTEX
  5
1A98
100
AcDbEntity
  8
ALPHA
100
AcDbVertex
100
AcDb2dVertex
 10
187.851098
 20
236.465853
 30
0.0
  0
VERTEX
  5
1A99
100
AcDbEntity
  8
ALPHA
100
AcDbVertex
100
AcDb2dVertex
 10
188.259365
 20
236.160798
 30
0.0
  0
VERTEX
  5
1A9A
100
AcDbEntity
  8
ALPHA
100
AcDbVertex
100
AcDb2dVertex
 10
188.696606
 20
235.895387
 30
0.0
  0
VERTEX
  5
1A9B
100
AcDbEntity
  8
ALPHA
100
AcDbVertex
100
AcDb2dVertex
 10
189.160152
 20
235.672276
 30
0.0
  0
VERTEX
  5
1A9C
100
AcDbEntity
  8
ALPHA
100
AcDbVertex
100
AcDb2dVertex
 10
189.647333
 20
235.494123
 30
0.0
  0
VERTEX
  5
1A9D
100
AcDbEntity
  8
ALPHA
100
AcDbVertex
100
AcDb2dVertex
 10
190.155481
 20
235.363582
 30
0.0
  0
VERTEX
  5
1A9E
100
AcDbEntity
  8
ALPHA
100
AcDbVertex
100
AcDb2dVertex
 10
190.681926
 20
235.283309
 30
0.0
  0
VERTEX
  5
1A9F
100
AcDbEntity
  8
ALPHA
100
AcDbVertex
100
AcDb2dVertex
 10
191.223999
 20
235.255962
 30
0.0
  0
VERTEX
  5
1AA0
100
AcDbEntity
  8
ALPHA
100
AcDbVertex
100
AcDb2dVertex
 10
192.01615
 20
235.314677
 30
0.0
  0
VERTEX
  5
1AA1
100
AcDbEntity
  8
ALPHA
100
AcDbVertex
100
AcDb2dVertex
 10
192.771902
 20
235.48519
 30
0.0
  0
VERTEX
  5
1AA2
100
AcDbEntity
  8
ALPHA
100
AcDbVertex
100
AcDb2dVertex
 10
193.482731
 20
235.759053
 30
0.0
  0
VERTEX
  5
1AA3
100
AcDbEntity
  8
ALPHA
100
AcDbVertex
100
AcDb2dVertex
 10
194.140113
 20
236.127817
 30
0.0
  0
VERTEX
  5
1AA4
100
AcDbEntity
  8
ALPHA
100
AcDbVertex
100
AcDb2dVertex
 10
194.735523
 20
236.583033
 30
0.0
  0
VERTEX
  5
1AA5
100
AcDbEntity
  8
ALPHA
100
AcDbVertex
100
AcDb2dVertex
 10
195.260436
 20
237.116254
 30
0.0
  0
VERTEX
  5
1AA6
100
AcDbEntity
  8
ALPHA
100
AcDbVertex
100
AcDb2dVertex
 10
195.706328
 20
237.71903
 30
0.0
  0
VERTEX
  5
1AA7
100
AcDbEntity
  8
ALPHA
100
AcDbVertex
100
AcDb2dVertex
 10
196.064675
 20
238.382913
 30
0.0
  0
SEQEND
  5
1AA8
100
AcDbEntity
  8
ALPHA
  0
POLYLINE
  5
1AA9
100
AcDbEntity
  8
AXE
100
AcDb2dPolyline
 66
     1
 10
0.0
 20
0.0
 30
0.0
  0
VERTEX
  5
1AAA
100
AcDbEntity
  8
AXE
100
AcDbVertex
100
AcDb2dVertex
 10
236.994164
 20
285.049663
 30
0.0
  0
VERTEX
  5
1AAB
100
AcDbEntity
  8
AXE
100
AcDbVertex
100
AcDb2dVertex
 10
204.730132
 20
285.049663
 30
0.0
  0
SEQEND
  5
1AAC
100
AcDbEntity
  8
AXE
  0
POLYLINE
  5
1AAD
100
AcDbEntity
  8
ALPHA
100
AcDb2dPolyline
 66
     1
 10
0.0
 20
0.0
 30
0.0
  0
VERTEX
  5
1AAE
100
AcDbEntity
  8
ALPHA
100
AcDbVertex
100
AcDb2dVertex
 10
215.395309
 20
297.292851
 30
0.0
  0
VERTEX
  5
1AAF
100
AcDbEntity
  8
ALPHA
100
AcDbVertex
100
AcDb2dVertex
 10
229.538453
 20
297.292851
 30
0.0
  0
VERTEX
  5
1AB0
100
AcDbEntity
  8
ALPHA
100
AcDbVertex
100
AcDb2dVertex
 10
236.606743
 20
285.049663
 30
0.0
  0
VERTEX
  5
1AB1
100
AcDbEntity
  8
ALPHA
100
AcDbVertex
100
AcDb2dVertex
 10
229.538453
 20
272.799772
 30
0.0
  0
VERTEX
  5
1AB2
100
AcDbEntity
  8
ALPHA
100
AcDbVertex
100
AcDb2dVertex
 10
215.395309
 20
272.799772
 30
0.0
  0
VERTEX
  5
1AB3
100
AcDbEntity
  8
ALPHA
100
AcDbVertex
100
AcDb2dVertex
 10
208.323879
 20
285.049663
 30
0.0
  0
VERTEX
  5
1AB4
100
AcDbEntity
  8
ALPHA
100
AcDbVertex
100
AcDb2dVertex
 10
215.395309
 20
297.292851
 30
0.0
  0
SEQEND
  5
1AB5
100
AcDbEntity
  8
ALPHA
  0
POLYLINE
  5
1AB6
100
AcDbEntity
  8
ALPHA
100
AcDb2dPolyline
 66
     1
 10
0.0
 20
0.0
 30
0.0
  0
VERTEX
  5
1AB7
100
AcDbEntity
  8
ALPHA
100
AcDbVertex
100
AcDb2dVertex
 10
222.4636
 20
277.582769
 30
0.0
  0
VERTEX
  5
1AB8
100
AcDbEntity
  8
ALPHA
100
AcDbVertex
100
AcDb2dVertex
 10
223.226753
 20
277.621266
 30
0.0
  0
VERTEX
  5
1AB9
100
AcDbEntity
  8
ALPHA
100
AcDbVertex
100
AcDb2dVertex
 10
223.967927
 20
277.734262
 30
0.0
  0
VERTEX
  5
1ABA
100
AcDbEntity
  8
ALPHA
100
AcDbVertex
100
AcDb2dVertex
 10
224.683363
 20
277.918015
 30
0.0
  0
VERTEX
  5
1ABB
100
AcDbEntity
  8
ALPHA
100
AcDbVertex
100
AcDb2dVertex
 10
225.3693
 20
278.168783
 30
0.0
  0
VERTEX
  5
1ABC
100
AcDbEntity
  8
ALPHA
100
AcDbVertex
100
AcDb2dVertex
 10
226.021975
 20
278.482823
 30
0.0
  0
VERTEX
  5
1ABD
100
AcDbEntity
  8
ALPHA
100
AcDbVertex
100
AcDb2dVertex
 10
226.637628
 20
278.856393
 30
0.0
  0
VERTEX
  5
1ABE
100
AcDbEntity
  8
ALPHA
100
AcDbVertex
100
AcDb2dVertex
 10
227.212497
 20
279.285752
 30
0.0
  0
VERTEX
  5
1ABF
100
AcDbEntity
  8
ALPHA
100
AcDbVertex
100
AcDb2dVertex
 10
227.742823
 20
279.767155
 30
0.0
  0
VERTEX
  5
1AC0
100
AcDbEntity
  8
ALPHA
100
AcDbVertex
100
AcDb2dVertex
 10
228.224842
 20
280.296863
 30
0.0
  0
VERTEX
  5
1AC1
100
AcDbEntity
  8
ALPHA
100
AcDbVertex
100
AcDb2dVertex
 10
228.654796
 20
280.871131
 30
0.0
  0
VERTEX
  5
1AC2
100
AcDbEntity
  8
ALPHA
100
AcDbVertex
100
AcDb2dVertex
 10
229.028921
 20
281.486219
 30
0.0
  0
VERTEX
  5
1AC3
100
AcDbEntity
  8
ALPHA
100
AcDbVertex
100
AcDb2dVertex
 10
229.343458
 20
282.138383
 30
0.0
  0
VERTEX
  5
1AC4
100
AcDbEntity
  8
ALPHA
100
AcDbVertex
100
AcDb2dVertex
 10
229.594645
 20
282.823881
 30
0.0
  0
VERTEX
  5
1AC5
100
AcDbEntity
  8
ALPHA
100
AcDbVertex
100
AcDb2dVertex
 10
229.778721
 20
283.538972
 30
0.0
  0
VERTEX
  5
1AC6
100
AcDbEntity
  8
ALPHA
100
AcDbVertex
100
AcDb2dVertex
 10
229.891924
 20
284.279912
 30
0.0
  0
VERTEX
  5
1AC7
100
AcDbEntity
  8
ALPHA
100
AcDbVertex
100
AcDb2dVertex
 10
229.930495
 20
285.04296
 30
0.0
  0
VERTEX
  5
1AC8
100
AcDbEntity
  8
ALPHA
100
AcDbVertex
100
AcDb2dVertex
 10
229.891924
 20
285.806648
 30
0.0
  0
VERTEX
  5
1AC9
100
AcDbEntity
  8
ALPHA
100
AcDbVertex
100
AcDb2dVertex
 10
229.778721
 20
286.548219
 30
0.0
  0
VERTEX
  5
1ACA
100
AcDbEntity
  8
ALPHA
100
AcDbVertex
100
AcDb2dVertex
 10
229.594645
 20
287.263929
 30
0.0
  0
VERTEX
  5
1ACB
100
AcDbEntity
  8
ALPHA
100
AcDbVertex
100
AcDb2dVertex
 10
229.343458
 20
287.950029
 30
0.0
  0
VERTEX
  5
1ACC
100
AcDbEntity
  8
ALPHA
100
AcDbVertex
100
AcDb2dVertex
 10
229.028921
 20
288.602773
 30
0.0
  0
VERTEX
  5
1ACD
100
AcDbEntity
  8
ALPHA
100
AcDbVertex
100
AcDb2dVertex
 10
228.654796
 20
289.218414
 30
0.0
  0
VERTEX
  5
1ACE
100
AcDbEntity
  8
ALPHA
100
AcDbVertex
100
AcDb2dVertex
 10
228.224842
 20
289.793205
 30
0.0
  0
VERTEX
  5
1ACF
100
AcDbEntity
  8
ALPHA
100
AcDbVertex
100
AcDb2dVertex
 10
227.742823
 20
290.3234
 30
0.0
  0
VERTEX
  5
1AD0
100
AcDbEntity
  8
ALPHA
100
AcDbVertex
100
AcDb2dVertex
 10
227.212497
 20
290.805251
 30
0.0
  0
VERTEX
  5
1AD1
100
AcDbEntity
  8
ALPHA
100
AcDbVertex
100
AcDb2dVertex
 10
226.637628
 20
291.235012
 30
0.0
  0
VERTEX
  5
1AD2
100
AcDbEntity
  8
ALPHA
100
AcDbVertex
100
AcDb2dVertex
 10
226.021975
 20
291.608935
 30
0.0
  0
VERTEX
  5
1AD3
100
AcDbEntity
  8
ALPHA
100
AcDbVertex
100
AcDb2dVertex
 10
225.3693
 20
291.923275
 30
0.0
  0
VERTEX
  5
1AD4
100
AcDbEntity
  8
ALPHA
100
AcDbVertex
100
AcDb2dVertex
 10
224.683363
 20
292.174283
 30
0.0
  0
VERTEX
  5
1AD5
100
AcDbEntity
  8
ALPHA
100
AcDbVertex
100
AcDb2dVertex
 10
223.967927
 20
292.358214
 30
0.0
  0
VERTEX
  5
1AD6
100
AcDbEntity
  8
ALPHA
100
AcDbVertex
100
AcDb2dVertex
 10
223.226753
 20
292.47132
 30
0.0
  0
VERTEX
  5
1AD7
100
AcDbEntity
  8
ALPHA
100
AcDbVertex
100
AcDb2dVertex
 10
222.4636
 20
292.509855
 30
0.0
  0
VERTEX
  5
1AD8
100
AcDbEntity
  8
ALPHA
100
AcDbVertex
100
AcDb2dVertex
 10
221.699916
 20
292.47132
 30
0.0
  0
VERTEX
  5
1AD9
100
AcDbEntity
  8
ALPHA
100
AcDbVertex
100
AcDb2dVertex
 10
220.958427
 20
292.358214
 30
0.0
  0
VERTEX
  5
1ADA
100
AcDbEntity
  8
ALPHA
100
AcDbVertex
100
AcDb2dVertex
 10
220.242869
 20
292.174283
 30
0.0
  0
VERTEX
  5
1ADB
100
AcDbEntity
  8
ALPHA
100
AcDbVertex
100
AcDb2dVertex
 10
219.556977
 20
291.923275
 30
0.0
  0
VERTEX
  5
1ADC
100
AcDbEntity
  8
ALPHA
100
AcDbVertex
100
AcDb2dVertex
 10
218.904487
 20
291.608935
 30
0.0
  0
VERTEX
  5
1ADD
100
AcDbEntity
  8
ALPHA
100
AcDbVertex
100
AcDb2dVertex
 10
218.289136
 20
291.235012
 30
0.0
  0
VERTEX
  5
1ADE
100
AcDbEntity
  8
ALPHA
100
AcDbVertex
100
AcDb2dVertex
 10
217.714659
 20
290.805251
 30
0.0
  0
VERTEX
  5
1ADF
100
AcDbEntity
  8
ALPHA
100
AcDbVertex
100
AcDb2dVertex
 10
217.184792
 20
290.3234
 30
0.0
  0
VERTEX
  5
1AE0
100
AcDbEntity
  8
ALPHA
100
AcDbVertex
100
AcDb2dVertex
 10
216.703271
 20
289.793205
 30
0.0
  0
VERTEX
  5
1AE1
100
AcDbEntity
  8
ALPHA
100
AcDbVertex
100
AcDb2dVertex
 10
216.273832
 20
289.218414
 30
0.0
  0
VERTEX
  5
1AE2
100
AcDbEntity
  8
ALPHA
100
AcDbVertex
100
AcDb2dVertex
 10
215.900211
 20
288.602773
 30
0.0
  0
VERTEX
  5
1AE3
100
AcDbEntity
  8
ALPHA
100
AcDbVertex
100
AcDb2dVertex
 10
215.586143
 20
287.950029
 30
0.0
  0
VERTEX
  5
1AE4
100
AcDbEntity
  8
ALPHA
100
AcDbVertex
100
AcDb2dVertex
 10
215.335365
 20
287.263929
 30
0.0
  0
VERTEX
  5
1AE5
100
AcDbEntity
  8
ALPHA
100
AcDbVertex
100
AcDb2dVertex
 10
215.151613
 20
286.548219
 30
0.0
  0
VERTEX
  5
1AE6
100
AcDbEntity
  8
ALPHA
100
AcDbVertex
100
AcDb2dVertex
 10
215.038622
 20
285.806648
 30
0.0
  0
VERTEX
  5
1AE7
100
AcDbEntity
  8
ALPHA
100
AcDbVertex
100
AcDb2dVertex
 10
215.000128
 20
285.04296
 30
0.0
  0
VERTEX
  5
1AE8
100
AcDbEntity
  8
ALPHA
100
AcDbVertex
100
AcDb2dVertex
 10
215.038622
 20
284.279912
 30
0.0
  0
VERTEX
  5
1AE9
100
AcDbEntity
  8
ALPHA
100
AcDbVertex
100
AcDb2dVertex
 10
215.151613
 20
283.538972
 30
0.0
  0
VERTEX
  5
1AEA
100
AcDbEntity
  8
ALPHA
100
AcDbVertex
100
AcDb2dVertex
 10
215.335365
 20
282.823881
 30
0.0
  0
VERTEX
  5
1AEB
100
AcDbEntity
  8
ALPHA
100
AcDbVertex
100
AcDb2dVertex
 10
215.586143
 20
282.138383
 30
0.0
  0
VERTEX
  5
1AEC
100
AcDbEntity
  8
ALPHA
100
AcDbVertex
100
AcDb2dVertex
 10
215.900211
 20
281.486219
 30
0.0
  0
VERTEX
  5
1AED
100
AcDbEntity
  8
ALPHA
100
AcDbVertex
100
AcDb2dVertex
 10
216.273832
 20
280.871131
 30
0.0
  0
VERTEX
  5
1AEE
100
AcDbEntity
  8
ALPHA
100
AcDbVertex
100
AcDb2dVertex
 10
216.703271
 20
280.296863
 30
0.0
  0
VERTEX
  5
1AEF
100
AcDbEntity
  8
ALPHA
100
AcDbVertex
100
AcDb2dVertex
 10
217.184792
 20
279.767155
 30
0.0
  0
VERTEX
  5
1AF0
100
AcDbEntity
  8
ALPHA
100
AcDbVertex
100
AcDb2dVertex
 10
217.714659
 20
279.285752
 30
0.0
  0
VERTEX
  5
1AF1
100
AcDbEntity
  8
ALPHA
100
AcDbVertex
100
AcDb2dVertex
 10
218.289136
 20
278.856393
 30
0.0
  0
VERTEX
  5
1AF2
100
AcDbEntity
  8
ALPHA
100
AcDbVertex
100
AcDb2dVertex
 10
218.904487
 20
278.482823
 30
0.0
  0
VERTEX
  5
1AF3
100
AcDbEntity
  8
ALPHA
100
AcDbVertex
100
AcDb2dVertex
 10
219.556977
 20
278.168783
 30
0.0
  0
VERTEX
  5
1AF4
100
AcDbEntity
  8
ALPHA
100
AcDbVertex
100
AcDb2dVertex
 10
220.242869
 20
277.918015
 30
0.0
  0
VERTEX
  5
1AF5
100
AcDbEntity
  8
ALPHA
100
AcDbVertex
100
AcDb2dVertex
 10
220.958427
 20
277.734262
 30
0.0
  0
VERTEX
  5
1AF6
100
AcDbEntity
  8
ALPHA
100
AcDbVertex
100
AcDb2dVertex
 10
221.699916
 20
277.621266
 30
0.0
  0
VERTEX
  5
1AF7
100
AcDbEntity
  8
ALPHA
100
AcDbVertex
100
AcDb2dVertex
 10
222.4636
 20
277.582769
 30
0.0
  0
SEQEND
  5
1AF8
100
AcDbEntity
  8
ALPHA
  0
POLYLINE
  5
1AF9
100
AcDbEntity
  8
ALPHA
100
AcDb2dPolyline
 66
     1
 10
0.0
 20
0.0
 30
0.0
  0
VERTEX
  5
1AFA
100
AcDbEntity
  8
ALPHA
100
AcDbVertex
100
AcDb2dVertex
 10
242.463595
 20
272.084057
 30
0.0
  0
VERTEX
  5
1AFB
100
AcDbEntity
  8
ALPHA
100
AcDbVertex
100
AcDb2dVertex
 10
242.9626
 20
272.067688
 30
0.0
  0
VERTEX
  5
1AFC
100
AcDbEntity
  8
ALPHA
100
AcDbVertex
100
AcDb2dVertex
 10
243.725752
 20
272.106185
 30
0.0
  0
VERTEX
  5
1AFD
100
AcDbEntity
  8
ALPHA
100
AcDbVertex
100
AcDb2dVertex
 10
244.466927
 20
272.219181
 30
0.0
  0
VERTEX
  5
1AFE
100
AcDbEntity
  8
ALPHA
100
AcDbVertex
100
AcDb2dVertex
 10
245.182363
 20
272.402934
 30
0.0
  0
VERTEX
  5
1AFF
100
AcDbEntity
  8
ALPHA
100
AcDbVertex
100
AcDb2dVertex
 10
245.868299
 20
272.653702
 30
0.0
  0
VERTEX
  5
1B00
100
AcDbEntity
  8
ALPHA
100
AcDbVertex
100
AcDb2dVertex
 10
246.520974
 20
272.967742
 30
0.0
  0
VERTEX
  5
1B01
100
AcDbEntity
  8
ALPHA
100
AcDbVertex
100
AcDb2dVertex
 10
247.136627
 20
273.341312
 30
0.0
  0
VERTEX
  5
1B02
100
AcDbEntity
  8
ALPHA
100
AcDbVertex
100
AcDb2dVertex
 10
247.711497
 20
273.770671
 30
0.0
  0
VERTEX
  5
1B03
100
AcDbEntity
  8
ALPHA
100
AcDbVertex
100
AcDb2dVertex
 10
248.241822
 20
274.252075
 30
0.0
  0
VERTEX
  5
1B04
100
AcDbEntity
  8
ALPHA
100
AcDbVertex
100
AcDb2dVertex
 10
248.723842
 20
274.781782
 30
0.0
  0
VERTEX
  5
1B05
100
AcDbEntity
  8
ALPHA
100
AcDbVertex
100
AcDb2dVertex
 10
249.153795
 20
275.35605
 30
0.0
  0
VERTEX
  5
1B06
100
AcDbEntity
  8
ALPHA
100
AcDbVertex
100
AcDb2dVertex
 10
249.527921
 20
275.971138
 30
0.0
  0
VERTEX
  5
1B07
100
AcDbEntity
  8
ALPHA
100
AcDbVertex
100
AcDb2dVertex
 10
249.842457
 20
276.623302
 30
0.0
  0
VERTEX
  5
1B08
100
AcDbEntity
  8
ALPHA
100
AcDbVertex
100
AcDb2dVertex
 10
250.093644
 20
277.3088
 30
0.0
  0
VERTEX
  5
1B09
100
AcDbEntity
  8
ALPHA
100
AcDbVertex
100
AcDb2dVertex
 10
250.27772
 20
278.023891
 30
0.0
  0
VERTEX
  5
1B0A
100
AcDbEntity
  8
ALPHA
100
AcDbVertex
100
AcDb2dVertex
 10
250.390924
 20
278.764831
 30
0.0
  0
VERTEX
  5
1B0B
100
AcDbEntity
  8
ALPHA
100
AcDbVertex
100
AcDb2dVertex
 10
250.429494
 20
279.52788
 30
0.0
  0
VERTEX
  5
1B0C
100
AcDbEntity
  8
ALPHA
100
AcDbVertex
100
AcDb2dVertex
 10
250.390924
 20
280.291567
 30
0.0
  0
VERTEX
  5
1B0D
100
AcDbEntity
  8
ALPHA
100
AcDbVertex
100
AcDb2dVertex
 10
250.27772
 20
281.033139
 30
0.0
  0
VERTEX
  5
1B0E
100
AcDbEntity
  8
ALPHA
100
AcDbVertex
100
AcDb2dVertex
 10
250.093644
 20
281.748848
 30
0.0
  0
VERTEX
  5
1B0F
100
AcDbEntity
  8
ALPHA
100
AcDbVertex
100
AcDb2dVertex
 10
249.842457
 20
282.434948
 30
0.0
  0
VERTEX
  5
1B10
100
AcDbEntity
  8
ALPHA
100
AcDbVertex
100
AcDb2dVertex
 10
249.527921
 20
283.087692
 30
0.0
  0
VERTEX
  5
1B11
100
AcDbEntity
  8
ALPHA
100
AcDbVertex
100
AcDb2dVertex
 10
249.153795
 20
283.703333
 30
0.0
  0
VERTEX
  5
1B12
100
AcDbEntity
  8
ALPHA
100
AcDbVertex
100
AcDb2dVertex
 10
248.723842
 20
284.278124
 30
0.0
  0
VERTEX
  5
1B13
100
AcDbEntity
  8
ALPHA
100
AcDbVertex
100
AcDb2dVertex
 10
248.241822
 20
284.808319
 30
0.0
  0
VERTEX
  5
1B14
100
AcDbEntity
  8
ALPHA
100
AcDbVertex
100
AcDb2dVertex
 10
247.711497
 20
285.29017
 30
0.0
  0
VERTEX
  5
1B15
100
AcDbEntity
  8
ALPHA
100
AcDbVertex
100
AcDb2dVertex
 10
247.136627
 20
285.719931
 30
0.0
  0
VERTEX
  5
1B16
100
AcDbEntity
  8
ALPHA
100
AcDbVertex
100
AcDb2dVertex
 10
246.520974
 20
286.093854
 30
0.0
  0
VERTEX
  5
1B17
100
AcDbEntity
  8
ALPHA
100
AcDbVertex
100
AcDb2dVertex
 10
245.868299
 20
286.408194
 30
0.0
  0
VERTEX
  5
1B18
100
AcDbEntity
  8
ALPHA
100
AcDbVertex
100
AcDb2dVertex
 10
245.182363
 20
286.659202
 30
0.0
  0
VERTEX
  5
1B19
100
AcDbEntity
  8
ALPHA
100
AcDbVertex
100
AcDb2dVertex
 10
244.466927
 20
286.843133
 30
0.0
  0
VERTEX
  5
1B1A
100
AcDbEntity
  8
ALPHA
100
AcDbVertex
100
AcDb2dVertex
 10
243.725752
 20
286.956239
 30
0.0
  0
VERTEX
  5
1B1B
100
AcDbEntity
  8
ALPHA
100
AcDbVertex
100
AcDb2dVertex
 10
242.9626
 20
286.994774
 30
0.0
  0
VERTEX
  5
1B1C
100
AcDbEntity
  8
ALPHA
100
AcDbVertex
100
AcDb2dVertex
 10
242.463595
 20
286.978405
 30
0.0
  0
SEQEND
  5
1B1D
100
AcDbEntity
  8
ALPHA
  0
POLYLINE
  5
1B1E
100
AcDbEntity
  8
ALPHA
100
AcDb2dPolyline
 66
     1
 10
0.0
 20
0.0
 30
0.0
  0
VERTEX
  5
1B1F
100
AcDbEntity
  8
ALPHA
100
AcDbVertex
100
AcDb2dVertex
 10
255.809355
 20
201.036694
 30
0.0
  0
VERTEX
  5
1B20
100
AcDbEntity
  8
ALPHA
100
AcDbVertex
100
AcDb2dVertex
 10
311.463683
 20
201.036694
 30
0.0
  0
SEQEND
  5
1B21
100
AcDbEntity
  8
ALPHA
  0
POLYLINE
  5
1B22
100
AcDbEntity
  8
ALPHA
100
AcDb2dPolyline
 66
     1
 10
0.0
 20
0.0
 30
0.0
  0
VERTEX
  5
1B23
100
AcDbEntity
  8
ALPHA
100
AcDbVertex
100
AcDb2dVertex
 10
255.809355
 20
191.208199
 30
0.0
  0
VERTEX
  5
1B24
100
AcDbEntity
  8
ALPHA
100
AcDbVertex
100
AcDb2dVertex
 10
311.463683
 20
191.208199
 30
0.0
  0
SEQEND
  5
1B25
100
AcDbEntity
  8
ALPHA
  0
POLYLINE
  5
1B26
100
AcDbEntity
  8
ALPHA
100
AcDb2dPolyline
 66
     1
 10
0.0
 20
0.0
 30
0.0
  0
VERTEX
  5
1B27
100
AcDbEntity
  8
ALPHA
100
AcDbVertex
100
AcDb2dVertex
 10
255.809355
 20
177.317574
 30
0.0
  0
VERTEX
  5
1B28
100
AcDbEntity
  8
ALPHA
100
AcDbVertex
100
AcDb2dVertex
 10
311.463683
 20
177.317574
 30
0.0
  0
SEQEND
  5
1B29
100
AcDbEntity
  8
ALPHA
  0
POLYLINE
  5
1B2A
100
AcDbEntity
  8
ALPHA
100
AcDb2dPolyline
 66
     1
 10
0.0
 20
0.0
 30
0.0
  0
VERTEX
  5
1B2B
100
AcDbEntity
  8
ALPHA
100
AcDbVertex
100
AcDb2dVertex
 10
255.809355
 20
167.492501
 30
0.0
  0
VERTEX
  5
1B2C
100
AcDbEntity
  8
ALPHA
100
AcDbVertex
100
AcDb2dVertex
 10
311.463683
 20
167.492501
 30
0.0
  0
SEQEND
  5
1B2D
100
AcDbEntity
  8
ALPHA
  0
POLYLINE
  5
1B2E
100
AcDbEntity
  8
ALPHA
100
AcDb2dPolyline
 66
     1
 10
0.0
 20
0.0
 30
0.0
  0
VERTEX
  5
1B2F
100
AcDbEntity
  8
ALPHA
100
AcDbVertex
100
AcDb2dVertex
 10
274.303483
 20
180.62917
 30
0.0
  0
VERTEX
  5
1B30
100
AcDbEntity
  8
ALPHA
100
AcDbVertex
100
AcDb2dVertex
 10
287.041548
 20
180.62917
 30
0.0
  0
VERTEX
  5
1B31
100
AcDbEntity
  8
ALPHA
100
AcDbVertex
100
AcDb2dVertex
 10
287.041548
 20
188.408202
 30
0.0
  0
VERTEX
  5
1B32
100
AcDbEntity
  8
ALPHA
100
AcDbVertex
100
AcDb2dVertex
 10
274.303483
 20
188.408202
 30
0.0
  0
VERTEX
  5
1B33
100
AcDbEntity
  8
ALPHA
100
AcDbVertex
100
AcDb2dVertex
 10
274.303483
 20
180.62917
 30
0.0
  0
SEQEND
  5
1B34
100
AcDbEntity
  8
ALPHA
  0
DIMENSION
  5
1B47
100
AcDbEntity
  8
COTATION1
100
AcDbDimension
  2
*D7
 10
62.463638
 20
-7.729985
 30
0.0
 11
32.46361
 21
-5.479985
 31
0.0
 70
    32
  3
SC_STAND
100
AcDbAlignedDimension
 13
2.463582
 23
193.61372
 33
0.0
 14
62.463638
 24
4.61733
 34
0.0
100
AcDbRotatedDimension
  0
DIMENSION
  5
1B5F
100
AcDbEntity
  8
COTATION1
100
AcDbDimension
  2
*D8
 10
142.463654
 20
-7.729985
 30
0.0
 11
102.463646
 21
-5.479985
 31
0.0
 70
    32
  3
SC_STAND
100
AcDbAlignedDimension
 13
62.463638
 23
-1.677578
 33
0.0
 14
142.463654
 24
4.089362
 34
0.0
100
AcDbRotatedDimension
  0
DIMENSION
  5
1B77
100
AcDbEntity
  8
COTATION1
100
AcDbDimension
  2
*D9
 10
222.4636
 20
-7.729985
 30
0.0
 11
182.463627
 21
-5.479985
 31
0.0
 70
    32
  3
SC_STAND
100
AcDbAlignedDimension
 13
142.463654
 23
1.046336
 33
0.0
 14
222.4636
 24
4.089362
 34
0.0
100
AcDbRotatedDimension
  0
DIMENSION
  5
1B8F
100
AcDbEntity
  8
COTATION1
100
AcDbDimension
  2
*D10
 10
311.463683
 20
-7.729985
 30
0.0
 11
266.963642
 21
-5.479985
 31
0.0
 70
    32
  3
SC_STAND
100
AcDbAlignedDimension
 13
222.4636
 23
-1.941561
 33
0.0
 14
311.463683
 24
95.619356
 34
0.0
100
AcDbRotatedDimension
  0
DIMENSION
  5
1BBD
100
AcDbEntity
  8
COTATION1
100
AcDbDimension
  2
*D11
 10
2.463582
 20
42.949776
 30
0.0
 11
32.713588
 21
45.199776
 31
0.0
 70
    32
  3
SC_STAND
100
AcDbAlignedDimension
 13
62.963595
 23
51.173836
 33
0.0
 14
2.463582
 24
69.623428
 34
0.0
100
AcDbRotatedDimension
  0
DIMENSION
  5
1BCA
100
AcDbEntity
  8
COTATION1
100
AcDbDimension
  2
*D12
 10
242.963623
 20
42.949776
 30
0.0
 11
152.963609
 21
45.199776
 31
0.0
 70
    32
  3
SC_STAND
100
AcDbAlignedDimension
 13
62.963595
 23
51.111336
 33
0.0
 14
242.963623
 24
52.878635
 34
0.0
100
AcDbRotatedDimension
  0
DIMENSION
  5
1BE2
100
AcDbEntity
  8
COTATION1
100
AcDbDimension
  2
*D13
 10
311.463683
 20
42.769776
 30
0.0
 11
277.213653
 21
45.019776
 31
0.0
 70
    32
  3
SC_STAND
100
AcDbAlignedDimension
 13
242.963623
 23
44.968897
 33
0.0
 14
311.463683
 24
73.643135
 34
0.0
100
AcDbRotatedDimension
  0
DIMENSION
  5
1BFA
100
AcDbEntity
  8
COTATION1
100
AcDbDimension
  2
*D14
 10
-23.833367
 20
63.046149
 30
0.0
 11
-26.083367
 21
32.046243
 31
0.0
 70
    32
  1
=
  3
SC_STAND
100
AcDbAlignedDimension
 13
42.463643
 23
1.046336
 33
0.0
 14
51.055969
 24
63.046149
 34
0.0
 50
90.0
100
AcDbRotatedDimension
  0
DIMENSION
  5
1C14
100
AcDbEntity
  8
COTATION1
100
AcDbDimension
  2
*D15
 10
-23.833367
 20
243.046212
 30
0.0
 11
-26.083367
 21
274.046207
 31
0.0
 70
    32
  1
=
  3
SC_STAND
100
AcDbAlignedDimension
 13
42.463643
 23
305.046201
 33
0.0
 14
51.055969
 24
243.046212
 34
0.0
 50
90.0
100
AcDbRotatedDimension
  0
DIMENSION
  5
1C21
100
AcDbEntity
  8
COTATION1
100
AcDbDimension
  2
*D16
 10
-23.833367
 20
63.046149
 30
0.0
 11
-26.083367
 21
153.046181
 31
0.0
 70
    32
  3
SC_STAND
100
AcDbAlignedDimension
 13
-3.964095
 23
243.046212
 33
0.0
 14
51.055969
 24
63.046149
 34
0.0
 50
90.0
100
AcDbRotatedDimension
  0
LEADER
  5
1C43
100
AcDbEntity
  8
COTATION1
100
AcDbLeader
  3
SC_STAND
 73
     0
 75
     1
 40
2.5
 41
13.75
 76
     3
 10
58.61261
 20
245.98461
 30
0.0
 10
39.239156
 20
258.1127
 30
0.0
 10
36.239156
 20
258.1127
 30
0.0
 77
   256
340
1C44
  0
MTEXT
  5
1C44
102
{ACAD_REACTORS
330
1C43
102
}
100
AcDbEntity
  8
COTATION1
100
AcDbMText
 10
35.239156
 20
260.3627
 30
0.0
 40
2.5
 41
0.0
 71
     6
 72
     1
  1
\A1;4x%%c10.5
  0
DIMENSION
  5
1C67
100
AcDbEntity
  8
COTATION1
100
AcDbDimension
  2
*D17
 10
324.823779
 20
21.049577
 30
0.0
 11
322.573779
 21
153.04962
 31
0.0
 70
    32
  3
SC_STAND
100
AcDbAlignedDimension
 13
236.994164
 23
285.049663
 33
0.0
 14
236.994164
 24
21.049577
 34
0.0
 50
90.0
100
AcDbRotatedDimension
  0
DIMENSION
  5
1CF8
100
AcDbEntity
  8
COTATION1
100
AcDbDimension
  2
*D18
 10
311.463683
 20
-21.625274
 30
0.0
 11
156.963632
 21
-19.375274
 31
0.0
 70
    32
  3
SC_STAND
100
AcDbAlignedDimension
 13
2.463582
 23
14.973457
 33
0.0
 14
311.463683
 24
14.973457
 34
0.0
100
AcDbRotatedDimension
  0
LEADER
  5
1CF9
100
AcDbEntity
  8
COTATION1
100
AcDbLeader
  3
SC_STAND
 73
     0
 74
     0
 75
     1
 40
2.5
 41
18.333333
 76
     3
 10
229.343458
 20
18.149226
 30
0.0
 10
251.860024
 20
7.022023
 30
0.0
 10
254.860024
 20
7.022023
 30
0.0
 77
   256
340
1CFA
  0
MTEXT
  5
1CFA
102
{ACAD_REACTORS
330
1CF9
102
}
100
AcDbEntity
  8
COTATION1
100
AcDbMText
 10
255.860024
 20
9.272023
 30
0.0
 40
2.5
 41
0.0
 71
     4
 72
     1
  1
\A1;6xM12x45
  0
ENDSEC
  0
SECTION
  2
OBJECTS
  0
DICTIONARY
  5
F8
100
AcDbDictionary
  3
ACAD_GROUP
350
F9
  3
ACAD_MLINESTYLE
350
106
  3
ACDBVARIABLEDICTIONARY
350
143
  0
DICTIONARY
  5
F9
102
{ACAD_REACTORS
330
F8
102
}
100
AcDbDictionary
  0
DICTIONARY
  5
106
102
{ACAD_REACTORS
330
F8
102
}
100
AcDbDictionary
  3
STANDARD
350
107
  0
DICTIONARY
  5
143
102
{ACAD_REACTORS
330
F8
102
}
100
AcDbDictionary
  3
DIMADEC
350
144
  0
MLINESTYLE
  5
107
102
{ACAD_REACTORS
330
106
102
}
100
AcDbMlineStyle
  2
STANDARD
 70
     0
  3

 62
   256
 51
90.0
 52
90.0
 71
     2
 49
0.5
 62
   256
  6
BYLAYER
 49
-0.5
 62
   256
  6
BYLAYER
  0
DICTIONARYVAR
  5
144
102
{ACAD_REACTORS
330
143
102
}
100
DictionaryVariables
280
     0
  1
0
  0
ENDSEC
  0
EOF
