  0
SECTION
  2
HEADER
  9
$ACADVER
  1
AC1014
  9
$ACADMAINTVER
 70
     0
  9
$DWGCODEPAGE
  3
ANSI_1252
  9
$INSBASE
 10
1.746267
 20
-1.162336
 30
0.0
  9
$EXTMIN
 10
-15.850006
 20
21.371296
 30
0.0
  9
$EXTMAX
 10
260.354869
 20
327.498707
 30
0.0
  9
$LIMMIN
 10
0.0
 20
0.0
  9
$LIMMAX
 10
210.0
 20
297.0
  9
$ORTHOMODE
 70
     0
  9
$REGENMODE
 70
     1
  9
$FILLMODE
 70
     1
  9
$QTEXTMODE
 70
     0
  9
$MIRRTEXT
 70
     0
  9
$DRAGMODE
 70
     1
  9
$LTSCALE
 40
20.0
  9
$OSMODE
 70
     0
  9
$ATTMODE
 70
     1
  9
$TEXTSIZE
 40
5.0
  9
$TRACEWID
 40
0.05
  9
$TEXTSTYLE
  7
ROMANS
  9
$CLAYER
  8
COTATION1
  9
$CELTYPE
  6
BYLAYER
  9
$CECOLOR
 62
   256
  9
$CELTSCALE
 40
1.0
  9
$DELOBJ
 70
     1
  9
$DISPSILH
 70
     0
  9
$DIMSCALE
 40
1.0
  9
$DIMASZ
 40
3.0
  9
$DIMEXO
 40
0.0625
  9
$DIMDLI
 40
0.38
  9
$DIMRND
 40
0.01
  9
$DIMDLE
 40
0.0
  9
$DIMEXE
 40
0.18
  9
$DIMTP
 40
0.0
  9
$DIMTM
 40
0.0
  9
$DIMTXT
 40
2.5
  9
$DIMCEN
 40
0.09
  9
$DIMTSZ
 40
0.0
  9
$DIMTOL
 70
     0
  9
$DIMLIM
 70
     0
  9
$DIMTIH
 70
     0
  9
$DIMTOH
 70
     0
  9
$DIMSE1
 70
     0
  9
$DIMSE2
 70
     0
  9
$DIMTAD
 70
     1
  9
$DIMZIN
 70
    12
  9
$DIMBLK
  1

  9
$DIMASO
 70
     1
  9
$DIMSHO
 70
     1
  9
$DIMPOST
  1

  9
$DIMAPOST
  1

  9
$DIMALT
 70
     0
  9
$DIMALTD
 70
     2
  9
$DIMALTF
 40
25.4
  9
$DIMLFAC
 40
1.0
  9
$DIMTOFL
 70
     1
  9
$DIMTVP
 40
0.0
  9
$DIMTIX
 70
     0
  9
$DIMSOXD
 70
     0
  9
$DIMSAH
 70
     0
  9
$DIMBLK1
  1

  9
$DIMBLK2
  1

  9
$DIMSTYLE
  2
SC_STAND
  9
$DIMCLRD
 70
     0
  9
$DIMCLRE
 70
     0
  9
$DIMCLRT
 70
     0
  9
$DIMTFAC
 40
1.0
  9
$DIMGAP
 40
1.0
  9
$DIMJUST
 70
     0
  9
$DIMSD1
 70
     0
  9
$DIMSD2
 70
     0
  9
$DIMTOLJ
 70
     1
  9
$DIMTZIN
 70
    12
  9
$DIMALTZ
 70
    12
  9
$DIMALTTZ
 70
    12
  9
$DIMFIT
 70
     5
  9
$DIMUPT
 70
     0
  9
$DIMUNIT
 70
     2
  9
$DIMDEC
 70
     3
  9
$DIMTDEC
 70
     3
  9
$DIMALTU
 70
     2
  9
$DIMALTTD
 70
     2
  9
$DIMTXSTY
  7
ROMANS
  9
$DIMAUNIT
 70
     0
  9
$LUNITS
 70
     2
  9
$LUPREC
 70
     3
  9
$SKETCHINC
 40
0.1
  9
$FILLETRAD
 40
0.0625
  9
$AUNITS
 70
     0
  9
$AUPREC
 70
     0
  9
$MENU
  1
ACAD
  9
$ELEVATION
 40
0.0
  9
$PELEVATION
 40
0.0
  9
$THICKNESS
 40
0.0
  9
$LIMCHECK
 70
     0
  9
$BLIPMODE
 70
     1
  9
$CHAMFERA
 40
0.0
  9
$CHAMFERB
 40
0.0
  9
$CHAMFERC
 40
0.0
  9
$CHAMFERD
 40
0.0
  9
$SKPOLY
 70
     0
  9
$TDCREATE
 40
2450599.366180995
  9
$TDUPDATE
 40
2451387.883784178
  9
$TDINDWG
 40
0.0022083333
  9
$TDUSRTIMER
 40
0.0022083333
  9
$USRTIMER
 70
     1
  9
$ANGBASE
 50
0.0
  9
$ANGDIR
 70
     0
  9
$PDMODE
 70
     0
  9
$PDSIZE
 40
0.0
  9
$PLINEWID
 40
0.0
  9
$COORDS
 70
     2
  9
$SPLFRAME
 70
     0
  9
$SPLINETYPE
 70
     6
  9
$SPLINESEGS
 70
     8
  9
$ATTDIA
 70
     0
  9
$ATTREQ
 70
     1
  9
$HANDLING
 70
     1
  9
$HANDSEED
  5
36F
  9
$SURFTAB1
 70
     6
  9
$SURFTAB2
 70
     6
  9
$SURFTYPE
 70
     6
  9
$SURFU
 70
     6
  9
$SURFV
 70
     6
  9
$UCSNAME
  2

  9
$UCSORG
 10
0.0
 20
0.0
 30
0.0
  9
$UCSXDIR
 10
1.0
 20
0.0
 30
0.0
  9
$UCSYDIR
 10
0.0
 20
1.0
 30
0.0
  9
$PUCSNAME
  2

  9
$PUCSORG
 10
0.0
 20
0.0
 30
0.0
  9
$PUCSXDIR
 10
1.0
 20
0.0
 30
0.0
  9
$PUCSYDIR
 10
0.0
 20
1.0
 30
0.0
  9
$USERI1
 70
     0
  9
$USERI2
 70
     0
  9
$USERI3
 70
     0
  9
$USERI4
 70
     0
  9
$USERI5
 70
     0
  9
$USERR1
 40
0.0
  9
$USERR2
 40
0.0
  9
$USERR3
 40
0.0
  9
$USERR4
 40
0.0
  9
$USERR5
 40
0.0
  9
$WORLDVIEW
 70
     1
  9
$SHADEDGE
 70
     3
  9
$SHADEDIF
 70
    70
  9
$TILEMODE
 70
     1
  9
$MAXACTVP
 70
    16
  9
$PINSBASE
 10
0.0
 20
0.0
 30
0.0
  9
$PLIMCHECK
 70
     0
  9
$PEXTMIN
 10
1.000000E+20
 20
1.000000E+20
 30
1.000000E+20
  9
$PEXTMAX
 10
-1.000000E+20
 20
-1.000000E+20
 30
-1.000000E+20
  9
$PLIMMIN
 10
0.0
 20
0.0
  9
$PLIMMAX
 10
12.0
 20
9.0
  9
$UNITMODE
 70
     0
  9
$VISRETAIN
 70
     0
  9
$PLINEGEN
 70
     0
  9
$PSLTSCALE
 70
     1
  9
$TREEDEPTH
 70
  3020
  9
$PICKSTYLE
 70
     1
  9
$CMLSTYLE
  2
STANDARD
  9
$CMLJUST
 70
     0
  9
$CMLSCALE
 40
1.0
  9
$PROXYGRAPHICS
 70
     1
  9
$MEASUREMENT
 70
     0
  0
ENDSEC
  0
SECTION
  2
CLASSES
  0
CLASS
  1
DICTIONARYVAR
  2
AcDbDictionaryVar
  3
"AutoCAD"
 90
        0
280
     0
281
     0
  0
CLASS
  1
LWPOLYLINE
  2
AcDbPolyline
  3
"AutoCAD"
 90
        0
280
     0
281
     1
  0
ENDSEC
  0
SECTION
  2
TABLES
  0
TABLE
  2
VPORT
  5
309
100
AcDbSymbolTable
 70
     1
  0
VPORT
  5
36B
100
AcDbSymbolTableRecord
100
AcDbViewportTableRecord
  2
*ACTIVE
 70
     0
 10
0.0
 20
0.0
 11
1.0
 21
1.0
 12
296.242371
 22
186.763942
 13
0.0
 23
0.0
 14
1.0
 24
1.0
 15
10.0
 25
10.0
 16
0.0
 26
0.0
 36
1.0
 17
0.0
 27
0.0
 37
0.0
 40
373.527884
 41
1.671053
 42
50.0
 43
0.0
 44
0.0
 50
0.0
 51
0.0
 71
     0
 72
   100
 73
     1
 74
     1
 75
     0
 76
     1
 77
     0
 78
     0
  0
ENDTAB
  0
TABLE
  2
LTYPE
  5
306
100
AcDbSymbolTable
 70
    24
  0
LTYPE
  5
312
100
AcDbSymbolTableRecord
100
AcDbLinetypeTableRecord
  2
BYBLOCK
 70
     0
  3

 72
    65
 73
     0
 40
0.0
  0
LTYPE
  5
313
100
AcDbSymbolTableRecord
100
AcDbLinetypeTableRecord
  2
BYLAYER
 70
     0
  3

 72
    65
 73
     0
 40
0.0
  0
LTYPE
  5
314
100
AcDbSymbolTableRecord
100
AcDbLinetypeTableRecord
  2
CONTINUOUS
 70
     0
  3
Solid line
 72
    65
 73
     0
 40
0.0
  0
LTYPE
  5
332
100
AcDbSymbolTableRecord
100
AcDbLinetypeTableRecord
  2
CADRA_SOLID
 70
     0
  3
Cadra_solid
 72
    65
 73
     0
 40
0.0
  0
LTYPE
  5
333
100
AcDbSymbolTableRecord
100
AcDbLinetypeTableRecord
  2
AXES
 70
     0
  3
____ _ ____ _ ____ _ ____ _ ____ _ ____ _ ____ 
 72
    65
 73
     4
 40
2.0
 49
1.25
 74
     0
 49
-0.25
 74
     0
 49
0.25
 74
     0
 49
-0.25
 74
     0
  0
LTYPE
  5
334
100
AcDbSymbolTableRecord
100
AcDbLinetypeTableRecord
  2
AXES2
 70
     0
  3
___ _ ___ _ ___ _ ___ _ ___ _ ___ _ ___ _ ___ _
 72
    65
 73
     4
 40
1.125
 49
0.75
 74
     0
 49
-0.125
 74
     0
 49
0.125
 74
     0
 49
-0.125
 74
     0
  0
LTYPE
  5
335
100
AcDbSymbolTableRecord
100
AcDbLinetypeTableRecord
  2
AXESX2
 70
     0
  3
________  __  ________  __  ________  __  _____
 72
    65
 73
     4
 40
4.0
 49
2.5
 74
     0
 49
-0.5
 74
     0
 49
0.5
 74
     0
 49
-0.5
 74
     0
  0
LTYPE
  5
336
100
AcDbSymbolTableRecord
100
AcDbLinetypeTableRecord
  2
TIRETPT
 70
     0
  3
__ . __ . __ . __ . __ . __ . __ . __ . __ . __
 72
    65
 73
     4
 40
1.0
 49
0.5
 74
     0
 49
-0.25
 74
     0
 49
0.0
 74
     0
 49
-0.25
 74
     0
  0
LTYPE
  5
337
100
AcDbSymbolTableRecord
100
AcDbLinetypeTableRecord
  2
TIRETPT2
 70
     0
  3
_._._._._._._._._._._._._._._._._._._._._._._._
 72
    65
 73
     4
 40
0.5
 49
0.25
 74
     0
 49
-0.125
 74
     0
 49
0.0
 74
     0
 49
-0.125
 74
     0
  0
LTYPE
  5
338
100
AcDbSymbolTableRecord
100
AcDbLinetypeTableRecord
  2
TIRETPTX2
 70
     0
  3
____  .  ____  .  ____  .  ____  .  ____  .  __
 72
    65
 73
     4
 40
2.0
 49
1.0
 74
     0
 49
-0.5
 74
     0
 49
0.0
 74
     0
 49
-0.5
 74
     0
  0
LTYPE
  5
339
100
AcDbSymbolTableRecord
100
AcDbLinetypeTableRecord
  2
DISCONTINU
 70
     0
  3
__ __ __ __ __ __ __ __ __ __ __ __ __ __ __ __
 72
    65
 73
     2
 40
0.75
 49
0.5
 74
     0
 49
-0.25
 74
     0
  0
LTYPE
  5
33A
100
AcDbSymbolTableRecord
100
AcDbLinetypeTableRecord
  2
DISCONTINU2
 70
     0
  3
_ _ _ _ _ _ _ _ _ _ _ _ _ _ _ _ _ _ _ _ _ _ _ _
 72
    65
 73
     2
 40
0.375
 49
0.25
 74
     0
 49
-0.125
 74
     0
  0
LTYPE
  5
33B
100
AcDbSymbolTableRecord
100
AcDbLinetypeTableRecord
  2
DISCONTINUX2
 70
     0
  3
____  ____  ____  ____  ____  ____  ____  ____ 
 72
    65
 73
     2
 40
1.5
 49
1.0
 74
     0
 49
-0.5
 74
     0
  0
LTYPE
  5
33C
100
AcDbSymbolTableRecord
100
AcDbLinetypeTableRecord
  2
DIVISE
 70
     0
  3
____ . . ____ . . ____ . . ____ . . ____ . . __
 72
    65
 73
     6
 40
1.25
 49
0.5
 74
     0
 49
-0.25
 74
     0
 49
0.0
 74
     0
 49
-0.25
 74
     0
 49
0.0
 74
     0
 49
-0.25
 74
     0
  0
LTYPE
  5
33D
100
AcDbSymbolTableRecord
100
AcDbLinetypeTableRecord
  2
DIVISE2
 70
     0
  3
__..__..__..__..__..__..__..__..__..__..__..__.
 72
    65
 73
     6
 40
0.625
 49
0.25
 74
     0
 49
-0.125
 74
     0
 49
0.0
 74
     0
 49
-0.125
 74
     0
 49
0.0
 74
     0
 49
-0.125
 74
     0
  0
LTYPE
  5
33E
100
AcDbSymbolTableRecord
100
AcDbLinetypeTableRecord
  2
DIVISEX2
 70
     0
  3
________  .  .  ________  .  .  ________  .  . 
 72
    65
 73
     6
 40
2.5
 49
1.0
 74
     0
 49
-0.5
 74
     0
 49
0.0
 74
     0
 49
-0.5
 74
     0
 49
0.0
 74
     0
 49
-0.5
 74
     0
  0
LTYPE
  5
33F
100
AcDbSymbolTableRecord
100
AcDbLinetypeTableRecord
  2
POINTILLE
 70
     0
  3
. . . . . . . . . . . . . . . . . . . . . . . .
 72
    65
 73
     2
 40
0.25
 49
0.0
 74
     0
 49
-0.25
 74
     0
  0
LTYPE
  5
340
100
AcDbSymbolTableRecord
100
AcDbLinetypeTableRecord
  2
POINTILLE2
 70
     0
  3
...............................................
 72
    65
 73
     2
 40
0.125
 49
0.0
 74
     0
 49
-0.125
 74
     0
  0
LTYPE
  5
341
100
AcDbSymbolTableRecord
100
AcDbLinetypeTableRecord
  2
POINTILLEX2
 70
     0
  3
.  .  .  .  .  .  .  .  .  .  .  .  .  .  .  . 
 72
    65
 73
     2
 40
0.5
 49
0.0
 74
     0
 49
-0.5
 74
     0
  0
LTYPE
  5
342
100
AcDbSymbolTableRecord
100
AcDbLinetypeTableRecord
  2
CACHE
 70
     0
  3
__ __ __ __ __ __ __ __ __ __ __ __ __ __ __ __
 72
    65
 73
     2
 40
0.375
 49
0.25
 74
     0
 49
-0.125
 74
     0
  0
LTYPE
  5
343
100
AcDbSymbolTableRecord
100
AcDbLinetypeTableRecord
  2
CACHE2
 70
     0
  3
_ _ _ _ _ _ _ _ _ _ _ _ _ _ _ _ _ _ _ _ _ _ _ _
 72
    65
 73
     2
 40
0.1875
 49
0.125
 74
     0
 49
-0.0625
 74
     0
  0
LTYPE
  5
344
100
AcDbSymbolTableRecord
100
AcDbLinetypeTableRecord
  2
CACHEX2
 70
     0
  3
____ ____ ____ ____ ____ ____ ____ ____ ____ __
 72
    65
 73
     2
 40
0.75
 49
0.5
 74
     0
 49
-0.25
 74
     0
  0
LTYPE
  5
345
100
AcDbSymbolTableRecord
100
AcDbLinetypeTableRecord
  2
FANTOME
 70
     0
  3
______  __  __  ______  __  __  ______  __  __ 
 72
    65
 73
     6
 40
2.5
 49
1.25
 74
     0
 49
-0.25
 74
     0
 49
0.25
 74
     0
 49
-0.25
 74
     0
 49
0.25
 74
     0
 49
-0.25
 74
     0
  0
LTYPE
  5
346
100
AcDbSymbolTableRecord
100
AcDbLinetypeTableRecord
  2
FANTOME2
 70
     0
  3
___ _ _ ___ _ _ ___ _ _ ___ _ _ ___ _ _ ___ _ _
 72
    65
 73
     6
 40
1.25
 49
0.625
 74
     0
 49
-0.125
 74
     0
 49
0.125
 74
     0
 49
-0.125
 74
     0
 49
0.125
 74
     0
 49
-0.125
 74
     0
  0
LTYPE
  5
347
100
AcDbSymbolTableRecord
100
AcDbLinetypeTableRecord
  2
FANTOMEX2
 70
     0
  3
____________    ____    ____    ____________   
 72
    65
 73
     6
 40
5.0
 49
2.5
 74
     0
 49
-0.5
 74
     0
 49
0.5
 74
     0
 49
-0.5
 74
     0
 49
0.5
 74
     0
 49
-0.5
 74
     0
  0
LTYPE
  5
348
100
AcDbSymbolTableRecord
100
AcDbLinetypeTableRecord
  2
0
 70
     0
  3
MEDUSA PEN 0
 72
    65
 73
     0
 40
0.0
  0
ENDTAB
  0
TABLE
  2
LAYER
  5
303
100
AcDbSymbolTable
 70
    21
  0
LAYER
  5
30F
100
AcDbSymbolTableRecord
100
AcDbLayerTableRecord
  2
0
 70
     0
 62
   146
  6
CADRA_SOLID
  0
LAYER
  5
34F
100
AcDbSymbolTableRecord
100
AcDbLayerTableRecord
  2
TEXTE
 70
     0
 62
   131
  6
CONTINUOUS
  0
LAYER
  5
350
100
AcDbSymbolTableRecord
100
AcDbLayerTableRecord
  2
ALPHA
 70
     0
 62
   255
  6
CONTINUOUS
  0
LAYER
  5
351
100
AcDbSymbolTableRecord
100
AcDbLayerTableRecord
  2
AXE
 70
     0
 62
    80
  6
AXES2
  0
LAYER
  5
352
100
AcDbSymbolTableRecord
100
AcDbLayerTableRecord
  2
CONSTRUCTION
 70
     0
 62
     6
  6
CONTINUOUS
  0
LAYER
  5
353
100
AcDbSymbolTableRecord
100
AcDbLayerTableRecord
  2
COTATION1
 70
     0
 62
     2
  6
CONTINUOUS
  0
LAYER
  5
354
100
AcDbSymbolTableRecord
100
AcDbLayerTableRecord
  2
HACHURES
 70
     0
 62
     9
  6
CONTINUOUS
  0
LAYER
  5
355
100
AcDbSymbolTableRecord
100
AcDbLayerTableRecord
  2
FMULT
 70
     0
 62
     6
  6
CONTINUOUS
  0
LAYER
  5
356
100
AcDbSymbolTableRecord
100
AcDbLayerTableRecord
  2
FDP_CARTOUCHE
 70
     0
 62
     4
  6
CONTINUOUS
  0
LAYER
  5
357
100
AcDbSymbolTableRecord
100
AcDbLayerTableRecord
  2
FDP_TEXTES
 70
     0
 62
     5
  6
CONTINUOUS
  0
LAYER
  5
358
100
AcDbSymbolTableRecord
100
AcDbLayerTableRecord
  2
FDP_LOGO_MG
 70
     0
 62
    30
  6
CONTINUOUS
  0
LAYER
  5
359
100
AcDbSymbolTableRecord
100
AcDbLayerTableRecord
  2
FDP_LOGO_SCH
 70
     0
 62
     3
  6
CONTINUOUS
  0
LAYER
  5
35A
100
AcDbSymbolTableRecord
100
AcDbLayerTableRecord
  2
FDP_FDP
 70
     0
 62
     5
  6
CONTINUOUS
  0
LAYER
  5
35B
100
AcDbSymbolTableRecord
100
AcDbLayerTableRecord
  2
COTATION2
 70
     0
 62
     2
  6
CONTINUOUS
  0
LAYER
  5
35C
100
AcDbSymbolTableRecord
100
AcDbLayerTableRecord
  2
COTATION3
 70
     0
 62
     2
  6
CONTINUOUS
  0
LAYER
  5
35D
100
AcDbSymbolTableRecord
100
AcDbLayerTableRecord
  2
COTATION4
 70
     0
 62
     2
  6
CONTINUOUS
  0
LAYER
  5
35E
100
AcDbSymbolTableRecord
100
AcDbLayerTableRecord
  2
ASHADE
 70
     0
 62
     7
  6
CONTINUOUS
  0
LAYER
  5
35F
100
AcDbSymbolTableRecord
100
AcDbLayerTableRecord
  2
POINTILLE_COURT
 70
     0
 62
    40
  6
CACHE2
  0
LAYER
  5
360
100
AcDbSymbolTableRecord
100
AcDbLayerTableRecord
  2
POINTILLE_MOYEN
 70
     0
 62
   140
  6
CACHE
  0
LAYER
  5
361
100
AcDbSymbolTableRecord
100
AcDbLayerTableRecord
  2
POINTILLE_LONG
 70
     0
 62
   240
  6
CACHEX2
  0
LAYER
  5
362
100
AcDbSymbolTableRecord
100
AcDbLayerTableRecord
  2
DEFPOINTS
 70
     0
 62
     7
  6
CONTINUOUS
  0
ENDTAB
  0
TABLE
  2
STYLE
  5
304
100
AcDbSymbolTable
 70
     5
  0
STYLE
  5
310
100
AcDbSymbolTableRecord
100
AcDbTextStyleTableRecord
  2
STANDARD
 70
     0
 40
0.0
 41
1.0
 50
0.0
 71
     0
 42
5.0
  3
romans
  4

  0
STYLE
  5
32E
100
AcDbSymbolTableRecord
100
AcDbTextStyleTableRecord
  2
BLOCK
 70
     0
 40
0.0
 41
1.0
 50
0.0
 71
     0
 42
5.0
  3
romans
  4

  0
STYLE
  5
32F
100
AcDbSymbolTableRecord
100
AcDbTextStyleTableRecord
  2
ROMANS
 70
     0
 40
0.0
 41
1.0
 50
0.0
 71
     0
 42
2.9
  3
romans.shx
  4

  0
STYLE
  5
330
100
AcDbSymbolTableRecord
100
AcDbTextStyleTableRecord
  2
INFOCAR
 70
     0
 40
0.0
 41
1.34
 50
0.0
 71
     0
 42
2.0
  3
ROMANS.SHX
  4

  0
STYLE
  5
331
100
AcDbSymbolTableRecord
100
AcDbTextStyleTableRecord
  2
CARTOUCHE
 70
     0
 40
0.0
 41
1.0
 50
0.0
 71
     0
 42
0.2
  3
ROMANS.SHX
  4

  0
ENDTAB
  0
TABLE
  2
VIEW
  5
307
100
AcDbSymbolTable
 70
     0
  0
ENDTAB
  0
TABLE
  2
UCS
  5
308
100
AcDbSymbolTable
 70
     0
  0
ENDTAB
  0
TABLE
  2
APPID
  5
30A
100
AcDbSymbolTable
 70
     3
  0
APPID
  5
311
100
AcDbSymbolTableRecord
100
AcDbRegAppTableRecord
  2
ACAD
 70
     0
  0
APPID
  5
34B
100
AcDbSymbolTableRecord
100
AcDbRegAppTableRecord
  2
AVE_RENDER
 70
     0
  0
APPID
  5
34C
100
AcDbSymbolTableRecord
100
AcDbRegAppTableRecord
  2
AVE_MATERIAL
 70
     0
  0
ENDTAB
  0
TABLE
  2
DIMSTYLE
  5
30B
100
AcDbSymbolTable
 70
     2
  0
DIMSTYLE
105
34D
100
AcDbSymbolTableRecord
100
AcDbDimStyleTableRecord
  2
STANDARD
 70
     0
  3

  4

  5

  6

  7

 40
1.0
 41
0.18
 42
0.0625
 43
0.38
 44
0.18
 45
0.0
 46
0.0
 47
0.0
 48
0.0
140
0.18
141
0.09
142
0.0
143
25.4
144
1.0
145
0.0
146
1.0
147
0.09
 71
     0
 72
     0
 73
     1
 74
     1
 75
     0
 76
     0
 77
     0
 78
     0
170
     0
171
     2
172
     0
173
     0
174
     0
175
     0
176
     0
177
     0
178
     0
270
     2
271
     3
272
     3
273
     2
274
     2
340
32F
275
     0
280
     0
281
     0
282
     0
283
     1
284
    12
285
    12
286
    12
287
     5
288
     0
  0
DIMSTYLE
105
34E
102
{ACAD_REACTORS
330
265
330
271
330
27D
330
289
330
296
330
2A3
330
2B0
102
}
100
AcDbSymbolTableRecord
100
AcDbDimStyleTableRecord
  2
SC_STAND
 70
     0
  3

  4

  5

  6

  7

 40
1.0
 41
3.0
 42
0.0625
 43
0.38
 44
0.18
 45
0.01
 46
0.0
 47
0.0
 48
0.0
140
2.5
141
0.09
142
0.0
143
25.4
144
1.0
145
0.0
146
1.0
147
1.0
 71
     0
 72
     0
 73
     0
 74
     0
 75
     0
 76
     0
 77
     1
 78
    12
170
     0
171
     2
172
     1
173
     0
174
     0
175
     0
176
     0
177
     0
178
     0
270
     2
271
     3
272
     3
273
     2
274
     2
340
32F
275
     0
280
     0
281
     0
282
     0
283
     1
284
    12
285
    12
286
    12
287
     5
288
     0
  0
ENDTAB
  0
TABLE
  2
BLOCK_RECORD
  5
302
100
AcDbSymbolTable
 70
    17
  0
BLOCK_RECORD
  5
318
100
AcDbSymbolTableRecord
100
AcDbBlockTableRecord
  2
*MODEL_SPACE
  0
BLOCK_RECORD
  5
315
100
AcDbSymbolTableRecord
100
AcDbBlockTableRecord
  2
*PAPER_SPACE
  0
BLOCK_RECORD
  5
31D
100
AcDbSymbolTableRecord
100
AcDbBlockTableRecord
  2
AVE_RENDER
  0
BLOCK_RECORD
  5
31E
100
AcDbSymbolTableRecord
100
AcDbBlockTableRecord
  2
AVE_GLOBAL
  0
BLOCK_RECORD
  5
31F
100
AcDbSymbolTableRecord
100
AcDbBlockTableRecord
  2
SCH_ISO
  0
BLOCK_RECORD
  5
327
100
AcDbSymbolTableRecord
100
AcDbBlockTableRecord
  2
*D10
  0
BLOCK_RECORD
  5
328
100
AcDbSymbolTableRecord
100
AcDbBlockTableRecord
  2
*D11
  0
BLOCK_RECORD
  5
329
100
AcDbSymbolTableRecord
100
AcDbBlockTableRecord
  2
*D12
  0
BLOCK_RECORD
  5
32A
100
AcDbSymbolTableRecord
100
AcDbBlockTableRecord
  2
*D13
  0
BLOCK_RECORD
  5
32B
100
AcDbSymbolTableRecord
100
AcDbBlockTableRecord
  2
*D14
  0
BLOCK_RECORD
  5
32C
100
AcDbSymbolTableRecord
100
AcDbBlockTableRecord
  2
*D15
  0
BLOCK_RECORD
  5
32D
100
AcDbSymbolTableRecord
100
AcDbBlockTableRecord
  2
*D16
  0
ENDTAB
  0
ENDSEC
  0
SECTION
  2
BLOCKS
  0
BLOCK
  5
365
100
AcDbEntity
  8
0
100
AcDbBlockBegin
  2
*MODEL_SPACE
 70
     0
 10
0.0
 20
0.0
 30
0.0
  3
*MODEL_SPACE
  1

  0
ENDBLK
  5
366
100
AcDbEntity
  8
0
100
AcDbBlockEnd
  0
BLOCK
  5
363
100
AcDbEntity
 67
     1
  8
0
100
AcDbBlockBegin
  2
*PAPER_SPACE
 70
     0
 10
0.0
 20
0.0
 30
0.0
  3
*PAPER_SPACE
  1

  0
ENDBLK
  5
364
100
AcDbEntity
 67
     1
  8
0
100
AcDbBlockEnd
  0
BLOCK
  5
217
100
AcDbEntity
  8
0
100
AcDbBlockBegin
  2
AVE_RENDER
 70
     0
 10
0.0
 20
0.0
 30
0.0
  3
AVE_RENDER
  1
AVE_RENDER
  0
ENDBLK
  5
218
100
AcDbEntity
  8
0
100
AcDbBlockEnd
  0
BLOCK
  5
21A
100
AcDbEntity
  8
0
100
AcDbBlockBegin
  2
AVE_GLOBAL
 70
     0
 10
0.0
 20
0.0
 30
0.0
  3
AVE_GLOBAL
  1
AVE_GLOBAL
  0
ENDBLK
  5
21B
100
AcDbEntity
  8
0
100
AcDbBlockEnd
  0
BLOCK
  5
254
100
AcDbEntity
  8
0
100
AcDbBlockBegin
  2
SCH_ISO
 70
     0
 10
0.0
 20
0.0
 30
0.0
  3
SCH_ISO
  1

  0
INSERT
  5
24B
100
AcDbEntity
  8
ASHADE
 62
     1
100
AcDbBlockReference
  2
AVE_RENDER
 10
0.0
 20
0.0
 30
0.0
1001
AVE_RENDER
1002
{
1070
     6
1000
Pref
1070
    50
1070
    20
1070
     1
1070
     0
1000

1070
    10
1070
     1
1070
    30
1040
25.4
1070
     1
1040
0.3
1040
0.7
1040
0.0
1040
10.0
1010
-1.0
1020
-1.0
1030
-1.0
1040
0.3
1070
    49
1070
     0
1070
     0
1010
1.0
1020
1.0
1030
1.0
1040
45.0
1070
     1
1070
     0
1000
WCS
1040
0.0
1002
}
  0
INSERT
  5
24C
100
AcDbEntity
  8
ASHADE
 62
     3
100
AcDbBlockReference
  2
AVE_RENDER
 10
0.0
 20
0.0
 30
0.0
1001
AVE_RENDER
1002
{
1070
     0
1000
Full Opt
1070
     0
1070
     1
1070
     1
1070
     1
1070
     0
1070
     0
1070
     0
1070
     1
1070
     1
1040
0.0001
1040
0.0001
1002
}
  0
INSERT
  5
24D
100
AcDbEntity
  8
ASHADE
 62
     4
100
AcDbBlockReference
  2
AVE_RENDER
 10
0.0
 20
0.0
 30
0.0
1001
AVE_RENDER
1002
{
1070
     0
1000
Quick Opt
1070
     0
1070
     1
1070
     1
1070
     1
1070
     0
1070
     0
1070
     1
1002
}
  0
INSERT
  5
24E
100
AcDbEntity
  8
ASHADE
 62
     5
100
AcDbBlockReference
  2
AVE_RENDER
 10
0.0
 20
0.0
 30
0.0
1001
AVE_RENDER
1002
{
1070
     1
1000
Scanl Opt
1070
     2
1070
     0
1070
     2
1040
2.0
1040
4.0
1070
     0
1070
     1
1070
     0
1040
0.03
1002
}
  0
INSERT
  5
24F
100
AcDbEntity
  8
ASHADE
 62
     6
100
AcDbBlockReference
  2
AVE_RENDER
 10
0.0
 20
0.0
 30
0.0
1001
AVE_RENDER
1002
{
1070
     2
1000
Raytr Opt
1070
     2
1070
     0
1070
     2
1040
2.0
1040
4.0
1070
     0
1070
     1
1070
     1
1040
0.03
1070
     3
1040
0.03
1002
}
  0
INSERT
  5
250
100
AcDbEntity
  8
ASHADE
 62
     7
100
AcDbBlockReference
  2
AVE_RENDER
 10
0.0
 20
0.0
 30
0.0
1001
AVE_RENDER
1002
{
1070
     0
1000
RFile Opt
1070
     5
1070
   640
1070
   480
1070
 10000
1070
     3
1070
    32
1070
    24
1070
     0
1070
     0
1070
     0
1070
     1
1070
     0
1070
     0
1070
     0
1002
}
  0
INSERT
  5
251
100
AcDbEntity
  8
ASHADE
 62
     8
100
AcDbBlockReference
  2
AVE_RENDER
 10
0.0
 20
0.0
 30
0.0
1001
AVE_RENDER
1002
{
1070
     0
1000
Fog Opt
1070
     0
1070
     0
1040
0.0
1040
1.0
1040
0.0
1040
1.0
1010
0.5
1020
0.5
1030
0.5
1002
}
  0
INSERT
  5
252
100
AcDbEntity
  8
ASHADE
 62
     9
100
AcDbBlockReference
  2
AVE_RENDER
 10
0.0
 20
0.0
 30
0.0
1001
AVE_RENDER
1002
{
1070
     0
1000
BG Opt
1070
     0
1070
     1
1010
0.0
1020
0.0
1030
0.0
1010
1.0
1020
0.0
1030
0.0
1010
0.0
1020
1.0
1030
0.0
1010
0.0
1020
0.0
1030
1.0
1040
0.5
1040
0.33
1040
0.0
1000

1070
     1
1000

1070
     1
1070
     1
1040
1.0
1040
1.0
1040
0.0
1040
0.0
1070
     0
1002
}
  0
INSERT
  5
253
100
AcDbEntity
  8
ASHADE
 62
     1
100
AcDbBlockReference
  2
AVE_GLOBAL
 10
0.0
 20
0.0
 30
0.0
1001
AVE_MATERIAL
1002
{
1000
*GLOBAL*
1000
1
1000
Finition globale.
1002
{
1002
}
1002
{
1070
    63
1002
{
1002
{
1010
-1.0
1020
-1.0
1030
-1.0
1002
}
1040
0.1
1000

1040
0.0
1002
{
1002
}
1040
0.0
1002
{
1002
}
1040
0.0
1002
}
1002
{
1002
{
1010
-1.0
1020
-1.0
1030
-1.0
1002
}
1040
0.7
1000

1040
0.0
1002
{
1002
}
1040
0.0
1002
{
1002
}
1040
0.0
1002
}
1002
{
1002
{
1010
-1.0
1020
-1.0
1030
-1.0
1002
}
1040
0.2
1000

1040
0.0
1002
{
1002
}
1040
0.0
1002
{
1002
}
1040
0.0
1002
}
1002
{
1070
     0
1002
{
1070
     1
1002
{
1040
1.0
1040
1.0
1000

1040
0.0
1002
{
1002
}
1040
0.0
1002
{
1002
}
1040
0.0
1002
}
1002
}
1040
1.0
1040
0.0
1040
0.0
1002
}
1002
{
1040
1.0
1040
1.0
1000

1040
0.0
1002
{
1002
}
1040
0.0
1002
{
1002
}
1040
0.0
1002
}
1002
{
1040
0.5
1040
1.0
1000

1040
0.0
1002
{
1002
}
1040
0.0
1002
{
1002
}
1040
0.0
1002
}
1002
{
1070
     0
1040
0.0
1002
{
1002
}
1040
1.0
1002
{
1002
}
1040
0.0
1002
}
1002
{
1040
0.0
1002
{
1002
{
1010
0.0
1020
0.0
1030
0.0
1002
}
1040
1.0
1000

1040
0.0
1002
{
1002
}
1040
0.0
1002
{
1002
}
1040
0.0
1002
}
1002
}
1002
{
1002
{
1070
     1
1002
{
1040
0.0
1040
1.0
1000

1040
0.0
1002
{
1002
}
1040
0.0
1002
{
1002
}
1040
0.0
1002
}
1002
}
1040
0.0
1002
{
1002
}
1010
1.0
1020
0.0
1030
0.0
1010
0.0
1020
1.0
1030
0.0
1010
0.0
1020
0.0
1030
1.0
1070
     0
1002
}
1002
{
1002
{
1040
1.0
1040
1.0
1002
{
1070
     1
1002
{
1040
1.0
1040
1.0
1000

1040
0.0
1002
{
1002
}
1040
0.0
1002
{
1002
}
1040
0.0
1002
}
1002
}
1002
}
1070
     0
1040
0.0
1002
{
1002
}
1002
}
1002
{
1002
}
1002
}
1002
{
1071
        3
1070
     3
1070
     0
1002
{
1070
     2
1070
     0
1070
     0
1040
0.0
1002
}
1070
     0
1070
     2
1002
{
1002
}
1002
}
1002
{
1040
8030.0
1040
190.300003
1040
0.305
1040
228.0
1040
545.0
1040
14.0
1040
17.4
1040
0.456
1002
}
1002
}
  0
ENDBLK
  5
255
100
AcDbEntity
  8
0
100
AcDbBlockEnd
  0
BLOCK
  5
2B5
100
AcDbEntity
  8
0
100
AcDbBlockBegin
  2
*D10
 70
     1
 10
0.0
 20
0.0
 30
0.0
  3
*D10
  1

  0
LINE
  5
2B6
100
AcDbEntity
  8
0
  6
BYBLOCK
 62
     0
100
AcDbLine
 10
15.149994
 20
299.0625
 30
0.0
 11
15.149994
 21
323.928707
 31
0.0
  0
LINE
  5
2B7
100
AcDbEntity
  8
0
  6
BYBLOCK
 62
     0
100
AcDbLine
 10
45.149994
 20
299.0625
 30
0.0
 11
45.149994
 21
323.928707
 31
0.0
  0
LINE
  5
2B8
100
AcDbEntity
  8
0
  6
BYBLOCK
 62
     0
100
AcDbLine
 10
18.149994
 20
323.748707
 30
0.0
 11
42.149994
 21
323.748707
 31
0.0
  0
SOLID
  5
2B9
100
AcDbEntity
  8
0
  6
BYBLOCK
 62
     0
100
AcDbTrace
 10
18.149994
 20
324.248707
 30
0.0
 11
18.149994
 21
323.248707
 31
0.0
 12
15.149994
 22
323.748707
 32
0.0
 13
15.149994
 23
323.748707
 33
0.0
  0
SOLID
  5
2BA
100
AcDbEntity
  8
0
  6
BYBLOCK
 62
     0
100
AcDbTrace
 10
42.149994
 20
324.248707
 30
0.0
 11
42.149994
 21
323.248707
 31
0.0
 12
45.149994
 22
323.748707
 32
0.0
 13
45.149994
 23
323.748707
 33
0.0
  0
TEXT
  5
2BB
100
AcDbEntity
  8
0
  6
BYBLOCK
 62
     0
100
AcDbText
 10
27.769042
 20
324.998707
 30
0.0
 40
2.5
  1
30
  7
ROMANS
 72
     1
 11
30.149994
 21
326.248707
 31
0.0
100
AcDbText
 73
     2
  0
POINT
  5
2BC
100
AcDbEntity
  8
DEFPOINTS
  6
BYBLOCK
 62
     0
100
AcDbPoint
 10
15.149994
 20
299.0
 30
0.0
  0
POINT
  5
2BD
100
AcDbEntity
  8
DEFPOINTS
  6
BYBLOCK
 62
     0
100
AcDbPoint
 10
45.149994
 20
299.0
 30
0.0
  0
POINT
  5
2BE
100
AcDbEntity
  8
DEFPOINTS
  6
BYBLOCK
 62
     0
100
AcDbPoint
 10
45.149994
 20
323.748707
 30
0.0
  0
ENDBLK
  5
2BF
100
AcDbEntity
  8
0
100
AcDbBlockEnd
  0
BLOCK
  5
2C0
100
AcDbEntity
  8
0
100
AcDbBlockBegin
  2
*D11
 70
     1
 10
0.0
 20
0.0
 30
0.0
  3
*D11
  1

  0
LINE
  5
2C1
100
AcDbEntity
  8
0
  6
BYBLOCK
 62
     0
100
AcDbLine
 10
140.212494
 20
76.0
 30
0.0
 11
260.034869
 21
76.0
 31
0.0
  0
LINE
  5
2C2
100
AcDbEntity
  8
0
  6
BYBLOCK
 62
     0
100
AcDbLine
 10
140.212494
 20
284.0
 30
0.0
 11
260.034869
 21
284.0
 31
0.0
  0
LINE
  5
2C3
100
AcDbEntity
  8
0
  6
BYBLOCK
 62
     0
100
AcDbLine
 10
259.854869
 20
79.0
 30
0.0
 11
259.854869
 21
281.0
 31
0.0
  0
SOLID
  5
2C4
100
AcDbEntity
  8
0
  6
BYBLOCK
 62
     0
100
AcDbTrace
 10
259.354869
 20
79.0
 30
0.0
 11
260.354869
 21
79.0
 31
0.0
 12
259.854869
 22
76.0
 32
0.0
 13
259.854869
 23
76.0
 33
0.0
  0
SOLID
  5
2C5
100
AcDbEntity
  8
0
  6
BYBLOCK
 62
     0
100
AcDbTrace
 10
259.354869
 20
281.0
 30
0.0
 11
260.354869
 21
281.0
 31
0.0
 12
259.854869
 22
284.0
 32
0.0
 13
259.854869
 23
284.0
 33
0.0
  0
TEXT
  5
2C6
100
AcDbEntity
  8
0
  6
BYBLOCK
 62
     0
100
AcDbText
 10
258.604869
 20
176.428571
 30
0.0
 40
2.5
  1
208
 50
90.0
  7
ROMANS
 72
     1
 11
257.354869
 21
180.0
 31
0.0
100
AcDbText
 73
     2
  0
POINT
  5
2C7
100
AcDbEntity
  8
DEFPOINTS
  6
BYBLOCK
 62
     0
100
AcDbPoint
 10
140.149994
 20
76.0
 30
0.0
  0
POINT
  5
2C8
100
AcDbEntity
  8
DEFPOINTS
  6
BYBLOCK
 62
     0
100
AcDbPoint
 10
140.149994
 20
284.0
 30
0.0
  0
POINT
  5
2C9
100
AcDbEntity
  8
DEFPOINTS
  6
BYBLOCK
 62
     0
100
AcDbPoint
 10
259.854869
 20
284.0
 30
0.0
  0
ENDBLK
  5
2CA
100
AcDbEntity
  8
0
100
AcDbBlockEnd
  0
BLOCK
  5
2CB
100
AcDbEntity
  8
0
100
AcDbBlockBegin
  2
*D12
 70
     1
 10
0.0
 20
0.0
 30
0.0
  3
*D12
  1

  0
LINE
  5
2CC
100
AcDbEntity
  8
0
  6
BYBLOCK
 62
     0
100
AcDbLine
 10
-13.200012
 20
113.4375
 30
0.0
 11
-13.200012
 21
21.691296
 31
0.0
  0
LINE
  5
2CD
100
AcDbEntity
  8
0
  6
BYBLOCK
 62
     0
100
AcDbLine
 10
217.149994
 20
121.4375
 30
0.0
 11
217.149994
 21
21.691296
 31
0.0
  0
LINE
  5
2CE
100
AcDbEntity
  8
0
  6
BYBLOCK
 62
     0
100
AcDbLine
 10
-10.200012
 20
21.871296
 30
0.0
 11
214.149994
 21
21.871296
 31
0.0
  0
SOLID
  5
2CF
100
AcDbEntity
  8
0
  6
BYBLOCK
 62
     0
100
AcDbTrace
 10
-10.200012
 20
22.371296
 30
0.0
 11
-10.200012
 21
21.371296
 31
0.0
 12
-13.200012
 22
21.871296
 32
0.0
 13
-13.200012
 23
21.871296
 33
0.0
  0
SOLID
  5
2D0
100
AcDbEntity
  8
0
  6
BYBLOCK
 62
     0
100
AcDbTrace
 10
214.149994
 20
22.371296
 30
0.0
 11
214.149994
 21
21.371296
 31
0.0
 12
217.149994
 22
21.871296
 32
0.0
 13
217.149994
 23
21.871296
 33
0.0
  0
TEXT
  5
2D1
100
AcDbEntity
  8
0
  6
BYBLOCK
 62
     0
100
AcDbText
 10
95.427372
 20
23.121296
 30
0.0
 40
2.5
  1
230.35
  7
ROMANS
 72
     1
 11
101.974991
 21
24.371296
 31
0.0
100
AcDbText
 73
     2
  0
POINT
  5
2D2
100
AcDbEntity
  8
DEFPOINTS
  6
BYBLOCK
 62
     0
100
AcDbPoint
 10
-13.200012
 20
113.5
 30
0.0
  0
POINT
  5
2D3
100
AcDbEntity
  8
DEFPOINTS
  6
BYBLOCK
 62
     0
100
AcDbPoint
 10
217.149994
 20
121.5
 30
0.0
  0
POINT
  5
2D4
100
AcDbEntity
  8
DEFPOINTS
  6
BYBLOCK
 62
     0
100
AcDbPoint
 10
217.149994
 20
21.871296
 30
0.0
  0
ENDBLK
  5
2D5
100
AcDbEntity
  8
0
100
AcDbBlockEnd
  0
BLOCK
  5
2D6
100
AcDbEntity
  8
0
100
AcDbBlockBegin
  2
*D13
 70
     1
 10
0.0
 20
0.0
 30
0.0
  3
*D13
  1

  0
LINE
  5
2D7
100
AcDbEntity
  8
0
  6
BYBLOCK
 62
     0
100
AcDbLine
 10
140.149994
 20
75.9375
 30
0.0
 11
140.149994
 21
38.856111
 31
0.0
  0
LINE
  5
2D8
100
AcDbEntity
  8
0
  6
BYBLOCK
 62
     0
100
AcDbLine
 10
217.149994
 20
121.4375
 30
0.0
 11
217.149994
 21
38.856111
 31
0.0
  0
LINE
  5
2D9
100
AcDbEntity
  8
0
  6
BYBLOCK
 62
     0
100
AcDbLine
 10
143.149994
 20
39.036111
 30
0.0
 11
214.149994
 21
39.036111
 31
0.0
  0
SOLID
  5
2DA
100
AcDbEntity
  8
0
  6
BYBLOCK
 62
     0
100
AcDbTrace
 10
143.149994
 20
39.536111
 30
0.0
 11
143.149994
 21
38.536111
 31
0.0
 12
140.149994
 22
39.036111
 32
0.0
 13
140.149994
 23
39.036111
 33
0.0
  0
SOLID
  5
2DB
100
AcDbEntity
  8
0
  6
BYBLOCK
 62
     0
100
AcDbTrace
 10
214.149994
 20
39.536111
 30
0.0
 11
214.149994
 21
38.536111
 31
0.0
 12
217.149994
 22
39.036111
 32
0.0
 13
217.149994
 23
39.036111
 33
0.0
  0
TEXT
  5
2DC
100
AcDbEntity
  8
0
  6
BYBLOCK
 62
     0
100
AcDbText
 10
176.269042
 20
40.286111
 30
0.0
 40
2.5
  1
77
  7
ROMANS
 72
     1
 11
178.649994
 21
41.536111
 31
0.0
100
AcDbText
 73
     2
  0
POINT
  5
2DD
100
AcDbEntity
  8
DEFPOINTS
  6
BYBLOCK
 62
     0
100
AcDbPoint
 10
140.149994
 20
76.0
 30
0.0
  0
POINT
  5
2DE
100
AcDbEntity
  8
DEFPOINTS
  6
BYBLOCK
 62
     0
100
AcDbPoint
 10
217.149994
 20
121.5
 30
0.0
  0
POINT
  5
2DF
100
AcDbEntity
  8
DEFPOINTS
  6
BYBLOCK
 62
     0
100
AcDbPoint
 10
217.149994
 20
39.036111
 30
0.0
  0
ENDBLK
  5
2E0
100
AcDbEntity
  8
0
100
AcDbBlockEnd
  0
BLOCK
  5
2E1
100
AcDbEntity
  8
0
100
AcDbBlockBegin
  2
*D14
 70
     1
 10
0.0
 20
0.0
 30
0.0
  3
*D14
  1

  0
LINE
  5
2E2
100
AcDbEntity
  8
0
  6
BYBLOCK
 62
     0
100
AcDbLine
 10
85.149994
 20
75.9375
 30
0.0
 11
85.149994
 21
38.856111
 31
0.0
  0
LINE
  5
2E3
100
AcDbEntity
  8
0
  6
BYBLOCK
 62
     0
100
AcDbLine
 10
140.149994
 20
75.9375
 30
0.0
 11
140.149994
 21
38.856111
 31
0.0
  0
LINE
  5
2E4
100
AcDbEntity
  8
0
  6
BYBLOCK
 62
     0
100
AcDbLine
 10
88.149994
 20
39.036111
 30
0.0
 11
137.149994
 21
39.036111
 31
0.0
  0
SOLID
  5
2E5
100
AcDbEntity
  8
0
  6
BYBLOCK
 62
     0
100
AcDbTrace
 10
88.149994
 20
39.536111
 30
0.0
 11
88.149994
 21
38.536111
 31
0.0
 12
85.149994
 22
39.036111
 32
0.0
 13
85.149994
 23
39.036111
 33
0.0
  0
SOLID
  5
2E6
100
AcDbEntity
  8
0
  6
BYBLOCK
 62
     0
100
AcDbTrace
 10
137.149994
 20
39.536111
 30
0.0
 11
137.149994
 21
38.536111
 31
0.0
 12
140.149994
 22
39.036111
 32
0.0
 13
140.149994
 23
39.036111
 33
0.0
  0
TEXT
  5
2E7
100
AcDbEntity
  8
0
  6
BYBLOCK
 62
     0
100
AcDbText
 10
110.269042
 20
40.286111
 30
0.0
 40
2.5
  1
55
  7
ROMANS
 72
     1
 11
112.649994
 21
41.536111
 31
0.0
100
AcDbText
 73
     2
  0
POINT
  5
2E8
100
AcDbEntity
  8
DEFPOINTS
  6
BYBLOCK
 62
     0
100
AcDbPoint
 10
85.149994
 20
76.0
 30
0.0
  0
POINT
  5
2E9
100
AcDbEntity
  8
DEFPOINTS
  6
BYBLOCK
 62
     0
100
AcDbPoint
 10
140.149994
 20
76.0
 30
0.0
  0
POINT
  5
2EA
100
AcDbEntity
  8
DEFPOINTS
  6
BYBLOCK
 62
     0
100
AcDbPoint
 10
140.149994
 20
39.036111
 30
0.0
  0
ENDBLK
  5
2EB
100
AcDbEntity
  8
0
100
AcDbBlockEnd
  0
BLOCK
  5
2EC
100
AcDbEntity
  8
0
100
AcDbBlockBegin
  2
*D15
 70
     1
 10
0.0
 20
0.0
 30
0.0
  3
*D15
  1

  0
LINE
  5
2ED
100
AcDbEntity
  8
0
  6
BYBLOCK
 62
     0
100
AcDbLine
 10
30.149994
 20
75.9375
 30
0.0
 11
30.149994
 21
38.856111
 31
0.0
  0
LINE
  5
2EE
100
AcDbEntity
  8
0
  6
BYBLOCK
 62
     0
100
AcDbLine
 10
85.149994
 20
75.9375
 30
0.0
 11
85.149994
 21
38.856111
 31
0.0
  0
LINE
  5
2EF
100
AcDbEntity
  8
0
  6
BYBLOCK
 62
     0
100
AcDbLine
 10
33.149994
 20
39.036111
 30
0.0
 11
82.149994
 21
39.036111
 31
0.0
  0
SOLID
  5
2F0
100
AcDbEntity
  8
0
  6
BYBLOCK
 62
     0
100
AcDbTrace
 10
33.149994
 20
39.536111
 30
0.0
 11
33.149994
 21
38.536111
 31
0.0
 12
30.149994
 22
39.036111
 32
0.0
 13
30.149994
 23
39.036111
 33
0.0
  0
SOLID
  5
2F1
100
AcDbEntity
  8
0
  6
BYBLOCK
 62
     0
100
AcDbTrace
 10
82.149994
 20
39.536111
 30
0.0
 11
82.149994
 21
38.536111
 31
0.0
 12
85.149994
 22
39.036111
 32
0.0
 13
85.149994
 23
39.036111
 33
0.0
  0
TEXT
  5
2F2
100
AcDbEntity
  8
0
  6
BYBLOCK
 62
     0
100
AcDbText
 10
55.269042
 20
40.286111
 30
0.0
 40
2.5
  1
55
  7
ROMANS
 72
     1
 11
57.649994
 21
41.536111
 31
0.0
100
AcDbText
 73
     2
  0
POINT
  5
2F3
100
AcDbEntity
  8
DEFPOINTS
  6
BYBLOCK
 62
     0
100
AcDbPoint
 10
30.149994
 20
76.0
 30
0.0
  0
POINT
  5
2F4
100
AcDbEntity
  8
DEFPOINTS
  6
BYBLOCK
 62
     0
100
AcDbPoint
 10
85.149994
 20
76.0
 30
0.0
  0
POINT
  5
2F5
100
AcDbEntity
  8
DEFPOINTS
  6
BYBLOCK
 62
     0
100
AcDbPoint
 10
85.149994
 20
39.036111
 30
0.0
  0
ENDBLK
  5
2F6
100
AcDbEntity
  8
0
100
AcDbBlockEnd
  0
BLOCK
  5
2F7
100
AcDbEntity
  8
0
100
AcDbBlockBegin
  2
*D16
 70
     1
 10
0.0
 20
0.0
 30
0.0
  3
*D16
  1

  0
LINE
  5
2F8
100
AcDbEntity
  8
0
  6
BYBLOCK
 62
     0
100
AcDbLine
 10
-13.200012
 20
113.4375
 30
0.0
 11
-13.200012
 21
38.856111
 31
0.0
  0
LINE
  5
2F9
100
AcDbEntity
  8
0
  6
BYBLOCK
 62
     0
100
AcDbLine
 10
30.149994
 20
75.9375
 30
0.0
 11
30.149994
 21
38.856111
 31
0.0
  0
LINE
  5
2FA
100
AcDbEntity
  8
0
  6
BYBLOCK
 62
     0
100
AcDbLine
 10
-10.200012
 20
39.036111
 30
0.0
 11
27.149994
 21
39.036111
 31
0.0
  0
SOLID
  5
2FB
100
AcDbEntity
  8
0
  6
BYBLOCK
 62
     0
100
AcDbTrace
 10
-10.200012
 20
39.536111
 30
0.0
 11
-10.200012
 21
38.536111
 31
0.0
 12
-13.200012
 22
39.036111
 32
0.0
 13
-13.200012
 23
39.036111
 33
0.0
  0
SOLID
  5
2FC
100
AcDbEntity
  8
0
  6
BYBLOCK
 62
     0
100
AcDbTrace
 10
27.149994
 20
39.536111
 30
0.0
 11
27.149994
 21
38.536111
 31
0.0
 12
30.149994
 22
39.036111
 32
0.0
 13
30.149994
 23
39.036111
 33
0.0
  0
TEXT
  5
2FD
100
AcDbEntity
  8
0
  6
BYBLOCK
 62
     0
100
AcDbText
 10
3.117848
 20
40.286111
 30
0.0
 40
2.5
  1
43.35
  7
ROMANS
 72
     1
 11
8.474991
 21
41.536111
 31
0.0
100
AcDbText
 73
     2
  0
POINT
  5
2FE
100
AcDbEntity
  8
DEFPOINTS
  6
BYBLOCK
 62
     0
100
AcDbPoint
 10
-13.200012
 20
113.5
 30
0.0
  0
POINT
  5
2FF
100
AcDbEntity
  8
DEFPOINTS
  6
BYBLOCK
 62
     0
100
AcDbPoint
 10
30.149994
 20
76.0
 30
0.0
  0
POINT
  5
300
100
AcDbEntity
  8
DEFPOINTS
  6
BYBLOCK
 62
     0
100
AcDbPoint
 10
30.149994
 20
39.036111
 30
0.0
  0
ENDBLK
  5
301
100
AcDbEntity
  8
0
100
AcDbBlockEnd
  0
ENDSEC
  0
SECTION
  2
ENTITIES
  0
LINE
  5
1E
100
AcDbEntity
  8
TEXTE
100
AcDbLine
 10
105.501678
 20
266.0
 30
0.0
 11
105.501678
 21
264.739532
 31
0.0
  0
LINE
  5
20
100
AcDbEntity
  8
TEXTE
100
AcDbLine
 10
117.501678
 20
266.0
 30
0.0
 11
117.501678
 21
264.739532
 31
0.0
  0
LINE
  5
21
100
AcDbEntity
  8
ALPHA
100
AcDbLine
 10
125.149994
 20
299.0
 30
0.0
 11
125.149994
 21
264.920364
 31
0.0
  0
LINE
  5
23
100
AcDbEntity
  8
ALPHA
100
AcDbLine
 10
155.149994
 20
299.0
 30
0.0
 11
155.149994
 21
264.920364
 31
0.0
  0
LINE
  5
24
100
AcDbEntity
  8
ALPHA
100
AcDbLine
 10
100.149994
 20
299.0
 30
0.0
 11
100.149994
 21
264.920364
 31
0.0
  0
LINE
  5
25
100
AcDbEntity
  8
ALPHA
100
AcDbLine
 10
70.149994
 20
299.0
 30
0.0
 11
70.149994
 21
264.920364
 31
0.0
  0
LINE
  5
26
100
AcDbEntity
  8
ALPHA
100
AcDbLine
 10
45.149994
 20
299.0
 30
0.0
 11
45.149994
 21
264.920364
 31
0.0
  0
LINE
  5
27
100
AcDbEntity
  8
ALPHA
100
AcDbLine
 10
15.149994
 20
299.0
 30
0.0
 11
15.149994
 21
264.920364
 31
0.0
  0
LINE
  5
28
100
AcDbEntity
  8
ALPHA
100
AcDbLine
 10
15.149994
 20
299.0
 30
0.0
 11
45.149994
 21
299.0
 31
0.0
  0
LINE
  5
29
100
AcDbEntity
  8
ALPHA
100
AcDbLine
 10
15.149994
 20
61.0
 30
0.0
 11
45.149994
 21
61.0
 31
0.0
  0
LINE
  5
2A
100
AcDbEntity
  8
ALPHA
100
AcDbLine
 10
15.149994
 20
95.079636
 30
0.0
 11
15.149994
 21
61.0
 31
0.0
  0
LINE
  5
2B
100
AcDbEntity
  8
ALPHA
100
AcDbLine
 10
45.149994
 20
95.079636
 30
0.0
 11
45.149994
 21
61.0
 31
0.0
  0
LINE
  5
2C
100
AcDbEntity
  8
ALPHA
100
AcDbLine
 10
70.149994
 20
95.079636
 30
0.0
 11
70.149994
 21
61.0
 31
0.0
  0
LINE
  5
2D
100
AcDbEntity
  8
ALPHA
100
AcDbLine
 10
100.149994
 20
95.079636
 30
0.0
 11
100.149994
 21
61.0
 31
0.0
  0
LINE
  5
2E
100
AcDbEntity
  8
ALPHA
100
AcDbLine
 10
125.149994
 20
95.079636
 30
0.0
 11
125.149994
 21
61.0
 31
0.0
  0
LINE
  5
2F
100
AcDbEntity
  8
ALPHA
100
AcDbLine
 10
155.149994
 20
95.079636
 30
0.0
 11
155.149994
 21
61.0
 31
0.0
  0
LINE
  5
30
100
AcDbEntity
  8
ALPHA
100
AcDbLine
 10
125.149994
 20
61.0
 30
0.0
 11
155.149994
 21
61.0
 31
0.0
  0
LINE
  5
31
100
AcDbEntity
  8
ALPHA
100
AcDbLine
 10
70.149994
 20
61.0
 30
0.0
 11
100.149994
 21
61.0
 31
0.0
  0
LINE
  5
32
100
AcDbEntity
  8
ALPHA
100
AcDbLine
 10
70.149994
 20
299.0
 30
0.0
 11
100.149994
 21
299.0
 31
0.0
  0
LINE
  5
33
100
AcDbEntity
  8
ALPHA
100
AcDbLine
 10
125.149994
 20
299.0
 30
0.0
 11
155.149994
 21
299.0
 31
0.0
  0
CIRCLE
  5
34
100
AcDbEntity
  8
ALPHA
100
AcDbCircle
 10
30.149994
 20
284.0
 30
0.0
 40
5.5
  0
CIRCLE
  5
35
100
AcDbEntity
  8
ALPHA
100
AcDbCircle
 10
85.149994
 20
284.0
 30
0.0
 40
5.5
  0
CIRCLE
  5
36
100
AcDbEntity
  8
ALPHA
100
AcDbCircle
 10
140.149994
 20
284.0
 30
0.0
 40
5.5
  0
CIRCLE
  5
37
100
AcDbEntity
  8
ALPHA
100
AcDbCircle
 10
140.149994
 20
76.0
 30
0.0
 40
5.5
  0
CIRCLE
  5
38
100
AcDbEntity
  8
ALPHA
100
AcDbCircle
 10
85.149994
 20
76.0
 30
0.0
 40
5.5
  0
CIRCLE
  5
39
100
AcDbEntity
  8
ALPHA
100
AcDbCircle
 10
30.149994
 20
76.0
 30
0.0
 40
5.5
  0
LINE
  5
3A
100
AcDbEntity
  8
ALPHA
100
AcDbLine
 10
217.149994
 20
238.5
 30
0.0
 11
217.149994
 21
121.5
 31
0.0
  0
LINE
  5
3B
100
AcDbEntity
  8
ALPHA
100
AcDbLine
 10
168.526489
 20
108.5
 30
0.0
 11
204.149994
 21
108.5
 31
0.0
  0
LINE
  5
3C
100
AcDbEntity
  8
ALPHA
100
AcDbLine
 10
168.526489
 20
251.5
 30
0.0
 11
204.149994
 21
251.5
 31
0.0
  0
LINE
  5
3D
100
AcDbEntity
  8
ALPHA
100
AcDbLine
 10
168.526489
 20
238.5
 30
0.0
 11
217.149994
 21
238.5
 31
0.0
  0
LINE
  5
3E
100
AcDbEntity
  8
ALPHA
100
AcDbLine
 10
168.526489
 20
121.5
 30
0.0
 11
217.149994
 21
121.5
 31
0.0
  0
LINE
  5
3F
100
AcDbEntity
  8
ALPHA
100
AcDbLine
 10
213.149994
 20
121.500004
 30
0.0
 11
204.149994
 21
108.5
 31
0.0
  0
LINE
  5
40
100
AcDbEntity
  8
ALPHA
100
AcDbLine
 10
213.150002
 20
238.500004
 30
0.0
 11
204.150002
 21
251.500008
 31
0.0
  0
LINE
  5
41
100
AcDbEntity
  8
ALPHA
100
AcDbLine
 10
168.526489
 20
231.0
 30
0.0
 11
217.149994
 21
231.0
 31
0.0
  0
LINE
  5
42
100
AcDbEntity
  8
ALPHA
100
AcDbLine
 10
168.526489
 20
199.0
 30
0.0
 11
217.149994
 21
199.0
 31
0.0
  0
LINE
  5
43
100
AcDbEntity
  8
ALPHA
100
AcDbLine
 10
168.526489
 20
161.0
 30
0.0
 11
217.149994
 21
161.0
 31
0.0
  0
LINE
  5
44
100
AcDbEntity
  8
ALPHA
100
AcDbLine
 10
168.526489
 20
129.0
 30
0.0
 11
217.149994
 21
129.0
 31
0.0
  0
LINE
  5
45
100
AcDbEntity
  8
ALPHA
100
AcDbLine
 10
168.526489
 20
150.0
 30
0.0
 11
217.149994
 21
150.0
 31
0.0
  0
LINE
  5
46
100
AcDbEntity
  8
ALPHA
100
AcDbLine
 10
168.526489
 20
140.0
 30
0.0
 11
217.149994
 21
140.0
 31
0.0
  0
LINE
  5
47
100
AcDbEntity
  8
ALPHA
100
AcDbLine
 10
168.526489
 20
220.0
 30
0.0
 11
217.149994
 21
220.0
 31
0.0
  0
LINE
  5
48
100
AcDbEntity
  8
ALPHA
100
AcDbLine
 10
168.526489
 20
210.0
 30
0.0
 11
217.149994
 21
210.0
 31
0.0
  0
LINE
  5
49
100
AcDbEntity
  8
ALPHA
100
AcDbLine
 10
187.649994
 20
220.0
 30
0.0
 11
187.649994
 21
210.0
 31
0.0
  0
LINE
  5
4A
100
AcDbEntity
  8
ALPHA
100
AcDbLine
 10
202.649994
 20
220.0
 30
0.0
 11
202.649994
 21
210.0
 31
0.0
  0
LINE
  5
4B
100
AcDbEntity
  8
ALPHA
100
AcDbLine
 10
187.649994
 20
150.0
 30
0.0
 11
187.649994
 21
140.0
 31
0.0
  0
LINE
  5
4C
100
AcDbEntity
  8
ALPHA
100
AcDbLine
 10
202.649994
 20
150.0
 30
0.0
 11
202.649994
 21
140.0
 31
0.0
  0
LINE
  5
4D
100
AcDbEntity
  8
ALPHA
100
AcDbLine
 10
-11.200012
 20
248.5
 30
0.0
 11
6.273499
 21
248.5
 31
0.0
  0
LINE
  5
4E
100
AcDbEntity
  8
ALPHA
100
AcDbLine
 10
-11.200012
 20
111.5
 30
0.0
 11
6.273499
 21
111.5
 31
0.0
  0
LINE
  5
4F
100
AcDbEntity
  8
ALPHA
100
AcDbLine
 10
-13.200012
 20
246.5
 30
0.0
 11
-13.200012
 21
113.5
 31
0.0
  0
ARC
  5
50
100
AcDbEntity
  8
ALPHA
100
AcDbCircle
 10
-11.200012
 20
246.5
 30
0.0
 40
2.0
100
AcDbArc
 50
89.999982
 51
180.000019
  0
ARC
  5
51
100
AcDbEntity
  8
ALPHA
100
AcDbCircle
 10
-11.200012
 20
113.5
 30
0.0
 40
2.0
100
AcDbArc
 50
180.000019
 51
270.000001
  0
ARC
  5
52
100
AcDbEntity
  8
ALPHA
100
AcDbCircle
 10
-2.700012
 20
237.699997
 30
0.0
 40
2.0
100
AcDbArc
 50
0.0
 51
89.999982
  0
LINE
  5
53
100
AcDbEntity
  8
ALPHA
100
AcDbLine
 10
-2.700012
 20
239.699997
 30
0.0
 11
-13.200012
 21
239.699997
 31
0.0
  0
LINE
  5
54
100
AcDbEntity
  8
ALPHA
100
AcDbLine
 10
-2.700012
 20
235.699997
 30
0.0
 11
-13.200012
 21
235.699997
 31
0.0
  0
ARC
  5
55
100
AcDbEntity
  8
ALPHA
100
AcDbCircle
 10
-2.700012
 20
237.699997
 30
0.0
 40
2.0
100
AcDbArc
 50
270.000028
 51
359.999983
  0
LINE
  5
56
100
AcDbEntity
  8
ALPHA
100
AcDbLine
 10
-2.000015
 20
193.5
 30
0.0
 11
-2.000015
 21
166.5
 31
0.0
  0
LINE
  5
57
100
AcDbEntity
  8
ALPHA
100
AcDbLine
 10
-13.200012
 20
193.5
 30
0.0
 11
-2.000015
 21
193.5
 31
0.0
  0
LINE
  5
58
100
AcDbEntity
  8
ALPHA
100
AcDbLine
 10
-13.200012
 20
166.5
 30
0.0
 11
-2.000015
 21
166.5
 31
0.0
  0
LINE
  5
59
100
AcDbEntity
  8
ALPHA
100
AcDbLine
 10
-10.950012
 20
183.25
 30
0.0
 11
-2.950012
 21
183.25
 31
0.0
  0
LINE
  5
5A
100
AcDbEntity
  8
ALPHA
100
AcDbLine
 10
-10.950012
 20
176.75
 30
0.0
 11
-2.950012
 21
176.75
 31
0.0
  0
LINE
  5
5B
100
AcDbEntity
  8
ALPHA
100
AcDbLine
 10
-10.950012
 20
183.25
 30
0.0
 11
-10.950012
 21
176.75
 31
0.0
  0
LINE
  5
5C
100
AcDbEntity
  8
ALPHA
100
AcDbLine
 10
-2.950012
 20
183.25
 30
0.0
 11
-2.950012
 21
176.75
 31
0.0
  0
LINE
  5
5D
100
AcDbEntity
  8
ALPHA
100
AcDbLine
 10
-15.850006
 20
223.300003
 30
0.0
 11
-13.200012
 21
223.300003
 31
0.0
  0
LINE
  5
5E
100
AcDbEntity
  8
ALPHA
100
AcDbLine
 10
-15.850006
 20
234.699997
 30
0.0
 11
-13.200012
 21
234.699997
 31
0.0
  0
LINE
  5
5F
100
AcDbEntity
  8
ALPHA
100
AcDbLine
 10
-15.850006
 20
234.699997
 30
0.0
 11
-15.850006
 21
223.300003
 31
0.0
  0
LINE
  5
60
100
AcDbEntity
  8
ALPHA
100
AcDbLine
 10
-15.850006
 20
134.0
 30
0.0
 11
-13.200012
 21
134.0
 31
0.0
  0
LINE
  5
61
100
AcDbEntity
  8
ALPHA
100
AcDbLine
 10
-15.850006
 20
128.0
 30
0.0
 11
-13.200012
 21
128.0
 31
0.0
  0
LINE
  5
62
100
AcDbEntity
  8
ALPHA
100
AcDbLine
 10
-15.850006
 20
134.0
 30
0.0
 11
-15.850006
 21
128.0
 31
0.0
  0
LINE
  5
63
100
AcDbEntity
  8
ALPHA
100
AcDbLine
 10
45.149994
 20
282.0
 30
0.0
 11
55.339111
 21
282.0
 31
0.0
  0
LINE
  5
64
100
AcDbEntity
  8
ALPHA
100
AcDbLine
 10
45.149994
 20
73.0
 30
0.0
 11
55.339111
 21
73.0
 31
0.0
  0
LINE
  5
65
100
AcDbEntity
  8
ALPHA
100
AcDbLine
 10
70.149996
 20
86.653221
 30
0.0
 11
65.731411
 21
79.0
 31
0.0
  0
LINE
  5
66
100
AcDbEntity
  8
ALPHA
100
AcDbLine
 10
70.149992
 20
268.346817
 30
0.0
 11
65.731422
 21
276.000008
 31
0.0
  0
ARC
  5
67
100
AcDbEntity
  8
ALPHA
100
AcDbCircle
 10
55.339111
 20
270.0
 30
0.0
 40
12.0
100
AcDbArc
 50
30.000011
 51
89.999982
  0
ARC
  5
68
100
AcDbEntity
  8
ALPHA
100
AcDbCircle
 10
24.094849
 20
270.0
 30
0.0
 40
12.0
100
AcDbArc
 50
138.193851
 51
149.99997
  0
ARC
  5
69
100
AcDbEntity
  8
ALPHA
100
AcDbCircle
 10
24.094849
 20
85.0
 30
0.0
 40
12.0
100
AcDbArc
 50
209.999972
 51
221.806145
  0
ARC
  5
6A
100
AcDbEntity
  8
ALPHA
100
AcDbCircle
 10
55.339111
 20
85.0
 30
0.0
 40
12.0
100
AcDbArc
 50
270.000028
 51
330.000016
  0
LINE
  5
6B
100
AcDbEntity
  8
ALPHA
100
AcDbLine
 10
56.899994
 20
264.920364
 30
0.0
 11
56.899994
 21
270.244049
 31
0.0
  0
LINE
  5
6C
100
AcDbEntity
  8
ALPHA
100
AcDbLine
 10
48.399994
 20
264.920364
 30
0.0
 11
48.399994
 21
270.244049
 31
0.0
  0
ARC
  5
6D
100
AcDbEntity
  8
ALPHA
100
AcDbCircle
 10
52.649994
 20
265.0
 30
0.0
 40
6.75
100
AcDbArc
 50
50.977195
 51
129.02282
  0
LINE
  5
6E
100
AcDbEntity
  8
ALPHA
100
AcDbLine
 10
56.899994
 20
84.755951
 30
0.0
 11
56.899994
 21
95.079636
 31
0.0
  0
LINE
  5
6F
100
AcDbEntity
  8
ALPHA
100
AcDbLine
 10
48.399994
 20
84.755951
 30
0.0
 11
48.399994
 21
95.079636
 31
0.0
  0
ARC
  5
70
100
AcDbEntity
  8
ALPHA
100
AcDbCircle
 10
52.649994
 20
90.0
 30
0.0
 40
6.75
100
AcDbArc
 50
230.97719
 51
309.022811
  0
LINE
  5
71
100
AcDbEntity
  8
ALPHA
100
AcDbLine
 10
161.205139
 20
282.0
 30
0.0
 11
155.149994
 21
282.0
 31
0.0
  0
LINE
  5
72
100
AcDbEntity
  8
ALPHA
100
AcDbLine
 10
161.205139
 20
73.0
 30
0.0
 11
155.149994
 21
73.0
 31
0.0
  0
LINE
  5
73
100
AcDbEntity
  8
ALPHA
100
AcDbLine
 10
188.629272
 20
108.5
 30
0.0
 11
171.59745
 21
79.000008
 31
0.0
  0
LINE
  5
74
100
AcDbEntity
  8
ALPHA
100
AcDbLine
 10
185.742538
 20
251.500008
 30
0.0
 11
171.597458
 21
276.000008
 31
0.0
  0
LINE
  5
75
100
AcDbEntity
  8
ALPHA
100
AcDbLine
 10
110.284984
 20
95.079636
 30
0.0
 11
119.568565
 21
79.0
 31
0.0
  0
LINE
  5
76
100
AcDbEntity
  8
ALPHA
100
AcDbLine
 10
113.171719
 20
264.920364
 30
0.0
 11
119.568562
 21
276.000031
 31
0.0
  0
ARC
  5
77
100
AcDbEntity
  8
ALPHA
100
AcDbCircle
 10
129.960876
 20
270.0
 30
0.0
 40
12.0
100
AcDbArc
 50
113.634895
 51
149.99997
  0
ARC
  5
78
100
AcDbEntity
  8
ALPHA
100
AcDbCircle
 10
161.205139
 20
270.0
 30
0.0
 40
12.0
100
AcDbArc
 50
30.000011
 51
89.999982
  0
ARC
  5
79
100
AcDbEntity
  8
ALPHA
100
AcDbCircle
 10
161.205139
 20
85.0
 30
0.0
 40
12.0
100
AcDbArc
 50
269.999973
 51
330.000016
  0
ARC
  5
7A
100
AcDbEntity
  8
ALPHA
100
AcDbCircle
 10
129.960876
 20
85.0
 30
0.0
 40
12.0
100
AcDbArc
 50
209.999972
 51
246.365115
  0
LINE
  5
7B
100
AcDbEntity
  8
ALPHA
100
AcDbLine
 10
-2.174606
 20
248.5
 30
0.0
 11
13.702538
 21
276.000015
 31
0.0
  0
LINE
  5
7C
100
AcDbEntity
  8
ALPHA
100
AcDbLine
 10
-5.061325
 20
111.5
 30
0.0
 11
13.702553
 21
78.999992
 31
0.0
  0
LINE
  5
7D
100
AcDbEntity
  8
ALPHA
100
AcDbLine
 10
163.526489
 20
95.079636
 30
0.0
 11
11.273499
 21
95.079636
 31
0.0
  0
LINE
  5
7E
100
AcDbEntity
  8
ALPHA
100
AcDbLine
 10
163.526489
 20
264.920364
 30
0.0
 11
11.273499
 21
264.920364
 31
0.0
  0
LINE
  5
7F
100
AcDbEntity
  8
ALPHA
100
AcDbLine
 10
168.526489
 20
100.079636
 30
0.0
 11
168.526489
 21
259.920364
 31
0.0
  0
LINE
  5
80
100
AcDbEntity
  8
ALPHA
100
AcDbLine
 10
6.273499
 20
100.079636
 30
0.0
 11
6.273499
 21
259.920364
 31
0.0
  0
ARC
  5
81
100
AcDbEntity
  8
ALPHA
100
AcDbCircle
 10
163.526489
 20
100.079636
 30
0.0
 40
5.0
100
AcDbArc
 50
270.000001
 51
0.00001
  0
ARC
  5
82
100
AcDbEntity
  8
ALPHA
100
AcDbCircle
 10
11.273499
 20
100.079636
 30
0.0
 40
5.0
100
AcDbArc
 50
180.000005
 51
270.000001
  0
ARC
  5
83
100
AcDbEntity
  8
ALPHA
100
AcDbCircle
 10
163.526489
 20
259.920364
 30
0.0
 40
5.0
100
AcDbArc
 50
0.000005
 51
90.000003
  0
ARC
  5
84
100
AcDbEntity
  8
ALPHA
100
AcDbCircle
 10
11.273499
 20
259.920364
 30
0.0
 40
5.0
100
AcDbArc
 50
90.000003
 51
180.000005
  0
LINE
  5
85
100
AcDbEntity
  8
ALPHA
100
AcDbLine
 10
125.386292
 20
95.079636
 30
0.0
 11
125.386292
 21
264.920364
 31
0.0
  0
LINE
  5
86
100
AcDbEntity
  8
ALPHA
100
AcDbLine
 10
8.273499
 20
217.0
 30
0.0
 11
8.273499
 21
227.0
 31
0.0
  0
LINE
  5
87
100
AcDbEntity
  8
ALPHA
100
AcDbLine
 10
8.273499
 20
227.0
 30
0.0
 11
125.386292
 21
227.0
 31
0.0
  0
LINE
  5
88
100
AcDbEntity
  8
ALPHA
100
AcDbLine
 10
8.273499
 20
217.0
 30
0.0
 11
125.386292
 21
217.0
 31
0.0
  0
LINE
  5
89
100
AcDbEntity
  8
ALPHA
100
AcDbLine
 10
37.622803
 20
222.167068
 30
0.0
 11
38.933884
 21
222.167068
 31
0.0
  0
LINE
  5
8A
100
AcDbEntity
  8
ALPHA
100
AcDbLine
 10
37.622803
 20
221.691345
 30
0.0
 11
39.539215
 21
221.691345
 31
0.0
  0
LINE
  5
8B
100
AcDbEntity
  8
ALPHA
100
AcDbLine
 10
38.814819
 20
221.508362
 30
0.0
 11
39.474762
 21
221.508362
 31
0.0
  0
LWPOLYLINE
  5
8C
100
AcDbEntity
  8
ALPHA
100
AcDbPolyline
 90
        9
 70
     0
 43
0.0
 10
37.622727
 20
221.691317
 10
37.710131
 20
221.545109
 10
37.835066
 20
221.424273
 10
37.989276
 20
221.33679
 10
38.162575
 20
221.288441
 10
38.343516
 20
221.282419
 10
38.520144
 20
221.319123
 10
38.680793
 20
221.396126
 10
38.814849
 20
221.508343
  0
LWPOLYLINE
  5
97
100
AcDbEntity
  8
ALPHA
100
AcDbPolyline
 90
        9
 70
     0
 43
0.0
 10
38.933761
 20
222.167051
 10
38.828702
 20
222.334528
 10
38.674807
 20
222.466043
 10
38.48573
 20
222.549929
 10
38.278244
 20
222.578743
 10
38.070759
 20
222.549929
 10
37.881681
 20
222.466043
 10
37.727786
 20
222.334528
 10
37.622727
 20
222.167051
  0
LINE
  5
A2
100
AcDbEntity
  8
ALPHA
100
AcDbLine
 10
28.617264
 20
223.67659
 30
0.0
 11
28.617264
 21
220.85881
 31
0.0
  0
LINE
  5
A3
100
AcDbEntity
  8
ALPHA
100
AcDbLine
 10
24.665039
 20
220.85881
 30
0.0
 11
25.341965
 21
220.85881
 31
0.0
  0
LINE
  5
A4
100
AcDbEntity
  8
ALPHA
100
AcDbLine
 10
23.741028
 20
223.67659
 30
0.0
 11
26.265976
 21
223.67659
 31
0.0
  0
LINE
  5
A5
100
AcDbEntity
  8
ALPHA
100
AcDbLine
 10
29.294205
 20
223.67659
 30
0.0
 11
29.294205
 21
220.85881
 31
0.0
  0
LINE
  5
A6
100
AcDbEntity
  8
ALPHA
100
AcDbLine
 10
28.617264
 20
220.85881
 30
0.0
 11
29.294205
 21
220.85881
 31
0.0
  0
LINE
  5
A7
100
AcDbEntity
  8
ALPHA
100
AcDbLine
 10
25.341965
 20
223.164261
 30
0.0
 11
25.341965
 21
220.85881
 31
0.0
  0
LINE
  5
A8
100
AcDbEntity
  8
ALPHA
100
AcDbLine
 10
24.665039
 20
223.164261
 30
0.0
 11
24.665039
 21
220.85881
 31
0.0
  0
LINE
  5
A9
100
AcDbEntity
  8
ALPHA
100
AcDbLine
 10
28.617264
 20
223.67659
 30
0.0
 11
29.294205
 21
223.67659
 31
0.0
  0
LINE
  5
AA
100
AcDbEntity
  8
ALPHA
100
AcDbLine
 10
23.741028
 20
223.164261
 30
0.0
 11
24.665039
 21
223.164261
 31
0.0
  0
LINE
  5
AB
100
AcDbEntity
  8
ALPHA
100
AcDbLine
 10
26.265976
 20
223.67659
 30
0.0
 11
26.265976
 21
223.164261
 31
0.0
  0
LINE
  5
AC
100
AcDbEntity
  8
ALPHA
100
AcDbLine
 10
25.341965
 20
223.164261
 30
0.0
 11
26.265976
 21
223.164261
 31
0.0
  0
LINE
  5
AD
100
AcDbEntity
  8
ALPHA
100
AcDbLine
 10
23.741028
 20
223.67659
 30
0.0
 11
23.741028
 21
223.164261
 31
0.0
  0
LWPOLYLINE
  5
AE
100
AcDbEntity
  8
ALPHA
100
AcDbPolyline
 90
       17
 70
     0
 43
0.0
 10
28.268006
 20
221.691317
 10
28.278764
 20
222.118526
 10
28.106161
 20
222.518431
 10
27.775088
 20
222.833368
 10
27.333284
 20
223.017923
 10
26.844457
 20
223.045482
 10
26.379096
 20
222.912073
 10
26.004305
 20
222.636932
 10
25.774128
 20
222.259735
 10
25.721757
 20
221.834873
 10
25.854743
 20
221.42361
 10
26.153911
 20
221.085251
 10
26.576119
 20
220.868585
 10
27.060488
 20
220.804857
 10
27.53717
 20
220.903255
 10
27.937429
 20
221.149591
 10
28.203549
 20
221.508344
  0
LINE
  5
C1
100
AcDbEntity
  8
ALPHA
100
AcDbLine
 10
26.351562
 20
222.167068
 30
0.0
 11
27.662643
 21
222.167068
 31
0.0
  0
LINE
  5
C2
100
AcDbEntity
  8
ALPHA
100
AcDbLine
 10
26.351562
 20
221.691345
 30
0.0
 11
28.267975
 21
221.691345
 31
0.0
  0
LINE
  5
C3
100
AcDbEntity
  8
ALPHA
100
AcDbLine
 10
27.543762
 20
221.508362
 30
0.0
 11
28.203522
 21
221.508362
 31
0.0
  0
LWPOLYLINE
  5
C4
100
AcDbEntity
  8
ALPHA
100
AcDbPolyline
 90
        9
 70
     0
 43
0.0
 10
26.35167
 20
221.691317
 10
26.439074
 20
221.545109
 10
26.564008
 20
221.424273
 10
26.718219
 20
221.33679
 10
26.891518
 20
221.288441
 10
27.072458
 20
221.282419
 10
27.249087
 20
221.319123
 10
27.409736
 20
221.396126
 10
27.543792
 20
221.508343
  0
LWPOLYLINE
  5
CF
100
AcDbEntity
  8
ALPHA
100
AcDbPolyline
 90
        9
 70
     0
 43
0.0
 10
27.662704
 20
222.167051
 10
27.557645
 20
222.334528
 10
27.40375
 20
222.466043
 10
27.214673
 20
222.549929
 10
27.007187
 20
222.578743
 10
26.799702
 20
222.549929
 10
26.610624
 20
222.466043
 10
26.456729
 20
222.334528
 10
26.35167
 20
222.167051
  0
LWPOLYLINE
  5
DA
100
AcDbEntity
  8
ALPHA
100
AcDbPolyline
 90
       17
 70
     0
 43
0.0
 10
39.539125
 20
221.691566
 10
39.549775
 20
222.118761
 10
39.377085
 20
222.518621
 10
39.045954
 20
222.833491
 10
38.604129
 20
223.017971
 10
38.115316
 20
223.04546
 10
37.649994
 20
222.911996
 10
37.275259
 20
222.636821
 10
37.045142
 20
222.259614
 10
36.992825
 20
221.834762
 10
37.125849
 20
221.423525
 10
37.425036
 20
221.085198
 10
37.847245
 20
220.868564
 10
38.331599
 20
220.804859
 10
38.80826
 20
220.903268
 10
39.208499
 20
221.149603
 10
39.474606
 20
221.508344
  0
LINE
  5
ED
100
AcDbEntity
  8
ALPHA
100
AcDbLine
 10
32.514526
 20
222.999588
 30
0.0
 11
32.514526
 21
220.85881
 31
0.0
  0
LINE
  5
EE
100
AcDbEntity
  8
ALPHA
100
AcDbLine
 10
33.19165
 20
222.999588
 30
0.0
 11
33.19165
 21
222.86763
 31
0.0
  0
LINE
  5
EF
100
AcDbEntity
  8
ALPHA
100
AcDbLine
 10
34.252792
 20
222.107498
 30
0.0
 11
34.252792
 21
220.85881
 31
0.0
  0
LINE
  5
F0
100
AcDbEntity
  8
ALPHA
100
AcDbLine
 10
34.929901
 20
222.107498
 30
0.0
 11
34.929901
 21
220.85881
 31
0.0
  0
LINE
  5
F1
100
AcDbEntity
  8
ALPHA
100
AcDbLine
 10
35.991058
 20
222.107498
 30
0.0
 11
35.991058
 21
220.85881
 31
0.0
  0
LINE
  5
F2
100
AcDbEntity
  8
ALPHA
100
AcDbLine
 10
36.668182
 20
222.255081
 30
0.0
 11
36.668182
 21
220.85881
 31
0.0
  0
LINE
  5
F3
100
AcDbEntity
  8
ALPHA
100
AcDbLine
 10
34.252792
 20
220.85881
 30
0.0
 11
34.929901
 21
220.85881
 31
0.0
  0
LINE
  5
F4
100
AcDbEntity
  8
ALPHA
100
AcDbLine
 10
35.991058
 20
220.85881
 30
0.0
 11
36.668182
 21
220.85881
 31
0.0
  0
LINE
  5
F5
100
AcDbEntity
  8
ALPHA
100
AcDbLine
 10
32.514526
 20
220.85881
 30
0.0
 11
33.19165
 21
220.85881
 31
0.0
  0
ARC
  5
F6
100
AcDbEntity
  8
ALPHA
100
AcDbCircle
 10
33.722321
 20
221.993225
 30
0.0
 40
0.585518
100
AcDbArc
 50
51.317783
 51
128.682567
  0
ARC
  5
F7
100
AcDbEntity
  8
ALPHA
100
AcDbCircle
 10
35.460571
 20
221.993225
 30
0.0
 40
0.585518
100
AcDbArc
 50
51.317783
 51
128.682567
  0
ARC
  5
F8
100
AcDbEntity
  8
ALPHA
100
AcDbCircle
 10
33.630829
 20
222.107498
 30
0.0
 40
0.439138
100
AcDbArc
 50
128.682676
 51
180.000019
  0
ARC
  5
F9
100
AcDbEntity
  8
ALPHA
100
AcDbCircle
 10
33.813797
 20
222.107498
 30
0.0
 40
0.439138
100
AcDbArc
 50
0.0
 51
51.317759
  0
ARC
  5
FA
100
AcDbEntity
  8
ALPHA
100
AcDbCircle
 10
35.369095
 20
222.107498
 30
0.0
 40
0.439138
100
AcDbArc
 50
128.682676
 51
180.000019
  0
ARC
  5
FB
100
AcDbEntity
  8
ALPHA
100
AcDbCircle
 10
35.552063
 20
222.107498
 30
0.0
 40
0.439138
100
AcDbArc
 50
0.0
 51
51.317759
  0
LINE
  5
FC
100
AcDbEntity
  8
ALPHA
100
AcDbLine
 10
56.375793
 20
222.167068
 30
0.0
 11
57.686874
 21
222.167068
 31
0.0
  0
LINE
  5
FD
100
AcDbEntity
  8
ALPHA
100
AcDbLine
 10
56.375793
 20
221.691345
 30
0.0
 11
58.292206
 21
221.691345
 31
0.0
  0
LINE
  5
FE
100
AcDbEntity
  8
ALPHA
100
AcDbLine
 10
57.567993
 20
221.508362
 30
0.0
 11
58.227753
 21
221.508362
 31
0.0
  0
LWPOLYLINE
  5
FF
100
AcDbEntity
  8
ALPHA
100
AcDbPolyline
 90
        9
 70
     0
 43
0.0
 10
56.3759
 20
221.691317
 10
56.463305
 20
221.545109
 10
56.588239
 20
221.424273
 10
56.74245
 20
221.33679
 10
56.915749
 20
221.288441
 10
57.096689
 20
221.282419
 10
57.273318
 20
221.319123
 10
57.433967
 20
221.396126
 10
57.568023
 20
221.508343
  0
LWPOLYLINE
  5
10A
100
AcDbEntity
  8
ALPHA
100
AcDbPolyline
 90
        9
 70
     0
 43
0.0
 10
57.686935
 20
222.167051
 10
57.581876
 20
222.334528
 10
57.427981
 20
222.466043
 10
57.238903
 20
222.549929
 10
57.031418
 20
222.578743
 10
56.823933
 20
222.549929
 10
56.634855
 20
222.466043
 10
56.48096
 20
222.334528
 10
56.375901
 20
222.167051
  0
LWPOLYLINE
  5
115
100
AcDbEntity
  8
ALPHA
100
AcDbPolyline
 90
       17
 70
     0
 43
0.0
 10
58.292299
 20
221.691566
 10
58.302949
 20
222.118761
 10
58.130258
 20
222.518621
 10
57.799128
 20
222.833491
 10
57.357303
 20
223.017971
 10
56.868489
 20
223.04546
 10
56.403168
 20
222.911996
 10
56.028433
 20
222.636821
 10
55.798316
 20
222.259614
 10
55.745999
 20
221.834762
 10
55.879023
 20
221.423525
 10
56.17821
 20
221.085198
 10
56.600419
 20
220.868564
 10
57.084773
 20
220.804859
 10
57.561434
 20
220.903268
 10
57.961673
 20
221.149603
 10
58.22778
 20
221.508344
  0
LWPOLYLINE
  5
128
100
AcDbEntity
  8
ALPHA
100
AcDbPolyline
 90
       16
 70
     0
 43
0.0
 10
42.392534
 20
222.17071
 10
42.192636
 20
222.570458
 10
41.833515
 20
222.873881
 10
41.369114
 20
223.035401
 10
40.86919
 20
223.030756
 10
40.408838
 20
222.860645
 10
40.057206
 20
222.550619
 10
39.867113
 20
222.147247
 10
39.867113
 20
221.71112
 10
40.057206
 20
221.307749
 10
40.408838
 20
220.997723
 10
40.869191
 20
220.827612
 10
41.369114
 20
220.822967
 10
41.833516
 20
220.984487
 10
42.192637
 20
221.28791
 10
42.392534
 20
221.687658
  0
ARC
  5
13A
100
AcDbEntity
  8
ALPHA
100
AcDbCircle
 10
41.132629
 20
221.929184
 30
0.0
 40
0.622113
100
AcDbArc
 50
22.844766
 51
337.15524
  0
LINE
  5
13B
100
AcDbEntity
  8
ALPHA
100
AcDbLine
 10
41.706085
 20
221.687683
 30
0.0
 11
42.392685
 21
221.687683
 31
0.0
  0
LINE
  5
13C
100
AcDbEntity
  8
ALPHA
100
AcDbLine
 10
41.706085
 20
222.170715
 30
0.0
 11
42.392685
 21
222.170715
 31
0.0
  0
LINE
  5
13D
100
AcDbEntity
  8
ALPHA
100
AcDbLine
 10
48.808456
 20
222.999588
 30
0.0
 11
48.808456
 21
220.85881
 31
0.0
  0
LINE
  5
13E
100
AcDbEntity
  8
ALPHA
100
AcDbLine
 10
49.485565
 20
222.999588
 30
0.0
 11
49.485565
 21
220.85881
 31
0.0
  0
LINE
  5
13F
100
AcDbEntity
  8
ALPHA
100
AcDbLine
 10
48.808456
 20
220.85881
 30
0.0
 11
49.485565
 21
220.85881
 31
0.0
  0
LINE
  5
140
100
AcDbEntity
  8
ALPHA
100
AcDbLine
 10
48.808456
 20
223.725998
 30
0.0
 11
48.808456
 21
223.204514
 31
0.0
  0
LINE
  5
141
100
AcDbEntity
  8
ALPHA
100
AcDbLine
 10
49.485565
 20
223.725998
 30
0.0
 11
49.485565
 21
223.204514
 31
0.0
  0
LINE
  5
142
100
AcDbEntity
  8
ALPHA
100
AcDbLine
 10
52.420334
 20
222.999588
 30
0.0
 11
52.420334
 21
219.95491
 31
0.0
  0
CIRCLE
  5
143
100
AcDbEntity
  8
ALPHA
100
AcDbCircle
 10
51.080963
 20
221.929184
 30
0.0
 40
0.653218
  0
LINE
  5
144
100
AcDbEntity
  8
ALPHA
100
AcDbLine
 10
51.743408
 20
222.999588
 30
0.0
 11
51.743408
 21
222.890808
 31
0.0
  0
LINE
  5
145
100
AcDbEntity
  8
ALPHA
100
AcDbLine
 10
51.743408
 20
219.95491
 30
0.0
 11
52.420334
 21
219.95491
 31
0.0
  0
LWPOLYLINE
  5
146
100
AcDbEntity
  8
ALPHA
100
AcDbPolyline
 90
       12
 70
     0
 43
0.0
 10
51.74333
 20
222.890799
 10
51.285682
 20
223.039879
 10
50.798079
 20
223.02644
 10
50.351869
 20
222.852448
 10
50.012341
 20
222.543361
 10
49.829177
 20
222.144407
 10
49.829177
 20
221.71396
 10
50.012342
 20
221.315006
 10
50.351869
 20
221.00592
 10
50.79808
 20
220.831927
 10
51.285683
 20
220.818489
 10
51.74333
 20
220.967569
  0
LINE
  5
154
100
AcDbEntity
  8
ALPHA
100
AcDbLine
 10
51.743408
 20
220.96759
 30
0.0
 11
51.743408
 21
219.95491
 31
0.0
  0
LINE
  5
155
100
AcDbEntity
  8
ALPHA
100
AcDbLine
 10
30.248993
 20
222.167068
 30
0.0
 11
31.559906
 21
222.167068
 31
0.0
  0
LINE
  5
156
100
AcDbEntity
  8
ALPHA
100
AcDbLine
 10
30.248993
 20
221.691345
 30
0.0
 11
32.165237
 21
221.691345
 31
0.0
  0
LINE
  5
157
100
AcDbEntity
  8
ALPHA
100
AcDbLine
 10
31.441025
 20
221.508362
 30
0.0
 11
32.100784
 21
221.508362
 31
0.0
  0
LWPOLYLINE
  5
158
100
AcDbEntity
  8
ALPHA
100
AcDbPolyline
 90
        9
 70
     0
 43
0.0
 10
30.248932
 20
221.691317
 10
30.336337
 20
221.545109
 10
30.461271
 20
221.424273
 10
30.615481
 20
221.33679
 10
30.788781
 20
221.288441
 10
30.969721
 20
221.282419
 10
31.14635
 20
221.319123
 10
31.306998
 20
221.396126
 10
31.441055
 20
221.508343
  0
LWPOLYLINE
  5
163
100
AcDbEntity
  8
ALPHA
100
AcDbPolyline
 90
        9
 70
     0
 43
0.0
 10
31.559967
 20
222.167051
 10
31.454908
 20
222.334528
 10
31.301013
 20
222.466043
 10
31.111935
 20
222.549929
 10
30.90445
 20
222.578743
 10
30.696964
 20
222.549929
 10
30.507887
 20
222.466043
 10
30.353992
 20
222.334528
 10
30.248932
 20
222.167051
  0
LWPOLYLINE
  5
16E
100
AcDbEntity
  8
ALPHA
100
AcDbPolyline
 90
       17
 70
     0
 43
0.0
 10
32.165331
 20
221.691566
 10
32.17598
 20
222.118761
 10
32.00329
 20
222.518621
 10
31.67216
 20
222.833491
 10
31.230335
 20
223.017971
 10
30.741521
 20
223.04546
 10
30.2762
 20
222.911996
 10
29.901464
 20
222.636821
 10
29.671348
 20
222.259614
 10
29.61903
 20
221.834762
 10
29.752055
 20
221.423525
 10
30.051241
 20
221.085198
 10
30.473451
 20
220.868564
 10
30.957805
 20
220.804859
 10
31.434466
 20
220.903268
 10
31.834705
 20
221.149603
 10
32.100811
 20
221.508344
  0
ARC
  5
181
100
AcDbEntity
  8
ALPHA
100
AcDbCircle
 10
35.570328
 20
221.517502
 30
0.0
 40
1.555282
100
AcDbArc
 50
63.612284
 51
108.126375
  0
ARC
  5
182
100
AcDbEntity
  8
ALPHA
100
AcDbCircle
 10
35.936279
 20
222.255081
 30
0.0
 40
0.731897
100
AcDbArc
 50
0.0
 51
63.612393
  0
ARC
  5
183
100
AcDbEntity
  8
ALPHA
100
AcDbCircle
 10
35.314117
 20
222.300018
 30
0.0
 40
0.731897
100
AcDbArc
 50
108.12643
 51
144.765859
  0
LINE
  5
184
100
AcDbEntity
  8
ALPHA
100
AcDbLine
 10
33.19165
 20
222.107498
 30
0.0
 11
33.19165
 21
220.85881
 31
0.0
  0
ARC
  5
185
100
AcDbEntity
  8
ALPHA
100
AcDbCircle
 10
33.886841
 20
221.791977
 30
0.0
 40
1.28082
100
AcDbArc
 50
69.512638
 51
122.878382
  0
ARC
  5
186
100
AcDbEntity
  8
ALPHA
100
AcDbCircle
 10
34.015045
 20
222.134766
 30
0.0
 40
0.914871
100
AcDbArc
 50
39.954103
 51
69.512638
  0
LINE
  5
187
100
AcDbEntity
  8
ALPHA
100
AcDbLine
 10
45.789368
 20
222.999588
 30
0.0
 11
45.789368
 21
220.85881
 31
0.0
  0
LINE
  5
188
100
AcDbEntity
  8
ALPHA
100
AcDbLine
 10
48.314499
 20
222.247772
 30
0.0
 11
48.314499
 21
220.85881
 31
0.0
  0
LINE
  5
189
100
AcDbEntity
  8
ALPHA
100
AcDbLine
 10
46.466476
 20
222.076019
 30
0.0
 11
46.466476
 21
220.85881
 31
0.0
  0
LINE
  5
18A
100
AcDbEntity
  8
ALPHA
100
AcDbLine
 10
47.637375
 20
222.076019
 30
0.0
 11
47.637375
 21
220.85881
 31
0.0
  0
LINE
  5
18B
100
AcDbEntity
  8
ALPHA
100
AcDbLine
 10
45.789368
 20
220.85881
 30
0.0
 11
46.466476
 21
220.85881
 31
0.0
  0
LINE
  5
18C
100
AcDbEntity
  8
ALPHA
100
AcDbLine
 10
47.637375
 20
220.85881
 30
0.0
 11
48.314499
 21
220.85881
 31
0.0
  0
LINE
  5
18D
100
AcDbEntity
  8
ALPHA
100
AcDbLine
 10
45.789368
 20
222.999588
 30
0.0
 11
46.466476
 21
222.999588
 31
0.0
  0
ARC
  5
18E
100
AcDbEntity
  8
ALPHA
100
AcDbCircle
 10
47.051926
 20
221.781006
 30
0.0
 40
0.768492
100
AcDbArc
 50
63.612338
 51
116.387953
  0
ARC
  5
18F
100
AcDbEntity
  8
ALPHA
100
AcDbCircle
 10
47.198395
 20
222.076019
 30
0.0
 40
0.439138
100
AcDbArc
 50
0.0
 51
63.612502
  0
ARC
  5
190
100
AcDbEntity
  8
ALPHA
100
AcDbCircle
 10
46.905487
 20
222.076019
 30
0.0
 40
0.439138
100
AcDbArc
 50
116.388063
 51
180.000019
  0
LINE
  5
191
100
AcDbEntity
  8
ALPHA
100
AcDbLine
 10
46.466476
 20
222.999588
 30
0.0
 11
46.466476
 21
222.787094
 31
0.0
  0
ARC
  5
192
100
AcDbEntity
  8
ALPHA
100
AcDbCircle
 10
47.216644
 20
221.510193
 30
0.0
 40
1.555282
100
AcDbArc
 50
63.612284
 51
101.537155
  0
ARC
  5
193
100
AcDbEntity
  8
ALPHA
100
AcDbCircle
 10
47.582596
 20
222.247772
 30
0.0
 40
0.731897
100
AcDbArc
 50
0.0
 51
63.612393
  0
ARC
  5
194
100
AcDbEntity
  8
ALPHA
100
AcDbCircle
 10
47.07019
 20
222.227295
 30
0.0
 40
0.823384
100
AcDbArc
 50
101.537319
 51
137.166591
  0
LINE
  5
195
100
AcDbEntity
  8
ALPHA
100
AcDbLine
 10
55.421177
 20
220.858795
 30
0.0
 11
55.421181
 21
222.999573
 31
0.0
  0
LINE
  5
196
100
AcDbEntity
  8
ALPHA
100
AcDbLine
 10
52.896049
 20
221.610611
 30
0.0
 11
52.896049
 21
222.999588
 31
0.0
  0
LINE
  5
197
100
AcDbEntity
  8
ALPHA
100
AcDbLine
 10
54.744057
 20
221.782364
 30
0.0
 11
54.744057
 21
222.999588
 31
0.0
  0
LINE
  5
198
100
AcDbEntity
  8
ALPHA
100
AcDbLine
 10
53.573158
 20
221.782364
 30
0.0
 11
53.573158
 21
222.999588
 31
0.0
  0
LINE
  5
199
100
AcDbEntity
  8
ALPHA
100
AcDbLine
 10
55.421181
 20
222.999573
 30
0.0
 11
54.744057
 21
222.999573
 31
0.0
  0
LINE
  5
19A
100
AcDbEntity
  8
ALPHA
100
AcDbLine
 10
53.573158
 20
222.999573
 30
0.0
 11
52.896049
 21
222.999573
 31
0.0
  0
LINE
  5
19B
100
AcDbEntity
  8
ALPHA
100
AcDbLine
 10
55.421177
 20
220.858795
 30
0.0
 11
54.744053
 21
220.858795
 31
0.0
  0
ARC
  5
19C
100
AcDbEntity
  8
ALPHA
100
AcDbCircle
 10
54.1586
 20
222.077408
 30
0.0
 40
0.768492
100
AcDbArc
 50
243.610253
 51
296.38789
  0
ARC
  5
19D
100
AcDbEntity
  8
ALPHA
100
AcDbCircle
 10
54.305054
 20
221.782364
 30
0.0
 40
0.439138
100
AcDbArc
 50
296.387999
 51
359.999955
  0
LINE
  5
19E
100
AcDbEntity
  8
ALPHA
100
AcDbLine
 10
54.744053
 20
220.858795
 30
0.0
 11
54.744053
 21
221.071304
 31
0.0
  0
ARC
  5
19F
100
AcDbEntity
  8
ALPHA
100
AcDbCircle
 10
53.993896
 20
222.348206
 30
0.0
 40
1.555282
100
AcDbArc
 50
243.612221
 51
281.537092
  0
ARC
  5
1A0
100
AcDbEntity
  8
ALPHA
100
AcDbCircle
 10
53.627945
 20
221.610626
 30
0.0
 40
0.731897
100
AcDbArc
 50
179.999964
 51
243.612357
  0
ARC
  5
1A1
100
AcDbEntity
  8
ALPHA
100
AcDbCircle
 10
54.14035
 20
221.631104
 30
0.0
 40
0.823384
100
AcDbArc
 50
281.537256
 51
317.166528
  0
ARC
  5
1A2
100
AcDbEntity
  8
ALPHA
100
AcDbCircle
 10
54.012329
 20
221.782364
 30
0.0
 40
0.439138
100
AcDbArc
 50
179.999964
 51
243.610062
  0
LINE
  5
1A3
100
AcDbEntity
  8
ALPHA
100
AcDbLine
 10
32.514526
 20
222.999588
 30
0.0
 11
33.19165
 21
222.999588
 31
0.0
  0
LINE
  5
1A4
100
AcDbEntity
  8
ALPHA
100
AcDbLine
 10
51.743408
 20
222.999588
 30
0.0
 11
52.420334
 21
222.999588
 31
0.0
  0
LINE
  5
1A5
100
AcDbEntity
  8
ALPHA
100
AcDbLine
 10
48.808456
 20
222.999588
 30
0.0
 11
49.485565
 21
222.999588
 31
0.0
  0
LINE
  5
1A6
100
AcDbEntity
  8
ALPHA
100
AcDbLine
 10
48.808456
 20
223.204514
 30
0.0
 11
49.485565
 21
223.204514
 31
0.0
  0
LINE
  5
1A7
100
AcDbEntity
  8
ALPHA
100
AcDbLine
 10
48.808456
 20
223.725998
 30
0.0
 11
49.485565
 21
223.725998
 31
0.0
  0
LINE
  5
1A8
100
AcDbEntity
  8
ALPHA
100
AcDbLine
 10
22.90976
 20
225.677231
 30
0.0
 11
59.132599
 21
225.677231
 31
0.0
  0
LINE
  5
1A9
100
AcDbEntity
  8
ALPHA
100
AcDbLine
 10
22.90976
 20
218.322784
 30
0.0
 11
59.132599
 21
218.322784
 31
0.0
  0
LINE
  5
1AA
100
AcDbEntity
  8
ALPHA
100
AcDbLine
 10
15.273499
 20
218.181885
 30
0.0
 11
59.273499
 21
218.181885
 31
0.0
  0
LINE
  5
1AB
100
AcDbEntity
  8
ALPHA
100
AcDbLine
 10
15.273499
 20
225.818115
 30
0.0
 11
59.273499
 21
225.818115
 31
0.0
  0
LINE
  5
1AC
100
AcDbEntity
  8
ALPHA
100
AcDbLine
 10
22.90976
 20
225.677231
 30
0.0
 11
22.90976
 21
218.322784
 31
0.0
  0
LINE
  5
1AD
100
AcDbEntity
  8
ALPHA
100
AcDbLine
 10
59.132599
 20
225.677231
 30
0.0
 11
59.132599
 21
218.322784
 31
0.0
  0
LINE
  5
1AE
100
AcDbEntity
  8
ALPHA
100
AcDbLine
 10
59.273499
 20
225.818115
 30
0.0
 11
59.273499
 21
218.181885
 31
0.0
  0
CIRCLE
  5
1AF
100
AcDbEntity
  8
ALPHA
100
AcDbCircle
 10
19.091629
 20
222.0
 30
0.0
 40
2.727231
  0
CIRCLE
  5
1B0
100
AcDbEntity
  8
ALPHA
100
AcDbCircle
 10
19.091629
 20
222.0
 30
0.0
 40
2.427235
  0
ARC
  5
1B1
100
AcDbEntity
  8
ALPHA
100
AcDbCircle
 10
19.091629
 20
222.0
 30
0.0
 40
2.181786
100
AcDbArc
 50
8.626922
 51
26.743691
  0
ARC
  5
1B2
100
AcDbEntity
  8
ALPHA
100
AcDbCircle
 10
19.091629
 20
222.0
 30
0.0
 40
1.636338
100
AcDbArc
 50
11.536958
 51
15.466014
  0
LINE
  5
1B3
100
AcDbEntity
  8
ALPHA
100
AcDbLine
 10
19.364304
 20
223.418167
 30
0.0
 11
19.364304
 21
222.981796
 31
0.0
  0
LINE
  5
1B4
100
AcDbEntity
  8
ALPHA
100
AcDbLine
 10
18.818954
 20
223.418167
 30
0.0
 11
18.818954
 21
222.981796
 31
0.0
  0
LINE
  5
1B5
100
AcDbEntity
  8
ALPHA
100
AcDbLine
 10
17.782516
 20
222.436356
 30
0.0
 11
17.782516
 21
222.109085
 31
0.0
  0
LINE
  5
1B6
100
AcDbEntity
  8
ALPHA
100
AcDbLine
 10
19.909821
 20
222.21817
 30
0.0
 11
19.909821
 21
222.109085
 31
0.0
  0
LINE
  5
1B7
100
AcDbEntity
  8
ALPHA
100
AcDbLine
 10
20.400742
 20
222.21817
 30
0.0
 11
20.400742
 21
221.454575
 31
0.0
  0
LINE
  5
1B8
100
AcDbEntity
  8
ALPHA
100
AcDbLine
 10
17.782516
 20
222.109085
 30
0.0
 11
18.818954
 21
222.109085
 31
0.0
  0
LINE
  5
1B9
100
AcDbEntity
  8
ALPHA
100
AcDbLine
 10
16.953934
 20
222.436356
 30
0.0
 11
17.237167
 21
222.436356
 31
0.0
  0
LINE
  5
1BA
100
AcDbEntity
  8
ALPHA
100
AcDbLine
 10
17.143173
 20
222.981796
 30
0.0
 11
18.818954
 21
222.981796
 31
0.0
  0
LINE
  5
1BB
100
AcDbEntity
  8
ALPHA
100
AcDbLine
 10
18.275223
 20
223.418167
 30
0.0
 11
18.818954
 21
223.418167
 31
0.0
  0
LINE
  5
1BC
100
AcDbEntity
  8
ALPHA
100
AcDbLine
 10
18.140594
 20
223.963608
 30
0.0
 11
20.042679
 21
223.963608
 31
0.0
  0
LINE
  5
1BD
100
AcDbEntity
  8
ALPHA
100
AcDbLine
 10
17.782516
 20
221.56366
 30
0.0
 11
18.818954
 21
221.56366
 31
0.0
  0
LINE
  5
1BE
100
AcDbEntity
  8
ALPHA
100
AcDbLine
 10
17.047928
 20
221.236389
 30
0.0
 11
17.237167
 21
221.236389
 31
0.0
  0
LINE
  5
1BF
100
AcDbEntity
  8
ALPHA
100
AcDbLine
 10
17.346207
 20
220.690948
 30
0.0
 11
18.818954
 21
220.690948
 31
0.0
  0
LINE
  5
1C0
100
AcDbEntity
  8
ALPHA
100
AcDbLine
 10
18.709747
 20
220.309128
 30
0.0
 11
18.818954
 21
220.309128
 31
0.0
  0
LINE
  5
1C1
100
AcDbEntity
  8
ALPHA
100
AcDbLine
 10
18.709747
 20
219.818222
 30
0.0
 11
19.473511
 21
219.818222
 31
0.0
  0
LINE
  5
1C2
100
AcDbEntity
  8
ALPHA
100
AcDbLine
 10
19.473511
 20
220.309128
 30
0.0
 11
19.473511
 21
219.818222
 31
0.0
  0
LINE
  5
1C3
100
AcDbEntity
  8
ALPHA
100
AcDbLine
 10
18.709747
 20
220.309128
 30
0.0
 11
18.709747
 21
219.818222
 31
0.0
  0
LINE
  5
1C4
100
AcDbEntity
  8
ALPHA
100
AcDbLine
 10
19.364304
 20
220.309128
 30
0.0
 11
19.473511
 21
220.309128
 31
0.0
  0
LINE
  5
1C5
100
AcDbEntity
  8
ALPHA
100
AcDbLine
 10
19.364304
 20
220.690948
 30
0.0
 11
20.837051
 21
220.690948
 31
0.0
  0
LINE
  5
1C6
100
AcDbEntity
  8
ALPHA
100
AcDbLine
 10
18.818954
 20
220.690948
 30
0.0
 11
18.818954
 21
220.309128
 31
0.0
  0
LINE
  5
1C7
100
AcDbEntity
  8
ALPHA
100
AcDbLine
 10
19.364304
 20
220.690948
 30
0.0
 11
19.364304
 21
220.309128
 31
0.0
  0
LINE
  5
1C8
100
AcDbEntity
  8
ALPHA
100
AcDbLine
 10
18.818954
 20
221.56366
 30
0.0
 11
18.818954
 21
221.236389
 31
0.0
  0
LINE
  5
1C9
100
AcDbEntity
  8
ALPHA
100
AcDbLine
 10
19.364304
 20
221.56366
 30
0.0
 11
19.364304
 21
221.236389
 31
0.0
  0
LINE
  5
1CA
100
AcDbEntity
  8
ALPHA
100
AcDbLine
 10
17.782516
 20
221.56366
 30
0.0
 11
17.782516
 21
221.236389
 31
0.0
  0
LINE
  5
1CB
100
AcDbEntity
  8
ALPHA
100
AcDbLine
 10
19.364304
 20
221.236389
 30
0.0
 11
20.538956
 21
221.236389
 31
0.0
  0
LINE
  5
1CC
100
AcDbEntity
  8
ALPHA
100
AcDbLine
 10
19.364304
 20
221.56366
 30
0.0
 11
19.909821
 21
221.56366
 31
0.0
  0
LINE
  5
1CD
100
AcDbEntity
  8
ALPHA
100
AcDbLine
 10
18.818954
 20
222.436356
 30
0.0
 11
18.818954
 21
222.109085
 31
0.0
  0
LINE
  5
1CE
100
AcDbEntity
  8
ALPHA
100
AcDbLine
 10
19.364304
 20
222.436356
 30
0.0
 11
20.668762
 21
222.436356
 31
0.0
  0
LINE
  5
1CF
100
AcDbEntity
  8
ALPHA
100
AcDbLine
 10
19.364304
 20
222.109085
 30
0.0
 11
19.909821
 21
222.109085
 31
0.0
  0
LINE
  5
1D0
100
AcDbEntity
  8
ALPHA
100
AcDbLine
 10
17.782516
 20
222.436356
 30
0.0
 11
18.818954
 21
222.436356
 31
0.0
  0
LINE
  5
1D1
100
AcDbEntity
  8
ALPHA
100
AcDbLine
 10
17.782516
 20
221.236389
 30
0.0
 11
18.818954
 21
221.236389
 31
0.0
  0
ARC
  5
1D2
100
AcDbEntity
  8
ALPHA
100
AcDbCircle
 10
19.091629
 20
222.0
 30
0.0
 40
2.181786
100
AcDbArc
 50
200.487321
 51
216.869885
  0
ARC
  5
1D3
100
AcDbEntity
  8
ALPHA
100
AcDbCircle
 10
19.091629
 20
222.0
 30
0.0
 40
2.181786
100
AcDbArc
 50
153.256276
 51
168.46301
  0
ARC
  5
1D4
100
AcDbEntity
  8
ALPHA
100
AcDbCircle
 10
19.091629
 20
222.0
 30
0.0
 40
2.181786
100
AcDbArc
 50
323.130102
 51
342.542402
  0
LINE
  5
1D5
100
AcDbEntity
  8
ALPHA
100
AcDbLine
 10
17.237167
 20
222.436356
 30
0.0
 11
17.237167
 21
221.236389
 31
0.0
  0
ARC
  5
1D6
100
AcDbEntity
  8
ALPHA
100
AcDbCircle
 10
19.091629
 20
222.0
 30
0.0
 40
2.181786
100
AcDbArc
 50
115.841975
 51
143.130111
  0
ARC
  5
1D7
100
AcDbEntity
  8
ALPHA
100
AcDbCircle
 10
19.091629
 20
222.0
 30
0.0
 40
2.181786
100
AcDbArc
 50
36.869897
 51
64.158043
  0
LINE
  5
1D8
100
AcDbEntity
  8
ALPHA
100
AcDbLine
 10
19.364304
 20
223.418167
 30
0.0
 11
19.908035
 21
223.418167
 31
0.0
  0
LINE
  5
1D9
100
AcDbEntity
  8
ALPHA
100
AcDbLine
 10
19.909821
 20
222.21817
 30
0.0
 11
20.400742
 21
222.21817
 31
0.0
  0
LINE
  5
1DA
100
AcDbEntity
  8
ALPHA
100
AcDbLine
 10
19.909821
 20
221.454575
 30
0.0
 11
20.400742
 21
221.454575
 31
0.0
  0
LINE
  5
1DB
100
AcDbEntity
  8
ALPHA
100
AcDbLine
 10
19.909821
 20
221.56366
 30
0.0
 11
19.909821
 21
221.454575
 31
0.0
  0
LINE
  5
1DC
100
AcDbEntity
  8
ALPHA
100
AcDbLine
 10
19.364304
 20
222.436356
 30
0.0
 11
19.364304
 21
222.109085
 31
0.0
  0
LINE
  5
1DD
100
AcDbEntity
  8
ALPHA
100
AcDbLine
 10
20.591415
 20
221.345474
 30
0.0
 11
21.172928
 21
221.345474
 31
0.0
  0
LINE
  5
1DE
100
AcDbEntity
  8
ALPHA
100
AcDbLine
 10
20.694901
 20
222.327271
 30
0.0
 11
21.248657
 21
222.327271
 31
0.0
  0
LINE
  5
1DF
100
AcDbEntity
  8
ALPHA
100
AcDbLine
 10
20.073471
 20
223.309082
 30
0.0
 11
20.837051
 21
223.309082
 31
0.0
  0
LINE
  5
1E0
100
AcDbEntity
  8
ALPHA
100
AcDbLine
 10
17.346207
 20
223.309082
 30
0.0
 11
18.109787
 21
223.309082
 31
0.0
  0
LINE
  5
1E1
100
AcDbEntity
  8
ALPHA
100
AcDbLine
 10
19.364304
 20
222.981796
 30
0.0
 11
21.040085
 21
222.981796
 31
0.0
  0
ARC
  5
1E2
100
AcDbEntity
  8
ALPHA
100
AcDbCircle
 10
19.091629
 20
222.0
 30
0.0
 40
1.636338
100
AcDbArc
 50
119.926483
 51
126.86989
  0
ARC
  5
1E3
100
AcDbEntity
  8
ALPHA
100
AcDbCircle
 10
19.091629
 20
222.0
 30
0.0
 40
1.636338
100
AcDbArc
 50
53.130085
 51
60.073535
  0
ARC
  5
1E4
100
AcDbEntity
  8
ALPHA
100
AcDbCircle
 10
19.091629
 20
222.0
 30
0.0
 40
1.636338
100
AcDbArc
 50
332.181852
 51
336.421815
  0
LINE
  5
1E5
100
AcDbEntity
  8
ALPHA
100
AcDbLine
 10
15.273499
 20
218.181885
 30
0.0
 11
15.273499
 21
225.818115
 31
0.0
  0
LINE
  5
1E6
100
AcDbEntity
  8
ALPHA
100
AcDbLine
 10
45.29541
 20
222.213715
 30
0.0
 11
45.29541
 21
220.85881
 31
0.0
  0
LINE
  5
1E7
100
AcDbEntity
  8
ALPHA
100
AcDbLine
 10
44.618286
 20
221.871445
 30
0.0
 11
44.618286
 21
221.519852
 31
0.0
  0
LINE
  5
1E8
100
AcDbEntity
  8
ALPHA
100
AcDbLine
 10
44.618286
 20
220.85881
 30
0.0
 11
45.29541
 21
220.85881
 31
0.0
  0
ARC
  5
1E9
100
AcDbEntity
  8
ALPHA
100
AcDbCircle
 10
44.023712
 20
220.465424
 30
0.0
 40
2.56164
100
AcDbArc
 50
72.842438
 51
101.469509
  0
ARC
  5
1EA
100
AcDbEntity
  8
ALPHA
100
AcDbCircle
 10
44.563507
 20
222.213715
 30
0.0
 40
0.731897
100
AcDbArc
 50
0.0
 51
72.842438
  0
LINE
  5
1EB
100
AcDbEntity
  8
ALPHA
100
AcDbLine
 10
42.806976
 20
222.2677
 30
0.0
 11
43.401566
 21
222.2677
 31
0.0
  0
ARC
  5
1EC
100
AcDbEntity
  8
ALPHA
100
AcDbCircle
 10
43.447388
 20
222.2677
 30
0.0
 40
0.64041
100
AcDbArc
 50
123.565335
 51
180.000019
  0
ARC
  5
1ED
100
AcDbEntity
  8
ALPHA
100
AcDbCircle
 10
43.750854
 20
221.810318
 30
0.0
 40
1.189332
100
AcDbArc
 50
101.469509
 51
123.565335
  0
LINE
  5
1EE
100
AcDbEntity
  8
ALPHA
100
AcDbLine
 10
44.618286
 20
221.074173
 30
0.0
 11
44.618286
 21
220.85881
 31
0.0
  0
ARC
  5
1EF
100
AcDbEntity
  8
ALPHA
100
AcDbCircle
 10
43.621246
 20
222.2677
 30
0.0
 40
0.219569
100
AcDbArc
 50
134.09918
 51
180.000019
  0
ARC
  5
1F0
100
AcDbEntity
  8
ALPHA
100
AcDbCircle
 10
44.032837
 20
221.40773
 30
0.0
 40
1.189332
100
AcDbArc
 50
70.423403
 51
109.639945
  0
ARC
  5
1F1
100
AcDbEntity
  8
ALPHA
100
AcDbCircle
 10
43.786835
 20
222.097031
 30
0.0
 40
0.457436
100
AcDbArc
 50
109.639945
 51
134.180924
  0
ARC
  5
1F2
100
AcDbEntity
  8
ALPHA
100
AcDbCircle
 10
44.247513
 20
222.011108
 30
0.0
 40
0.548923
100
AcDbArc
 50
55.411802
 51
70.423403
  0
ARC
  5
1F3
100
AcDbEntity
  8
ALPHA
100
AcDbCircle
 10
44.160858
 20
224.097427
 30
0.0
 40
1.921229
100
AcDbArc
 50
263.312453
 51
278.890038
  0
ARC
  5
1F4
100
AcDbEntity
  8
ALPHA
100
AcDbCircle
 10
44.415253
 20
222.470428
 30
0.0
 40
0.274461
100
AcDbArc
 50
278.851243
 51
298.677643
  0
ARC
  5
1F5
100
AcDbEntity
  8
ALPHA
100
AcDbCircle
 10
44.481155
 20
222.350021
 30
0.0
 40
0.137231
100
AcDbArc
 50
298.677588
 51
55.411832
  0
ARC
  5
1F6
100
AcDbEntity
  8
ALPHA
100
AcDbCircle
 10
43.703415
 20
220.190186
 30
0.0
 40
2.012716
100
AcDbArc
 50
83.312899
 51
102.239517
  0
ARC
  5
1F7
100
AcDbEntity
  8
ALPHA
100
AcDbCircle
 10
43.355911
 20
221.508362
 30
0.0
 40
0.64041
100
AcDbArc
 50
121.643156
 51
226.388642
  0
ARC
  5
1F8
100
AcDbEntity
  8
ALPHA
100
AcDbCircle
 10
43.451874
 20
221.3526
 30
0.0
 40
0.823384
100
AcDbArc
 50
102.15832
 51
121.643156
  0
ARC
  5
1F9
100
AcDbEntity
  8
ALPHA
100
AcDbCircle
 10
43.703415
 20
222.715973
 30
0.0
 40
1.921229
100
AcDbArc
 50
258.372478
 51
289.783206
  0
ARC
  5
1FA
100
AcDbEntity
  8
ALPHA
100
AcDbCircle
 10
43.4823
 20
221.640686
 30
0.0
 40
0.823384
100
AcDbArc
 50
226.254729
 51
258.372478
  0
ARC
  5
1FB
100
AcDbEntity
  8
ALPHA
100
AcDbCircle
 10
44.106064
 20
221.596848
 30
0.0
 40
0.731897
100
AcDbArc
 50
289.783206
 51
314.427021
  0
ARC
  5
1FC
100
AcDbEntity
  8
ALPHA
100
AcDbCircle
 10
43.858994
 20
222.5513
 30
0.0
 40
1.28082
100
AcDbArc
 50
254.119838
 51
306.360021
  0
ARC
  5
1FD
100
AcDbEntity
  8
ALPHA
100
AcDbCircle
 10
43.557144
 20
221.490067
 30
0.0
 40
0.17746
100
AcDbArc
 50
120.410334
 51
254.119866
  0
ARC
  5
1FE
100
AcDbEntity
  8
ALPHA
100
AcDbCircle
 10
43.804214
 20
219.696915
 30
0.0
 40
2.012716
100
AcDbArc
 50
84.72112
 51
93.88248
  0
ARC
  5
1FF
100
AcDbEntity
  8
ALPHA
100
AcDbCircle
 10
43.698761
 20
221.248627
 30
0.0
 40
0.457436
100
AcDbArc
 50
93.88248
 51
120.410388
  0
ARC
  5
200
100
AcDbEntity
  8
ALPHA
100
AcDbCircle
 10
44.106064
 20
222.976578
 30
0.0
 40
1.28082
100
AcDbArc
 50
264.710074
 51
285.826669
  0
ARC
  5
201
100
AcDbEntity
  8
ALPHA
100
AcDbCircle
 10
44.380524
 20
222.008362
 30
0.0
 40
0.274461
100
AcDbArc
 50
285.826669
 51
330.073563
  0
CIRCLE
  5
202
100
AcDbEntity
  8
ALPHA
100
AcDbCircle
 10
57.649994
 20
253.0
 30
0.0
 40
4.25
  0
LINE
  5
203
100
AcDbEntity
  8
ALPHA
100
AcDbLine
 10
56.424988
 20
257.069626
 30
0.0
 11
56.424988
 21
248.930374
 31
0.0
  0
LINE
  5
204
100
AcDbEntity
  8
ALPHA
100
AcDbLine
 10
58.875
 20
257.069626
 30
0.0
 11
58.875
 21
248.930374
 31
0.0
  0
CIRCLE
  5
205
100
AcDbEntity
  8
ALPHA
100
AcDbCircle
 10
112.649994
 20
107.0
 30
0.0
 40
4.25
  0
LINE
  5
206
100
AcDbEntity
  8
ALPHA
100
AcDbLine
 10
111.424988
 20
111.069626
 30
0.0
 11
111.424988
 21
102.930374
 31
0.0
  0
LINE
  5
207
100
AcDbEntity
  8
ALPHA
100
AcDbLine
 10
113.875
 20
111.069626
 30
0.0
 11
113.875
 21
102.930374
 31
0.0
  0
LINE
  5
208
100
AcDbEntity
  8
ALPHA
100
AcDbLine
 10
134.899994
 20
207.5
 30
0.0
 11
134.899994
 21
215.5
 31
0.0
  0
LINE
  5
209
100
AcDbEntity
  8
ALPHA
100
AcDbLine
 10
158.899994
 20
207.5
 30
0.0
 11
158.899994
 21
215.5
 31
0.0
  0
LINE
  5
20A
100
AcDbEntity
  8
ALPHA
100
AcDbLine
 10
134.899994
 20
215.5
 30
0.0
 11
158.899994
 21
215.5
 31
0.0
  0
LINE
  5
20B
100
AcDbEntity
  8
ALPHA
100
AcDbLine
 10
134.899994
 20
207.5
 30
0.0
 11
158.899994
 21
207.5
 31
0.0
  0
TEXT
  5
20C
100
AcDbEntity
  8
TEXTE
100
AcDbText
 10
24.167394
 20
258.78157
 30
0.0
 40
2.0
  1
1 L1
 41
1.136009
 72
     5
 11
31.632599
 21
258.78157
 31
0.0
100
AcDbText
  0
TEXT
  5
20D
100
AcDbEntity
  8
TEXTE
100
AcDbText
 10
83.667394
 20
258.78157
 30
0.0
 40
2.0
  1
3 L2
 41
1.045129
 72
     5
 11
91.132599
 21
258.78157
 31
0.0
100
AcDbText
  0
TEXT
  5
20E
100
AcDbEntity
  8
TEXTE
100
AcDbText
 10
143.167394
 20
258.78157
 30
0.0
 40
2.0
  1
5 L3
 41
1.045129
 72
     5
 11
150.632599
 21
258.78157
 31
0.0
100
AcDbText
  0
TEXT
  5
20F
100
AcDbEntity
  8
TEXTE
100
AcDbText
 10
24.167394
 20
99.21843
 30
0.0
 40
2.0
  1
2 T1
 41
1.152715
 72
     5
 11
31.632599
 21
99.21843
 31
0.0
100
AcDbText
  0
TEXT
  5
210
100
AcDbEntity
  8
TEXTE
100
AcDbText
 10
83.667394
 20
99.21843
 30
0.0
 40
2.0
  1
4 T2
 41
1.059252
 72
     5
 11
91.132599
 21
99.21843
 31
0.0
100
AcDbText
  0
TEXT
  5
211
100
AcDbEntity
  8
TEXTE
100
AcDbText
 10
143.167394
 20
99.21843
 30
0.0
 40
2.0
  1
6 T3
 41
1.059252
 72
     5
 11
150.632599
 21
99.21843
 31
0.0
100
AcDbText
  0
TEXT
  5
212
100
AcDbEntity
  8
TEXTE
100
AcDbText
 10
138.364166
 20
221.053001
 30
0.0
 40
3.0
  1
LC1F500
 41
0.802776
  7
BLOCK
 72
     5
 11
153.616905
 21
221.053001
 31
0.0
100
AcDbText
  0
INSERT
  5
257
100
AcDbEntity
  8
0
100
AcDbBlockReference
  2
SCH_ISO
 10
0.0
 20
0.0
 30
0.0
  0
DIMENSION
  5
265
100
AcDbEntity
  8
COTATION1
100
AcDbDimension
  2
*D16
 10
30.149994
 20
39.036111
 30
0.0
 11
8.474991
 21
41.536111
 31
0.0
  3
SC_STAND
100
AcDbAlignedDimension
 13
-13.200012
 23
113.5
 33
0.0
 14
30.149994
 24
76.0
 34
0.0
100
AcDbRotatedDimension
  0
DIMENSION
  5
271
100
AcDbEntity
  8
COTATION1
100
AcDbDimension
  2
*D15
 10
85.149994
 20
39.036111
 30
0.0
 11
57.649994
 21
41.536111
 31
0.0
  3
SC_STAND
100
AcDbAlignedDimension
 13
30.149994
 23
76.0
 33
0.0
 14
85.149994
 24
76.0
 34
0.0
100
AcDbRotatedDimension
1001
ACAD
1000
DSTYLE
1002
{
1070
    75
1070
     1
1070
   287
1070
     4
1002
}
  0
DIMENSION
  5
27D
100
AcDbEntity
  8
COTATION1
100
AcDbDimension
  2
*D14
 10
140.149994
 20
39.036111
 30
0.0
 11
112.649994
 21
41.536111
 31
0.0
  3
SC_STAND
100
AcDbAlignedDimension
 13
85.149994
 23
76.0
 33
0.0
 14
140.149994
 24
76.0
 34
0.0
100
AcDbRotatedDimension
1001
ACAD
1000
DSTYLE
1002
{
1070
    75
1070
     1
1070
   287
1070
     4
1002
}
  0
DIMENSION
  5
289
100
AcDbEntity
  8
COTATION1
100
AcDbDimension
  2
*D13
 10
217.149994
 20
39.036111
 30
0.0
 11
178.649994
 21
41.536111
 31
0.0
  3
SC_STAND
100
AcDbAlignedDimension
 13
140.149994
 23
76.0
 33
0.0
 14
217.149994
 24
121.5
 34
0.0
100
AcDbRotatedDimension
1001
ACAD
1000
DSTYLE
1002
{
1070
    75
1070
     1
1070
   287
1070
     4
1002
}
  0
DIMENSION
  5
296
100
AcDbEntity
  8
COTATION1
100
AcDbDimension
  2
*D12
 10
217.149994
 20
21.871296
 30
0.0
 11
101.974991
 21
24.371296
 31
0.0
  3
SC_STAND
100
AcDbAlignedDimension
 13
-13.200012
 23
113.5
 33
0.0
 14
217.149994
 24
121.5
 34
0.0
100
AcDbRotatedDimension
  0
DIMENSION
  5
2A3
100
AcDbEntity
  8
COTATION1
100
AcDbDimension
  2
*D11
 10
259.854869
 20
284.0
 30
0.0
 11
257.354869
 21
180.0
 31
0.0
  3
SC_STAND
100
AcDbAlignedDimension
 13
140.149994
 23
76.0
 33
0.0
 14
140.149994
 24
284.0
 34
0.0
 50
90.0
100
AcDbRotatedDimension
  0
DIMENSION
  5
2B0
100
AcDbEntity
  8
COTATION1
100
AcDbDimension
  2
*D10
 10
45.149994
 20
323.748707
 30
0.0
 11
30.149994
 21
326.248707
 31
0.0
  3
SC_STAND
100
AcDbAlignedDimension
 13
15.149994
 23
299.0
 33
0.0
 14
45.149994
 24
299.0
 34
0.0
100
AcDbRotatedDimension
  0
ENDSEC
  0
SECTION
  2
OBJECTS
  0
DICTIONARY
  5
30D
100
AcDbDictionary
  3
ACAD_GROUP
350
30E
  3
ACAD_MLINESTYLE
350
31B
  3
ACDBVARIABLEDICTIONARY
350
367
  0
DICTIONARY
  5
30E
102
{ACAD_REACTORS
330
30D
102
}
100
AcDbDictionary
  0
DICTIONARY
  5
31B
102
{ACAD_REACTORS
330
30D
102
}
100
AcDbDictionary
  3
STANDARD
350
31C
  0
DICTIONARY
  5
367
102
{ACAD_REACTORS
330
30D
102
}
100
AcDbDictionary
  3
DIMADEC
350
368
  0
MLINESTYLE
  5
31C
102
{ACAD_REACTORS
330
31B
102
}
100
AcDbMlineStyle
  2
STANDARD
 70
     0
  3

 62
   256
 51
90.0
 52
90.0
 71
     2
 49
0.5
 62
   256
  6
BYLAYER
 49
-0.5
 62
   256
  6
BYLAYER
  0
DICTIONARYVAR
  5
368
102
{ACAD_REACTORS
330
367
102
}
100
DictionaryVariables
280
     0
  1
0
  0
ENDSEC
  0
EOF
