  0
SECTION
  2
HEADER
  9
$ACADVER
  1
AC1014
  9
$ACADMAINTVER
 70
     0
  9
$DWGCODEPAGE
  3
ANSI_1252
  9
$INSBASE
 10
0.457647
 20
23.893148
 30
0.0
  9
$EXTMIN
 10
15.375
 20
67.233259
 30
0.0
  9
$EXTMAX
 10
231.423743
 20
301.273055
 30
0.0
  9
$LIMMIN
 10
0.0
 20
0.0
  9
$LIMMAX
 10
210.0
 20
297.0
  9
$ORTHOMODE
 70
     1
  9
$REGENMODE
 70
     1
  9
$FILLMODE
 70
     1
  9
$QTEXTMODE
 70
     0
  9
$MIRRTEXT
 70
     0
  9
$DRAGMODE
 70
     1
  9
$LTSCALE
 40
20.0
  9
$OSMODE
 70
     0
  9
$ATTMODE
 70
     1
  9
$TEXTSIZE
 40
2.5
  9
$TRACEWID
 40
0.05
  9
$TEXTSTYLE
  7
ROMANS
  9
$CLAYER
  8
COTATION1
  9
$CELTYPE
  6
BYLAYER
  9
$CECOLOR
 62
   256
  9
$CELTSCALE
 40
1.0
  9
$DELOBJ
 70
     1
  9
$DISPSILH
 70
     0
  9
$DIMSCALE
 40
1.0
  9
$DIMASZ
 40
3.0
  9
$DIMEXO
 40
0.0625
  9
$DIMDLI
 40
0.38
  9
$DIMRND
 40
0.01
  9
$DIMDLE
 40
0.0
  9
$DIMEXE
 40
0.18
  9
$DIMTP
 40
0.0
  9
$DIMTM
 40
0.0
  9
$DIMTXT
 40
2.5
  9
$DIMCEN
 40
0.09
  9
$DIMTSZ
 40
0.0
  9
$DIMTOL
 70
     0
  9
$DIMLIM
 70
     0
  9
$DIMTIH
 70
     0
  9
$DIMTOH
 70
     0
  9
$DIMSE1
 70
     0
  9
$DIMSE2
 70
     0
  9
$DIMTAD
 70
     1
  9
$DIMZIN
 70
    12
  9
$DIMBLK
  1

  9
$DIMASO
 70
     1
  9
$DIMSHO
 70
     1
  9
$DIMPOST
  1

  9
$DIMAPOST
  1

  9
$DIMALT
 70
     0
  9
$DIMALTD
 70
     2
  9
$DIMALTF
 40
25.4
  9
$DIMLFAC
 40
1.0
  9
$DIMTOFL
 70
     1
  9
$DIMTVP
 40
0.0
  9
$DIMTIX
 70
     0
  9
$DIMSOXD
 70
     0
  9
$DIMSAH
 70
     0
  9
$DIMBLK1
  1

  9
$DIMBLK2
  1

  9
$DIMSTYLE
  2
SC_STAND
  9
$DIMCLRD
 70
     0
  9
$DIMCLRE
 70
     0
  9
$DIMCLRT
 70
     0
  9
$DIMTFAC
 40
1.0
  9
$DIMGAP
 40
1.0
  9
$DIMJUST
 70
     0
  9
$DIMSD1
 70
     0
  9
$DIMSD2
 70
     0
  9
$DIMTOLJ
 70
     1
  9
$DIMTZIN
 70
    12
  9
$DIMALTZ
 70
    12
  9
$DIMALTTZ
 70
    12
  9
$DIMFIT
 70
     5
  9
$DIMUPT
 70
     0
  9
$DIMUNIT
 70
     2
  9
$DIMDEC
 70
     3
  9
$DIMTDEC
 70
     3
  9
$DIMALTU
 70
     2
  9
$DIMALTTD
 70
     2
  9
$DIMTXSTY
  7
ROMANS
  9
$DIMAUNIT
 70
     0
  9
$LUNITS
 70
     2
  9
$LUPREC
 70
     3
  9
$SKETCHINC
 40
0.1
  9
$FILLETRAD
 40
0.0625
  9
$AUNITS
 70
     0
  9
$AUPREC
 70
     0
  9
$MENU
  1
ACAD
  9
$ELEVATION
 40
0.0
  9
$PELEVATION
 40
0.0
  9
$THICKNESS
 40
0.0
  9
$LIMCHECK
 70
     0
  9
$BLIPMODE
 70
     1
  9
$CHAMFERA
 40
0.0
  9
$CHAMFERB
 40
0.0
  9
$CHAMFERC
 40
0.0
  9
$CHAMFERD
 40
0.0
  9
$SKPOLY
 70
     0
  9
$TDCREATE
 40
2450599.364930995
  9
$TDUPDATE
 40
2451387.883711157
  9
$TDINDWG
 40
0.0017528935
  9
$TDUSRTIMER
 40
0.0017528935
  9
$USRTIMER
 70
     1
  9
$ANGBASE
 50
0.0
  9
$ANGDIR
 70
     0
  9
$PDMODE
 70
     0
  9
$PDSIZE
 40
0.0
  9
$PLINEWID
 40
0.0
  9
$COORDS
 70
     2
  9
$SPLFRAME
 70
     0
  9
$SPLINETYPE
 70
     6
  9
$SPLINESEGS
 70
     8
  9
$ATTDIA
 70
     0
  9
$ATTREQ
 70
     1
  9
$HANDLING
 70
     1
  9
$HANDSEED
  5
3D9
  9
$SURFTAB1
 70
     6
  9
$SURFTAB2
 70
     6
  9
$SURFTYPE
 70
     6
  9
$SURFU
 70
     6
  9
$SURFV
 70
     6
  9
$UCSNAME
  2

  9
$UCSORG
 10
0.0
 20
0.0
 30
0.0
  9
$UCSXDIR
 10
1.0
 20
0.0
 30
0.0
  9
$UCSYDIR
 10
0.0
 20
1.0
 30
0.0
  9
$PUCSNAME
  2

  9
$PUCSORG
 10
0.0
 20
0.0
 30
0.0
  9
$PUCSXDIR
 10
1.0
 20
0.0
 30
0.0
  9
$PUCSYDIR
 10
0.0
 20
1.0
 30
0.0
  9
$USERI1
 70
     0
  9
$USERI2
 70
     0
  9
$USERI3
 70
     0
  9
$USERI4
 70
     0
  9
$USERI5
 70
     0
  9
$USERR1
 40
0.0
  9
$USERR2
 40
0.0
  9
$USERR3
 40
0.0
  9
$USERR4
 40
0.0
  9
$USERR5
 40
0.0
  9
$WORLDVIEW
 70
     1
  9
$SHADEDGE
 70
     3
  9
$SHADEDIF
 70
    70
  9
$TILEMODE
 70
     1
  9
$MAXACTVP
 70
    16
  9
$PINSBASE
 10
0.0
 20
0.0
 30
0.0
  9
$PLIMCHECK
 70
     0
  9
$PEXTMIN
 10
1.000000E+20
 20
1.000000E+20
 30
1.000000E+20
  9
$PEXTMAX
 10
-1.000000E+20
 20
-1.000000E+20
 30
-1.000000E+20
  9
$PLIMMIN
 10
0.0
 20
0.0
  9
$PLIMMAX
 10
12.0
 20
9.0
  9
$UNITMODE
 70
     0
  9
$VISRETAIN
 70
     0
  9
$PLINEGEN
 70
     0
  9
$PSLTSCALE
 70
     1
  9
$TREEDEPTH
 70
  3020
  9
$PICKSTYLE
 70
     1
  9
$CMLSTYLE
  2
STANDARD
  9
$CMLJUST
 70
     0
  9
$CMLSCALE
 40
1.0
  9
$PROXYGRAPHICS
 70
     1
  9
$MEASUREMENT
 70
     0
  0
ENDSEC
  0
SECTION
  2
CLASSES
  0
CLASS
  1
DICTIONARYVAR
  2
AcDbDictionaryVar
  3
"AutoCAD"
 90
        0
280
     0
281
     0
  0
CLASS
  1
LWPOLYLINE
  2
AcDbPolyline
  3
"AutoCAD"
 90
        0
280
     0
281
     1
  0
ENDSEC
  0
SECTION
  2
TABLES
  0
TABLE
  2
VPORT
  5
372
100
AcDbSymbolTable
 70
     1
  0
VPORT
  5
3D4
100
AcDbSymbolTableRecord
100
AcDbViewportTableRecord
  2
*ACTIVE
 70
     0
 10
0.0
 20
0.0
 11
1.0
 21
1.0
 12
299.852861
 22
179.439508
 13
0.0
 23
0.0
 14
1.0
 24
1.0
 15
10.0
 25
10.0
 16
0.0
 26
0.0
 36
1.0
 17
0.0
 27
0.0
 37
0.0
 40
358.879015
 41
1.671053
 42
50.0
 43
0.0
 44
0.0
 50
0.0
 51
0.0
 71
     0
 72
   100
 73
     1
 74
     1
 75
     0
 76
     1
 77
     0
 78
     0
  0
ENDTAB
  0
TABLE
  2
LTYPE
  5
36F
100
AcDbSymbolTable
 70
    24
  0
LTYPE
  5
37B
100
AcDbSymbolTableRecord
100
AcDbLinetypeTableRecord
  2
BYBLOCK
 70
     0
  3

 72
    65
 73
     0
 40
0.0
  0
LTYPE
  5
37C
100
AcDbSymbolTableRecord
100
AcDbLinetypeTableRecord
  2
BYLAYER
 70
     0
  3

 72
    65
 73
     0
 40
0.0
  0
LTYPE
  5
37D
100
AcDbSymbolTableRecord
100
AcDbLinetypeTableRecord
  2
CONTINUOUS
 70
     0
  3
Solid line
 72
    65
 73
     0
 40
0.0
  0
LTYPE
  5
39A
100
AcDbSymbolTableRecord
100
AcDbLinetypeTableRecord
  2
CADRA_SOLID
 70
     0
  3
Cadra_solid
 72
    65
 73
     0
 40
0.0
  0
LTYPE
  5
39B
100
AcDbSymbolTableRecord
100
AcDbLinetypeTableRecord
  2
AXES2
 70
     0
  3
___ _ ___ _ ___ _ ___ _ ___ _ ___ _ ___ _ ___ _
 72
    65
 73
     4
 40
1.125
 49
0.75
 74
     0
 49
-0.125
 74
     0
 49
0.125
 74
     0
 49
-0.125
 74
     0
  0
LTYPE
  5
39C
100
AcDbSymbolTableRecord
100
AcDbLinetypeTableRecord
  2
AXES
 70
     0
  3
____ _ ____ _ ____ _ ____ _ ____ _ ____ _ ____ 
 72
    65
 73
     4
 40
2.0
 49
1.25
 74
     0
 49
-0.25
 74
     0
 49
0.25
 74
     0
 49
-0.25
 74
     0
  0
LTYPE
  5
39D
100
AcDbSymbolTableRecord
100
AcDbLinetypeTableRecord
  2
AXESX2
 70
     0
  3
________  __  ________  __  ________  __  _____
 72
    65
 73
     4
 40
4.0
 49
2.5
 74
     0
 49
-0.5
 74
     0
 49
0.5
 74
     0
 49
-0.5
 74
     0
  0
LTYPE
  5
39E
100
AcDbSymbolTableRecord
100
AcDbLinetypeTableRecord
  2
TIRETPT
 70
     0
  3
__ . __ . __ . __ . __ . __ . __ . __ . __ . __
 72
    65
 73
     4
 40
1.0
 49
0.5
 74
     0
 49
-0.25
 74
     0
 49
0.0
 74
     0
 49
-0.25
 74
     0
  0
LTYPE
  5
39F
100
AcDbSymbolTableRecord
100
AcDbLinetypeTableRecord
  2
TIRETPT2
 70
     0
  3
_._._._._._._._._._._._._._._._._._._._._._._._
 72
    65
 73
     4
 40
0.5
 49
0.25
 74
     0
 49
-0.125
 74
     0
 49
0.0
 74
     0
 49
-0.125
 74
     0
  0
LTYPE
  5
3A0
100
AcDbSymbolTableRecord
100
AcDbLinetypeTableRecord
  2
TIRETPTX2
 70
     0
  3
____  .  ____  .  ____  .  ____  .  ____  .  __
 72
    65
 73
     4
 40
2.0
 49
1.0
 74
     0
 49
-0.5
 74
     0
 49
0.0
 74
     0
 49
-0.5
 74
     0
  0
LTYPE
  5
3A1
100
AcDbSymbolTableRecord
100
AcDbLinetypeTableRecord
  2
DISCONTINU
 70
     0
  3
__ __ __ __ __ __ __ __ __ __ __ __ __ __ __ __
 72
    65
 73
     2
 40
0.75
 49
0.5
 74
     0
 49
-0.25
 74
     0
  0
LTYPE
  5
3A2
100
AcDbSymbolTableRecord
100
AcDbLinetypeTableRecord
  2
DISCONTINU2
 70
     0
  3
_ _ _ _ _ _ _ _ _ _ _ _ _ _ _ _ _ _ _ _ _ _ _ _
 72
    65
 73
     2
 40
0.375
 49
0.25
 74
     0
 49
-0.125
 74
     0
  0
LTYPE
  5
3A3
100
AcDbSymbolTableRecord
100
AcDbLinetypeTableRecord
  2
DISCONTINUX2
 70
     0
  3
____  ____  ____  ____  ____  ____  ____  ____ 
 72
    65
 73
     2
 40
1.5
 49
1.0
 74
     0
 49
-0.5
 74
     0
  0
LTYPE
  5
3A4
100
AcDbSymbolTableRecord
100
AcDbLinetypeTableRecord
  2
DIVISE
 70
     0
  3
____ . . ____ . . ____ . . ____ . . ____ . . __
 72
    65
 73
     6
 40
1.25
 49
0.5
 74
     0
 49
-0.25
 74
     0
 49
0.0
 74
     0
 49
-0.25
 74
     0
 49
0.0
 74
     0
 49
-0.25
 74
     0
  0
LTYPE
  5
3A5
100
AcDbSymbolTableRecord
100
AcDbLinetypeTableRecord
  2
DIVISE2
 70
     0
  3
__..__..__..__..__..__..__..__..__..__..__..__.
 72
    65
 73
     6
 40
0.625
 49
0.25
 74
     0
 49
-0.125
 74
     0
 49
0.0
 74
     0
 49
-0.125
 74
     0
 49
0.0
 74
     0
 49
-0.125
 74
     0
  0
LTYPE
  5
3A6
100
AcDbSymbolTableRecord
100
AcDbLinetypeTableRecord
  2
DIVISEX2
 70
     0
  3
________  .  .  ________  .  .  ________  .  . 
 72
    65
 73
     6
 40
2.5
 49
1.0
 74
     0
 49
-0.5
 74
     0
 49
0.0
 74
     0
 49
-0.5
 74
     0
 49
0.0
 74
     0
 49
-0.5
 74
     0
  0
LTYPE
  5
3A7
100
AcDbSymbolTableRecord
100
AcDbLinetypeTableRecord
  2
POINTILLE
 70
     0
  3
. . . . . . . . . . . . . . . . . . . . . . . .
 72
    65
 73
     2
 40
0.25
 49
0.0
 74
     0
 49
-0.25
 74
     0
  0
LTYPE
  5
3A8
100
AcDbSymbolTableRecord
100
AcDbLinetypeTableRecord
  2
POINTILLE2
 70
     0
  3
...............................................
 72
    65
 73
     2
 40
0.125
 49
0.0
 74
     0
 49
-0.125
 74
     0
  0
LTYPE
  5
3A9
100
AcDbSymbolTableRecord
100
AcDbLinetypeTableRecord
  2
POINTILLEX2
 70
     0
  3
.  .  .  .  .  .  .  .  .  .  .  .  .  .  .  . 
 72
    65
 73
     2
 40
0.5
 49
0.0
 74
     0
 49
-0.5
 74
     0
  0
LTYPE
  5
3AA
100
AcDbSymbolTableRecord
100
AcDbLinetypeTableRecord
  2
CACHE
 70
     0
  3
__ __ __ __ __ __ __ __ __ __ __ __ __ __ __ __
 72
    65
 73
     2
 40
0.375
 49
0.25
 74
     0
 49
-0.125
 74
     0
  0
LTYPE
  5
3AB
100
AcDbSymbolTableRecord
100
AcDbLinetypeTableRecord
  2
CACHE2
 70
     0
  3
_ _ _ _ _ _ _ _ _ _ _ _ _ _ _ _ _ _ _ _ _ _ _ _
 72
    65
 73
     2
 40
0.1875
 49
0.125
 74
     0
 49
-0.0625
 74
     0
  0
LTYPE
  5
3AC
100
AcDbSymbolTableRecord
100
AcDbLinetypeTableRecord
  2
CACHEX2
 70
     0
  3
____ ____ ____ ____ ____ ____ ____ ____ ____ __
 72
    65
 73
     2
 40
0.75
 49
0.5
 74
     0
 49
-0.25
 74
     0
  0
LTYPE
  5
3AD
100
AcDbSymbolTableRecord
100
AcDbLinetypeTableRecord
  2
FANTOME
 70
     0
  3
______  __  __  ______  __  __  ______  __  __ 
 72
    65
 73
     6
 40
2.5
 49
1.25
 74
     0
 49
-0.25
 74
     0
 49
0.25
 74
     0
 49
-0.25
 74
     0
 49
0.25
 74
     0
 49
-0.25
 74
     0
  0
LTYPE
  5
3AE
100
AcDbSymbolTableRecord
100
AcDbLinetypeTableRecord
  2
FANTOME2
 70
     0
  3
___ _ _ ___ _ _ ___ _ _ ___ _ _ ___ _ _ ___ _ _
 72
    65
 73
     6
 40
1.25
 49
0.625
 74
     0
 49
-0.125
 74
     0
 49
0.125
 74
     0
 49
-0.125
 74
     0
 49
0.125
 74
     0
 49
-0.125
 74
     0
  0
LTYPE
  5
3AF
100
AcDbSymbolTableRecord
100
AcDbLinetypeTableRecord
  2
FANTOMEX2
 70
     0
  3
____________    ____    ____    ____________   
 72
    65
 73
     6
 40
5.0
 49
2.5
 74
     0
 49
-0.5
 74
     0
 49
0.5
 74
     0
 49
-0.5
 74
     0
 49
0.5
 74
     0
 49
-0.5
 74
     0
  0
LTYPE
  5
3B0
100
AcDbSymbolTableRecord
100
AcDbLinetypeTableRecord
  2
0
 70
     0
  3
MEDUSA PEN 0
 72
    65
 73
     0
 40
0.0
  0
ENDTAB
  0
TABLE
  2
LAYER
  5
36C
100
AcDbSymbolTable
 70
    21
  0
LAYER
  5
378
100
AcDbSymbolTableRecord
100
AcDbLayerTableRecord
  2
0
 70
     0
 62
   146
  6
CADRA_SOLID
  0
LAYER
  5
3B7
100
AcDbSymbolTableRecord
100
AcDbLayerTableRecord
  2
AXE
 70
     0
 62
    80
  6
AXES2
  0
LAYER
  5
3B8
100
AcDbSymbolTableRecord
100
AcDbLayerTableRecord
  2
ALPHA
 70
     0
 62
   255
  6
CONTINUOUS
  0
LAYER
  5
3B9
100
AcDbSymbolTableRecord
100
AcDbLayerTableRecord
  2
CONSTRUCTION
 70
     0
 62
     6
  6
CONTINUOUS
  0
LAYER
  5
3BA
100
AcDbSymbolTableRecord
100
AcDbLayerTableRecord
  2
COTATION1
 70
     0
 62
     2
  6
CONTINUOUS
  0
LAYER
  5
3BB
100
AcDbSymbolTableRecord
100
AcDbLayerTableRecord
  2
HACHURES
 70
     0
 62
     9
  6
CONTINUOUS
  0
LAYER
  5
3BC
100
AcDbSymbolTableRecord
100
AcDbLayerTableRecord
  2
FMULT
 70
     0
 62
     6
  6
CONTINUOUS
  0
LAYER
  5
3BD
100
AcDbSymbolTableRecord
100
AcDbLayerTableRecord
  2
TEXTE
 70
     0
 62
   131
  6
CONTINUOUS
  0
LAYER
  5
3BE
100
AcDbSymbolTableRecord
100
AcDbLayerTableRecord
  2
FDP_CARTOUCHE
 70
     0
 62
     4
  6
CONTINUOUS
  0
LAYER
  5
3BF
100
AcDbSymbolTableRecord
100
AcDbLayerTableRecord
  2
FDP_TEXTES
 70
     0
 62
     5
  6
CONTINUOUS
  0
LAYER
  5
3C0
100
AcDbSymbolTableRecord
100
AcDbLayerTableRecord
  2
FDP_LOGO_MG
 70
     0
 62
    30
  6
CONTINUOUS
  0
LAYER
  5
3C1
100
AcDbSymbolTableRecord
100
AcDbLayerTableRecord
  2
FDP_LOGO_SCH
 70
     0
 62
     3
  6
CONTINUOUS
  0
LAYER
  5
3C2
100
AcDbSymbolTableRecord
100
AcDbLayerTableRecord
  2
FDP_FDP
 70
     0
 62
     5
  6
CONTINUOUS
  0
LAYER
  5
3C3
100
AcDbSymbolTableRecord
100
AcDbLayerTableRecord
  2
COTATION2
 70
     0
 62
     2
  6
CONTINUOUS
  0
LAYER
  5
3C4
100
AcDbSymbolTableRecord
100
AcDbLayerTableRecord
  2
COTATION3
 70
     0
 62
     2
  6
CONTINUOUS
  0
LAYER
  5
3C5
100
AcDbSymbolTableRecord
100
AcDbLayerTableRecord
  2
COTATION4
 70
     0
 62
     2
  6
CONTINUOUS
  0
LAYER
  5
3C6
100
AcDbSymbolTableRecord
100
AcDbLayerTableRecord
  2
ASHADE
 70
     0
 62
     7
  6
CONTINUOUS
  0
LAYER
  5
3C7
100
AcDbSymbolTableRecord
100
AcDbLayerTableRecord
  2
POINTILLE_COURT
 70
     0
 62
    40
  6
CACHE2
  0
LAYER
  5
3C8
100
AcDbSymbolTableRecord
100
AcDbLayerTableRecord
  2
POINTILLE_MOYEN
 70
     0
 62
   140
  6
CACHE
  0
LAYER
  5
3C9
100
AcDbSymbolTableRecord
100
AcDbLayerTableRecord
  2
POINTILLE_LONG
 70
     0
 62
   240
  6
CACHEX2
  0
LAYER
  5
3CA
100
AcDbSymbolTableRecord
100
AcDbLayerTableRecord
  2
DEFPOINTS
 70
     0
 62
     7
  6
CONTINUOUS
  0
ENDTAB
  0
TABLE
  2
STYLE
  5
36D
100
AcDbSymbolTable
 70
     4
  0
STYLE
  5
379
100
AcDbSymbolTableRecord
100
AcDbTextStyleTableRecord
  2
STANDARD
 70
     0
 40
0.0
 41
1.0
 50
0.0
 71
     0
 42
2.5
  3
txt
  4

  0
STYLE
  5
397
100
AcDbSymbolTableRecord
100
AcDbTextStyleTableRecord
  2
ROMANS
 70
     0
 40
0.0
 41
1.0
 50
0.0
 71
     0
 42
2.9
  3
romans.shx
  4

  0
STYLE
  5
398
100
AcDbSymbolTableRecord
100
AcDbTextStyleTableRecord
  2
INFOCAR
 70
     0
 40
0.0
 41
1.34
 50
0.0
 71
     0
 42
2.0
  3
ROMANS.SHX
  4

  0
STYLE
  5
399
100
AcDbSymbolTableRecord
100
AcDbTextStyleTableRecord
  2
CARTOUCHE
 70
     0
 40
0.0
 41
1.0
 50
0.0
 71
     0
 42
0.2
  3
ROMANS.SHX
  4

  0
ENDTAB
  0
TABLE
  2
VIEW
  5
370
100
AcDbSymbolTable
 70
     0
  0
ENDTAB
  0
TABLE
  2
UCS
  5
371
100
AcDbSymbolTable
 70
     0
  0
ENDTAB
  0
TABLE
  2
APPID
  5
373
100
AcDbSymbolTable
 70
     3
  0
APPID
  5
37A
100
AcDbSymbolTableRecord
100
AcDbRegAppTableRecord
  2
ACAD
 70
     0
  0
APPID
  5
3B3
100
AcDbSymbolTableRecord
100
AcDbRegAppTableRecord
  2
AVE_RENDER
 70
     0
  0
APPID
  5
3B4
100
AcDbSymbolTableRecord
100
AcDbRegAppTableRecord
  2
AVE_MATERIAL
 70
     0
  0
ENDTAB
  0
TABLE
  2
DIMSTYLE
  5
374
100
AcDbSymbolTable
 70
     2
  0
DIMSTYLE
105
3B5
100
AcDbSymbolTableRecord
100
AcDbDimStyleTableRecord
  2
STANDARD
 70
     0
  3

  4

  5

  6

  7

 40
1.0
 41
0.18
 42
0.0625
 43
0.38
 44
0.18
 45
0.0
 46
0.0
 47
0.0
 48
0.0
140
0.18
141
0.09
142
0.0
143
25.4
144
1.0
145
0.0
146
1.0
147
0.09
 71
     0
 72
     0
 73
     1
 74
     1
 75
     0
 76
     0
 77
     0
 78
     0
170
     0
171
     2
172
     0
173
     0
174
     0
175
     0
176
     0
177
     0
178
     0
270
     2
271
     3
272
     3
273
     2
274
     2
340
397
275
     0
280
     0
281
     0
282
     0
283
     1
284
    12
285
    12
286
    12
287
     5
288
     0
  0
DIMSTYLE
105
3B6
102
{ACAD_REACTORS
330
2CD
330
2D9
330
2E5
330
2F1
330
2FE
330
30B
330
318
102
}
100
AcDbSymbolTableRecord
100
AcDbDimStyleTableRecord
  2
SC_STAND
 70
     0
  3

  4

  5

  6

  7

 40
1.0
 41
3.0
 42
0.0625
 43
0.38
 44
0.18
 45
0.01
 46
0.0
 47
0.0
 48
0.0
140
2.5
141
0.09
142
0.0
143
25.4
144
1.0
145
0.0
146
1.0
147
1.0
 71
     0
 72
     0
 73
     0
 74
     0
 75
     0
 76
     0
 77
     1
 78
    12
170
     0
171
     2
172
     1
173
     0
174
     0
175
     0
176
     0
177
     0
178
     0
270
     2
271
     3
272
     3
273
     2
274
     2
340
397
275
     0
280
     0
281
     0
282
     0
283
     1
284
    12
285
    12
286
    12
287
     5
288
     0
  0
ENDTAB
  0
TABLE
  2
BLOCK_RECORD
  5
36B
100
AcDbSymbolTable
 70
    17
  0
BLOCK_RECORD
  5
381
100
AcDbSymbolTableRecord
100
AcDbBlockTableRecord
  2
*MODEL_SPACE
  0
BLOCK_RECORD
  5
37E
100
AcDbSymbolTableRecord
100
AcDbBlockTableRecord
  2
*PAPER_SPACE
  0
BLOCK_RECORD
  5
386
100
AcDbSymbolTableRecord
100
AcDbBlockTableRecord
  2
AVE_RENDER
  0
BLOCK_RECORD
  5
387
100
AcDbSymbolTableRecord
100
AcDbBlockTableRecord
  2
AVE_GLOBAL
  0
BLOCK_RECORD
  5
388
100
AcDbSymbolTableRecord
100
AcDbBlockTableRecord
  2
SCH_ISO
  0
BLOCK_RECORD
  5
390
100
AcDbSymbolTableRecord
100
AcDbBlockTableRecord
  2
*D10
  0
BLOCK_RECORD
  5
391
100
AcDbSymbolTableRecord
100
AcDbBlockTableRecord
  2
*D11
  0
BLOCK_RECORD
  5
392
100
AcDbSymbolTableRecord
100
AcDbBlockTableRecord
  2
*D12
  0
BLOCK_RECORD
  5
393
100
AcDbSymbolTableRecord
100
AcDbBlockTableRecord
  2
*D13
  0
BLOCK_RECORD
  5
394
100
AcDbSymbolTableRecord
100
AcDbBlockTableRecord
  2
*D14
  0
BLOCK_RECORD
  5
395
100
AcDbSymbolTableRecord
100
AcDbBlockTableRecord
  2
*D15
  0
BLOCK_RECORD
  5
396
100
AcDbSymbolTableRecord
100
AcDbBlockTableRecord
  2
*D16
  0
ENDTAB
  0
ENDSEC
  0
SECTION
  2
BLOCKS
  0
BLOCK
  5
3CD
100
AcDbEntity
  8
0
100
AcDbBlockBegin
  2
*MODEL_SPACE
 70
     0
 10
0.0
 20
0.0
 30
0.0
  3
*MODEL_SPACE
  1

  0
ENDBLK
  5
3CE
100
AcDbEntity
  8
0
100
AcDbBlockEnd
  0
BLOCK
  5
3CB
100
AcDbEntity
 67
     1
  8
0
100
AcDbBlockBegin
  2
*PAPER_SPACE
 70
     0
 10
0.0
 20
0.0
 30
0.0
  3
*PAPER_SPACE
  1

  0
ENDBLK
  5
3CC
100
AcDbEntity
 67
     1
  8
0
100
AcDbBlockEnd
  0
BLOCK
  5
281
100
AcDbEntity
  8
0
100
AcDbBlockBegin
  2
AVE_RENDER
 70
     0
 10
0.0
 20
0.0
 30
0.0
  3
AVE_RENDER
  1
AVE_RENDER
  0
ENDBLK
  5
282
100
AcDbEntity
  8
0
100
AcDbBlockEnd
  0
BLOCK
  5
284
100
AcDbEntity
  8
0
100
AcDbBlockBegin
  2
AVE_GLOBAL
 70
     0
 10
0.0
 20
0.0
 30
0.0
  3
AVE_GLOBAL
  1
AVE_GLOBAL
  0
ENDBLK
  5
285
100
AcDbEntity
  8
0
100
AcDbBlockEnd
  0
BLOCK
  5
2BD
100
AcDbEntity
  8
0
100
AcDbBlockBegin
  2
SCH_ISO
 70
     0
 10
0.0
 20
0.0
 30
0.0
  3
SCH_ISO
  1

  0
INSERT
  5
2B4
100
AcDbEntity
  8
ASHADE
 62
     1
100
AcDbBlockReference
  2
AVE_RENDER
 10
0.0
 20
0.0
 30
0.0
1001
AVE_RENDER
1002
{
1070
     6
1000
Pref
1070
    50
1070
    20
1070
     1
1070
     0
1000

1070
    10
1070
     1
1070
    30
1040
25.4
1070
     1
1040
0.3
1040
0.7
1040
0.0
1040
10.0
1010
-1.0
1020
-1.0
1030
-1.0
1040
0.3
1070
    49
1070
     0
1070
     0
1010
1.0
1020
1.0
1030
1.0
1040
45.0
1070
     1
1070
     0
1000
WCS
1040
0.0
1002
}
  0
INSERT
  5
2B5
100
AcDbEntity
  8
ASHADE
 62
     3
100
AcDbBlockReference
  2
AVE_RENDER
 10
0.0
 20
0.0
 30
0.0
1001
AVE_RENDER
1002
{
1070
     0
1000
Full Opt
1070
     0
1070
     1
1070
     1
1070
     1
1070
     0
1070
     0
1070
     0
1070
     1
1070
     1
1040
0.0001
1040
0.0001
1002
}
  0
INSERT
  5
2B6
100
AcDbEntity
  8
ASHADE
 62
     4
100
AcDbBlockReference
  2
AVE_RENDER
 10
0.0
 20
0.0
 30
0.0
1001
AVE_RENDER
1002
{
1070
     0
1000
Quick Opt
1070
     0
1070
     1
1070
     1
1070
     1
1070
     0
1070
     0
1070
     1
1002
}
  0
INSERT
  5
2B7
100
AcDbEntity
  8
ASHADE
 62
     5
100
AcDbBlockReference
  2
AVE_RENDER
 10
0.0
 20
0.0
 30
0.0
1001
AVE_RENDER
1002
{
1070
     1
1000
Scanl Opt
1070
     2
1070
     0
1070
     2
1040
2.0
1040
4.0
1070
     0
1070
     1
1070
     0
1040
0.03
1002
}
  0
INSERT
  5
2B8
100
AcDbEntity
  8
ASHADE
 62
     6
100
AcDbBlockReference
  2
AVE_RENDER
 10
0.0
 20
0.0
 30
0.0
1001
AVE_RENDER
1002
{
1070
     2
1000
Raytr Opt
1070
     2
1070
     0
1070
     2
1040
2.0
1040
4.0
1070
     0
1070
     1
1070
     1
1040
0.03
1070
     3
1040
0.03
1002
}
  0
INSERT
  5
2B9
100
AcDbEntity
  8
ASHADE
 62
     7
100
AcDbBlockReference
  2
AVE_RENDER
 10
0.0
 20
0.0
 30
0.0
1001
AVE_RENDER
1002
{
1070
     0
1000
RFile Opt
1070
     5
1070
   640
1070
   480
1070
 10000
1070
     3
1070
    32
1070
    24
1070
     0
1070
     0
1070
     0
1070
     1
1070
     0
1070
     0
1070
     0
1002
}
  0
INSERT
  5
2BA
100
AcDbEntity
  8
ASHADE
 62
     8
100
AcDbBlockReference
  2
AVE_RENDER
 10
0.0
 20
0.0
 30
0.0
1001
AVE_RENDER
1002
{
1070
     0
1000
Fog Opt
1070
     0
1070
     0
1040
0.0
1040
1.0
1040
0.0
1040
1.0
1010
0.5
1020
0.5
1030
0.5
1002
}
  0
INSERT
  5
2BB
100
AcDbEntity
  8
ASHADE
 62
     9
100
AcDbBlockReference
  2
AVE_RENDER
 10
0.0
 20
0.0
 30
0.0
1001
AVE_RENDER
1002
{
1070
     0
1000
BG Opt
1070
     0
1070
     1
1010
0.0
1020
0.0
1030
0.0
1010
1.0
1020
0.0
1030
0.0
1010
0.0
1020
1.0
1030
0.0
1010
0.0
1020
0.0
1030
1.0
1040
0.5
1040
0.33
1040
0.0
1000

1070
     1
1000

1070
     1
1070
     1
1040
1.0
1040
1.0
1040
0.0
1040
0.0
1070
     0
1002
}
  0
INSERT
  5
2BC
100
AcDbEntity
  8
ASHADE
 62
     1
100
AcDbBlockReference
  2
AVE_GLOBAL
 10
0.0
 20
0.0
 30
0.0
1001
AVE_MATERIAL
1002
{
1000
*GLOBAL*
1000
1
1000
Finition globale.
1002
{
1002
}
1002
{
1070
    63
1002
{
1002
{
1010
-1.0
1020
-1.0
1030
-1.0
1002
}
1040
0.1
1000

1040
0.0
1002
{
1002
}
1040
0.0
1002
{
1002
}
1040
0.0
1002
}
1002
{
1002
{
1010
-1.0
1020
-1.0
1030
-1.0
1002
}
1040
0.7
1000

1040
0.0
1002
{
1002
}
1040
0.0
1002
{
1002
}
1040
0.0
1002
}
1002
{
1002
{
1010
-1.0
1020
-1.0
1030
-1.0
1002
}
1040
0.2
1000

1040
0.0
1002
{
1002
}
1040
0.0
1002
{
1002
}
1040
0.0
1002
}
1002
{
1070
     0
1002
{
1070
     1
1002
{
1040
1.0
1040
1.0
1000

1040
0.0
1002
{
1002
}
1040
0.0
1002
{
1002
}
1040
0.0
1002
}
1002
}
1040
1.0
1040
0.0
1040
0.0
1002
}
1002
{
1040
1.0
1040
1.0
1000

1040
0.0
1002
{
1002
}
1040
0.0
1002
{
1002
}
1040
0.0
1002
}
1002
{
1040
0.5
1040
1.0
1000

1040
0.0
1002
{
1002
}
1040
0.0
1002
{
1002
}
1040
0.0
1002
}
1002
{
1070
     0
1040
0.0
1002
{
1002
}
1040
1.0
1002
{
1002
}
1040
0.0
1002
}
1002
{
1040
0.0
1002
{
1002
{
1010
0.0
1020
0.0
1030
0.0
1002
}
1040
1.0
1000

1040
0.0
1002
{
1002
}
1040
0.0
1002
{
1002
}
1040
0.0
1002
}
1002
}
1002
{
1002
{
1070
     1
1002
{
1040
0.0
1040
1.0
1000

1040
0.0
1002
{
1002
}
1040
0.0
1002
{
1002
}
1040
0.0
1002
}
1002
}
1040
0.0
1002
{
1002
}
1010
1.0
1020
0.0
1030
0.0
1010
0.0
1020
1.0
1030
0.0
1010
0.0
1020
0.0
1030
1.0
1070
     0
1002
}
1002
{
1002
{
1040
1.0
1040
1.0
1002
{
1070
     1
1002
{
1040
1.0
1040
1.0
1000

1040
0.0
1002
{
1002
}
1040
0.0
1002
{
1002
}
1040
0.0
1002
}
1002
}
1002
}
1070
     0
1040
0.0
1002
{
1002
}
1002
}
1002
{
1002
}
1002
}
1002
{
1071
        3
1070
     3
1070
     0
1002
{
1070
     2
1070
     0
1070
     0
1040
0.0
1002
}
1070
     0
1070
     2
1002
{
1002
}
1002
}
1002
{
1040
8030.0
1040
190.300003
1040
0.305
1040
228.0
1040
545.0
1040
14.0
1040
17.4
1040
0.456
1002
}
1002
}
  0
ENDBLK
  5
2BE
100
AcDbEntity
  8
0
100
AcDbBlockEnd
  0
BLOCK
  5
31E
100
AcDbEntity
  8
0
100
AcDbBlockBegin
  2
*D10
 70
     1
 10
0.0
 20
0.0
 30
0.0
  3
*D10
  1

  0
LINE
  5
31F
100
AcDbEntity
  8
0
  6
BYBLOCK
 62
     0
100
AcDbLine
 10
45.625
 20
279.420759
 30
0.0
 11
45.625
 21
297.703055
 31
0.0
  0
LINE
  5
320
100
AcDbEntity
  8
0
  6
BYBLOCK
 62
     0
100
AcDbLine
 10
65.625
 20
279.420759
 30
0.0
 11
65.625
 21
297.703055
 31
0.0
  0
LINE
  5
321
100
AcDbEntity
  8
0
  6
BYBLOCK
 62
     0
100
AcDbLine
 10
48.625
 20
297.523055
 30
0.0
 11
62.625
 21
297.523055
 31
0.0
  0
SOLID
  5
322
100
AcDbEntity
  8
0
  6
BYBLOCK
 62
     0
100
AcDbTrace
 10
48.625
 20
298.023055
 30
0.0
 11
48.625
 21
297.023055
 31
0.0
 12
45.625
 22
297.523055
 32
0.0
 13
45.625
 23
297.523055
 33
0.0
  0
SOLID
  5
323
100
AcDbEntity
  8
0
  6
BYBLOCK
 62
     0
100
AcDbTrace
 10
62.625
 20
298.023055
 30
0.0
 11
62.625
 21
297.023055
 31
0.0
 12
65.625
 22
297.523055
 32
0.0
 13
65.625
 23
297.523055
 33
0.0
  0
TEXT
  5
324
100
AcDbEntity
  8
0
  6
BYBLOCK
 62
     0
100
AcDbText
 10
53.244048
 20
298.773055
 30
0.0
 40
2.5
  1
20
  7
ROMANS
 72
     1
 11
55.625
 21
300.023055
 31
0.0
100
AcDbText
 73
     2
  0
POINT
  5
325
100
AcDbEntity
  8
DEFPOINTS
  6
BYBLOCK
 62
     0
100
AcDbPoint
 10
45.625
 20
279.358259
 30
0.0
  0
POINT
  5
326
100
AcDbEntity
  8
DEFPOINTS
  6
BYBLOCK
 62
     0
100
AcDbPoint
 10
65.625
 20
279.358259
 30
0.0
  0
POINT
  5
327
100
AcDbEntity
  8
DEFPOINTS
  6
BYBLOCK
 62
     0
100
AcDbPoint
 10
65.625
 20
297.523055
 30
0.0
  0
ENDBLK
  5
328
100
AcDbEntity
  8
0
100
AcDbBlockEnd
  0
BLOCK
  5
329
100
AcDbEntity
  8
0
100
AcDbBlockBegin
  2
*D11
 70
     1
 10
0.0
 20
0.0
 30
0.0
  3
*D11
  1

  0
LINE
  5
32A
100
AcDbEntity
  8
0
  6
BYBLOCK
 62
     0
100
AcDbLine
 10
195.187439
 20
131.358259
 30
0.0
 11
231.103743
 21
131.358259
 31
0.0
  0
LINE
  5
32B
100
AcDbEntity
  8
0
  6
BYBLOCK
 62
     0
100
AcDbLine
 10
195.187439
 20
253.358259
 30
0.0
 11
231.103743
 21
253.358259
 31
0.0
  0
LINE
  5
32C
100
AcDbEntity
  8
0
  6
BYBLOCK
 62
     0
100
AcDbLine
 10
230.923743
 20
134.358259
 30
0.0
 11
230.923743
 21
250.358259
 31
0.0
  0
SOLID
  5
32D
100
AcDbEntity
  8
0
  6
BYBLOCK
 62
     0
100
AcDbTrace
 10
230.423743
 20
134.358259
 30
0.0
 11
231.423743
 21
134.358259
 31
0.0
 12
230.923743
 22
131.358259
 32
0.0
 13
230.923743
 23
131.358259
 33
0.0
  0
SOLID
  5
32E
100
AcDbEntity
  8
0
  6
BYBLOCK
 62
     0
100
AcDbTrace
 10
230.423743
 20
250.358259
 30
0.0
 11
231.423743
 21
250.358259
 31
0.0
 12
230.923743
 22
253.358259
 32
0.0
 13
230.923743
 23
253.358259
 33
0.0
  0
TEXT
  5
32F
100
AcDbEntity
  8
0
  6
BYBLOCK
 62
     0
100
AcDbText
 10
229.673743
 20
188.608259
 30
0.0
 40
2.5
  1
122
 50
90.0
  7
ROMANS
 72
     1
 11
228.423743
 21
192.358259
 31
0.0
100
AcDbText
 73
     2
  0
POINT
  5
330
100
AcDbEntity
  8
DEFPOINTS
  6
BYBLOCK
 62
     0
100
AcDbPoint
 10
195.124939
 20
131.358259
 30
0.0
  0
POINT
  5
331
100
AcDbEntity
  8
DEFPOINTS
  6
BYBLOCK
 62
     0
100
AcDbPoint
 10
195.124939
 20
253.358259
 30
0.0
  0
POINT
  5
332
100
AcDbEntity
  8
DEFPOINTS
  6
BYBLOCK
 62
     0
100
AcDbPoint
 10
230.923743
 20
253.358259
 30
0.0
  0
ENDBLK
  5
333
100
AcDbEntity
  8
0
100
AcDbBlockEnd
  0
BLOCK
  5
334
100
AcDbEntity
  8
0
100
AcDbBlockBegin
  2
*D12
 70
     1
 10
0.0
 20
0.0
 30
0.0
  3
*D12
  1

  0
LINE
  5
335
100
AcDbEntity
  8
0
  6
BYBLOCK
 62
     0
100
AcDbLine
 10
26.625
 20
134.54576
 30
0.0
 11
26.625
 21
67.553259
 31
0.0
  0
LINE
  5
336
100
AcDbEntity
  8
0
  6
BYBLOCK
 62
     0
100
AcDbLine
 10
195.124939
 20
131.295759
 30
0.0
 11
195.124939
 21
67.553259
 31
0.0
  0
LINE
  5
337
100
AcDbEntity
  8
0
  6
BYBLOCK
 62
     0
100
AcDbLine
 10
29.625
 20
67.733259
 30
0.0
 11
192.124939
 21
67.733259
 31
0.0
  0
SOLID
  5
338
100
AcDbEntity
  8
0
  6
BYBLOCK
 62
     0
100
AcDbTrace
 10
29.625
 20
68.233259
 30
0.0
 11
29.625
 21
67.233259
 31
0.0
 12
26.625
 22
67.733259
 32
0.0
 13
26.625
 23
67.733259
 33
0.0
  0
SOLID
  5
339
100
AcDbEntity
  8
0
  6
BYBLOCK
 62
     0
100
AcDbTrace
 10
192.124939
 20
68.233259
 30
0.0
 11
192.124939
 21
67.233259
 31
0.0
 12
195.124939
 22
67.733259
 32
0.0
 13
195.124939
 23
67.733259
 33
0.0
  0
TEXT
  5
33A
100
AcDbEntity
  8
0
  6
BYBLOCK
 62
     0
100
AcDbText
 10
105.339255
 20
68.983259
 30
0.0
 40
2.5
  1
168.5
  7
ROMANS
 72
     1
 11
110.87497
 21
70.233259
 31
0.0
100
AcDbText
 73
     2
  0
POINT
  5
33B
100
AcDbEntity
  8
DEFPOINTS
  6
BYBLOCK
 62
     0
100
AcDbPoint
 10
26.625
 20
134.60826
 30
0.0
  0
POINT
  5
33C
100
AcDbEntity
  8
DEFPOINTS
  6
BYBLOCK
 62
     0
100
AcDbPoint
 10
195.124939
 20
131.358259
 30
0.0
  0
POINT
  5
33D
100
AcDbEntity
  8
DEFPOINTS
  6
BYBLOCK
 62
     0
100
AcDbPoint
 10
195.124939
 20
67.733259
 30
0.0
  0
ENDBLK
  5
33E
100
AcDbEntity
  8
0
100
AcDbBlockEnd
  0
BLOCK
  5
33F
100
AcDbEntity
  8
0
100
AcDbBlockBegin
  2
*D13
 70
     1
 10
0.0
 20
0.0
 30
0.0
  3
*D13
  1

  0
LINE
  5
340
100
AcDbEntity
  8
0
  6
BYBLOCK
 62
     0
100
AcDbLine
 10
135.625
 20
115.295759
 30
0.0
 11
135.625
 21
86.253259
 31
0.0
  0
LINE
  5
341
100
AcDbEntity
  8
0
  6
BYBLOCK
 62
     0
100
AcDbLine
 10
195.124939
 20
131.295759
 30
0.0
 11
195.124939
 21
86.253259
 31
0.0
  0
LINE
  5
342
100
AcDbEntity
  8
0
  6
BYBLOCK
 62
     0
100
AcDbLine
 10
138.625
 20
86.433259
 30
0.0
 11
192.124939
 21
86.433259
 31
0.0
  0
SOLID
  5
343
100
AcDbEntity
  8
0
  6
BYBLOCK
 62
     0
100
AcDbTrace
 10
138.625
 20
86.933259
 30
0.0
 11
138.625
 21
85.933259
 31
0.0
 12
135.625
 22
86.433259
 32
0.0
 13
135.625
 23
86.433259
 33
0.0
  0
SOLID
  5
344
100
AcDbEntity
  8
0
  6
BYBLOCK
 62
     0
100
AcDbTrace
 10
192.124939
 20
86.933259
 30
0.0
 11
192.124939
 21
85.933259
 31
0.0
 12
195.124939
 22
86.433259
 32
0.0
 13
195.124939
 23
86.433259
 33
0.0
  0
TEXT
  5
345
100
AcDbEntity
  8
0
  6
BYBLOCK
 62
     0
100
AcDbText
 10
161.208303
 20
87.683259
 30
0.0
 40
2.5
  1
59.5
  7
ROMANS
 72
     1
 11
165.37497
 21
88.933259
 31
0.0
100
AcDbText
 73
     2
  0
POINT
  5
346
100
AcDbEntity
  8
DEFPOINTS
  6
BYBLOCK
 62
     0
100
AcDbPoint
 10
135.625
 20
115.358259
 30
0.0
  0
POINT
  5
347
100
AcDbEntity
  8
DEFPOINTS
  6
BYBLOCK
 62
     0
100
AcDbPoint
 10
195.124939
 20
131.358259
 30
0.0
  0
POINT
  5
348
100
AcDbEntity
  8
DEFPOINTS
  6
BYBLOCK
 62
     0
100
AcDbPoint
 10
195.124939
 20
86.433259
 30
0.0
  0
ENDBLK
  5
349
100
AcDbEntity
  8
0
100
AcDbBlockEnd
  0
BLOCK
  5
34A
100
AcDbEntity
  8
0
100
AcDbBlockBegin
  2
*D14
 70
     1
 10
0.0
 20
0.0
 30
0.0
  3
*D14
  1

  0
LINE
  5
34B
100
AcDbEntity
  8
0
  6
BYBLOCK
 62
     0
100
AcDbLine
 10
95.625
 20
115.295759
 30
0.0
 11
95.625
 21
86.253259
 31
0.0
  0
LINE
  5
34C
100
AcDbEntity
  8
0
  6
BYBLOCK
 62
     0
100
AcDbLine
 10
135.625
 20
115.295759
 30
0.0
 11
135.625
 21
86.253259
 31
0.0
  0
LINE
  5
34D
100
AcDbEntity
  8
0
  6
BYBLOCK
 62
     0
100
AcDbLine
 10
98.625
 20
86.433259
 30
0.0
 11
132.625
 21
86.433259
 31
0.0
  0
SOLID
  5
34E
100
AcDbEntity
  8
0
  6
BYBLOCK
 62
     0
100
AcDbTrace
 10
98.625
 20
86.933259
 30
0.0
 11
98.625
 21
85.933259
 31
0.0
 12
95.625
 22
86.433259
 32
0.0
 13
95.625
 23
86.433259
 33
0.0
  0
SOLID
  5
34F
100
AcDbEntity
  8
0
  6
BYBLOCK
 62
     0
100
AcDbTrace
 10
132.625
 20
86.933259
 30
0.0
 11
132.625
 21
85.933259
 31
0.0
 12
135.625
 22
86.433259
 32
0.0
 13
135.625
 23
86.433259
 33
0.0
  0
TEXT
  5
350
100
AcDbEntity
  8
0
  6
BYBLOCK
 62
     0
100
AcDbText
 10
113.244048
 20
87.683259
 30
0.0
 40
2.5
  1
40
  7
ROMANS
 72
     1
 11
115.625
 21
88.933259
 31
0.0
100
AcDbText
 73
     2
  0
POINT
  5
351
100
AcDbEntity
  8
DEFPOINTS
  6
BYBLOCK
 62
     0
100
AcDbPoint
 10
95.625
 20
115.358259
 30
0.0
  0
POINT
  5
352
100
AcDbEntity
  8
DEFPOINTS
  6
BYBLOCK
 62
     0
100
AcDbPoint
 10
135.625
 20
115.358259
 30
0.0
  0
POINT
  5
353
100
AcDbEntity
  8
DEFPOINTS
  6
BYBLOCK
 62
     0
100
AcDbPoint
 10
135.625
 20
86.433259
 30
0.0
  0
ENDBLK
  5
354
100
AcDbEntity
  8
0
100
AcDbBlockEnd
  0
BLOCK
  5
355
100
AcDbEntity
  8
0
100
AcDbBlockBegin
  2
*D15
 70
     1
 10
0.0
 20
0.0
 30
0.0
  3
*D15
  1

  0
LINE
  5
356
100
AcDbEntity
  8
0
  6
BYBLOCK
 62
     0
100
AcDbLine
 10
55.625
 20
115.295759
 30
0.0
 11
55.625
 21
86.253259
 31
0.0
  0
LINE
  5
357
100
AcDbEntity
  8
0
  6
BYBLOCK
 62
     0
100
AcDbLine
 10
95.625
 20
115.295759
 30
0.0
 11
95.625
 21
86.253259
 31
0.0
  0
LINE
  5
358
100
AcDbEntity
  8
0
  6
BYBLOCK
 62
     0
100
AcDbLine
 10
58.625
 20
86.433259
 30
0.0
 11
92.625
 21
86.433259
 31
0.0
  0
SOLID
  5
359
100
AcDbEntity
  8
0
  6
BYBLOCK
 62
     0
100
AcDbTrace
 10
58.625
 20
86.933259
 30
0.0
 11
58.625
 21
85.933259
 31
0.0
 12
55.625
 22
86.433259
 32
0.0
 13
55.625
 23
86.433259
 33
0.0
  0
SOLID
  5
35A
100
AcDbEntity
  8
0
  6
BYBLOCK
 62
     0
100
AcDbTrace
 10
92.625
 20
86.933259
 30
0.0
 11
92.625
 21
85.933259
 31
0.0
 12
95.625
 22
86.433259
 32
0.0
 13
95.625
 23
86.433259
 33
0.0
  0
TEXT
  5
35B
100
AcDbEntity
  8
0
  6
BYBLOCK
 62
     0
100
AcDbText
 10
73.244048
 20
87.683259
 30
0.0
 40
2.5
  1
40
  7
ROMANS
 72
     1
 11
75.625
 21
88.933259
 31
0.0
100
AcDbText
 73
     2
  0
POINT
  5
35C
100
AcDbEntity
  8
DEFPOINTS
  6
BYBLOCK
 62
     0
100
AcDbPoint
 10
55.625
 20
115.358259
 30
0.0
  0
POINT
  5
35D
100
AcDbEntity
  8
DEFPOINTS
  6
BYBLOCK
 62
     0
100
AcDbPoint
 10
95.625
 20
115.358259
 30
0.0
  0
POINT
  5
35E
100
AcDbEntity
  8
DEFPOINTS
  6
BYBLOCK
 62
     0
100
AcDbPoint
 10
95.625
 20
86.433259
 30
0.0
  0
ENDBLK
  5
35F
100
AcDbEntity
  8
0
100
AcDbBlockEnd
  0
BLOCK
  5
360
100
AcDbEntity
  8
0
100
AcDbBlockBegin
  2
*D16
 70
     1
 10
0.0
 20
0.0
 30
0.0
  3
*D16
  1

  0
LINE
  5
361
100
AcDbEntity
  8
0
  6
BYBLOCK
 62
     0
100
AcDbLine
 10
26.625
 20
134.54576
 30
0.0
 11
26.625
 21
86.253259
 31
0.0
  0
LINE
  5
362
100
AcDbEntity
  8
0
  6
BYBLOCK
 62
     0
100
AcDbLine
 10
55.625
 20
115.295759
 30
0.0
 11
55.625
 21
86.253259
 31
0.0
  0
LINE
  5
363
100
AcDbEntity
  8
0
  6
BYBLOCK
 62
     0
100
AcDbLine
 10
29.625
 20
86.433259
 30
0.0
 11
52.625
 21
86.433259
 31
0.0
  0
SOLID
  5
364
100
AcDbEntity
  8
0
  6
BYBLOCK
 62
     0
100
AcDbTrace
 10
29.625
 20
86.933259
 30
0.0
 11
29.625
 21
85.933259
 31
0.0
 12
26.625
 22
86.433259
 32
0.0
 13
26.625
 23
86.433259
 33
0.0
  0
SOLID
  5
365
100
AcDbEntity
  8
0
  6
BYBLOCK
 62
     0
100
AcDbTrace
 10
52.625
 20
86.933259
 30
0.0
 11
52.625
 21
85.933259
 31
0.0
 12
55.625
 22
86.433259
 32
0.0
 13
55.625
 23
86.433259
 33
0.0
  0
TEXT
  5
366
100
AcDbEntity
  8
0
  6
BYBLOCK
 62
     0
100
AcDbText
 10
38.803571
 20
87.683259
 30
0.0
 40
2.5
  1
29
  7
ROMANS
 72
     1
 11
41.125
 21
88.933259
 31
0.0
100
AcDbText
 73
     2
  0
POINT
  5
367
100
AcDbEntity
  8
DEFPOINTS
  6
BYBLOCK
 62
     0
100
AcDbPoint
 10
26.625
 20
134.60826
 30
0.0
  0
POINT
  5
368
100
AcDbEntity
  8
DEFPOINTS
  6
BYBLOCK
 62
     0
100
AcDbPoint
 10
55.625
 20
115.358259
 30
0.0
  0
POINT
  5
369
100
AcDbEntity
  8
DEFPOINTS
  6
BYBLOCK
 62
     0
100
AcDbPoint
 10
55.625
 20
86.433259
 30
0.0
  0
ENDBLK
  5
36A
100
AcDbEntity
  8
0
100
AcDbBlockEnd
  0
ENDSEC
  0
SECTION
  2
ENTITIES
  0
CIRCLE
  5
1E
100
AcDbEntity
  8
ALPHA
100
AcDbCircle
 10
113.125
 20
139.941862
 30
0.0
 40
4.25
  0
LINE
  5
20
100
AcDbEntity
  8
ALPHA
100
AcDbLine
 10
111.899994
 20
135.872236
 30
0.0
 11
111.899994
 21
144.011486
 31
0.0
  0
LINE
  5
21
100
AcDbEntity
  8
ALPHA
100
AcDbLine
 10
114.350006
 20
135.872236
 30
0.0
 11
114.350006
 21
144.011486
 31
0.0
  0
LINE
  5
22
100
AcDbEntity
  8
ALPHA
100
AcDbLine
 10
151.124939
 20
131.358259
 30
0.0
 11
195.124939
 21
131.358259
 31
0.0
  0
LINE
  5
23
100
AcDbEntity
  8
ALPHA
100
AcDbLine
 10
151.124939
 20
189.358259
 30
0.0
 11
155.124939
 21
189.358259
 31
0.0
  0
LINE
  5
24
100
AcDbEntity
  8
ALPHA
100
AcDbLine
 10
151.124939
 20
195.358259
 30
0.0
 11
155.124939
 21
195.358259
 31
0.0
  0
ARC
  5
25
100
AcDbEntity
  8
ALPHA
100
AcDbCircle
 10
155.124939
 20
192.358259
 30
0.0
 40
3.0
100
AcDbArc
 50
269.999973
 51
90.000047
  0
LINE
  5
26
100
AcDbEntity
  8
ALPHA
100
AcDbLine
 10
195.124939
 20
131.358259
 30
0.0
 11
195.124939
 21
253.358259
 31
0.0
  0
LINE
  5
27
100
AcDbEntity
  8
ALPHA
100
AcDbLine
 10
151.124939
 20
184.508253
 30
0.0
 11
183.124939
 21
184.508253
 31
0.0
  0
LINE
  5
28
100
AcDbEntity
  8
ALPHA
100
AcDbLine
 10
151.124939
 20
200.208265
 30
0.0
 11
183.124939
 21
200.208265
 31
0.0
  0
LINE
  5
29
100
AcDbEntity
  8
ALPHA
100
AcDbLine
 10
183.124939
 20
184.508253
 30
0.0
 11
183.124939
 21
200.208265
 31
0.0
  0
ARC
  5
2A
100
AcDbEntity
  8
ALPHA
100
AcDbCircle
 10
197.530701
 20
192.358259
 30
0.0
 40
16.405624
100
AcDbArc
 50
151.41289
 51
208.587092
  0
LINE
  5
2B
100
AcDbEntity
  8
ALPHA
100
AcDbLine
 10
187.124939
 20
224.590299
 30
0.0
 11
187.124939
 21
230.126219
 31
0.0
  0
LINE
  5
2C
100
AcDbEntity
  8
ALPHA
100
AcDbLine
 10
191.124939
 20
224.590299
 30
0.0
 11
191.124939
 21
230.126219
 31
0.0
  0
LINE
  5
2D
100
AcDbEntity
  8
ALPHA
100
AcDbLine
 10
151.124939
 20
222.858259
 30
0.0
 11
195.124939
 21
222.858259
 31
0.0
  0
LINE
  5
2E
100
AcDbEntity
  8
ALPHA
100
AcDbLine
 10
151.124939
 20
231.858259
 30
0.0
 11
195.124939
 21
231.858259
 31
0.0
  0
LINE
  5
2F
100
AcDbEntity
  8
ALPHA
100
AcDbLine
 10
151.124939
 20
211.358259
 30
0.0
 11
195.124939
 21
211.358259
 31
0.0
  0
LINE
  5
30
100
AcDbEntity
  8
ALPHA
100
AcDbLine
 10
151.124939
 20
243.358259
 30
0.0
 11
195.124939
 21
243.358259
 31
0.0
  0
LINE
  5
31
100
AcDbEntity
  8
ALPHA
100
AcDbLine
 10
165.624939
 20
222.858259
 30
0.0
 11
165.624939
 21
231.858259
 31
0.0
  0
LINE
  5
32
100
AcDbEntity
  8
ALPHA
100
AcDbLine
 10
180.624939
 20
222.858259
 30
0.0
 11
180.624939
 21
231.858259
 31
0.0
  0
LINE
  5
33
100
AcDbEntity
  8
ALPHA
100
AcDbLine
 10
164.024841
 20
222.358259
 30
0.0
 11
182.225037
 21
222.358259
 31
0.0
  0
LINE
  5
34
100
AcDbEntity
  8
ALPHA
100
AcDbLine
 10
164.124939
 20
232.358259
 30
0.0
 11
182.124939
 21
232.358259
 31
0.0
  0
LINE
  5
35
100
AcDbEntity
  8
ALPHA
100
AcDbLine
 10
164.124939
 20
232.358259
 30
0.0
 11
164.124939
 21
243.358259
 31
0.0
  0
LINE
  5
36
100
AcDbEntity
  8
ALPHA
100
AcDbLine
 10
182.124939
 20
232.358259
 30
0.0
 11
182.124939
 21
243.358259
 31
0.0
  0
LINE
  5
37
100
AcDbEntity
  8
ALPHA
100
AcDbLine
 10
168.424988
 20
232.358259
 30
0.0
 11
168.424988
 21
243.358259
 31
0.0
  0
LINE
  5
38
100
AcDbEntity
  8
ALPHA
100
AcDbLine
 10
177.82489
 20
232.358259
 30
0.0
 11
177.82489
 21
243.358259
 31
0.0
  0
LINE
  5
39
100
AcDbEntity
  8
ALPHA
100
AcDbLine
 10
170.124939
 20
240.758253
 30
0.0
 11
176.124939
 21
240.758253
 31
0.0
  0
LINE
  5
3A
100
AcDbEntity
  8
ALPHA
100
AcDbLine
 10
170.124939
 20
233.797682
 30
0.0
 11
170.124939
 21
240.758253
 31
0.0
  0
LINE
  5
3B
100
AcDbEntity
  8
ALPHA
100
AcDbLine
 10
176.124939
 20
233.797682
 30
0.0
 11
176.124939
 21
240.758253
 31
0.0
  0
LINE
  5
3C
100
AcDbEntity
  8
ALPHA
100
AcDbLine
 10
170.124939
 20
239.777967
 30
0.0
 11
176.124939
 21
239.777967
 31
0.0
  0
LINE
  5
3D
100
AcDbEntity
  8
ALPHA
100
AcDbLine
 10
170.124939
 20
234.777967
 30
0.0
 11
176.124939
 21
234.777967
 31
0.0
  0
LINE
  5
3E
100
AcDbEntity
  8
ALPHA
100
AcDbLine
 10
170.124939
 20
233.797682
 30
0.0
 11
176.124939
 21
233.797682
 31
0.0
  0
LINE
  5
3F
100
AcDbEntity
  8
ALPHA
100
AcDbLine
 10
151.124939
 20
224.590299
 30
0.0
 11
165.624939
 21
224.590299
 31
0.0
  0
LINE
  5
40
100
AcDbEntity
  8
ALPHA
100
AcDbLine
 10
151.124939
 20
230.126219
 30
0.0
 11
165.624939
 21
230.126219
 31
0.0
  0
LINE
  5
41
100
AcDbEntity
  8
ALPHA
100
AcDbLine
 10
180.624939
 20
224.590299
 30
0.0
 11
195.124939
 21
224.590299
 31
0.0
  0
LINE
  5
42
100
AcDbEntity
  8
ALPHA
100
AcDbLine
 10
180.624939
 20
230.126219
 30
0.0
 11
195.124939
 21
230.126219
 31
0.0
  0
LINE
  5
43
100
AcDbEntity
  8
ALPHA
100
AcDbLine
 10
164.024841
 20
220.858259
 30
0.0
 11
164.024841
 21
222.358259
 31
0.0
  0
LINE
  5
44
100
AcDbEntity
  8
ALPHA
100
AcDbLine
 10
182.225037
 20
220.858259
 30
0.0
 11
182.225037
 21
222.358259
 31
0.0
  0
LINE
  5
45
100
AcDbEntity
  8
ALPHA
100
AcDbLine
 10
162.124939
 20
220.858259
 30
0.0
 11
164.024841
 21
220.858259
 31
0.0
  0
LINE
  5
46
100
AcDbEntity
  8
ALPHA
100
AcDbLine
 10
162.124939
 20
211.358259
 30
0.0
 11
162.124939
 21
220.858259
 31
0.0
  0
LINE
  5
47
100
AcDbEntity
  8
ALPHA
100
AcDbLine
 10
184.124939
 20
211.358259
 30
0.0
 11
184.124939
 21
220.858259
 31
0.0
  0
LINE
  5
48
100
AcDbEntity
  8
ALPHA
100
AcDbLine
 10
166.124939
 20
220.358259
 30
0.0
 11
180.124939
 21
220.358259
 31
0.0
  0
LINE
  5
49
100
AcDbEntity
  8
ALPHA
100
AcDbLine
 10
166.124939
 20
211.358259
 30
0.0
 11
166.124939
 21
220.358259
 31
0.0
  0
LINE
  5
4A
100
AcDbEntity
  8
ALPHA
100
AcDbLine
 10
180.124939
 20
211.358259
 30
0.0
 11
180.124939
 21
220.358259
 31
0.0
  0
LINE
  5
4B
100
AcDbEntity
  8
ALPHA
100
AcDbLine
 10
151.124939
 20
243.858259
 30
0.0
 11
195.124939
 21
243.858259
 31
0.0
  0
LINE
  5
4C
100
AcDbEntity
  8
ALPHA
100
AcDbLine
 10
151.124939
 20
210.858259
 30
0.0
 11
195.124939
 21
210.858259
 31
0.0
  0
LINE
  5
4D
100
AcDbEntity
  8
ALPHA
100
AcDbLine
 10
187.124939
 20
154.590299
 30
0.0
 11
187.124939
 21
160.126219
 31
0.0
  0
LINE
  5
4E
100
AcDbEntity
  8
ALPHA
100
AcDbLine
 10
191.124939
 20
154.590299
 30
0.0
 11
191.124939
 21
160.126219
 31
0.0
  0
LINE
  5
4F
100
AcDbEntity
  8
ALPHA
100
AcDbLine
 10
151.124939
 20
152.858259
 30
0.0
 11
195.124939
 21
152.858259
 31
0.0
  0
LINE
  5
50
100
AcDbEntity
  8
ALPHA
100
AcDbLine
 10
151.124939
 20
161.858259
 30
0.0
 11
195.124939
 21
161.858259
 31
0.0
  0
LINE
  5
51
100
AcDbEntity
  8
ALPHA
100
AcDbLine
 10
151.124939
 20
141.358259
 30
0.0
 11
195.124939
 21
141.358259
 31
0.0
  0
LINE
  5
52
100
AcDbEntity
  8
ALPHA
100
AcDbLine
 10
151.124939
 20
173.358259
 30
0.0
 11
195.124939
 21
173.358259
 31
0.0
  0
LINE
  5
53
100
AcDbEntity
  8
ALPHA
100
AcDbLine
 10
165.624939
 20
152.858259
 30
0.0
 11
165.624939
 21
161.858259
 31
0.0
  0
LINE
  5
54
100
AcDbEntity
  8
ALPHA
100
AcDbLine
 10
180.624939
 20
152.858259
 30
0.0
 11
180.624939
 21
161.858259
 31
0.0
  0
LINE
  5
55
100
AcDbEntity
  8
ALPHA
100
AcDbLine
 10
164.024841
 20
152.358259
 30
0.0
 11
182.225037
 21
152.358259
 31
0.0
  0
LINE
  5
56
100
AcDbEntity
  8
ALPHA
100
AcDbLine
 10
164.124939
 20
162.358259
 30
0.0
 11
182.124939
 21
162.358259
 31
0.0
  0
LINE
  5
57
100
AcDbEntity
  8
ALPHA
100
AcDbLine
 10
164.124939
 20
162.358259
 30
0.0
 11
164.124939
 21
173.358259
 31
0.0
  0
LINE
  5
58
100
AcDbEntity
  8
ALPHA
100
AcDbLine
 10
182.124939
 20
162.358259
 30
0.0
 11
182.124939
 21
173.358259
 31
0.0
  0
LINE
  5
59
100
AcDbEntity
  8
ALPHA
100
AcDbLine
 10
168.424988
 20
162.358259
 30
0.0
 11
168.424988
 21
173.358259
 31
0.0
  0
LINE
  5
5A
100
AcDbEntity
  8
ALPHA
100
AcDbLine
 10
177.82489
 20
162.358259
 30
0.0
 11
177.82489
 21
173.358259
 31
0.0
  0
LINE
  5
5B
100
AcDbEntity
  8
ALPHA
100
AcDbLine
 10
170.124939
 20
170.758253
 30
0.0
 11
176.124939
 21
170.758253
 31
0.0
  0
LINE
  5
5C
100
AcDbEntity
  8
ALPHA
100
AcDbLine
 10
170.124939
 20
163.797682
 30
0.0
 11
170.124939
 21
170.758253
 31
0.0
  0
LINE
  5
5D
100
AcDbEntity
  8
ALPHA
100
AcDbLine
 10
176.124939
 20
163.797682
 30
0.0
 11
176.124939
 21
170.758253
 31
0.0
  0
LINE
  5
5E
100
AcDbEntity
  8
ALPHA
100
AcDbLine
 10
170.124939
 20
169.777967
 30
0.0
 11
176.124939
 21
169.777967
 31
0.0
  0
LINE
  5
5F
100
AcDbEntity
  8
ALPHA
100
AcDbLine
 10
170.124939
 20
164.777967
 30
0.0
 11
176.124939
 21
164.777967
 31
0.0
  0
LINE
  5
60
100
AcDbEntity
  8
ALPHA
100
AcDbLine
 10
170.124939
 20
163.797682
 30
0.0
 11
176.124939
 21
163.797682
 31
0.0
  0
LINE
  5
61
100
AcDbEntity
  8
ALPHA
100
AcDbLine
 10
151.124939
 20
154.590299
 30
0.0
 11
165.624939
 21
154.590299
 31
0.0
  0
LINE
  5
62
100
AcDbEntity
  8
ALPHA
100
AcDbLine
 10
151.124939
 20
160.126219
 30
0.0
 11
165.624939
 21
160.126219
 31
0.0
  0
LINE
  5
63
100
AcDbEntity
  8
ALPHA
100
AcDbLine
 10
180.624939
 20
154.590299
 30
0.0
 11
195.124939
 21
154.590299
 31
0.0
  0
LINE
  5
64
100
AcDbEntity
  8
ALPHA
100
AcDbLine
 10
180.624939
 20
160.126219
 30
0.0
 11
195.124939
 21
160.126219
 31
0.0
  0
LINE
  5
65
100
AcDbEntity
  8
ALPHA
100
AcDbLine
 10
164.024841
 20
150.858259
 30
0.0
 11
164.024841
 21
152.358259
 31
0.0
  0
LINE
  5
66
100
AcDbEntity
  8
ALPHA
100
AcDbLine
 10
182.225037
 20
150.858259
 30
0.0
 11
182.225037
 21
152.358259
 31
0.0
  0
LINE
  5
67
100
AcDbEntity
  8
ALPHA
100
AcDbLine
 10
162.124939
 20
150.858259
 30
0.0
 11
164.024841
 21
150.858259
 31
0.0
  0
LINE
  5
68
100
AcDbEntity
  8
ALPHA
100
AcDbLine
 10
162.124939
 20
141.358259
 30
0.0
 11
162.124939
 21
150.858259
 31
0.0
  0
LINE
  5
69
100
AcDbEntity
  8
ALPHA
100
AcDbLine
 10
184.124939
 20
141.358259
 30
0.0
 11
184.124939
 21
150.858259
 31
0.0
  0
LINE
  5
6A
100
AcDbEntity
  8
ALPHA
100
AcDbLine
 10
166.124939
 20
150.358259
 30
0.0
 11
180.124939
 21
150.358259
 31
0.0
  0
LINE
  5
6B
100
AcDbEntity
  8
ALPHA
100
AcDbLine
 10
166.124939
 20
141.358259
 30
0.0
 11
166.124939
 21
150.358259
 31
0.0
  0
LINE
  5
6C
100
AcDbEntity
  8
ALPHA
100
AcDbLine
 10
180.124939
 20
141.358259
 30
0.0
 11
180.124939
 21
150.358259
 31
0.0
  0
LINE
  5
6D
100
AcDbEntity
  8
ALPHA
100
AcDbLine
 10
151.124939
 20
173.858259
 30
0.0
 11
195.124939
 21
173.858259
 31
0.0
  0
LINE
  5
6E
100
AcDbEntity
  8
ALPHA
100
AcDbLine
 10
151.124939
 20
140.858259
 30
0.0
 11
195.124939
 21
140.858259
 31
0.0
  0
LINE
  5
6F
100
AcDbEntity
  8
ALPHA
100
AcDbLine
 10
182.225037
 20
150.858259
 30
0.0
 11
184.124939
 21
150.858259
 31
0.0
  0
LINE
  5
70
100
AcDbEntity
  8
ALPHA
100
AcDbLine
 10
168.124939
 20
150.358259
 30
0.0
 11
168.124939
 21
152.358259
 31
0.0
  0
LINE
  5
71
100
AcDbEntity
  8
ALPHA
100
AcDbLine
 10
178.124939
 20
150.358259
 30
0.0
 11
178.124939
 21
152.358259
 31
0.0
  0
LINE
  5
72
100
AcDbEntity
  8
ALPHA
100
AcDbLine
 10
182.225037
 20
220.858259
 30
0.0
 11
184.124939
 21
220.858259
 31
0.0
  0
LINE
  5
73
100
AcDbEntity
  8
ALPHA
100
AcDbLine
 10
168.124939
 20
220.358259
 30
0.0
 11
168.124939
 21
222.358259
 31
0.0
  0
LINE
  5
74
100
AcDbEntity
  8
ALPHA
100
AcDbLine
 10
178.124939
 20
220.358259
 30
0.0
 11
178.124939
 21
222.358259
 31
0.0
  0
LINE
  5
75
100
AcDbEntity
  8
ALPHA
100
AcDbLine
 10
26.625
 20
250.108259
 30
0.0
 11
26.625
 21
134.608259
 31
0.0
  0
LINE
  5
76
100
AcDbEntity
  8
ALPHA
100
AcDbLine
 10
26.625
 20
223.858259
 30
0.0
 11
35.625
 21
223.858259
 31
0.0
  0
LINE
  5
77
100
AcDbEntity
  8
ALPHA
100
AcDbLine
 10
26.625
 20
227.858259
 30
0.0
 11
35.625
 21
227.858259
 31
0.0
  0
ARC
  5
78
100
AcDbEntity
  8
ALPHA
100
AcDbCircle
 10
35.625
 20
225.858259
 30
0.0
 40
2.0
100
AcDbArc
 50
270.000028
 51
90.000047
  0
LINE
  5
79
100
AcDbEntity
  8
ALPHA
100
AcDbLine
 10
28.125
 20
227.858259
 30
0.0
 11
28.125
 21
223.858259
 31
0.0
  0
LINE
  5
7A
100
AcDbEntity
  8
ALPHA
100
AcDbLine
 10
26.625
 20
217.358259
 30
0.0
 11
37.625
 21
217.358259
 31
0.0
  0
LINE
  5
7B
100
AcDbEntity
  8
ALPHA
100
AcDbLine
 10
37.625
 20
225.858259
 30
0.0
 11
37.625
 21
217.358259
 31
0.0
  0
LINE
  5
7C
100
AcDbEntity
  8
ALPHA
100
AcDbLine
 10
27.625
 20
205.658262
 30
0.0
 11
40.125
 21
205.658262
 31
0.0
  0
LINE
  5
7D
100
AcDbEntity
  8
ALPHA
100
AcDbLine
 10
27.625
 20
179.058256
 30
0.0
 11
40.125
 21
179.058256
 31
0.0
  0
ARC
  5
7E
100
AcDbEntity
  8
ALPHA
100
AcDbCircle
 10
27.625
 20
204.658262
 30
0.0
 40
1.0
100
AcDbArc
 50
89.999982
 51
179.999909
  0
ARC
  5
7F
100
AcDbEntity
  8
ALPHA
100
AcDbCircle
 10
27.625
 20
180.058256
 30
0.0
 40
1.0
100
AcDbArc
 50
179.999964
 51
270.000001
  0
LINE
  5
80
100
AcDbEntity
  8
ALPHA
100
AcDbLine
 10
27.875
 20
195.608259
 30
0.0
 11
36.875
 21
195.608259
 31
0.0
  0
LINE
  5
81
100
AcDbEntity
  8
ALPHA
100
AcDbLine
 10
27.875
 20
189.108259
 30
0.0
 11
36.875
 21
189.108259
 31
0.0
  0
LINE
  5
82
100
AcDbEntity
  8
ALPHA
100
AcDbLine
 10
30.324997
 20
198.858259
 30
0.0
 11
34.324997
 21
198.858259
 31
0.0
  0
LINE
  5
83
100
AcDbEntity
  8
ALPHA
100
AcDbLine
 10
30.324997
 20
202.858259
 30
0.0
 11
34.324997
 21
202.858259
 31
0.0
  0
LINE
  5
84
100
AcDbEntity
  8
ALPHA
100
AcDbLine
 10
30.324997
 20
202.858259
 30
0.0
 11
30.324997
 21
198.858259
 31
0.0
  0
LINE
  5
85
100
AcDbEntity
  8
ALPHA
100
AcDbLine
 10
34.324997
 20
202.858259
 30
0.0
 11
34.324997
 21
198.858259
 31
0.0
  0
LINE
  5
86
100
AcDbEntity
  8
ALPHA
100
AcDbLine
 10
28.875
 20
195.608259
 30
0.0
 11
28.875
 21
189.108259
 31
0.0
  0
LINE
  5
87
100
AcDbEntity
  8
ALPHA
100
AcDbLine
 10
36.875
 20
195.608259
 30
0.0
 11
36.875
 21
189.108259
 31
0.0
  0
LINE
  5
88
100
AcDbEntity
  8
ALPHA
100
AcDbLine
 10
27.875
 20
195.608259
 30
0.0
 11
27.875
 21
189.108259
 31
0.0
  0
LINE
  5
89
100
AcDbEntity
  8
ALPHA
100
AcDbLine
 10
29.074997
 20
195.508253
 30
0.0
 11
36.675003
 21
195.508253
 31
0.0
  0
LINE
  5
8A
100
AcDbEntity
  8
ALPHA
100
AcDbLine
 10
29.074997
 20
189.208265
 30
0.0
 11
36.675003
 21
189.208265
 31
0.0
  0
LINE
  5
8B
100
AcDbEntity
  8
ALPHA
100
AcDbLine
 10
36.675003
 20
189.208265
 30
0.0
 11
36.675003
 21
195.508253
 31
0.0
  0
LINE
  5
8C
100
AcDbEntity
  8
ALPHA
100
AcDbLine
 10
29.074997
 20
189.208265
 30
0.0
 11
29.074997
 21
195.508253
 31
0.0
  0
LINE
  5
8D
100
AcDbEntity
  8
ALPHA
100
AcDbLine
 10
32.175003
 20
189.208265
 30
0.0
 11
32.175003
 21
195.508253
 31
0.0
  0
LINE
  5
8E
100
AcDbEntity
  8
ALPHA
100
AcDbLine
 10
166.124939
 20
224.356123
 30
0.0
 11
166.124939
 21
230.356184
 31
0.0
  0
LINE
  5
8F
100
AcDbEntity
  8
ALPHA
100
AcDbLine
 10
180.124939
 20
224.356123
 30
0.0
 11
180.124939
 21
230.356184
 31
0.0
  0
LINE
  5
90
100
AcDbEntity
  8
ALPHA
100
AcDbLine
 10
166.124939
 20
230.356184
 30
0.0
 11
180.124939
 21
230.356184
 31
0.0
  0
LINE
  5
91
100
AcDbEntity
  8
ALPHA
100
AcDbLine
 10
175.374939
 20
224.858228
 30
0.0
 11
175.374939
 21
229.858274
 31
0.0
  0
LINE
  5
92
100
AcDbEntity
  8
ALPHA
100
AcDbLine
 10
170.874939
 20
224.858244
 30
0.0
 11
170.874939
 21
229.858274
 31
0.0
  0
LINE
  5
93
100
AcDbEntity
  8
ALPHA
100
AcDbLine
 10
166.124939
 20
224.356123
 30
0.0
 11
180.124939
 21
224.356123
 31
0.0
  0
LINE
  5
94
100
AcDbEntity
  8
ALPHA
100
AcDbLine
 10
175.374985
 20
229.858274
 30
0.0
 11
175.874985
 21
230.356191
 31
0.0
  0
LINE
  5
95
100
AcDbEntity
  8
ALPHA
100
AcDbLine
 10
170.875
 20
229.858251
 30
0.0
 11
170.375
 21
230.356176
 31
0.0
  0
LINE
  5
96
100
AcDbEntity
  8
ALPHA
100
AcDbLine
 10
175.875008
 20
224.356138
 30
0.0
 11
175.375008
 21
224.858251
 31
0.0
  0
LINE
  5
97
100
AcDbEntity
  8
ALPHA
100
AcDbLine
 10
170.372864
 20
224.356115
 30
0.0
 11
170.874985
 21
224.858236
 31
0.0
  0
LINE
  5
98
100
AcDbEntity
  8
ALPHA
100
AcDbLine
 10
166.124939
 20
154.356123
 30
0.0
 11
166.124939
 21
160.356184
 31
0.0
  0
LINE
  5
99
100
AcDbEntity
  8
ALPHA
100
AcDbLine
 10
180.124939
 20
154.356123
 30
0.0
 11
180.124939
 21
160.356184
 31
0.0
  0
LINE
  5
9A
100
AcDbEntity
  8
ALPHA
100
AcDbLine
 10
166.124939
 20
160.356184
 30
0.0
 11
180.124939
 21
160.356184
 31
0.0
  0
LINE
  5
9B
100
AcDbEntity
  8
ALPHA
100
AcDbLine
 10
175.374939
 20
154.858228
 30
0.0
 11
175.374939
 21
159.858274
 31
0.0
  0
LINE
  5
9C
100
AcDbEntity
  8
ALPHA
100
AcDbLine
 10
170.874939
 20
154.858244
 30
0.0
 11
170.874939
 21
159.858274
 31
0.0
  0
LINE
  5
9D
100
AcDbEntity
  8
ALPHA
100
AcDbLine
 10
166.124939
 20
154.356123
 30
0.0
 11
180.124939
 21
154.356123
 31
0.0
  0
LINE
  5
9E
100
AcDbEntity
  8
ALPHA
100
AcDbLine
 10
175.374977
 20
159.858276
 30
0.0
 11
175.874985
 21
160.356198
 31
0.0
  0
LINE
  5
9F
100
AcDbEntity
  8
ALPHA
100
AcDbLine
 10
170.875015
 20
159.858254
 30
0.0
 11
170.375015
 21
160.356177
 31
0.0
  0
LINE
  5
A0
100
AcDbEntity
  8
ALPHA
100
AcDbLine
 10
175.875
 20
154.356128
 30
0.0
 11
175.375
 21
154.858238
 31
0.0
  0
LINE
  5
A1
100
AcDbEntity
  8
ALPHA
100
AcDbLine
 10
170.372856
 20
154.356128
 30
0.0
 11
170.874977
 21
154.858244
 31
0.0
  0
LINE
  5
A2
100
AcDbEntity
  8
ALPHA
100
AcDbLine
 10
39.925003
 20
260.858259
 30
0.0
 11
45.625
 21
260.858259
 31
0.0
  0
LINE
  5
A3
100
AcDbEntity
  8
ALPHA
100
AcDbLine
 10
40.125
 20
123.858259
 30
0.0
 11
45.625
 21
123.858259
 31
0.0
  0
LINE
  5
A4
100
AcDbEntity
  8
ALPHA
100
AcDbLine
 10
145.625
 20
260.858259
 30
0.0
 11
151.124939
 21
260.858259
 31
0.0
  0
LINE
  5
A5
100
AcDbEntity
  8
ALPHA
100
AcDbLine
 10
145.625
 20
123.858259
 30
0.0
 11
151.124939
 21
123.858259
 31
0.0
  0
LINE
  5
A6
100
AcDbEntity
  8
ALPHA
100
AcDbLine
 10
151.124939
 20
195.358259
 30
0.0
 11
151.124939
 21
260.858259
 31
0.0
  0
LINE
  5
A7
100
AcDbEntity
  8
ALPHA
100
AcDbLine
 10
151.124939
 20
123.858259
 30
0.0
 11
151.124939
 21
189.358259
 31
0.0
  0
LINE
  5
A8
100
AcDbEntity
  8
ALPHA
100
AcDbLine
 10
151.124939
 20
253.358259
 30
0.0
 11
195.124939
 21
253.358259
 31
0.0
  0
CIRCLE
  5
A9
100
AcDbEntity
  8
ALPHA
100
AcDbCircle
 10
78.125
 20
244.774656
 30
0.0
 40
4.25
  0
LINE
  5
AA
100
AcDbEntity
  8
ALPHA
100
AcDbLine
 10
76.899994
 20
248.844282
 30
0.0
 11
76.899994
 21
240.70503
 31
0.0
  0
LINE
  5
AB
100
AcDbEntity
  8
ALPHA
100
AcDbLine
 10
79.350006
 20
248.844282
 30
0.0
 11
79.350006
 21
240.70503
 31
0.0
  0
LINE
  5
AC
100
AcDbEntity
  8
ALPHA
100
AcDbLine
 10
40.125
 20
260.858259
 30
0.0
 11
40.125
 21
123.858259
 31
0.0
  0
LINE
  5
AD
100
AcDbEntity
  8
ALPHA
100
AcDbLine
 10
28.625
 20
132.608259
 30
0.0
 11
40.125
 21
132.608259
 31
0.0
  0
ARC
  5
AE
100
AcDbEntity
  8
ALPHA
100
AcDbCircle
 10
28.625
 20
134.608259
 30
0.0
 40
2.0
100
AcDbArc
 50
179.999978
 51
270.000028
  0
LINE
  5
AF
100
AcDbEntity
  8
ALPHA
100
AcDbLine
 10
28.625
 20
252.108259
 30
0.0
 11
40.125
 21
252.108259
 31
0.0
  0
ARC
  5
B0
100
AcDbEntity
  8
ALPHA
100
AcDbCircle
 10
28.625
 20
250.108259
 30
0.0
 40
2.0
100
AcDbArc
 50
89.999982
 51
180.000019
  0
CIRCLE
  5
B1
100
AcDbEntity
  8
ALPHA
100
AcDbCircle
 10
95.625
 20
115.358259
 30
0.0
 40
4.5
  0
LINE
  5
B2
100
AcDbEntity
  8
ALPHA
100
AcDbLine
 10
105.625
 20
125.944044
 30
0.0
 11
105.625
 21
105.358259
 31
0.0
  0
LINE
  5
B3
100
AcDbEntity
  8
ALPHA
100
AcDbLine
 10
85.625
 20
125.944044
 30
0.0
 11
85.625
 21
105.358259
 31
0.0
  0
LINE
  5
B4
100
AcDbEntity
  8
ALPHA
100
AcDbLine
 10
85.625
 20
105.358259
 30
0.0
 11
105.625
 21
105.358259
 31
0.0
  0
LINE
  5
B5
100
AcDbEntity
  8
ALPHA
100
AcDbLine
 10
85.917901
 20
126.651151
 30
0.0
 11
86.832114
 21
127.565365
 31
0.0
  0
LINE
  5
B6
100
AcDbEntity
  8
ALPHA
100
AcDbLine
 10
104.417897
 20
127.565363
 30
0.0
 11
105.33211
 21
126.651148
 31
0.0
  0
ARC
  5
B7
100
AcDbEntity
  8
ALPHA
100
AcDbCircle
 10
86.625
 20
125.944044
 30
0.0
 40
1.0
100
AcDbArc
 50
135.0
 51
179.999964
  0
ARC
  5
B8
100
AcDbEntity
  8
ALPHA
100
AcDbCircle
 10
86.125
 20
128.272474
 30
0.0
 40
1.0
100
AcDbArc
 50
315.000019
 51
0.000037
  0
ARC
  5
B9
100
AcDbEntity
  8
ALPHA
100
AcDbCircle
 10
105.125
 20
128.272474
 30
0.0
 40
1.0
100
AcDbArc
 50
179.999964
 51
224.999982
  0
CIRCLE
  5
BA
100
AcDbEntity
  8
ALPHA
100
AcDbCircle
 10
95.625
 20
269.358259
 30
0.0
 40
4.5
  0
LINE
  5
BB
100
AcDbEntity
  8
ALPHA
100
AcDbLine
 10
85.625
 20
258.772474
 30
0.0
 11
85.625
 21
279.358259
 31
0.0
  0
LINE
  5
BC
100
AcDbEntity
  8
ALPHA
100
AcDbLine
 10
105.625
 20
258.772474
 30
0.0
 11
105.625
 21
279.358259
 31
0.0
  0
LINE
  5
BD
100
AcDbEntity
  8
ALPHA
100
AcDbLine
 10
105.625
 20
279.358259
 30
0.0
 11
85.625
 21
279.358259
 31
0.0
  0
LINE
  5
BE
100
AcDbEntity
  8
ALPHA
100
AcDbLine
 10
105.332102
 20
258.065359
 30
0.0
 11
104.417889
 21
257.151151
 31
0.0
  0
LINE
  5
BF
100
AcDbEntity
  8
ALPHA
100
AcDbLine
 10
86.832103
 20
257.151151
 30
0.0
 11
85.917891
 21
258.065359
 31
0.0
  0
ARC
  5
C0
100
AcDbEntity
  8
ALPHA
100
AcDbCircle
 10
104.625
 20
258.772474
 30
0.0
 40
1.0
100
AcDbArc
 50
314.999992
 51
359.999955
  0
ARC
  5
C1
100
AcDbEntity
  8
ALPHA
100
AcDbCircle
 10
105.125
 20
256.444044
 30
0.0
 40
1.0
100
AcDbArc
 50
135.0
 51
180.000019
  0
ARC
  5
C2
100
AcDbEntity
  8
ALPHA
100
AcDbCircle
 10
86.625
 20
258.772474
 30
0.0
 40
1.0
100
AcDbArc
 50
180.000032
 51
224.999996
  0
ARC
  5
C3
100
AcDbEntity
  8
ALPHA
100
AcDbCircle
 10
86.125
 20
256.444044
 30
0.0
 40
1.0
100
AcDbArc
 50
359.999955
 51
44.999974
  0
CIRCLE
  5
C4
100
AcDbEntity
  8
ALPHA
100
AcDbCircle
 10
135.625
 20
115.358259
 30
0.0
 40
4.5
  0
LINE
  5
C5
100
AcDbEntity
  8
ALPHA
100
AcDbLine
 10
125.625
 20
105.358259
 30
0.0
 11
145.625
 21
105.358259
 31
0.0
  0
LINE
  5
C6
100
AcDbEntity
  8
ALPHA
100
AcDbLine
 10
145.625
 20
124.944044
 30
0.0
 11
145.625
 21
105.358259
 31
0.0
  0
LINE
  5
C7
100
AcDbEntity
  8
ALPHA
100
AcDbLine
 10
125.625
 20
125.090315
 30
0.0
 11
125.625
 21
105.358259
 31
0.0
  0
LINE
  5
C8
100
AcDbEntity
  8
ALPHA
100
AcDbLine
 10
125.491022
 20
125.590315
 30
0.0
 11
122.893866
 21
130.08872
 31
0.0
  0
LINE
  5
C9
100
AcDbEntity
  8
ALPHA
100
AcDbLine
 10
145.332111
 20
125.651148
 30
0.0
 11
140.894539
 21
130.08872
 31
0.0
  0
ARC
  5
CA
100
AcDbEntity
  8
ALPHA
100
AcDbCircle
 10
124.625
 20
125.090315
 30
0.0
 40
1.0
100
AcDbArc
 50
0.00002
 51
30.000018
  0
ARC
  5
CB
100
AcDbEntity
  8
ALPHA
100
AcDbCircle
 10
144.625
 20
124.944044
 30
0.0
 40
1.0
100
AcDbArc
 50
0.000004
 51
45.000001
  0
CIRCLE
  5
CC
100
AcDbEntity
  8
ALPHA
100
AcDbCircle
 10
55.625
 20
115.358259
 30
0.0
 40
4.5
  0
LINE
  5
CD
100
AcDbEntity
  8
ALPHA
100
AcDbLine
 10
65.625
 20
105.358259
 30
0.0
 11
45.625
 21
105.358259
 31
0.0
  0
LINE
  5
CE
100
AcDbEntity
  8
ALPHA
100
AcDbLine
 10
45.625
 20
124.944044
 30
0.0
 11
45.625
 21
105.358259
 31
0.0
  0
LINE
  5
CF
100
AcDbEntity
  8
ALPHA
100
AcDbLine
 10
65.625
 20
125.090315
 30
0.0
 11
65.625
 21
105.358259
 31
0.0
  0
LINE
  5
D0
100
AcDbEntity
  8
ALPHA
100
AcDbLine
 10
65.758982
 20
125.590315
 30
0.0
 11
68.356138
 21
130.08872
 31
0.0
  0
LINE
  5
D1
100
AcDbEntity
  8
ALPHA
100
AcDbLine
 10
45.917892
 20
125.651159
 30
0.0
 11
50.355453
 21
130.08872
 31
0.0
  0
ARC
  5
D2
100
AcDbEntity
  8
ALPHA
100
AcDbCircle
 10
66.625
 20
125.090315
 30
0.0
 40
1.0
100
AcDbArc
 50
149.99997
 51
179.999964
  0
ARC
  5
D3
100
AcDbEntity
  8
ALPHA
100
AcDbCircle
 10
46.625
 20
124.944044
 30
0.0
 40
1.0
100
AcDbArc
 50
135.0
 51
180.000019
  0
CIRCLE
  5
D4
100
AcDbEntity
  8
ALPHA
100
AcDbCircle
 10
55.625
 20
269.358259
 30
0.0
 40
4.5
  0
CIRCLE
  5
D5
100
AcDbEntity
  8
ALPHA
100
AcDbCircle
 10
135.625
 20
269.358259
 30
0.0
 40
4.5
  0
LINE
  5
D6
100
AcDbEntity
  8
ALPHA
100
AcDbLine
 10
65.625
 20
260.858259
 30
0.0
 11
85.625
 21
260.858259
 31
0.0
  0
LINE
  5
D7
100
AcDbEntity
  8
ALPHA
100
AcDbLine
 10
105.625
 20
260.858259
 30
0.0
 11
125.625
 21
260.858259
 31
0.0
  0
LINE
  5
D8
100
AcDbEntity
  8
ALPHA
100
AcDbLine
 10
65.625
 20
123.858259
 30
0.0
 11
85.625
 21
123.858259
 31
0.0
  0
LINE
  5
D9
100
AcDbEntity
  8
ALPHA
100
AcDbLine
 10
105.625
 20
123.858259
 30
0.0
 11
125.625
 21
123.858259
 31
0.0
  0
LINE
  5
DA
100
AcDbEntity
  8
AXE
100
AcDbLine
 10
15.375
 20
234.108259
 30
0.0
 11
40.375
 21
234.108259
 31
0.0
  0
LINE
  5
DD
100
AcDbEntity
  8
ALPHA
100
AcDbLine
 10
40.125
 20
231.508253
 30
0.0
 11
41.747406
 21
231.508253
 31
0.0
  0
LINE
  5
DE
100
AcDbEntity
  8
ALPHA
100
AcDbLine
 10
40.125
 20
236.708265
 30
0.0
 11
41.747406
 21
236.708265
 31
0.0
  0
LINE
  5
DF
100
AcDbEntity
  8
ALPHA
100
AcDbLine
 10
40.125
 20
153.208259
 30
0.0
 11
41.747406
 21
153.208259
 31
0.0
  0
LINE
  5
E0
100
AcDbEntity
  8
ALPHA
100
AcDbLine
 10
40.125
 20
148.008259
 30
0.0
 11
41.747406
 21
148.008259
 31
0.0
  0
LINE
  5
E1
100
AcDbEntity
  8
ALPHA
100
AcDbLine
 10
149.502594
 20
236.708265
 30
0.0
 11
151.124939
 21
236.708265
 31
0.0
  0
LINE
  5
E2
100
AcDbEntity
  8
ALPHA
100
AcDbLine
 10
149.502594
 20
231.508253
 30
0.0
 11
151.124939
 21
231.508253
 31
0.0
  0
LINE
  5
E3
100
AcDbEntity
  8
ALPHA
100
AcDbLine
 10
149.502594
 20
148.008259
 30
0.0
 11
151.124939
 21
148.008259
 31
0.0
  0
LINE
  5
E4
100
AcDbEntity
  8
ALPHA
100
AcDbLine
 10
149.502594
 20
153.208259
 30
0.0
 11
151.124939
 21
153.208259
 31
0.0
  0
LINE
  5
E5
100
AcDbEntity
  8
ALPHA
100
AcDbLine
 10
40.125
 20
242.858259
 30
0.0
 11
41.747406
 21
242.858259
 31
0.0
  0
LINE
  5
E6
100
AcDbEntity
  8
ALPHA
100
AcDbLine
 10
149.502594
 20
242.858259
 30
0.0
 11
151.124939
 21
242.858259
 31
0.0
  0
LINE
  5
E7
100
AcDbEntity
  8
ALPHA
100
AcDbLine
 10
40.125
 20
225.108259
 30
0.0
 11
41.747406
 21
225.108259
 31
0.0
  0
LINE
  5
E8
100
AcDbEntity
  8
ALPHA
100
AcDbLine
 10
149.502594
 20
225.108259
 30
0.0
 11
151.124939
 21
225.108259
 31
0.0
  0
LINE
  5
E9
100
AcDbEntity
  8
ALPHA
100
AcDbLine
 10
40.125
 20
159.608259
 30
0.0
 11
41.747406
 21
159.608259
 31
0.0
  0
LINE
  5
EA
100
AcDbEntity
  8
ALPHA
100
AcDbLine
 10
40.125
 20
141.858259
 30
0.0
 11
41.747406
 21
141.858259
 31
0.0
  0
LINE
  5
EB
100
AcDbEntity
  8
ALPHA
100
AcDbLine
 10
149.502594
 20
159.608259
 30
0.0
 11
151.124939
 21
159.608259
 31
0.0
  0
LINE
  5
EC
100
AcDbEntity
  8
ALPHA
100
AcDbLine
 10
149.502594
 20
141.858259
 30
0.0
 11
151.124939
 21
141.858259
 31
0.0
  0
LINE
  5
ED
100
AcDbEntity
  8
ALPHA
100
AcDbLine
 10
43.747406
 20
238.358297
 30
0.0
 11
119.626694
 21
238.358297
 31
0.0
  0
LINE
  5
EE
100
AcDbEntity
  8
ALPHA
100
AcDbLine
 10
43.747406
 20
230.358297
 30
0.0
 11
119.626694
 21
230.358297
 31
0.0
  0
LINE
  5
EF
100
AcDbEntity
  8
ALPHA
100
AcDbLine
 10
43.747406
 20
230.358297
 30
0.0
 11
43.747406
 21
238.358297
 31
0.0
  0
LINE
  5
F0
100
AcDbEntity
  8
ALPHA
100
AcDbLine
 10
67.033203
 20
234.494909
 30
0.0
 11
68.105911
 21
234.494909
 31
0.0
  0
LINE
  5
F1
100
AcDbEntity
  8
ALPHA
100
AcDbLine
 10
67.033203
 20
234.105673
 30
0.0
 11
68.601166
 21
234.105673
 31
0.0
  0
LINE
  5
F2
100
AcDbEntity
  8
ALPHA
100
AcDbLine
 10
68.008484
 20
233.955969
 30
0.0
 11
68.548431
 21
233.955969
 31
0.0
  0
LWPOLYLINE
  5
F3
100
AcDbEntity
  8
ALPHA
100
AcDbPolyline
 90
        9
 70
     0
 43
0.0
 10
67.033141
 20
234.105665
 10
67.104654
 20
233.98604
 10
67.206873
 20
233.887174
 10
67.333045
 20
233.815598
 10
67.474835
 20
233.776039
 10
67.622877
 20
233.771112
 10
67.767392
 20
233.801142
 10
67.898831
 20
233.864145
 10
68.008514
 20
233.955959
  0
LWPOLYLINE
  5
FE
100
AcDbEntity
  8
ALPHA
100
AcDbPolyline
 90
        9
 70
     0
 43
0.0
 10
68.105806
 20
234.494902
 10
68.019848
 20
234.631928
 10
67.893934
 20
234.739532
 10
67.739234
 20
234.808165
 10
67.569473
 20
234.83174
 10
67.399713
 20
234.808165
 10
67.245013
 20
234.739532
 10
67.119099
 20
234.631928
 10
67.033141
 20
234.494902
  0
LINE
  5
109
100
AcDbEntity
  8
ALPHA
100
AcDbLine
 10
59.665024
 20
235.729971
 30
0.0
 11
59.665024
 21
233.42452
 31
0.0
  0
LINE
  5
10A
100
AcDbEntity
  8
ALPHA
100
AcDbLine
 10
56.431396
 20
233.42452
 30
0.0
 11
56.985245
 21
233.42452
 31
0.0
  0
LINE
  5
10B
100
AcDbEntity
  8
ALPHA
100
AcDbLine
 10
55.675385
 20
235.729971
 30
0.0
 11
57.741257
 21
235.729971
 31
0.0
  0
LINE
  5
10C
100
AcDbEntity
  8
ALPHA
100
AcDbLine
 10
60.218887
 20
235.729971
 30
0.0
 11
60.218887
 21
233.42452
 31
0.0
  0
LINE
  5
10D
100
AcDbEntity
  8
ALPHA
100
AcDbLine
 10
59.665024
 20
233.42452
 30
0.0
 11
60.218887
 21
233.42452
 31
0.0
  0
LINE
  5
10E
100
AcDbEntity
  8
ALPHA
100
AcDbLine
 10
56.985245
 20
235.310797
 30
0.0
 11
56.985245
 21
233.42452
 31
0.0
  0
LINE
  5
10F
100
AcDbEntity
  8
ALPHA
100
AcDbLine
 10
56.431396
 20
235.310797
 30
0.0
 11
56.431396
 21
233.42452
 31
0.0
  0
LINE
  5
110
100
AcDbEntity
  8
ALPHA
100
AcDbLine
 10
59.665024
 20
235.729971
 30
0.0
 11
60.218887
 21
235.729971
 31
0.0
  0
LINE
  5
111
100
AcDbEntity
  8
ALPHA
100
AcDbLine
 10
55.675385
 20
235.310797
 30
0.0
 11
56.431396
 21
235.310797
 31
0.0
  0
LINE
  5
112
100
AcDbEntity
  8
ALPHA
100
AcDbLine
 10
57.741257
 20
235.729971
 30
0.0
 11
57.741257
 21
235.310797
 31
0.0
  0
LINE
  5
113
100
AcDbEntity
  8
ALPHA
100
AcDbLine
 10
56.985245
 20
235.310797
 30
0.0
 11
57.741257
 21
235.310797
 31
0.0
  0
LINE
  5
114
100
AcDbEntity
  8
ALPHA
100
AcDbLine
 10
55.675385
 20
235.729971
 30
0.0
 11
55.675385
 21
235.310797
 31
0.0
  0
LWPOLYLINE
  5
115
100
AcDbEntity
  8
ALPHA
100
AcDbPolyline
 90
       15
 70
     0
 43
0.0
 10
59.379281
 20
234.105665
 10
59.376846
 20
234.504478
 10
59.181302
 20
234.864976
 10
58.829343
 20
235.119516
 10
58.387008
 20
235.220335
 10
57.937299
 20
235.148516
 10
57.564597
 20
234.917536
 10
57.338836
 20
234.570734
 10
57.302378
 20
234.173186
 10
57.462065
 20
233.799485
 10
57.787931
 20
233.519755
 10
58.218833
 20
233.386482
 10
58.673916
 20
233.424674
 10
59.067788
 20
233.627165
 10
59.326543
 20
233.955959
  0
LINE
  5
126
100
AcDbEntity
  8
ALPHA
100
AcDbLine
 10
57.811279
 20
234.494909
 30
0.0
 11
58.883987
 21
234.494909
 31
0.0
  0
LINE
  5
127
100
AcDbEntity
  8
ALPHA
100
AcDbLine
 10
57.811279
 20
234.105673
 30
0.0
 11
59.379242
 21
234.105673
 31
0.0
  0
LINE
  5
128
100
AcDbEntity
  8
ALPHA
100
AcDbLine
 10
58.786713
 20
233.955969
 30
0.0
 11
59.326508
 21
233.955969
 31
0.0
  0
LWPOLYLINE
  5
129
100
AcDbEntity
  8
ALPHA
100
AcDbPolyline
 90
        9
 70
     0
 43
0.0
 10
57.81137
 20
234.105665
 10
57.882883
 20
233.98604
 10
57.985101
 20
233.887174
 10
58.111274
 20
233.815598
 10
58.253064
 20
233.776039
 10
58.401106
 20
233.771112
 10
58.54562
 20
233.801142
 10
58.67706
 20
233.864145
 10
58.786743
 20
233.955959
  0
LWPOLYLINE
  5
134
100
AcDbEntity
  8
ALPHA
100
AcDbPolyline
 90
        9
 70
     0
 43
0.0
 10
58.884034
 20
234.494902
 10
58.798077
 20
234.631928
 10
58.672163
 20
234.739532
 10
58.517463
 20
234.808165
 10
58.347702
 20
234.83174
 10
58.177941
 20
234.808165
 10
58.023242
 20
234.739532
 10
57.897327
 20
234.631928
 10
57.81137
 20
234.494902
  0
LWPOLYLINE
  5
13F
100
AcDbEntity
  8
ALPHA
100
AcDbPolyline
 90
       15
 70
     0
 43
0.0
 10
68.601103
 20
234.105868
 10
68.598568
 20
234.504667
 10
68.402948
 20
234.865117
 10
68.050947
 20
235.11959
 10
67.608609
 20
235.220341
 10
67.158928
 20
235.148464
 10
66.786276
 20
234.917448
 10
66.560572
 20
234.570635
 10
66.524164
 20
234.173097
 10
66.683882
 20
233.799423
 10
67.00976
 20
233.519723
 10
67.440655
 20
233.386476
 10
67.895719
 20
233.424683
 10
68.289571
 20
233.627175
 10
68.548315
 20
233.955959
  0
LINE
  5
150
100
AcDbEntity
  8
ALPHA
100
AcDbLine
 10
62.853699
 20
235.176061
 30
0.0
 11
62.853699
 21
233.42452
 31
0.0
  0
LINE
  5
151
100
AcDbEntity
  8
ALPHA
100
AcDbLine
 10
63.407715
 20
235.176061
 30
0.0
 11
63.407715
 21
235.06809
 31
0.0
  0
LINE
  5
152
100
AcDbEntity
  8
ALPHA
100
AcDbLine
 10
64.275925
 20
234.446173
 30
0.0
 11
64.275925
 21
233.42452
 31
0.0
  0
LINE
  5
153
100
AcDbEntity
  8
ALPHA
100
AcDbLine
 10
64.829926
 20
234.446173
 30
0.0
 11
64.829926
 21
233.42452
 31
0.0
  0
LINE
  5
154
100
AcDbEntity
  8
ALPHA
100
AcDbLine
 10
65.698135
 20
234.446173
 30
0.0
 11
65.698135
 21
233.42452
 31
0.0
  0
LINE
  5
155
100
AcDbEntity
  8
ALPHA
100
AcDbLine
 10
66.252136
 20
234.566931
 30
0.0
 11
66.252136
 21
233.42452
 31
0.0
  0
LINE
  5
156
100
AcDbEntity
  8
ALPHA
100
AcDbLine
 10
64.275925
 20
233.42452
 30
0.0
 11
64.829926
 21
233.42452
 31
0.0
  0
LINE
  5
157
100
AcDbEntity
  8
ALPHA
100
AcDbLine
 10
65.698135
 20
233.42452
 30
0.0
 11
66.252136
 21
233.42452
 31
0.0
  0
LINE
  5
158
100
AcDbEntity
  8
ALPHA
100
AcDbLine
 10
62.853699
 20
233.42452
 30
0.0
 11
63.407715
 21
233.42452
 31
0.0
  0
ARC
  5
159
100
AcDbEntity
  8
ALPHA
100
AcDbCircle
 10
63.841888
 20
234.352682
 30
0.0
 40
0.47906
100
AcDbArc
 50
51.317783
 51
128.682567
  0
ARC
  5
15A
100
AcDbEntity
  8
ALPHA
100
AcDbCircle
 10
65.264099
 20
234.352682
 30
0.0
 40
0.47906
100
AcDbArc
 50
51.317783
 51
128.682567
  0
ARC
  5
15B
100
AcDbEntity
  8
ALPHA
100
AcDbCircle
 10
63.767029
 20
234.446173
 30
0.0
 40
0.359295
100
AcDbArc
 50
128.682676
 51
180.000019
  0
ARC
  5
15C
100
AcDbEntity
  8
ALPHA
100
AcDbCircle
 10
63.916733
 20
234.446173
 30
0.0
 40
0.359295
100
AcDbArc
 50
0.0
 51
51.317759
  0
ARC
  5
15D
100
AcDbEntity
  8
ALPHA
100
AcDbCircle
 10
65.189255
 20
234.446173
 30
0.0
 40
0.359295
100
AcDbArc
 50
128.682676
 51
180.000019
  0
ARC
  5
15E
100
AcDbEntity
  8
ALPHA
100
AcDbCircle
 10
65.338959
 20
234.446173
 30
0.0
 40
0.359295
100
AcDbArc
 50
0.0
 51
51.317759
  0
LINE
  5
15F
100
AcDbEntity
  8
ALPHA
100
AcDbLine
 10
82.376556
 20
234.494909
 30
0.0
 11
83.449265
 21
234.494909
 31
0.0
  0
LINE
  5
160
100
AcDbEntity
  8
ALPHA
100
AcDbLine
 10
82.376556
 20
234.105673
 30
0.0
 11
83.944519
 21
234.105673
 31
0.0
  0
LINE
  5
161
100
AcDbEntity
  8
ALPHA
100
AcDbLine
 10
83.35199
 20
233.955969
 30
0.0
 11
83.891785
 21
233.955969
 31
0.0
  0
LWPOLYLINE
  5
162
100
AcDbEntity
  8
ALPHA
100
AcDbPolyline
 90
        9
 70
     0
 43
0.0
 10
82.376647
 20
234.105665
 10
82.44816
 20
233.98604
 10
82.550379
 20
233.887174
 10
82.676551
 20
233.815598
 10
82.818341
 20
233.776039
 10
82.966383
 20
233.771112
 10
83.110897
 20
233.801142
 10
83.242337
 20
233.864145
 10
83.35202
 20
233.955959
  0
LWPOLYLINE
  5
16D
100
AcDbEntity
  8
ALPHA
100
AcDbPolyline
 90
        9
 70
     0
 43
0.0
 10
83.449311
 20
234.494902
 10
83.363354
 20
234.631928
 10
83.23744
 20
234.739532
 10
83.08274
 20
234.808165
 10
82.912979
 20
234.83174
 10
82.743219
 20
234.808165
 10
82.588519
 20
234.739532
 10
82.462605
 20
234.631928
 10
82.376647
 20
234.494902
  0
LWPOLYLINE
  5
178
100
AcDbEntity
  8
ALPHA
100
AcDbPolyline
 90
       15
 70
     0
 43
0.0
 10
83.944609
 20
234.105868
 10
83.942074
 20
234.504667
 10
83.746454
 20
234.865117
 10
83.394453
 20
235.11959
 10
82.952115
 20
235.220341
 10
82.502434
 20
235.148464
 10
82.129782
 20
234.917448
 10
81.904078
 20
234.570635
 10
81.86767
 20
234.173097
 10
82.027388
 20
233.799423
 10
82.353266
 20
233.519723
 10
82.784161
 20
233.386476
 10
83.239225
 20
233.424683
 10
83.633077
 20
233.627175
 10
83.89182
 20
233.955959
  0
LWPOLYLINE
  5
189
100
AcDbEntity
  8
ALPHA
100
AcDbPolyline
 90
       15
 70
     0
 43
0.0
 10
70.935708
 20
234.497896
 10
70.755064
 20
234.845834
 10
70.428094
 20
235.099877
 10
70.011072
 20
235.216301
 10
69.575773
 20
235.175069
 10
69.197117
 20
234.983277
 10
68.940273
 20
234.673935
 10
68.849448
 20
234.300283
 10
68.940274
 20
233.926631
 10
69.197117
 20
233.617289
 10
69.575774
 20
233.425497
 10
70.011073
 20
233.384265
 10
70.428094
 20
233.50069
 10
70.755064
 20
233.754733
 10
70.935708
 20
234.102671
  0
ARC
  5
19A
100
AcDbEntity
  8
ALPHA
100
AcDbCircle
 10
69.904877
 20
234.300283
 30
0.0
 40
0.509001
100
AcDbArc
 50
22.844766
 51
337.15524
  0
LINE
  5
19B
100
AcDbEntity
  8
ALPHA
100
AcDbLine
 10
70.374069
 20
234.102682
 30
0.0
 11
70.935837
 21
234.102682
 31
0.0
  0
LINE
  5
19C
100
AcDbEntity
  8
ALPHA
100
AcDbLine
 10
70.374069
 20
234.497885
 30
0.0
 11
70.935837
 21
234.497885
 31
0.0
  0
LINE
  5
19D
100
AcDbEntity
  8
ALPHA
100
AcDbLine
 10
76.185104
 20
235.176061
 30
0.0
 11
76.185104
 21
233.42452
 31
0.0
  0
LINE
  5
19E
100
AcDbEntity
  8
ALPHA
100
AcDbLine
 10
76.739105
 20
235.176061
 30
0.0
 11
76.739105
 21
233.42452
 31
0.0
  0
LINE
  5
19F
100
AcDbEntity
  8
ALPHA
100
AcDbLine
 10
76.185104
 20
233.42452
 30
0.0
 11
76.739105
 21
233.42452
 31
0.0
  0
LINE
  5
1A0
100
AcDbEntity
  8
ALPHA
100
AcDbLine
 10
76.185104
 20
235.770391
 30
0.0
 11
76.185104
 21
235.343725
 31
0.0
  0
LINE
  5
1A1
100
AcDbEntity
  8
ALPHA
100
AcDbLine
 10
76.739105
 20
235.770391
 30
0.0
 11
76.739105
 21
235.343725
 31
0.0
  0
LINE
  5
1A2
100
AcDbEntity
  8
ALPHA
100
AcDbLine
 10
79.140274
 20
235.176061
 30
0.0
 11
79.140274
 21
232.684973
 31
0.0
  0
CIRCLE
  5
1A3
100
AcDbEntity
  8
ALPHA
100
AcDbCircle
 10
78.044434
 20
234.300283
 30
0.0
 40
0.534451
  0
LINE
  5
1A4
100
AcDbEntity
  8
ALPHA
100
AcDbLine
 10
78.586426
 20
235.176061
 30
0.0
 11
78.586426
 21
235.087057
 31
0.0
  0
LINE
  5
1A5
100
AcDbEntity
  8
ALPHA
100
AcDbLine
 10
78.586426
 20
232.684973
 30
0.0
 11
79.140274
 21
232.684973
 31
0.0
  0
LWPOLYLINE
  5
1A6
100
AcDbEntity
  8
ALPHA
100
AcDbPolyline
 90
       11
 70
     0
 43
0.0
 10
78.58637
 20
235.087059
 10
78.172176
 20
235.214048
 10
77.735424
 20
235.179675
 10
77.35324
 20
234.99001
 10
77.093114
 20
234.678545
 10
77.000982
 20
234.300283
 10
77.093114
 20
233.922021
 10
77.35324
 20
233.610556
 10
77.735424
 20
233.420891
 10
78.172176
 20
233.386518
 10
78.58637
 20
233.513507
  0
LINE
  5
1B3
100
AcDbEntity
  8
ALPHA
100
AcDbLine
 10
78.586426
 20
233.51351
 30
0.0
 11
78.586426
 21
232.684973
 31
0.0
  0
LINE
  5
1B4
100
AcDbEntity
  8
ALPHA
100
AcDbLine
 10
61.000092
 20
234.494909
 30
0.0
 11
62.072647
 21
234.494909
 31
0.0
  0
LINE
  5
1B5
100
AcDbEntity
  8
ALPHA
100
AcDbLine
 10
61.000092
 20
234.105673
 30
0.0
 11
62.567917
 21
234.105673
 31
0.0
  0
LINE
  5
1B6
100
AcDbEntity
  8
ALPHA
100
AcDbLine
 10
61.975388
 20
233.955969
 30
0.0
 11
62.515182
 21
233.955969
 31
0.0
  0
LWPOLYLINE
  5
1B7
100
AcDbEntity
  8
ALPHA
100
AcDbPolyline
 90
        9
 70
     0
 43
0.0
 10
61.000045
 20
234.105665
 10
61.071558
 20
233.98604
 10
61.173776
 20
233.887174
 10
61.299948
 20
233.815598
 10
61.441739
 20
233.776039
 10
61.589781
 20
233.771112
 10
61.734295
 20
233.801142
 10
61.865735
 20
233.864145
 10
61.975418
 20
233.955959
  0
LWPOLYLINE
  5
1C2
100
AcDbEntity
  8
ALPHA
100
AcDbPolyline
 90
        9
 70
     0
 43
0.0
 10
62.072709
 20
234.494902
 10
61.986752
 20
234.631928
 10
61.860838
 20
234.739532
 10
61.706138
 20
234.808165
 10
61.536377
 20
234.83174
 10
61.366616
 20
234.808165
 10
61.211916
 20
234.739532
 10
61.086002
 20
234.631928
 10
61.000045
 20
234.494902
  0
LWPOLYLINE
  5
1CD
100
AcDbEntity
  8
ALPHA
100
AcDbPolyline
 90
       15
 70
     0
 43
0.0
 10
62.568007
 20
234.105868
 10
62.565472
 20
234.504667
 10
62.369852
 20
234.865117
 10
62.017851
 20
235.11959
 10
61.575513
 20
235.220341
 10
61.125832
 20
235.148464
 10
60.75318
 20
234.917448
 10
60.527476
 20
234.570635
 10
60.491067
 20
234.173097
 10
60.650786
 20
233.799423
 10
60.976664
 20
233.519723
 10
61.407559
 20
233.386476
 10
61.862623
 20
233.424683
 10
62.256475
 20
233.627175
 10
62.515218
 20
233.955959
  0
ARC
  5
1DE
100
AcDbEntity
  8
ALPHA
100
AcDbCircle
 10
65.353897
 20
233.963445
 30
0.0
 40
1.272503
100
AcDbArc
 50
63.612284
 51
108.126375
  0
ARC
  5
1DF
100
AcDbEntity
  8
ALPHA
100
AcDbCircle
 10
65.65332
 20
234.566931
 30
0.0
 40
0.598825
100
AcDbArc
 50
0.0
 51
63.612393
  0
ARC
  5
1E0
100
AcDbEntity
  8
ALPHA
100
AcDbCircle
 10
65.144287
 20
234.603689
 30
0.0
 40
0.598825
100
AcDbArc
 50
108.12643
 51
144.765859
  0
LINE
  5
1E1
100
AcDbEntity
  8
ALPHA
100
AcDbLine
 10
63.407715
 20
234.446173
 30
0.0
 11
63.407715
 21
233.42452
 31
0.0
  0
ARC
  5
1E2
100
AcDbEntity
  8
ALPHA
100
AcDbCircle
 10
63.976501
 20
234.188009
 30
0.0
 40
1.047943
100
AcDbArc
 50
69.512638
 51
122.878382
  0
ARC
  5
1E3
100
AcDbEntity
  8
ALPHA
100
AcDbCircle
 10
64.08139
 20
234.468481
 30
0.0
 40
0.748531
100
AcDbArc
 50
39.954103
 51
69.512638
  0
LINE
  5
1E4
100
AcDbEntity
  8
ALPHA
100
AcDbLine
 10
73.714935
 20
235.176061
 30
0.0
 11
73.714935
 21
233.42452
 31
0.0
  0
LINE
  5
1E5
100
AcDbEntity
  8
ALPHA
100
AcDbLine
 10
75.78096
 20
234.560934
 30
0.0
 11
75.78096
 21
233.416708
 31
0.0
  0
LINE
  5
1E6
100
AcDbEntity
  8
ALPHA
100
AcDbLine
 10
74.268936
 20
234.420416
 30
0.0
 11
74.268936
 21
233.42452
 31
0.0
  0
LINE
  5
1E7
100
AcDbEntity
  8
ALPHA
100
AcDbLine
 10
75.226944
 20
234.420416
 30
0.0
 11
75.226944
 21
233.42452
 31
0.0
  0
LINE
  5
1E8
100
AcDbEntity
  8
ALPHA
100
AcDbLine
 10
73.714935
 20
233.42452
 30
0.0
 11
74.268936
 21
233.42452
 31
0.0
  0
LINE
  5
1E9
100
AcDbEntity
  8
ALPHA
100
AcDbLine
 10
75.226944
 20
233.42452
 30
0.0
 11
75.78096
 21
233.42452
 31
0.0
  0
LINE
  5
1EA
100
AcDbEntity
  8
ALPHA
100
AcDbLine
 10
73.714935
 20
235.176061
 30
0.0
 11
74.268936
 21
235.176061
 31
0.0
  0
ARC
  5
1EB
100
AcDbEntity
  8
ALPHA
100
AcDbCircle
 10
74.74794
 20
234.179037
 30
0.0
 40
0.628766
100
AcDbArc
 50
63.612338
 51
116.387953
  0
ARC
  5
1EC
100
AcDbEntity
  8
ALPHA
100
AcDbCircle
 10
74.867767
 20
234.420416
 30
0.0
 40
0.359295
100
AcDbArc
 50
0.0
 51
63.612502
  0
ARC
  5
1ED
100
AcDbEntity
  8
ALPHA
100
AcDbCircle
 10
74.628113
 20
234.420416
 30
0.0
 40
0.359295
100
AcDbArc
 50
116.388063
 51
180.000019
  0
LINE
  5
1EE
100
AcDbEntity
  8
ALPHA
100
AcDbLine
 10
74.268936
 20
235.176061
 30
0.0
 11
74.268936
 21
235.002203
 31
0.0
  0
ARC
  5
1EF
100
AcDbEntity
  8
ALPHA
100
AcDbCircle
 10
74.882706
 20
233.957464
 30
0.0
 40
1.272503
100
AcDbArc
 50
63.612284
 51
101.537155
  0
ARC
  5
1F0
100
AcDbEntity
  8
ALPHA
100
AcDbCircle
 10
75.182114
 20
234.560934
 30
0.0
 40
0.598825
100
AcDbArc
 50
0.0
 51
63.612393
  0
ARC
  5
1F1
100
AcDbEntity
  8
ALPHA
100
AcDbCircle
 10
74.762878
 20
234.54418
 30
0.0
 40
0.673678
100
AcDbArc
 50
101.537319
 51
137.166591
  0
LINE
  5
1F2
100
AcDbEntity
  8
ALPHA
100
AcDbLine
 10
81.595507
 20
233.424497
 30
0.0
 11
81.595508
 21
235.176039
 31
0.0
  0
LINE
  5
1F3
100
AcDbEntity
  8
ALPHA
100
AcDbLine
 10
79.529495
 20
234.039625
 30
0.0
 11
79.529495
 21
235.176054
 31
0.0
  0
LINE
  5
1F4
100
AcDbEntity
  8
ALPHA
100
AcDbLine
 10
81.041506
 20
234.180143
 30
0.0
 11
81.041507
 21
235.176054
 31
0.0
  0
LINE
  5
1F5
100
AcDbEntity
  8
ALPHA
100
AcDbLine
 10
80.083496
 20
234.180143
 30
0.0
 11
80.083496
 21
235.176054
 31
0.0
  0
LINE
  5
1F6
100
AcDbEntity
  8
ALPHA
100
AcDbLine
 10
81.595508
 20
235.176039
 30
0.0
 11
81.041507
 21
235.176039
 31
0.0
  0
LINE
  5
1F7
100
AcDbEntity
  8
ALPHA
100
AcDbLine
 10
80.083496
 20
235.176039
 30
0.0
 11
79.529495
 21
235.176039
 31
0.0
  0
LINE
  5
1F8
100
AcDbEntity
  8
ALPHA
100
AcDbLine
 10
81.595507
 20
233.424497
 30
0.0
 11
81.041506
 21
233.424497
 31
0.0
  0
ARC
  5
1F9
100
AcDbEntity
  8
ALPHA
100
AcDbCircle
 10
80.5625
 20
234.421545
 30
0.0
 40
0.628766
100
AcDbArc
 50
243.610253
 51
296.38789
  0
ARC
  5
1FA
100
AcDbEntity
  8
ALPHA
100
AcDbCircle
 10
80.682312
 20
234.180151
 30
0.0
 40
0.359295
100
AcDbArc
 50
296.387999
 51
359.999955
  0
LINE
  5
1FB
100
AcDbEntity
  8
ALPHA
100
AcDbLine
 10
81.041506
 20
233.424497
 30
0.0
 11
81.041506
 21
233.598371
 31
0.0
  0
ARC
  5
1FC
100
AcDbEntity
  8
ALPHA
100
AcDbCircle
 10
80.427734
 20
234.643118
 30
0.0
 40
1.272503
100
AcDbArc
 50
243.612221
 51
281.537092
  0
ARC
  5
1FD
100
AcDbEntity
  8
ALPHA
100
AcDbCircle
 10
80.128311
 20
234.039633
 30
0.0
 40
0.598825
100
AcDbArc
 50
179.999964
 51
243.612357
  0
ARC
  5
1FE
100
AcDbEntity
  8
ALPHA
100
AcDbCircle
 10
80.547546
 20
234.056387
 30
0.0
 40
0.673678
100
AcDbArc
 50
281.537256
 51
317.166528
  0
ARC
  5
1FF
100
AcDbEntity
  8
ALPHA
100
AcDbCircle
 10
80.44281
 20
234.180151
 30
0.0
 40
0.359295
100
AcDbArc
 50
179.999964
 51
243.610062
  0
LINE
  5
200
100
AcDbEntity
  8
ALPHA
100
AcDbLine
 10
62.853699
 20
235.176061
 30
0.0
 11
63.407715
 21
235.176061
 31
0.0
  0
LINE
  5
201
100
AcDbEntity
  8
ALPHA
100
AcDbLine
 10
78.586426
 20
235.176061
 30
0.0
 11
79.140274
 21
235.176061
 31
0.0
  0
LINE
  5
202
100
AcDbEntity
  8
ALPHA
100
AcDbLine
 10
76.185104
 20
235.176061
 30
0.0
 11
76.739105
 21
235.176061
 31
0.0
  0
LINE
  5
203
100
AcDbEntity
  8
ALPHA
100
AcDbLine
 10
76.185104
 20
235.343725
 30
0.0
 11
76.739105
 21
235.343725
 31
0.0
  0
LINE
  5
204
100
AcDbEntity
  8
ALPHA
100
AcDbLine
 10
76.185104
 20
235.770391
 30
0.0
 11
76.739105
 21
235.770391
 31
0.0
  0
LINE
  5
205
100
AcDbEntity
  8
ALPHA
100
AcDbLine
 10
54.995255
 20
237.366857
 30
0.0
 11
84.632126
 21
237.366857
 31
0.0
  0
LINE
  5
206
100
AcDbEntity
  8
ALPHA
100
AcDbLine
 10
54.995255
 20
231.349584
 30
0.0
 11
84.632126
 21
231.349584
 31
0.0
  0
LINE
  5
207
100
AcDbEntity
  8
ALPHA
100
AcDbLine
 10
48.747406
 20
231.234304
 30
0.0
 11
84.747406
 21
231.234304
 31
0.0
  0
LINE
  5
208
100
AcDbEntity
  8
ALPHA
100
AcDbLine
 10
48.747406
 20
237.482137
 30
0.0
 11
84.747406
 21
237.482137
 31
0.0
  0
LINE
  5
209
100
AcDbEntity
  8
ALPHA
100
AcDbLine
 10
54.995255
 20
237.366857
 30
0.0
 11
54.995255
 21
231.349584
 31
0.0
  0
LINE
  5
20A
100
AcDbEntity
  8
ALPHA
100
AcDbLine
 10
84.632126
 20
237.366857
 30
0.0
 11
84.632126
 21
231.349584
 31
0.0
  0
LINE
  5
20B
100
AcDbEntity
  8
ALPHA
100
AcDbLine
 10
84.747406
 20
237.482137
 30
0.0
 11
84.747406
 21
231.234304
 31
0.0
  0
CIRCLE
  5
20C
100
AcDbEntity
  8
ALPHA
100
AcDbCircle
 10
51.871338
 20
234.358221
 30
0.0
 40
2.231371
  0
CIRCLE
  5
20D
100
AcDbEntity
  8
ALPHA
100
AcDbCircle
 10
51.871338
 20
234.358221
 30
0.0
 40
1.985919
  0
ARC
  5
20E
100
AcDbEntity
  8
ALPHA
100
AcDbCircle
 10
51.871338
 20
234.358221
 30
0.0
 40
1.785097
100
AcDbArc
 50
8.626922
 51
26.743691
  0
ARC
  5
20F
100
AcDbEntity
  8
ALPHA
100
AcDbCircle
 10
51.871338
 20
234.358221
 30
0.0
 40
1.338822
100
AcDbArc
 50
11.536958
 51
15.466014
  0
LINE
  5
210
100
AcDbEntity
  8
ALPHA
100
AcDbLine
 10
52.094421
 20
235.51853
 30
0.0
 11
52.094421
 21
235.161505
 31
0.0
  0
LINE
  5
211
100
AcDbEntity
  8
ALPHA
100
AcDbLine
 10
51.648239
 20
235.51853
 30
0.0
 11
51.648239
 21
235.161505
 31
0.0
  0
LINE
  5
212
100
AcDbEntity
  8
ALPHA
100
AcDbLine
 10
50.800232
 20
234.715246
 30
0.0
 11
50.800232
 21
234.44747
 31
0.0
  0
LINE
  5
213
100
AcDbEntity
  8
ALPHA
100
AcDbLine
 10
52.540771
 20
234.536718
 30
0.0
 11
52.540771
 21
234.44747
 31
0.0
  0
LINE
  5
214
100
AcDbEntity
  8
ALPHA
100
AcDbLine
 10
52.942429
 20
234.536718
 30
0.0
 11
52.942429
 21
233.911962
 31
0.0
  0
LINE
  5
215
100
AcDbEntity
  8
ALPHA
100
AcDbLine
 10
50.800232
 20
234.44747
 30
0.0
 11
51.648239
 21
234.44747
 31
0.0
  0
LINE
  5
216
100
AcDbEntity
  8
ALPHA
100
AcDbLine
 10
50.122314
 20
234.715246
 30
0.0
 11
50.35405
 21
234.715246
 31
0.0
  0
LINE
  5
217
100
AcDbEntity
  8
ALPHA
100
AcDbLine
 10
50.277145
 20
235.161505
 30
0.0
 11
51.648239
 21
235.161505
 31
0.0
  0
LINE
  5
218
100
AcDbEntity
  8
ALPHA
100
AcDbLine
 10
51.203369
 20
235.51853
 30
0.0
 11
51.648239
 21
235.51853
 31
0.0
  0
LINE
  5
219
100
AcDbEntity
  8
ALPHA
100
AcDbLine
 10
51.093201
 20
235.964803
 30
0.0
 11
52.64946
 21
235.964803
 31
0.0
  0
LINE
  5
21A
100
AcDbEntity
  8
ALPHA
100
AcDbLine
 10
50.800232
 20
234.001211
 30
0.0
 11
51.648239
 21
234.001211
 31
0.0
  0
LINE
  5
21B
100
AcDbEntity
  8
ALPHA
100
AcDbLine
 10
50.199219
 20
233.73345
 30
0.0
 11
50.35405
 21
233.73345
 31
0.0
  0
LINE
  5
21C
100
AcDbEntity
  8
ALPHA
100
AcDbLine
 10
50.443253
 20
233.287176
 30
0.0
 11
51.648239
 21
233.287176
 31
0.0
  0
LINE
  5
21D
100
AcDbEntity
  8
ALPHA
100
AcDbLine
 10
51.558884
 20
232.974783
 30
0.0
 11
51.648239
 21
232.974783
 31
0.0
  0
LINE
  5
21E
100
AcDbEntity
  8
ALPHA
100
AcDbLine
 10
51.558884
 20
232.573126
 30
0.0
 11
52.183777
 21
232.573126
 31
0.0
  0
LINE
  5
21F
100
AcDbEntity
  8
ALPHA
100
AcDbLine
 10
52.183777
 20
232.974783
 30
0.0
 11
52.183777
 21
232.573126
 31
0.0
  0
LINE
  5
220
100
AcDbEntity
  8
ALPHA
100
AcDbLine
 10
51.558884
 20
232.974783
 30
0.0
 11
51.558884
 21
232.573126
 31
0.0
  0
LINE
  5
221
100
AcDbEntity
  8
ALPHA
100
AcDbLine
 10
52.094421
 20
232.974783
 30
0.0
 11
52.183777
 21
232.974783
 31
0.0
  0
LINE
  5
222
100
AcDbEntity
  8
ALPHA
100
AcDbLine
 10
52.094421
 20
233.287176
 30
0.0
 11
53.299408
 21
233.287176
 31
0.0
  0
LINE
  5
223
100
AcDbEntity
  8
ALPHA
100
AcDbLine
 10
51.648239
 20
233.287176
 30
0.0
 11
51.648239
 21
232.974783
 31
0.0
  0
LINE
  5
224
100
AcDbEntity
  8
ALPHA
100
AcDbLine
 10
52.094421
 20
233.287176
 30
0.0
 11
52.094421
 21
232.974783
 31
0.0
  0
LINE
  5
225
100
AcDbEntity
  8
ALPHA
100
AcDbLine
 10
51.648239
 20
234.001211
 30
0.0
 11
51.648239
 21
233.73345
 31
0.0
  0
LINE
  5
226
100
AcDbEntity
  8
ALPHA
100
AcDbLine
 10
52.094421
 20
234.001211
 30
0.0
 11
52.094421
 21
233.73345
 31
0.0
  0
LINE
  5
227
100
AcDbEntity
  8
ALPHA
100
AcDbLine
 10
50.800232
 20
234.001211
 30
0.0
 11
50.800232
 21
233.73345
 31
0.0
  0
LINE
  5
228
100
AcDbEntity
  8
ALPHA
100
AcDbLine
 10
52.094421
 20
233.73345
 30
0.0
 11
53.055511
 21
233.73345
 31
0.0
  0
LINE
  5
229
100
AcDbEntity
  8
ALPHA
100
AcDbLine
 10
52.094421
 20
234.001211
 30
0.0
 11
52.540771
 21
234.001211
 31
0.0
  0
LINE
  5
22A
100
AcDbEntity
  8
ALPHA
100
AcDbLine
 10
51.648239
 20
234.715246
 30
0.0
 11
51.648239
 21
234.44747
 31
0.0
  0
LINE
  5
22B
100
AcDbEntity
  8
ALPHA
100
AcDbLine
 10
52.094421
 20
234.715246
 30
0.0
 11
53.161713
 21
234.715246
 31
0.0
  0
LINE
  5
22C
100
AcDbEntity
  8
ALPHA
100
AcDbLine
 10
52.094421
 20
234.44747
 30
0.0
 11
52.540771
 21
234.44747
 31
0.0
  0
LINE
  5
22D
100
AcDbEntity
  8
ALPHA
100
AcDbLine
 10
50.800232
 20
234.715246
 30
0.0
 11
51.648239
 21
234.715246
 31
0.0
  0
LINE
  5
22E
100
AcDbEntity
  8
ALPHA
100
AcDbLine
 10
50.800232
 20
233.73345
 30
0.0
 11
51.648239
 21
233.73345
 31
0.0
  0
ARC
  5
22F
100
AcDbEntity
  8
ALPHA
100
AcDbCircle
 10
51.871338
 20
234.358221
 30
0.0
 40
1.785097
100
AcDbArc
 50
200.487321
 51
216.869885
  0
ARC
  5
230
100
AcDbEntity
  8
ALPHA
100
AcDbCircle
 10
51.871338
 20
234.358221
 30
0.0
 40
1.785097
100
AcDbArc
 50
153.256276
 51
168.46301
  0
ARC
  5
231
100
AcDbEntity
  8
ALPHA
100
AcDbCircle
 10
51.871338
 20
234.358221
 30
0.0
 40
1.785097
100
AcDbArc
 50
323.130102
 51
342.542402
  0
LINE
  5
232
100
AcDbEntity
  8
ALPHA
100
AcDbLine
 10
50.35405
 20
234.715246
 30
0.0
 11
50.35405
 21
233.73345
 31
0.0
  0
ARC
  5
233
100
AcDbEntity
  8
ALPHA
100
AcDbCircle
 10
51.871338
 20
234.358221
 30
0.0
 40
1.785097
100
AcDbArc
 50
115.841975
 51
143.130111
  0
ARC
  5
234
100
AcDbEntity
  8
ALPHA
100
AcDbCircle
 10
51.871338
 20
234.358221
 30
0.0
 40
1.785097
100
AcDbArc
 50
36.869897
 51
64.158043
  0
LINE
  5
235
100
AcDbEntity
  8
ALPHA
100
AcDbLine
 10
52.094421
 20
235.51853
 30
0.0
 11
52.539307
 21
235.51853
 31
0.0
  0
LINE
  5
236
100
AcDbEntity
  8
ALPHA
100
AcDbLine
 10
52.540771
 20
234.536718
 30
0.0
 11
52.942429
 21
234.536718
 31
0.0
  0
LINE
  5
237
100
AcDbEntity
  8
ALPHA
100
AcDbLine
 10
52.540771
 20
233.911962
 30
0.0
 11
52.942429
 21
233.911962
 31
0.0
  0
LINE
  5
238
100
AcDbEntity
  8
ALPHA
100
AcDbLine
 10
52.540771
 20
234.001211
 30
0.0
 11
52.540771
 21
233.911962
 31
0.0
  0
LINE
  5
239
100
AcDbEntity
  8
ALPHA
100
AcDbLine
 10
52.094421
 20
234.715246
 30
0.0
 11
52.094421
 21
234.44747
 31
0.0
  0
LINE
  5
23A
100
AcDbEntity
  8
ALPHA
100
AcDbLine
 10
53.098434
 20
233.822698
 30
0.0
 11
53.574219
 21
233.822698
 31
0.0
  0
LINE
  5
23B
100
AcDbEntity
  8
ALPHA
100
AcDbLine
 10
53.183105
 20
234.625982
 30
0.0
 11
53.636169
 21
234.625982
 31
0.0
  0
LINE
  5
23C
100
AcDbEntity
  8
ALPHA
100
AcDbLine
 10
52.674652
 20
235.429281
 30
0.0
 11
53.299408
 21
235.429281
 31
0.0
  0
LINE
  5
23D
100
AcDbEntity
  8
ALPHA
100
AcDbLine
 10
50.443253
 20
235.429281
 30
0.0
 11
51.068008
 21
235.429281
 31
0.0
  0
LINE
  5
23E
100
AcDbEntity
  8
ALPHA
100
AcDbLine
 10
52.094421
 20
235.161505
 30
0.0
 11
53.465515
 21
235.161505
 31
0.0
  0
ARC
  5
23F
100
AcDbEntity
  8
ALPHA
100
AcDbCircle
 10
51.871338
 20
234.358221
 30
0.0
 40
1.338822
100
AcDbArc
 50
119.926483
 51
126.86989
  0
ARC
  5
240
100
AcDbEntity
  8
ALPHA
100
AcDbCircle
 10
51.871338
 20
234.358221
 30
0.0
 40
1.338822
100
AcDbArc
 50
53.130085
 51
60.073535
  0
ARC
  5
241
100
AcDbEntity
  8
ALPHA
100
AcDbCircle
 10
51.871338
 20
234.358221
 30
0.0
 40
1.338822
100
AcDbArc
 50
332.181852
 51
336.421815
  0
LINE
  5
242
100
AcDbEntity
  8
ALPHA
100
AcDbLine
 10
48.747406
 20
231.234304
 30
0.0
 11
48.747406
 21
237.482137
 31
0.0
  0
LINE
  5
243
100
AcDbEntity
  8
ALPHA
100
AcDbLine
 10
73.310791
 20
234.533071
 30
0.0
 11
73.310791
 21
233.42452
 31
0.0
  0
LINE
  5
244
100
AcDbEntity
  8
ALPHA
100
AcDbLine
 10
72.756775
 20
234.253042
 30
0.0
 11
72.756775
 21
233.965368
 31
0.0
  0
LINE
  5
245
100
AcDbEntity
  8
ALPHA
100
AcDbLine
 10
72.756775
 20
233.42452
 30
0.0
 11
73.310791
 21
233.42452
 31
0.0
  0
ARC
  5
246
100
AcDbEntity
  8
ALPHA
100
AcDbCircle
 10
72.270309
 20
233.102651
 30
0.0
 40
2.095887
100
AcDbArc
 50
72.842438
 51
101.469509
  0
ARC
  5
247
100
AcDbEntity
  8
ALPHA
100
AcDbCircle
 10
72.71196
 20
234.533071
 30
0.0
 40
0.598825
100
AcDbArc
 50
0.0
 51
72.842438
  0
LINE
  5
248
100
AcDbEntity
  8
ALPHA
100
AcDbLine
 10
71.274796
 20
234.577246
 30
0.0
 11
71.761276
 21
234.577246
 31
0.0
  0
ARC
  5
249
100
AcDbEntity
  8
ALPHA
100
AcDbCircle
 10
71.798767
 20
234.577246
 30
0.0
 40
0.523972
100
AcDbArc
 50
123.565335
 51
180.000019
  0
ARC
  5
24A
100
AcDbEntity
  8
ALPHA
100
AcDbCircle
 10
72.047058
 20
234.203024
 30
0.0
 40
0.97309
100
AcDbArc
 50
101.469509
 51
123.565335
  0
LINE
  5
24B
100
AcDbEntity
  8
ALPHA
100
AcDbLine
 10
72.756775
 20
233.600729
 30
0.0
 11
72.756775
 21
233.42452
 31
0.0
  0
ARC
  5
24C
100
AcDbEntity
  8
ALPHA
100
AcDbCircle
 10
71.94101
 20
234.577246
 30
0.0
 40
0.179648
100
AcDbArc
 50
134.09918
 51
180.000019
  0
ARC
  5
24D
100
AcDbEntity
  8
ALPHA
100
AcDbCircle
 10
72.277771
 20
233.873632
 30
0.0
 40
0.97309
100
AcDbArc
 50
70.423403
 51
109.639945
  0
ARC
  5
24E
100
AcDbEntity
  8
ALPHA
100
AcDbCircle
 10
72.076508
 20
234.437612
 30
0.0
 40
0.374266
100
AcDbArc
 50
109.639945
 51
134.180924
  0
ARC
  5
24F
100
AcDbEntity
  8
ALPHA
100
AcDbCircle
 10
72.453415
 20
234.3673
 30
0.0
 40
0.449119
100
AcDbArc
 50
55.411802
 51
70.423403
  0
ARC
  5
250
100
AcDbEntity
  8
ALPHA
100
AcDbCircle
 10
72.382507
 20
236.074301
 30
0.0
 40
1.571915
100
AcDbArc
 50
263.312453
 51
278.890038
  0
ARC
  5
251
100
AcDbEntity
  8
ALPHA
100
AcDbCircle
 10
72.590668
 20
234.743109
 30
0.0
 40
0.224559
100
AcDbArc
 50
278.851243
 51
298.677643
  0
ARC
  5
252
100
AcDbEntity
  8
ALPHA
100
AcDbCircle
 10
72.644577
 20
234.644598
 30
0.0
 40
0.11228
100
AcDbArc
 50
298.677588
 51
55.411832
  0
ARC
  5
253
100
AcDbEntity
  8
ALPHA
100
AcDbCircle
 10
72.008255
 20
232.877462
 30
0.0
 40
1.646769
100
AcDbArc
 50
83.312899
 51
102.239517
  0
ARC
  5
254
100
AcDbEntity
  8
ALPHA
100
AcDbCircle
 10
71.723923
 20
233.955969
 30
0.0
 40
0.523972
100
AcDbArc
 50
121.643156
 51
226.388642
  0
ARC
  5
255
100
AcDbEntity
  8
ALPHA
100
AcDbCircle
 10
71.802429
 20
233.828527
 30
0.0
 40
0.673678
100
AcDbArc
 50
102.15832
 51
121.643156
  0
ARC
  5
256
100
AcDbEntity
  8
ALPHA
100
AcDbCircle
 10
72.008255
 20
234.944021
 30
0.0
 40
1.571915
100
AcDbArc
 50
258.372478
 51
289.783206
  0
ARC
  5
257
100
AcDbEntity
  8
ALPHA
100
AcDbCircle
 10
71.827332
 20
234.06423
 30
0.0
 40
0.673678
100
AcDbArc
 50
226.254729
 51
258.372478
  0
ARC
  5
258
100
AcDbEntity
  8
ALPHA
100
AcDbCircle
 10
72.337692
 20
234.028372
 30
0.0
 40
0.598825
100
AcDbArc
 50
289.783206
 51
314.427021
  0
ARC
  5
259
100
AcDbEntity
  8
ALPHA
100
AcDbCircle
 10
72.135544
 20
234.809286
 30
0.0
 40
1.047943
100
AcDbArc
 50
254.119838
 51
306.360021
  0
ARC
  5
25A
100
AcDbEntity
  8
ALPHA
100
AcDbCircle
 10
71.888565
 20
233.941
 30
0.0
 40
0.145195
100
AcDbArc
 50
120.410334
 51
254.119866
  0
ARC
  5
25B
100
AcDbEntity
  8
ALPHA
100
AcDbCircle
 10
72.090713
 20
232.473867
 30
0.0
 40
1.646769
100
AcDbArc
 50
84.72112
 51
93.88248
  0
ARC
  5
25C
100
AcDbEntity
  8
ALPHA
100
AcDbCircle
 10
72.00444
 20
233.74346
 30
0.0
 40
0.374266
100
AcDbArc
 50
93.88248
 51
120.410388
  0
ARC
  5
25D
100
AcDbEntity
  8
ALPHA
100
AcDbCircle
 10
72.337692
 20
235.157232
 30
0.0
 40
1.047943
100
AcDbArc
 50
264.710074
 51
285.826669
  0
ARC
  5
25E
100
AcDbEntity
  8
ALPHA
100
AcDbCircle
 10
72.562256
 20
234.365057
 30
0.0
 40
0.224559
100
AcDbArc
 50
285.826669
 51
330.073563
  0
LINE
  5
25F
100
AcDbEntity
  8
ALPHA
100
AcDbLine
 10
149.502594
 20
132.08872
 30
0.0
 11
149.502594
 21
252.627844
 31
0.0
  0
LINE
  5
260
100
AcDbEntity
  8
ALPHA
100
AcDbLine
 10
41.747406
 20
132.08872
 30
0.0
 11
41.747406
 21
252.627844
 31
0.0
  0
LINE
  5
261
100
AcDbEntity
  8
ALPHA
100
AcDbLine
 10
147.502594
 20
130.08872
 30
0.0
 11
43.747406
 21
130.08872
 31
0.0
  0
LINE
  5
262
100
AcDbEntity
  8
ALPHA
100
AcDbLine
 10
147.502594
 20
254.627844
 30
0.0
 11
43.747406
 21
254.627844
 31
0.0
  0
ARC
  5
263
100
AcDbEntity
  8
ALPHA
100
AcDbCircle
 10
147.502594
 20
132.08872
 30
0.0
 40
2.0
100
AcDbArc
 50
270.000001
 51
0.00001
  0
ARC
  5
264
100
AcDbEntity
  8
ALPHA
100
AcDbCircle
 10
43.747406
 20
132.08872
 30
0.0
 40
2.0
100
AcDbArc
 50
180.000005
 51
270.000001
  0
ARC
  5
265
100
AcDbEntity
  8
ALPHA
100
AcDbCircle
 10
147.502594
 20
252.627844
 30
0.0
 40
2.0
100
AcDbArc
 50
0.000005
 51
90.000003
  0
ARC
  5
266
100
AcDbEntity
  8
ALPHA
100
AcDbCircle
 10
43.747406
 20
252.627844
 30
0.0
 40
2.0
100
AcDbArc
 50
90.000003
 51
180.000005
  0
LINE
  5
267
100
AcDbEntity
  8
ALPHA
100
AcDbLine
 10
119.626694
 20
130.08872
 30
0.0
 11
119.626694
 21
254.627844
 31
0.0
  0
LINE
  5
268
100
AcDbEntity
  8
ALPHA
100
AcDbLine
 10
121.625
 20
219.858297
 30
0.0
 11
121.625
 21
227.858297
 31
0.0
  0
LINE
  5
269
100
AcDbEntity
  8
ALPHA
100
AcDbLine
 10
145.625
 20
219.858297
 30
0.0
 11
145.625
 21
227.858297
 31
0.0
  0
LINE
  5
26A
100
AcDbEntity
  8
ALPHA
100
AcDbLine
 10
121.625
 20
227.858297
 30
0.0
 11
145.625
 21
227.858297
 31
0.0
  0
LINE
  5
26B
100
AcDbEntity
  8
ALPHA
100
AcDbLine
 10
121.625
 20
219.858297
 30
0.0
 11
145.625
 21
219.858297
 31
0.0
  0
LINE
  5
26C
100
AcDbEntity
  8
ALPHA
100
AcDbLine
 10
87.125
 20
128.272474
 30
0.0
 11
87.125
 21
130.08872
 31
0.0
  0
LINE
  5
26D
100
AcDbEntity
  8
ALPHA
100
AcDbLine
 10
104.125
 20
128.272474
 30
0.0
 11
104.125
 21
130.08872
 31
0.0
  0
LINE
  5
26E
100
AcDbEntity
  8
ALPHA
100
AcDbLine
 10
87.125
 20
254.627844
 30
0.0
 11
87.125
 21
256.444044
 31
0.0
  0
LINE
  5
26F
100
AcDbEntity
  8
ALPHA
100
AcDbLine
 10
104.125
 20
254.627844
 30
0.0
 11
104.125
 21
256.444044
 31
0.0
  0
ARC
  5
270
100
AcDbEntity
  8
ALPHA
100
AcDbCircle
 10
46.625
 20
259.772474
 30
0.0
 40
1.0
100
AcDbArc
 50
179.999978
 51
224.999996
  0
ARC
  5
271
100
AcDbEntity
  8
ALPHA
100
AcDbCircle
 10
66.625
 20
259.626203
 30
0.0
 40
1.0
100
AcDbArc
 50
180.000032
 51
210.000026
  0
LINE
  5
272
100
AcDbEntity
  8
ALPHA
100
AcDbLine
 10
45.917892
 20
259.065359
 30
0.0
 11
50.355453
 21
254.627798
 31
0.0
  0
LINE
  5
273
100
AcDbEntity
  8
ALPHA
100
AcDbLine
 10
65.758982
 20
259.126203
 30
0.0
 11
68.356138
 21
254.627798
 31
0.0
  0
LINE
  5
274
100
AcDbEntity
  8
ALPHA
100
AcDbLine
 10
65.625
 20
259.626203
 30
0.0
 11
65.625
 21
279.358259
 31
0.0
  0
LINE
  5
275
100
AcDbEntity
  8
ALPHA
100
AcDbLine
 10
45.625
 20
259.772474
 30
0.0
 11
45.625
 21
279.358259
 31
0.0
  0
LINE
  5
276
100
AcDbEntity
  8
ALPHA
100
AcDbLine
 10
65.625
 20
279.358259
 30
0.0
 11
45.625
 21
279.358259
 31
0.0
  0
ARC
  5
277
100
AcDbEntity
  8
ALPHA
100
AcDbCircle
 10
144.625
 20
259.772474
 30
0.0
 40
1.0
100
AcDbArc
 50
314.999992
 51
359.999983
  0
ARC
  5
278
100
AcDbEntity
  8
ALPHA
100
AcDbCircle
 10
124.625
 20
259.626203
 30
0.0
 40
1.0
100
AcDbArc
 50
329.999989
 51
359.999983
  0
LINE
  5
279
100
AcDbEntity
  8
ALPHA
100
AcDbLine
 10
145.332111
 20
259.065367
 30
0.0
 11
140.894539
 21
254.627798
 31
0.0
  0
LINE
  5
27A
100
AcDbEntity
  8
ALPHA
100
AcDbLine
 10
125.491022
 20
259.126203
 30
0.0
 11
122.893866
 21
254.627798
 31
0.0
  0
LINE
  5
27B
100
AcDbEntity
  8
ALPHA
100
AcDbLine
 10
125.625
 20
259.626203
 30
0.0
 11
125.625
 21
279.358259
 31
0.0
  0
LINE
  5
27C
100
AcDbEntity
  8
ALPHA
100
AcDbLine
 10
145.625
 20
259.772474
 30
0.0
 11
145.625
 21
279.358259
 31
0.0
  0
LINE
  5
27D
100
AcDbEntity
  8
ALPHA
100
AcDbLine
 10
125.625
 20
279.358259
 30
0.0
 11
145.625
 21
279.358259
 31
0.0
  0
INSERT
  5
2C0
100
AcDbEntity
  8
0
100
AcDbBlockReference
  2
SCH_ISO
 10
0.0
 20
-13.391741
 30
0.0
  0
DIMENSION
  5
2CD
100
AcDbEntity
  8
COTATION1
100
AcDbDimension
  2
*D16
 10
55.625
 20
86.433259
 30
0.0
 11
41.125
 21
88.933259
 31
0.0
  3
SC_STAND
100
AcDbAlignedDimension
 13
26.625
 23
134.60826
 33
0.0
 14
55.625
 24
115.358259
 34
0.0
100
AcDbRotatedDimension
  0
DIMENSION
  5
2D9
100
AcDbEntity
  8
COTATION1
100
AcDbDimension
  2
*D15
 10
95.625
 20
86.433259
 30
0.0
 11
75.625
 21
88.933259
 31
0.0
  3
SC_STAND
100
AcDbAlignedDimension
 13
55.625
 23
115.358259
 33
0.0
 14
95.625
 24
115.358259
 34
0.0
100
AcDbRotatedDimension
1001
ACAD
1000
DSTYLE
1002
{
1070
    75
1070
     1
1070
   287
1070
     4
1002
}
  0
DIMENSION
  5
2E5
100
AcDbEntity
  8
COTATION1
100
AcDbDimension
  2
*D14
 10
135.625
 20
86.433259
 30
0.0
 11
115.625
 21
88.933259
 31
0.0
  3
SC_STAND
100
AcDbAlignedDimension
 13
95.625
 23
115.358259
 33
0.0
 14
135.625
 24
115.358259
 34
0.0
100
AcDbRotatedDimension
1001
ACAD
1000
DSTYLE
1002
{
1070
    75
1070
     1
1070
   287
1070
     4
1002
}
  0
DIMENSION
  5
2F1
100
AcDbEntity
  8
COTATION1
100
AcDbDimension
  2
*D13
 10
195.124939
 20
86.433259
 30
0.0
 11
165.37497
 21
88.933259
 31
0.0
  3
SC_STAND
100
AcDbAlignedDimension
 13
135.625
 23
115.358259
 33
0.0
 14
195.124939
 24
131.358259
 34
0.0
100
AcDbRotatedDimension
1001
ACAD
1000
DSTYLE
1002
{
1070
    75
1070
     1
1070
   287
1070
     4
1002
}
  0
DIMENSION
  5
2FE
100
AcDbEntity
  8
COTATION1
100
AcDbDimension
  2
*D12
 10
195.124939
 20
67.733259
 30
0.0
 11
110.87497
 21
70.233259
 31
0.0
  3
SC_STAND
100
AcDbAlignedDimension
 13
26.625
 23
134.60826
 33
0.0
 14
195.124939
 24
131.358259
 34
0.0
100
AcDbRotatedDimension
  0
DIMENSION
  5
30B
100
AcDbEntity
  8
COTATION1
100
AcDbDimension
  2
*D11
 10
230.923743
 20
253.358259
 30
0.0
 11
228.423743
 21
192.358259
 31
0.0
  3
SC_STAND
100
AcDbAlignedDimension
 13
195.124939
 23
131.358259
 33
0.0
 14
195.124939
 24
253.358259
 34
0.0
 50
90.0
100
AcDbRotatedDimension
  0
DIMENSION
  5
318
100
AcDbEntity
  8
COTATION1
100
AcDbDimension
  2
*D10
 10
65.625
 20
297.523055
 30
0.0
 11
55.625
 21
300.023055
 31
0.0
  3
SC_STAND
100
AcDbAlignedDimension
 13
45.625
 23
279.358259
 33
0.0
 14
65.625
 24
279.358259
 34
0.0
100
AcDbRotatedDimension
  0
ENDSEC
  0
SECTION
  2
OBJECTS
  0
DICTIONARY
  5
376
100
AcDbDictionary
  3
ACAD_GROUP
350
377
  3
ACAD_MLINESTYLE
350
384
  3
ACDBVARIABLEDICTIONARY
350
3CF
  0
DICTIONARY
  5
377
102
{ACAD_REACTORS
330
376
102
}
100
AcDbDictionary
  0
DICTIONARY
  5
384
102
{ACAD_REACTORS
330
376
102
}
100
AcDbDictionary
  3
STANDARD
350
385
  0
DICTIONARY
  5
3CF
102
{ACAD_REACTORS
330
376
102
}
100
AcDbDictionary
  3
DIMADEC
350
3D0
  0
MLINESTYLE
  5
385
102
{ACAD_REACTORS
330
384
102
}
100
AcDbMlineStyle
  2
STANDARD
 70
     0
  3

 62
   256
 51
90.0
 52
90.0
 71
     2
 49
0.5
 62
   256
  6
BYLAYER
 49
-0.5
 62
   256
  6
BYLAYER
  0
DICTIONARYVAR
  5
3D0
102
{ACAD_REACTORS
330
3CF
102
}
100
DictionaryVariables
280
     0
  1
0
  0
ENDSEC
  0
EOF
