  0
SECTION
  2
HEADER
  9
$ACADVER
  1
AC1014
  9
$ACADMAINTVER
 70
     0
  9
$DWGCODEPAGE
  3
ANSI_1252
  9
$INSBASE
 10
3.935745
 20
163.632253
 30
0.0
  9
$EXTMIN
 10
5.803168
 20
56.975
 30
0.0
  9
$EXTMAX
 10
194.542
 20
281.775
 30
0.0
  9
$LIMMIN
 10
0.0
 20
0.0
  9
$LIMMAX
 10
210.0
 20
297.0
  9
$ORTHOMODE
 70
     0
  9
$REGENMODE
 70
     1
  9
$FILLMODE
 70
     1
  9
$QTEXTMODE
 70
     0
  9
$MIRRTEXT
 70
     0
  9
$DRAGMODE
 70
     1
  9
$LTSCALE
 40
20.0
  9
$OSMODE
 70
     0
  9
$ATTMODE
 70
     1
  9
$TEXTSIZE
 40
2.5
  9
$TRACEWID
 40
0.05
  9
$TEXTSTYLE
  7
ROMANS
  9
$CLAYER
  8
COTATION1
  9
$CELTYPE
  6
BYLAYER
  9
$CECOLOR
 62
   256
  9
$CELTSCALE
 40
1.0
  9
$DELOBJ
 70
     1
  9
$DISPSILH
 70
     0
  9
$DIMSCALE
 40
1.0
  9
$DIMASZ
 40
3.0
  9
$DIMEXO
 40
0.0625
  9
$DIMDLI
 40
0.38
  9
$DIMRND
 40
0.01
  9
$DIMDLE
 40
0.0
  9
$DIMEXE
 40
0.18
  9
$DIMTP
 40
0.0
  9
$DIMTM
 40
0.0
  9
$DIMTXT
 40
2.5
  9
$DIMCEN
 40
0.09
  9
$DIMTSZ
 40
0.0
  9
$DIMTOL
 70
     0
  9
$DIMLIM
 70
     0
  9
$DIMTIH
 70
     0
  9
$DIMTOH
 70
     0
  9
$DIMSE1
 70
     0
  9
$DIMSE2
 70
     0
  9
$DIMTAD
 70
     1
  9
$DIMZIN
 70
    12
  9
$DIMBLK
  1

  9
$DIMASO
 70
     1
  9
$DIMSHO
 70
     1
  9
$DIMPOST
  1

  9
$DIMAPOST
  1

  9
$DIMALT
 70
     0
  9
$DIMALTD
 70
     2
  9
$DIMALTF
 40
25.4
  9
$DIMLFAC
 40
1.0
  9
$DIMTOFL
 70
     1
  9
$DIMTVP
 40
0.0
  9
$DIMTIX
 70
     0
  9
$DIMSOXD
 70
     0
  9
$DIMSAH
 70
     0
  9
$DIMBLK1
  1

  9
$DIMBLK2
  1

  9
$DIMSTYLE
  2
SC_STAND
  9
$DIMCLRD
 70
     0
  9
$DIMCLRE
 70
     0
  9
$DIMCLRT
 70
     0
  9
$DIMTFAC
 40
1.0
  9
$DIMGAP
 40
1.0
  9
$DIMJUST
 70
     0
  9
$DIMSD1
 70
     0
  9
$DIMSD2
 70
     0
  9
$DIMTOLJ
 70
     1
  9
$DIMTZIN
 70
    12
  9
$DIMALTZ
 70
    12
  9
$DIMALTTZ
 70
    12
  9
$DIMFIT
 70
     5
  9
$DIMUPT
 70
     0
  9
$DIMUNIT
 70
     2
  9
$DIMDEC
 70
     3
  9
$DIMTDEC
 70
     3
  9
$DIMALTU
 70
     2
  9
$DIMALTTD
 70
     2
  9
$DIMTXSTY
  7
ROMANS
  9
$DIMAUNIT
 70
     0
  9
$LUNITS
 70
     2
  9
$LUPREC
 70
     3
  9
$SKETCHINC
 40
0.1
  9
$FILLETRAD
 40
0.0625
  9
$AUNITS
 70
     0
  9
$AUPREC
 70
     0
  9
$MENU
  1
ACAD
  9
$ELEVATION
 40
0.0
  9
$PELEVATION
 40
0.0
  9
$THICKNESS
 40
0.0
  9
$LIMCHECK
 70
     0
  9
$BLIPMODE
 70
     1
  9
$CHAMFERA
 40
0.0
  9
$CHAMFERB
 40
0.0
  9
$CHAMFERC
 40
0.0
  9
$CHAMFERD
 40
0.0
  9
$SKPOLY
 70
     0
  9
$TDCREATE
 40
2450599.364525000
  9
$TDUPDATE
 40
2451387.883678125
  9
$TDINDWG
 40
0.0043706019
  9
$TDUSRTIMER
 40
0.0043706019
  9
$USRTIMER
 70
     1
  9
$ANGBASE
 50
0.0
  9
$ANGDIR
 70
     0
  9
$PDMODE
 70
     0
  9
$PDSIZE
 40
0.0
  9
$PLINEWID
 40
0.0
  9
$COORDS
 70
     2
  9
$SPLFRAME
 70
     0
  9
$SPLINETYPE
 70
     6
  9
$SPLINESEGS
 70
     8
  9
$ATTDIA
 70
     0
  9
$ATTREQ
 70
     1
  9
$HANDLING
 70
     1
  9
$HANDSEED
  5
403
  9
$SURFTAB1
 70
     6
  9
$SURFTAB2
 70
     6
  9
$SURFTYPE
 70
     6
  9
$SURFU
 70
     6
  9
$SURFV
 70
     6
  9
$UCSNAME
  2

  9
$UCSORG
 10
0.0
 20
0.0
 30
0.0
  9
$UCSXDIR
 10
1.0
 20
0.0
 30
0.0
  9
$UCSYDIR
 10
0.0
 20
1.0
 30
0.0
  9
$PUCSNAME
  2

  9
$PUCSORG
 10
0.0
 20
0.0
 30
0.0
  9
$PUCSXDIR
 10
1.0
 20
0.0
 30
0.0
  9
$PUCSYDIR
 10
0.0
 20
1.0
 30
0.0
  9
$USERI1
 70
     0
  9
$USERI2
 70
     0
  9
$USERI3
 70
     0
  9
$USERI4
 70
     0
  9
$USERI5
 70
     0
  9
$USERR1
 40
0.0
  9
$USERR2
 40
0.0
  9
$USERR3
 40
0.0
  9
$USERR4
 40
0.0
  9
$USERR5
 40
0.0
  9
$WORLDVIEW
 70
     1
  9
$SHADEDGE
 70
     3
  9
$SHADEDIF
 70
    70
  9
$TILEMODE
 70
     1
  9
$MAXACTVP
 70
    16
  9
$PINSBASE
 10
0.0
 20
0.0
 30
0.0
  9
$PLIMCHECK
 70
     0
  9
$PEXTMIN
 10
1.000000E+20
 20
1.000000E+20
 30
1.000000E+20
  9
$PEXTMAX
 10
-1.000000E+20
 20
-1.000000E+20
 30
-1.000000E+20
  9
$PLIMMIN
 10
0.0
 20
0.0
  9
$PLIMMAX
 10
12.0
 20
9.0
  9
$UNITMODE
 70
     0
  9
$VISRETAIN
 70
     0
  9
$PLINEGEN
 70
     0
  9
$PSLTSCALE
 70
     1
  9
$TREEDEPTH
 70
  3020
  9
$PICKSTYLE
 70
     1
  9
$CMLSTYLE
  2
STANDARD
  9
$CMLJUST
 70
     0
  9
$CMLSCALE
 40
1.0
  9
$PROXYGRAPHICS
 70
     1
  9
$MEASUREMENT
 70
     0
  0
ENDSEC
  0
SECTION
  2
CLASSES
  0
CLASS
  1
DICTIONARYVAR
  2
AcDbDictionaryVar
  3
"AutoCAD"
 90
        0
280
     0
281
     0
  0
CLASS
  1
LWPOLYLINE
  2
AcDbPolyline
  3
"AutoCAD"
 90
        0
280
     0
281
     1
  0
ENDSEC
  0
SECTION
  2
TABLES
  0
TABLE
  2
VPORT
  5
39C
100
AcDbSymbolTable
 70
     1
  0
VPORT
  5
3FE
100
AcDbSymbolTableRecord
100
AcDbViewportTableRecord
  2
*ACTIVE
 70
     0
 10
0.0
 20
0.0
 11
1.0
 21
1.0
 12
283.244621
 22
169.500718
 13
0.0
 23
0.0
 14
1.0
 24
1.0
 15
10.0
 25
10.0
 16
0.0
 26
0.0
 36
1.0
 17
0.0
 27
0.0
 37
0.0
 40
339.001436
 41
1.671053
 42
50.0
 43
0.0
 44
0.0
 50
0.0
 51
0.0
 71
     0
 72
   100
 73
     1
 74
     1
 75
     0
 76
     1
 77
     0
 78
     0
  0
ENDTAB
  0
TABLE
  2
LTYPE
  5
399
100
AcDbSymbolTable
 70
    24
  0
LTYPE
  5
3A5
100
AcDbSymbolTableRecord
100
AcDbLinetypeTableRecord
  2
BYBLOCK
 70
     0
  3

 72
    65
 73
     0
 40
0.0
  0
LTYPE
  5
3A6
100
AcDbSymbolTableRecord
100
AcDbLinetypeTableRecord
  2
BYLAYER
 70
     0
  3

 72
    65
 73
     0
 40
0.0
  0
LTYPE
  5
3A7
100
AcDbSymbolTableRecord
100
AcDbLinetypeTableRecord
  2
CONTINUOUS
 70
     0
  3
Solid line
 72
    65
 73
     0
 40
0.0
  0
LTYPE
  5
3C4
100
AcDbSymbolTableRecord
100
AcDbLinetypeTableRecord
  2
CADRA_SOLID
 70
     0
  3
Cadra_solid
 72
    65
 73
     0
 40
0.0
  0
LTYPE
  5
3C5
100
AcDbSymbolTableRecord
100
AcDbLinetypeTableRecord
  2
AXES
 70
     0
  3
____ _ ____ _ ____ _ ____ _ ____ _ ____ _ ____ 
 72
    65
 73
     4
 40
2.0
 49
1.25
 74
     0
 49
-0.25
 74
     0
 49
0.25
 74
     0
 49
-0.25
 74
     0
  0
LTYPE
  5
3C6
100
AcDbSymbolTableRecord
100
AcDbLinetypeTableRecord
  2
AXES2
 70
     0
  3
___ _ ___ _ ___ _ ___ _ ___ _ ___ _ ___ _ ___ _
 72
    65
 73
     4
 40
1.125
 49
0.75
 74
     0
 49
-0.125
 74
     0
 49
0.125
 74
     0
 49
-0.125
 74
     0
  0
LTYPE
  5
3C7
100
AcDbSymbolTableRecord
100
AcDbLinetypeTableRecord
  2
AXESX2
 70
     0
  3
________  __  ________  __  ________  __  _____
 72
    65
 73
     4
 40
4.0
 49
2.5
 74
     0
 49
-0.5
 74
     0
 49
0.5
 74
     0
 49
-0.5
 74
     0
  0
LTYPE
  5
3C8
100
AcDbSymbolTableRecord
100
AcDbLinetypeTableRecord
  2
TIRETPT
 70
     0
  3
__ . __ . __ . __ . __ . __ . __ . __ . __ . __
 72
    65
 73
     4
 40
1.0
 49
0.5
 74
     0
 49
-0.25
 74
     0
 49
0.0
 74
     0
 49
-0.25
 74
     0
  0
LTYPE
  5
3C9
100
AcDbSymbolTableRecord
100
AcDbLinetypeTableRecord
  2
TIRETPT2
 70
     0
  3
_._._._._._._._._._._._._._._._._._._._._._._._
 72
    65
 73
     4
 40
0.5
 49
0.25
 74
     0
 49
-0.125
 74
     0
 49
0.0
 74
     0
 49
-0.125
 74
     0
  0
LTYPE
  5
3CA
100
AcDbSymbolTableRecord
100
AcDbLinetypeTableRecord
  2
TIRETPTX2
 70
     0
  3
____  .  ____  .  ____  .  ____  .  ____  .  __
 72
    65
 73
     4
 40
2.0
 49
1.0
 74
     0
 49
-0.5
 74
     0
 49
0.0
 74
     0
 49
-0.5
 74
     0
  0
LTYPE
  5
3CB
100
AcDbSymbolTableRecord
100
AcDbLinetypeTableRecord
  2
DISCONTINU
 70
     0
  3
__ __ __ __ __ __ __ __ __ __ __ __ __ __ __ __
 72
    65
 73
     2
 40
0.75
 49
0.5
 74
     0
 49
-0.25
 74
     0
  0
LTYPE
  5
3CC
100
AcDbSymbolTableRecord
100
AcDbLinetypeTableRecord
  2
DISCONTINU2
 70
     0
  3
_ _ _ _ _ _ _ _ _ _ _ _ _ _ _ _ _ _ _ _ _ _ _ _
 72
    65
 73
     2
 40
0.375
 49
0.25
 74
     0
 49
-0.125
 74
     0
  0
LTYPE
  5
3CD
100
AcDbSymbolTableRecord
100
AcDbLinetypeTableRecord
  2
DISCONTINUX2
 70
     0
  3
____  ____  ____  ____  ____  ____  ____  ____ 
 72
    65
 73
     2
 40
1.5
 49
1.0
 74
     0
 49
-0.5
 74
     0
  0
LTYPE
  5
3CE
100
AcDbSymbolTableRecord
100
AcDbLinetypeTableRecord
  2
DIVISE
 70
     0
  3
____ . . ____ . . ____ . . ____ . . ____ . . __
 72
    65
 73
     6
 40
1.25
 49
0.5
 74
     0
 49
-0.25
 74
     0
 49
0.0
 74
     0
 49
-0.25
 74
     0
 49
0.0
 74
     0
 49
-0.25
 74
     0
  0
LTYPE
  5
3CF
100
AcDbSymbolTableRecord
100
AcDbLinetypeTableRecord
  2
DIVISE2
 70
     0
  3
__..__..__..__..__..__..__..__..__..__..__..__.
 72
    65
 73
     6
 40
0.625
 49
0.25
 74
     0
 49
-0.125
 74
     0
 49
0.0
 74
     0
 49
-0.125
 74
     0
 49
0.0
 74
     0
 49
-0.125
 74
     0
  0
LTYPE
  5
3D0
100
AcDbSymbolTableRecord
100
AcDbLinetypeTableRecord
  2
DIVISEX2
 70
     0
  3
________  .  .  ________  .  .  ________  .  . 
 72
    65
 73
     6
 40
2.5
 49
1.0
 74
     0
 49
-0.5
 74
     0
 49
0.0
 74
     0
 49
-0.5
 74
     0
 49
0.0
 74
     0
 49
-0.5
 74
     0
  0
LTYPE
  5
3D1
100
AcDbSymbolTableRecord
100
AcDbLinetypeTableRecord
  2
POINTILLE
 70
     0
  3
. . . . . . . . . . . . . . . . . . . . . . . .
 72
    65
 73
     2
 40
0.25
 49
0.0
 74
     0
 49
-0.25
 74
     0
  0
LTYPE
  5
3D2
100
AcDbSymbolTableRecord
100
AcDbLinetypeTableRecord
  2
POINTILLE2
 70
     0
  3
...............................................
 72
    65
 73
     2
 40
0.125
 49
0.0
 74
     0
 49
-0.125
 74
     0
  0
LTYPE
  5
3D3
100
AcDbSymbolTableRecord
100
AcDbLinetypeTableRecord
  2
POINTILLEX2
 70
     0
  3
.  .  .  .  .  .  .  .  .  .  .  .  .  .  .  . 
 72
    65
 73
     2
 40
0.5
 49
0.0
 74
     0
 49
-0.5
 74
     0
  0
LTYPE
  5
3D4
100
AcDbSymbolTableRecord
100
AcDbLinetypeTableRecord
  2
CACHE
 70
     0
  3
__ __ __ __ __ __ __ __ __ __ __ __ __ __ __ __
 72
    65
 73
     2
 40
0.375
 49
0.25
 74
     0
 49
-0.125
 74
     0
  0
LTYPE
  5
3D5
100
AcDbSymbolTableRecord
100
AcDbLinetypeTableRecord
  2
CACHE2
 70
     0
  3
_ _ _ _ _ _ _ _ _ _ _ _ _ _ _ _ _ _ _ _ _ _ _ _
 72
    65
 73
     2
 40
0.1875
 49
0.125
 74
     0
 49
-0.0625
 74
     0
  0
LTYPE
  5
3D6
100
AcDbSymbolTableRecord
100
AcDbLinetypeTableRecord
  2
CACHEX2
 70
     0
  3
____ ____ ____ ____ ____ ____ ____ ____ ____ __
 72
    65
 73
     2
 40
0.75
 49
0.5
 74
     0
 49
-0.25
 74
     0
  0
LTYPE
  5
3D7
100
AcDbSymbolTableRecord
100
AcDbLinetypeTableRecord
  2
FANTOME
 70
     0
  3
______  __  __  ______  __  __  ______  __  __ 
 72
    65
 73
     6
 40
2.5
 49
1.25
 74
     0
 49
-0.25
 74
     0
 49
0.25
 74
     0
 49
-0.25
 74
     0
 49
0.25
 74
     0
 49
-0.25
 74
     0
  0
LTYPE
  5
3D8
100
AcDbSymbolTableRecord
100
AcDbLinetypeTableRecord
  2
FANTOME2
 70
     0
  3
___ _ _ ___ _ _ ___ _ _ ___ _ _ ___ _ _ ___ _ _
 72
    65
 73
     6
 40
1.25
 49
0.625
 74
     0
 49
-0.125
 74
     0
 49
0.125
 74
     0
 49
-0.125
 74
     0
 49
0.125
 74
     0
 49
-0.125
 74
     0
  0
LTYPE
  5
3D9
100
AcDbSymbolTableRecord
100
AcDbLinetypeTableRecord
  2
FANTOMEX2
 70
     0
  3
____________    ____    ____    ____________   
 72
    65
 73
     6
 40
5.0
 49
2.5
 74
     0
 49
-0.5
 74
     0
 49
0.5
 74
     0
 49
-0.5
 74
     0
 49
0.5
 74
     0
 49
-0.5
 74
     0
  0
LTYPE
  5
3DA
100
AcDbSymbolTableRecord
100
AcDbLinetypeTableRecord
  2
0
 70
     0
  3
MEDUSA PEN 0
 72
    65
 73
     0
 40
0.0
  0
ENDTAB
  0
TABLE
  2
LAYER
  5
396
100
AcDbSymbolTable
 70
    21
  0
LAYER
  5
3A2
100
AcDbSymbolTableRecord
100
AcDbLayerTableRecord
  2
0
 70
     0
 62
   146
  6
CADRA_SOLID
  0
LAYER
  5
3E1
100
AcDbSymbolTableRecord
100
AcDbLayerTableRecord
  2
ALPHA
 70
     0
 62
   255
  6
CONTINUOUS
  0
LAYER
  5
3E2
100
AcDbSymbolTableRecord
100
AcDbLayerTableRecord
  2
AXE
 70
     0
 62
    80
  6
AXES2
  0
LAYER
  5
3E3
100
AcDbSymbolTableRecord
100
AcDbLayerTableRecord
  2
CONSTRUCTION
 70
     0
 62
     6
  6
CONTINUOUS
  0
LAYER
  5
3E4
100
AcDbSymbolTableRecord
100
AcDbLayerTableRecord
  2
COTATION1
 70
     0
 62
     2
  6
CONTINUOUS
  0
LAYER
  5
3E5
100
AcDbSymbolTableRecord
100
AcDbLayerTableRecord
  2
HACHURES
 70
     0
 62
     9
  6
CONTINUOUS
  0
LAYER
  5
3E6
100
AcDbSymbolTableRecord
100
AcDbLayerTableRecord
  2
FMULT
 70
     0
 62
     6
  6
CONTINUOUS
  0
LAYER
  5
3E7
100
AcDbSymbolTableRecord
100
AcDbLayerTableRecord
  2
TEXTE
 70
     0
 62
   131
  6
CONTINUOUS
  0
LAYER
  5
3E8
100
AcDbSymbolTableRecord
100
AcDbLayerTableRecord
  2
FDP_CARTOUCHE
 70
     0
 62
     4
  6
CONTINUOUS
  0
LAYER
  5
3E9
100
AcDbSymbolTableRecord
100
AcDbLayerTableRecord
  2
FDP_TEXTES
 70
     0
 62
     5
  6
CONTINUOUS
  0
LAYER
  5
3EA
100
AcDbSymbolTableRecord
100
AcDbLayerTableRecord
  2
FDP_LOGO_MG
 70
     0
 62
    30
  6
CONTINUOUS
  0
LAYER
  5
3EB
100
AcDbSymbolTableRecord
100
AcDbLayerTableRecord
  2
FDP_LOGO_SCH
 70
     0
 62
     3
  6
CONTINUOUS
  0
LAYER
  5
3EC
100
AcDbSymbolTableRecord
100
AcDbLayerTableRecord
  2
FDP_FDP
 70
     0
 62
     5
  6
CONTINUOUS
  0
LAYER
  5
3ED
100
AcDbSymbolTableRecord
100
AcDbLayerTableRecord
  2
COTATION2
 70
     0
 62
     2
  6
CONTINUOUS
  0
LAYER
  5
3EE
100
AcDbSymbolTableRecord
100
AcDbLayerTableRecord
  2
COTATION3
 70
     0
 62
     2
  6
CONTINUOUS
  0
LAYER
  5
3EF
100
AcDbSymbolTableRecord
100
AcDbLayerTableRecord
  2
COTATION4
 70
     0
 62
     2
  6
CONTINUOUS
  0
LAYER
  5
3F0
100
AcDbSymbolTableRecord
100
AcDbLayerTableRecord
  2
ASHADE
 70
     0
 62
     7
  6
CONTINUOUS
  0
LAYER
  5
3F1
100
AcDbSymbolTableRecord
100
AcDbLayerTableRecord
  2
POINTILLE_COURT
 70
     0
 62
    40
  6
CACHE2
  0
LAYER
  5
3F2
100
AcDbSymbolTableRecord
100
AcDbLayerTableRecord
  2
POINTILLE_MOYEN
 70
     0
 62
   140
  6
CACHE
  0
LAYER
  5
3F3
100
AcDbSymbolTableRecord
100
AcDbLayerTableRecord
  2
POINTILLE_LONG
 70
     0
 62
   240
  6
CACHEX2
  0
LAYER
  5
3F4
100
AcDbSymbolTableRecord
100
AcDbLayerTableRecord
  2
DEFPOINTS
 70
     0
 62
     7
  6
CONTINUOUS
  0
ENDTAB
  0
TABLE
  2
STYLE
  5
397
100
AcDbSymbolTable
 70
     4
  0
STYLE
  5
3A3
100
AcDbSymbolTableRecord
100
AcDbTextStyleTableRecord
  2
STANDARD
 70
     0
 40
0.0
 41
1.0
 50
0.0
 71
     0
 42
5.0
  3
txt
  4

  0
STYLE
  5
3C1
100
AcDbSymbolTableRecord
100
AcDbTextStyleTableRecord
  2
ROMANS
 70
     0
 40
0.0
 41
1.0
 50
0.0
 71
     0
 42
2.9
  3
romans.shx
  4

  0
STYLE
  5
3C2
100
AcDbSymbolTableRecord
100
AcDbTextStyleTableRecord
  2
INFOCAR
 70
     0
 40
0.0
 41
1.34
 50
0.0
 71
     0
 42
2.0
  3
ROMANS.SHX
  4

  0
STYLE
  5
3C3
100
AcDbSymbolTableRecord
100
AcDbTextStyleTableRecord
  2
CARTOUCHE
 70
     0
 40
0.0
 41
1.0
 50
0.0
 71
     0
 42
0.2
  3
ROMANS.SHX
  4

  0
ENDTAB
  0
TABLE
  2
VIEW
  5
39A
100
AcDbSymbolTable
 70
     0
  0
ENDTAB
  0
TABLE
  2
UCS
  5
39B
100
AcDbSymbolTable
 70
     0
  0
ENDTAB
  0
TABLE
  2
APPID
  5
39D
100
AcDbSymbolTable
 70
     3
  0
APPID
  5
3A4
100
AcDbSymbolTableRecord
100
AcDbRegAppTableRecord
  2
ACAD
 70
     0
  0
APPID
  5
3DD
100
AcDbSymbolTableRecord
100
AcDbRegAppTableRecord
  2
AVE_RENDER
 70
     0
  0
APPID
  5
3DE
100
AcDbSymbolTableRecord
100
AcDbRegAppTableRecord
  2
AVE_MATERIAL
 70
     0
  0
ENDTAB
  0
TABLE
  2
DIMSTYLE
  5
39E
100
AcDbSymbolTable
 70
     2
  0
DIMSTYLE
105
3DF
100
AcDbSymbolTableRecord
100
AcDbDimStyleTableRecord
  2
STANDARD
 70
     0
  3

  4

  5

  6

  7

 40
1.0
 41
0.18
 42
0.0625
 43
0.38
 44
0.18
 45
0.0
 46
0.0
 47
0.0
 48
0.0
140
0.18
141
0.09
142
0.0
143
25.4
144
1.0
145
0.0
146
1.0
147
0.09
 71
     0
 72
     0
 73
     1
 74
     1
 75
     0
 76
     0
 77
     0
 78
     0
170
     0
171
     2
172
     0
173
     0
174
     0
175
     0
176
     0
177
     0
178
     0
270
     2
271
     3
272
     3
273
     2
274
     2
340
3C1
275
     0
280
     0
281
     0
282
     0
283
     1
284
    12
285
    12
286
    12
287
     5
288
     0
  0
DIMSTYLE
105
3E0
102
{ACAD_REACTORS
330
2E8
330
2F7
330
304
330
305
330
31E
330
336
330
343
102
}
100
AcDbSymbolTableRecord
100
AcDbDimStyleTableRecord
  2
SC_STAND
 70
     0
  3

  4

  5

  6

  7

 40
1.0
 41
3.0
 42
0.0625
 43
0.38
 44
0.18
 45
0.01
 46
0.0
 47
0.0
 48
0.0
140
2.5
141
0.09
142
0.0
143
25.4
144
1.0
145
0.0
146
1.0
147
1.0
 71
     0
 72
     0
 73
     0
 74
     0
 75
     0
 76
     0
 77
     1
 78
    12
170
     0
171
     2
172
     1
173
     0
174
     0
175
     0
176
     0
177
     0
178
     0
270
     2
271
     3
272
     3
273
     2
274
     2
340
3C1
275
     0
280
     0
281
     0
282
     0
283
     1
284
    12
285
    12
286
    12
287
     5
288
     0
  0
ENDTAB
  0
TABLE
  2
BLOCK_RECORD
  5
395
100
AcDbSymbolTable
 70
    17
  0
BLOCK_RECORD
  5
3AB
100
AcDbSymbolTableRecord
100
AcDbBlockTableRecord
  2
*MODEL_SPACE
  0
BLOCK_RECORD
  5
3A8
100
AcDbSymbolTableRecord
100
AcDbBlockTableRecord
  2
*PAPER_SPACE
  0
BLOCK_RECORD
  5
3B0
100
AcDbSymbolTableRecord
100
AcDbBlockTableRecord
  2
AVE_RENDER
  0
BLOCK_RECORD
  5
3B1
100
AcDbSymbolTableRecord
100
AcDbBlockTableRecord
  2
AVE_GLOBAL
  0
BLOCK_RECORD
  5
3B2
100
AcDbSymbolTableRecord
100
AcDbBlockTableRecord
  2
SCH_ISO
  0
BLOCK_RECORD
  5
3BA
100
AcDbSymbolTableRecord
100
AcDbBlockTableRecord
  2
*D10
  0
BLOCK_RECORD
  5
3BB
100
AcDbSymbolTableRecord
100
AcDbBlockTableRecord
  2
*D11
  0
BLOCK_RECORD
  5
3BC
100
AcDbSymbolTableRecord
100
AcDbBlockTableRecord
  2
*D12
  0
BLOCK_RECORD
  5
3BD
100
AcDbSymbolTableRecord
100
AcDbBlockTableRecord
  2
*D13
  0
BLOCK_RECORD
  5
3BE
100
AcDbSymbolTableRecord
100
AcDbBlockTableRecord
  2
*D14
  0
BLOCK_RECORD
  5
3BF
100
AcDbSymbolTableRecord
100
AcDbBlockTableRecord
  2
*D15
  0
BLOCK_RECORD
  5
3C0
100
AcDbSymbolTableRecord
100
AcDbBlockTableRecord
  2
*D16
  0
ENDTAB
  0
ENDSEC
  0
SECTION
  2
BLOCKS
  0
BLOCK
  5
3F7
100
AcDbEntity
  8
0
100
AcDbBlockBegin
  2
*MODEL_SPACE
 70
     0
 10
0.0
 20
0.0
 30
0.0
  3
*MODEL_SPACE
  1

  0
ENDBLK
  5
3F8
100
AcDbEntity
  8
0
100
AcDbBlockEnd
  0
BLOCK
  5
3F5
100
AcDbEntity
 67
     1
  8
0
100
AcDbBlockBegin
  2
*PAPER_SPACE
 70
     0
 10
0.0
 20
0.0
 30
0.0
  3
*PAPER_SPACE
  1

  0
ENDBLK
  5
3F6
100
AcDbEntity
 67
     1
  8
0
100
AcDbBlockEnd
  0
BLOCK
  5
28D
100
AcDbEntity
  8
0
100
AcDbBlockBegin
  2
AVE_RENDER
 70
     0
 10
0.0
 20
0.0
 30
0.0
  3
AVE_RENDER
  1
AVE_RENDER
  0
ENDBLK
  5
28E
100
AcDbEntity
  8
0
100
AcDbBlockEnd
  0
BLOCK
  5
290
100
AcDbEntity
  8
0
100
AcDbBlockBegin
  2
AVE_GLOBAL
 70
     0
 10
0.0
 20
0.0
 30
0.0
  3
AVE_GLOBAL
  1
AVE_GLOBAL
  0
ENDBLK
  5
291
100
AcDbEntity
  8
0
100
AcDbBlockEnd
  0
BLOCK
  5
2CB
100
AcDbEntity
  8
0
100
AcDbBlockBegin
  2
SCH_ISO
 70
     0
 10
0.0
 20
0.0
 30
0.0
  3
SCH_ISO
  1

  0
INSERT
  5
2C2
100
AcDbEntity
  8
ASHADE
 62
     1
100
AcDbBlockReference
  2
AVE_RENDER
 10
0.0
 20
0.0
 30
0.0
1001
AVE_RENDER
1002
{
1070
     6
1000
Pref
1070
    50
1070
    20
1070
     1
1070
     0
1000

1070
    10
1070
     1
1070
    30
1040
25.4
1070
     1
1040
0.3
1040
0.7
1040
0.0
1040
10.0
1010
-1.0
1020
-1.0
1030
-1.0
1040
0.3
1070
    49
1070
     0
1070
     0
1010
1.0
1020
1.0
1030
1.0
1040
45.0
1070
     1
1070
     0
1000
WCS
1040
0.0
1002
}
  0
INSERT
  5
2C3
100
AcDbEntity
  8
ASHADE
 62
     3
100
AcDbBlockReference
  2
AVE_RENDER
 10
0.0
 20
0.0
 30
0.0
1001
AVE_RENDER
1002
{
1070
     0
1000
Full Opt
1070
     0
1070
     1
1070
     1
1070
     1
1070
     0
1070
     0
1070
     0
1070
     1
1070
     1
1040
0.0001
1040
0.0001
1002
}
  0
INSERT
  5
2C4
100
AcDbEntity
  8
ASHADE
 62
     4
100
AcDbBlockReference
  2
AVE_RENDER
 10
0.0
 20
0.0
 30
0.0
1001
AVE_RENDER
1002
{
1070
     0
1000
Quick Opt
1070
     0
1070
     1
1070
     1
1070
     1
1070
     0
1070
     0
1070
     1
1002
}
  0
INSERT
  5
2C5
100
AcDbEntity
  8
ASHADE
 62
     5
100
AcDbBlockReference
  2
AVE_RENDER
 10
0.0
 20
0.0
 30
0.0
1001
AVE_RENDER
1002
{
1070
     1
1000
Scanl Opt
1070
     2
1070
     0
1070
     2
1040
2.0
1040
4.0
1070
     0
1070
     1
1070
     0
1040
0.03
1002
}
  0
INSERT
  5
2C6
100
AcDbEntity
  8
ASHADE
 62
     6
100
AcDbBlockReference
  2
AVE_RENDER
 10
0.0
 20
0.0
 30
0.0
1001
AVE_RENDER
1002
{
1070
     2
1000
Raytr Opt
1070
     2
1070
     0
1070
     2
1040
2.0
1040
4.0
1070
     0
1070
     1
1070
     1
1040
0.03
1070
     3
1040
0.03
1002
}
  0
INSERT
  5
2C7
100
AcDbEntity
  8
ASHADE
 62
     7
100
AcDbBlockReference
  2
AVE_RENDER
 10
0.0
 20
0.0
 30
0.0
1001
AVE_RENDER
1002
{
1070
     0
1000
RFile Opt
1070
     5
1070
   640
1070
   480
1070
 10000
1070
     3
1070
    32
1070
    24
1070
     0
1070
     0
1070
     0
1070
     1
1070
     0
1070
     0
1070
     0
1002
}
  0
INSERT
  5
2C8
100
AcDbEntity
  8
ASHADE
 62
     8
100
AcDbBlockReference
  2
AVE_RENDER
 10
0.0
 20
0.0
 30
0.0
1001
AVE_RENDER
1002
{
1070
     0
1000
Fog Opt
1070
     0
1070
     0
1040
0.0
1040
1.0
1040
0.0
1040
1.0
1010
0.5
1020
0.5
1030
0.5
1002
}
  0
INSERT
  5
2C9
100
AcDbEntity
  8
ASHADE
 62
     9
100
AcDbBlockReference
  2
AVE_RENDER
 10
0.0
 20
0.0
 30
0.0
1001
AVE_RENDER
1002
{
1070
     0
1000
BG Opt
1070
     0
1070
     1
1010
0.0
1020
0.0
1030
0.0
1010
1.0
1020
0.0
1030
0.0
1010
0.0
1020
1.0
1030
0.0
1010
0.0
1020
0.0
1030
1.0
1040
0.5
1040
0.33
1040
0.0
1000

1070
     1
1000

1070
     1
1070
     1
1040
1.0
1040
1.0
1040
0.0
1040
0.0
1070
     0
1002
}
  0
INSERT
  5
2CA
100
AcDbEntity
  8
ASHADE
 62
     1
100
AcDbBlockReference
  2
AVE_GLOBAL
 10
0.0
 20
0.0
 30
0.0
1001
AVE_MATERIAL
1002
{
1000
*GLOBAL*
1000
1
1000
Finition globale.
1002
{
1002
}
1002
{
1070
    63
1002
{
1002
{
1010
-1.0
1020
-1.0
1030
-1.0
1002
}
1040
0.1
1000

1040
0.0
1002
{
1002
}
1040
0.0
1002
{
1002
}
1040
0.0
1002
}
1002
{
1002
{
1010
-1.0
1020
-1.0
1030
-1.0
1002
}
1040
0.7
1000

1040
0.0
1002
{
1002
}
1040
0.0
1002
{
1002
}
1040
0.0
1002
}
1002
{
1002
{
1010
-1.0
1020
-1.0
1030
-1.0
1002
}
1040
0.2
1000

1040
0.0
1002
{
1002
}
1040
0.0
1002
{
1002
}
1040
0.0
1002
}
1002
{
1070
     0
1002
{
1070
     1
1002
{
1040
1.0
1040
1.0
1000

1040
0.0
1002
{
1002
}
1040
0.0
1002
{
1002
}
1040
0.0
1002
}
1002
}
1040
1.0
1040
0.0
1040
0.0
1002
}
1002
{
1040
1.0
1040
1.0
1000

1040
0.0
1002
{
1002
}
1040
0.0
1002
{
1002
}
1040
0.0
1002
}
1002
{
1040
0.5
1040
1.0
1000

1040
0.0
1002
{
1002
}
1040
0.0
1002
{
1002
}
1040
0.0
1002
}
1002
{
1070
     0
1040
0.0
1002
{
1002
}
1040
1.0
1002
{
1002
}
1040
0.0
1002
}
1002
{
1040
0.0
1002
{
1002
{
1010
0.0
1020
0.0
1030
0.0
1002
}
1040
1.0
1000

1040
0.0
1002
{
1002
}
1040
0.0
1002
{
1002
}
1040
0.0
1002
}
1002
}
1002
{
1002
{
1070
     1
1002
{
1040
0.0
1040
1.0
1000

1040
0.0
1002
{
1002
}
1040
0.0
1002
{
1002
}
1040
0.0
1002
}
1002
}
1040
0.0
1002
{
1002
}
1010
1.0
1020
0.0
1030
0.0
1010
0.0
1020
1.0
1030
0.0
1010
0.0
1020
0.0
1030
1.0
1070
     0
1002
}
1002
{
1002
{
1040
1.0
1040
1.0
1002
{
1070
     1
1002
{
1040
1.0
1040
1.0
1000

1040
0.0
1002
{
1002
}
1040
0.0
1002
{
1002
}
1040
0.0
1002
}
1002
}
1002
}
1070
     0
1040
0.0
1002
{
1002
}
1002
}
1002
{
1002
}
1002
}
1002
{
1071
        3
1070
     3
1070
     0
1002
{
1070
     2
1070
     0
1070
     0
1040
0.0
1002
}
1070
     0
1070
     2
1002
{
1002
}
1002
}
1002
{
1040
8030.0
1040
190.300003
1040
0.305
1040
228.0
1040
545.0
1040
14.0
1040
17.4
1040
0.456
1002
}
1002
}
  0
ENDBLK
  5
2CC
100
AcDbEntity
  8
0
100
AcDbBlockEnd
  0
BLOCK
  5
348
100
AcDbEntity
  8
0
100
AcDbBlockBegin
  2
*D10
 70
     1
 10
0.0
 20
0.0
 30
0.0
  3
*D10
  1

  0
LINE
  5
349
100
AcDbEntity
  8
0
  6
BYBLOCK
 62
     0
100
AcDbLine
 10
109.779882
 20
108.15
 30
0.0
 11
194.222
 21
108.15
 31
0.0
  0
LINE
  5
34A
100
AcDbEntity
  8
0
  6
BYBLOCK
 62
     0
100
AcDbLine
 10
109.779913
 20
255.149756
 30
0.0
 11
194.222
 21
255.149756
 31
0.0
  0
LINE
  5
34B
100
AcDbEntity
  8
0
  6
BYBLOCK
 62
     0
100
AcDbLine
 10
194.042
 20
111.15
 30
0.0
 11
194.042
 21
252.149756
 31
0.0
  0
SOLID
  5
34C
100
AcDbEntity
  8
0
  6
BYBLOCK
 62
     0
100
AcDbTrace
 10
193.542
 20
111.15
 30
0.0
 11
194.542
 21
111.15
 31
0.0
 12
194.042
 22
108.15
 32
0.0
 13
194.042
 23
108.15
 33
0.0
  0
SOLID
  5
34D
100
AcDbEntity
  8
0
  6
BYBLOCK
 62
     0
100
AcDbTrace
 10
193.542
 20
252.149756
 30
0.0
 11
194.542
 21
252.149756
 31
0.0
 12
194.042
 22
255.149756
 32
0.0
 13
194.042
 23
255.149756
 33
0.0
  0
TEXT
  5
34E
100
AcDbEntity
  8
0
  6
BYBLOCK
 62
     0
100
AcDbText
 10
192.792
 20
177.899878
 30
0.0
 40
2.5
  1
147
 50
90.0
  7
ROMANS
 72
     1
 11
191.542
 21
181.649878
 31
0.0
100
AcDbText
 73
     2
  0
POINT
  5
34F
100
AcDbEntity
  8
DEFPOINTS
  6
BYBLOCK
 62
     0
100
AcDbPoint
 10
109.717382
 20
108.15
 30
0.0
  0
POINT
  5
350
100
AcDbEntity
  8
DEFPOINTS
  6
BYBLOCK
 62
     0
100
AcDbPoint
 10
109.717413
 20
255.149756
 30
0.0
  0
POINT
  5
351
100
AcDbEntity
  8
DEFPOINTS
  6
BYBLOCK
 62
     0
100
AcDbPoint
 10
194.042
 20
255.149756
 30
0.0
  0
ENDBLK
  5
352
100
AcDbEntity
  8
0
100
AcDbBlockEnd
  0
BLOCK
  5
353
100
AcDbEntity
  8
0
100
AcDbBlockBegin
  2
*D11
 70
     1
 10
0.0
 20
0.0
 30
0.0
  3
*D11
  1

  0
LINE
  5
354
100
AcDbEntity
  8
0
  6
BYBLOCK
 62
     0
100
AcDbLine
 10
6.217382
 20
127.587502
 30
0.0
 11
6.217382
 21
57.295
 31
0.0
  0
LINE
  5
355
100
AcDbEntity
  8
0
  6
BYBLOCK
 62
     0
100
AcDbLine
 10
169.717321
 20
120.5875
 30
0.0
 11
169.717321
 21
57.295
 31
0.0
  0
LINE
  5
356
100
AcDbEntity
  8
0
  6
BYBLOCK
 62
     0
100
AcDbLine
 10
9.217382
 20
57.475
 30
0.0
 11
166.717321
 21
57.475
 31
0.0
  0
SOLID
  5
357
100
AcDbEntity
  8
0
  6
BYBLOCK
 62
     0
100
AcDbTrace
 10
9.217382
 20
57.975
 30
0.0
 11
9.217382
 21
56.975
 31
0.0
 12
6.217382
 22
57.475
 32
0.0
 13
6.217382
 23
57.475
 33
0.0
  0
SOLID
  5
358
100
AcDbEntity
  8
0
  6
BYBLOCK
 62
     0
100
AcDbTrace
 10
166.717321
 20
57.975
 30
0.0
 11
166.717321
 21
56.975
 31
0.0
 12
169.717321
 22
57.475
 32
0.0
 13
169.717321
 23
57.475
 33
0.0
  0
TEXT
  5
359
100
AcDbEntity
  8
0
  6
BYBLOCK
 62
     0
100
AcDbText
 10
82.431638
 20
58.725
 30
0.0
 40
2.5
  1
163.5
  7
ROMANS
 72
     1
 11
87.967352
 21
59.975
 31
0.0
100
AcDbText
 73
     2
  0
POINT
  5
35A
100
AcDbEntity
  8
DEFPOINTS
  6
BYBLOCK
 62
     0
100
AcDbPoint
 10
6.217382
 20
127.650002
 30
0.0
  0
POINT
  5
35B
100
AcDbEntity
  8
DEFPOINTS
  6
BYBLOCK
 62
     0
100
AcDbPoint
 10
169.717321
 20
120.65
 30
0.0
  0
POINT
  5
35C
100
AcDbEntity
  8
DEFPOINTS
  6
BYBLOCK
 62
     0
100
AcDbPoint
 10
169.717321
 20
57.475
 30
0.0
  0
ENDBLK
  5
35D
100
AcDbEntity
  8
0
100
AcDbBlockEnd
  0
BLOCK
  5
35E
100
AcDbEntity
  8
0
100
AcDbBlockBegin
  2
*D12
 70
     1
 10
0.0
 20
0.0
 30
0.0
  3
*D12
  1

  0
LINE
  5
35F
100
AcDbEntity
  8
0
  6
BYBLOCK
 62
     0
100
AcDbLine
 10
109.717382
 20
70.5575
 30
0.0
 11
109.717382
 21
70.855
 31
0.0
  0
LINE
  5
360
100
AcDbEntity
  8
0
  6
BYBLOCK
 62
     0
100
AcDbLine
 10
169.717321
 20
120.5875
 30
0.0
 11
169.717321
 21
70.495
 31
0.0
  0
LINE
  5
361
100
AcDbEntity
  8
0
  6
BYBLOCK
 62
     0
100
AcDbLine
 10
112.717382
 20
70.675
 30
0.0
 11
166.717321
 21
70.675
 31
0.0
  0
SOLID
  5
362
100
AcDbEntity
  8
0
  6
BYBLOCK
 62
     0
100
AcDbTrace
 10
112.717382
 20
71.175
 30
0.0
 11
112.717382
 21
70.175
 31
0.0
 12
109.717382
 22
70.675
 32
0.0
 13
109.717382
 23
70.675
 33
0.0
  0
SOLID
  5
363
100
AcDbEntity
  8
0
  6
BYBLOCK
 62
     0
100
AcDbTrace
 10
166.717321
 20
71.175
 30
0.0
 11
166.717321
 21
70.175
 31
0.0
 12
169.717321
 22
70.675
 32
0.0
 13
169.717321
 23
70.675
 33
0.0
  0
TEXT
  5
364
100
AcDbEntity
  8
0
  6
BYBLOCK
 62
     0
100
AcDbText
 10
137.276876
 20
71.925
 30
0.0
 40
2.5
  1
60
  7
ROMANS
 72
     1
 11
139.717352
 21
73.175
 31
0.0
100
AcDbText
 73
     2
  0
POINT
  5
365
100
AcDbEntity
  8
DEFPOINTS
  6
BYBLOCK
 62
     0
100
AcDbPoint
 10
109.717382
 20
70.495
 30
0.0
  0
POINT
  5
366
100
AcDbEntity
  8
DEFPOINTS
  6
BYBLOCK
 62
     0
100
AcDbPoint
 10
169.717321
 20
120.65
 30
0.0
  0
POINT
  5
367
100
AcDbEntity
  8
DEFPOINTS
  6
BYBLOCK
 62
     0
100
AcDbPoint
 10
169.717321
 20
70.675
 30
0.0
  0
ENDBLK
  5
368
100
AcDbEntity
  8
0
100
AcDbBlockEnd
  0
BLOCK
  5
369
100
AcDbEntity
  8
0
100
AcDbBlockBegin
  2
*D13
 70
     1
 10
0.0
 20
0.0
 30
0.0
  3
*D13
  1

  0
LINE
  5
36A
100
AcDbEntity
  8
0
  6
BYBLOCK
 62
     0
100
AcDbLine
 10
72.717382
 20
108.0875
 30
0.0
 11
72.717382
 21
70.495
 31
0.0
  0
LINE
  5
36B
100
AcDbEntity
  8
0
  6
BYBLOCK
 62
     0
100
AcDbLine
 10
109.717382
 20
108.0875
 30
0.0
 11
109.717382
 21
70.495
 31
0.0
  0
LINE
  5
36C
100
AcDbEntity
  8
0
  6
BYBLOCK
 62
     0
100
AcDbLine
 10
75.717382
 20
70.675
 30
0.0
 11
106.717382
 21
70.675
 31
0.0
  0
SOLID
  5
36D
100
AcDbEntity
  8
0
  6
BYBLOCK
 62
     0
100
AcDbTrace
 10
75.717382
 20
71.175
 30
0.0
 11
75.717382
 21
70.175
 31
0.0
 12
72.717382
 22
70.675
 32
0.0
 13
72.717382
 23
70.675
 33
0.0
  0
SOLID
  5
36E
100
AcDbEntity
  8
0
  6
BYBLOCK
 62
     0
100
AcDbTrace
 10
106.717382
 20
71.175
 30
0.0
 11
106.717382
 21
70.175
 31
0.0
 12
109.717382
 22
70.675
 32
0.0
 13
109.717382
 23
70.675
 33
0.0
  0
TEXT
  5
36F
100
AcDbEntity
  8
0
  6
BYBLOCK
 62
     0
100
AcDbText
 10
88.83643
 20
71.925
 30
0.0
 40
2.5
  1
37
  7
ROMANS
 72
     1
 11
91.217382
 21
73.175
 31
0.0
100
AcDbText
 73
     2
  0
POINT
  5
370
100
AcDbEntity
  8
DEFPOINTS
  6
BYBLOCK
 62
     0
100
AcDbPoint
 10
72.717382
 20
108.15
 30
0.0
  0
POINT
  5
371
100
AcDbEntity
  8
DEFPOINTS
  6
BYBLOCK
 62
     0
100
AcDbPoint
 10
109.717382
 20
108.15
 30
0.0
  0
POINT
  5
372
100
AcDbEntity
  8
DEFPOINTS
  6
BYBLOCK
 62
     0
100
AcDbPoint
 10
109.717382
 20
70.675
 30
0.0
  0
ENDBLK
  5
373
100
AcDbEntity
  8
0
100
AcDbBlockEnd
  0
BLOCK
  5
374
100
AcDbEntity
  8
0
100
AcDbBlockBegin
  2
*D14
 70
     1
 10
0.0
 20
0.0
 30
0.0
  3
*D14
  1

  0
LINE
  5
375
100
AcDbEntity
  8
0
  6
BYBLOCK
 62
     0
100
AcDbLine
 10
35.717382
 20
108.0875
 30
0.0
 11
35.717382
 21
70.495
 31
0.0
  0
LINE
  5
376
100
AcDbEntity
  8
0
  6
BYBLOCK
 62
     0
100
AcDbLine
 10
72.717382
 20
108.0875
 30
0.0
 11
72.717382
 21
70.495
 31
0.0
  0
LINE
  5
377
100
AcDbEntity
  8
0
  6
BYBLOCK
 62
     0
100
AcDbLine
 10
38.717382
 20
70.675
 30
0.0
 11
69.717382
 21
70.675
 31
0.0
  0
SOLID
  5
378
100
AcDbEntity
  8
0
  6
BYBLOCK
 62
     0
100
AcDbTrace
 10
38.717382
 20
71.175
 30
0.0
 11
38.717382
 21
70.175
 31
0.0
 12
35.717382
 22
70.675
 32
0.0
 13
35.717382
 23
70.675
 33
0.0
  0
SOLID
  5
379
100
AcDbEntity
  8
0
  6
BYBLOCK
 62
     0
100
AcDbTrace
 10
69.717382
 20
71.175
 30
0.0
 11
69.717382
 21
70.175
 31
0.0
 12
72.717382
 22
70.675
 32
0.0
 13
72.717382
 23
70.675
 33
0.0
  0
TEXT
  5
37A
100
AcDbEntity
  8
0
  6
BYBLOCK
 62
     0
100
AcDbText
 10
51.83643
 20
71.925
 30
0.0
 40
2.5
  1
37
  7
ROMANS
 72
     1
 11
54.217382
 21
73.175
 31
0.0
100
AcDbText
 73
     2
  0
POINT
  5
37B
100
AcDbEntity
  8
DEFPOINTS
  6
BYBLOCK
 62
     0
100
AcDbPoint
 10
35.717382
 20
108.15
 30
0.0
  0
POINT
  5
37C
100
AcDbEntity
  8
DEFPOINTS
  6
BYBLOCK
 62
     0
100
AcDbPoint
 10
72.717382
 20
108.15
 30
0.0
  0
POINT
  5
37D
100
AcDbEntity
  8
DEFPOINTS
  6
BYBLOCK
 62
     0
100
AcDbPoint
 10
72.717382
 20
70.675
 30
0.0
  0
ENDBLK
  5
37E
100
AcDbEntity
  8
0
100
AcDbBlockEnd
  0
BLOCK
  5
37F
100
AcDbEntity
  8
0
100
AcDbBlockBegin
  2
*D15
 70
     1
 10
0.0
 20
0.0
 30
0.0
  3
*D15
  1

  0
LINE
  5
380
100
AcDbEntity
  8
0
  6
BYBLOCK
 62
     0
100
AcDbLine
 10
35.717382
 20
108.0875
 30
0.0
 11
35.717382
 21
70.495
 31
0.0
  0
LINE
  5
381
100
AcDbEntity
  8
0
  6
BYBLOCK
 62
     0
100
AcDbLine
 10
6.217382
 20
127.587502
 30
0.0
 11
6.217382
 21
70.495
 31
0.0
  0
LINE
  5
382
100
AcDbEntity
  8
0
  6
BYBLOCK
 62
     0
100
AcDbLine
 10
32.717382
 20
70.675
 30
0.0
 11
9.217382
 21
70.675
 31
0.0
  0
SOLID
  5
383
100
AcDbEntity
  8
0
  6
BYBLOCK
 62
     0
100
AcDbTrace
 10
32.717382
 20
71.175
 30
0.0
 11
32.717382
 21
70.175
 31
0.0
 12
35.717382
 22
70.675
 32
0.0
 13
35.717382
 23
70.675
 33
0.0
  0
SOLID
  5
384
100
AcDbEntity
  8
0
  6
BYBLOCK
 62
     0
100
AcDbTrace
 10
9.217382
 20
71.175
 30
0.0
 11
9.217382
 21
70.175
 31
0.0
 12
6.217382
 22
70.675
 32
0.0
 13
6.217382
 23
70.675
 33
0.0
  0
TEXT
  5
385
100
AcDbEntity
  8
0
  6
BYBLOCK
 62
     0
100
AcDbText
 10
16.800716
 20
71.925
 30
0.0
 40
2.5
  1
29.5
  7
ROMANS
 72
     1
 11
20.967382
 21
73.175
 31
0.0
100
AcDbText
 73
     2
  0
POINT
  5
386
100
AcDbEntity
  8
DEFPOINTS
  6
BYBLOCK
 62
     0
100
AcDbPoint
 10
35.717382
 20
108.15
 30
0.0
  0
POINT
  5
387
100
AcDbEntity
  8
DEFPOINTS
  6
BYBLOCK
 62
     0
100
AcDbPoint
 10
6.217382
 20
127.650002
 30
0.0
  0
POINT
  5
388
100
AcDbEntity
  8
DEFPOINTS
  6
BYBLOCK
 62
     0
100
AcDbPoint
 10
6.217382
 20
70.675
 30
0.0
  0
ENDBLK
  5
389
100
AcDbEntity
  8
0
100
AcDbBlockEnd
  0
BLOCK
  5
38A
100
AcDbEntity
  8
0
100
AcDbBlockBegin
  2
*D16
 70
     1
 10
0.0
 20
0.0
 30
0.0
  3
*D16
  1

  0
LINE
  5
38B
100
AcDbEntity
  8
0
  6
BYBLOCK
 62
     0
100
AcDbLine
 10
23.717351
 20
262.712256
 30
0.0
 11
23.717351
 21
278.205
 31
0.0
  0
LINE
  5
38C
100
AcDbEntity
  8
0
  6
BYBLOCK
 62
     0
100
AcDbLine
 10
43.217382
 20
262.712256
 30
0.0
 11
43.217382
 21
278.205
 31
0.0
  0
LINE
  5
38D
100
AcDbEntity
  8
0
  6
BYBLOCK
 62
     0
100
AcDbLine
 10
26.717351
 20
278.025
 30
0.0
 11
40.217382
 21
278.025
 31
0.0
  0
SOLID
  5
38E
100
AcDbEntity
  8
0
  6
BYBLOCK
 62
     0
100
AcDbTrace
 10
26.717351
 20
278.525
 30
0.0
 11
26.717351
 21
277.525
 31
0.0
 12
23.717351
 22
278.025
 32
0.0
 13
23.717351
 23
278.025
 33
0.0
  0
SOLID
  5
38F
100
AcDbEntity
  8
0
  6
BYBLOCK
 62
     0
100
AcDbTrace
 10
40.217382
 20
278.525
 30
0.0
 11
40.217382
 21
277.525
 31
0.0
 12
43.217382
 22
278.025
 32
0.0
 13
43.217382
 23
278.025
 33
0.0
  0
TEXT
  5
390
100
AcDbEntity
  8
0
  6
BYBLOCK
 62
     0
100
AcDbText
 10
29.122129
 20
279.275
 30
0.0
 40
2.5
  1
19.5
  7
ROMANS
 72
     1
 11
33.467367
 21
280.525
 31
0.0
100
AcDbText
 73
     2
  0
POINT
  5
391
100
AcDbEntity
  8
DEFPOINTS
  6
BYBLOCK
 62
     0
100
AcDbPoint
 10
23.717351
 20
262.649756
 30
0.0
  0
POINT
  5
392
100
AcDbEntity
  8
DEFPOINTS
  6
BYBLOCK
 62
     0
100
AcDbPoint
 10
43.217382
 20
262.649756
 30
0.0
  0
POINT
  5
393
100
AcDbEntity
  8
DEFPOINTS
  6
BYBLOCK
 62
     0
100
AcDbPoint
 10
43.217382
 20
278.025
 30
0.0
  0
ENDBLK
  5
394
100
AcDbEntity
  8
0
100
AcDbBlockEnd
  0
ENDSEC
  0
SECTION
  2
ENTITIES
  0
CIRCLE
  5
1E
100
AcDbEntity
  8
ALPHA
100
AcDbCircle
 10
88.967382
 20
131.65
 30
0.0
 40
4.25
  0
LINE
  5
20
100
AcDbEntity
  8
ALPHA
100
AcDbLine
 10
88.367376
 20
127.442572
 30
0.0
 11
88.367376
 21
135.857428
 31
0.0
  0
LINE
  5
21
100
AcDbEntity
  8
ALPHA
100
AcDbLine
 10
89.567388
 20
127.442572
 30
0.0
 11
89.567388
 21
135.857428
 31
0.0
  0
CIRCLE
  5
22
100
AcDbEntity
  8
ALPHA
100
AcDbCircle
 10
56.467382
 20
231.65
 30
0.0
 40
4.25
  0
LINE
  5
23
100
AcDbEntity
  8
ALPHA
100
AcDbLine
 10
55.867376
 20
227.442572
 30
0.0
 11
55.867376
 21
235.857428
 31
0.0
  0
LINE
  5
24
100
AcDbEntity
  8
ALPHA
100
AcDbLine
 10
57.067388
 20
227.442572
 30
0.0
 11
57.067388
 21
235.857428
 31
0.0
  0
LINE
  5
25
100
AcDbEntity
  8
ALPHA
100
AcDbLine
 10
124.217321
 20
120.65
 30
0.0
 11
169.717321
 21
120.65
 31
0.0
  0
LINE
  5
26
100
AcDbEntity
  8
ALPHA
100
AcDbLine
 10
124.217321
 20
242.65
 30
0.0
 11
169.717321
 21
242.65
 31
0.0
  0
LINE
  5
27
100
AcDbEntity
  8
ALPHA
100
AcDbLine
 10
125.717321
 20
178.65
 30
0.0
 11
129.717321
 21
178.65
 31
0.0
  0
LINE
  5
28
100
AcDbEntity
  8
ALPHA
100
AcDbLine
 10
125.717321
 20
184.65
 30
0.0
 11
129.717321
 21
184.65
 31
0.0
  0
ARC
  5
29
100
AcDbEntity
  8
ALPHA
100
AcDbCircle
 10
129.717321
 20
181.65
 30
0.0
 40
3.0
100
AcDbArc
 50
269.999973
 51
90.000047
  0
LINE
  5
2A
100
AcDbEntity
  8
ALPHA
100
AcDbLine
 10
125.717321
 20
184.65
 30
0.0
 11
125.717321
 21
240.15
 31
0.0
  0
LINE
  5
2B
100
AcDbEntity
  8
ALPHA
100
AcDbLine
 10
124.217321
 20
123.15
 30
0.0
 11
125.717321
 21
123.15
 31
0.0
  0
LINE
  5
2C
100
AcDbEntity
  8
ALPHA
100
AcDbLine
 10
124.217321
 20
240.15
 30
0.0
 11
125.717321
 21
240.15
 31
0.0
  0
LINE
  5
2D
100
AcDbEntity
  8
ALPHA
100
AcDbLine
 10
169.717321
 20
120.65
 30
0.0
 11
169.717321
 21
242.65
 31
0.0
  0
LINE
  5
2E
100
AcDbEntity
  8
ALPHA
100
AcDbLine
 10
125.717321
 20
173.799994
 30
0.0
 11
157.717321
 21
173.799994
 31
0.0
  0
LINE
  5
2F
100
AcDbEntity
  8
ALPHA
100
AcDbLine
 10
125.717321
 20
189.500006
 30
0.0
 11
157.717321
 21
189.500006
 31
0.0
  0
LINE
  5
30
100
AcDbEntity
  8
ALPHA
100
AcDbLine
 10
157.717321
 20
173.799994
 30
0.0
 11
157.717321
 21
189.500006
 31
0.0
  0
ARC
  5
31
100
AcDbEntity
  8
ALPHA
100
AcDbCircle
 10
172.123083
 20
181.65
 30
0.0
 40
16.405624
100
AcDbArc
 50
151.41289
 51
208.587092
  0
LINE
  5
32
100
AcDbEntity
  8
ALPHA
100
AcDbLine
 10
161.717321
 20
213.882056
 30
0.0
 11
161.717321
 21
219.417975
 31
0.0
  0
LINE
  5
33
100
AcDbEntity
  8
ALPHA
100
AcDbLine
 10
165.717321
 20
213.882056
 30
0.0
 11
165.717321
 21
219.417975
 31
0.0
  0
LINE
  5
34
100
AcDbEntity
  8
ALPHA
100
AcDbLine
 10
125.717321
 20
212.15
 30
0.0
 11
169.717321
 21
212.15
 31
0.0
  0
LINE
  5
35
100
AcDbEntity
  8
ALPHA
100
AcDbLine
 10
125.717321
 20
221.15
 30
0.0
 11
169.717321
 21
221.15
 31
0.0
  0
LINE
  5
36
100
AcDbEntity
  8
ALPHA
100
AcDbLine
 10
125.717321
 20
200.65
 30
0.0
 11
169.717321
 21
200.65
 31
0.0
  0
LINE
  5
37
100
AcDbEntity
  8
ALPHA
100
AcDbLine
 10
125.717321
 20
232.65
 30
0.0
 11
169.717321
 21
232.65
 31
0.0
  0
LINE
  5
38
100
AcDbEntity
  8
ALPHA
100
AcDbLine
 10
140.217321
 20
212.15
 30
0.0
 11
140.217321
 21
221.15
 31
0.0
  0
LINE
  5
39
100
AcDbEntity
  8
ALPHA
100
AcDbLine
 10
155.217321
 20
212.15
 30
0.0
 11
155.217321
 21
221.15
 31
0.0
  0
LINE
  5
3A
100
AcDbEntity
  8
ALPHA
100
AcDbLine
 10
138.617223
 20
211.65
 30
0.0
 11
156.817419
 21
211.65
 31
0.0
  0
LINE
  5
3B
100
AcDbEntity
  8
ALPHA
100
AcDbLine
 10
138.717321
 20
221.65
 30
0.0
 11
156.717321
 21
221.65
 31
0.0
  0
LINE
  5
3C
100
AcDbEntity
  8
ALPHA
100
AcDbLine
 10
138.717321
 20
221.65
 30
0.0
 11
138.717321
 21
232.65
 31
0.0
  0
LINE
  5
3D
100
AcDbEntity
  8
ALPHA
100
AcDbLine
 10
156.717321
 20
221.65
 30
0.0
 11
156.717321
 21
232.65
 31
0.0
  0
LINE
  5
3E
100
AcDbEntity
  8
ALPHA
100
AcDbLine
 10
143.01737
 20
221.65
 30
0.0
 11
143.01737
 21
232.65
 31
0.0
  0
LINE
  5
3F
100
AcDbEntity
  8
ALPHA
100
AcDbLine
 10
152.417272
 20
221.65
 30
0.0
 11
152.417272
 21
232.65
 31
0.0
  0
LINE
  5
40
100
AcDbEntity
  8
ALPHA
100
AcDbLine
 10
144.717321
 20
230.049994
 30
0.0
 11
150.717321
 21
230.049994
 31
0.0
  0
LINE
  5
41
100
AcDbEntity
  8
ALPHA
100
AcDbLine
 10
144.717321
 20
223.089423
 30
0.0
 11
144.717321
 21
230.049994
 31
0.0
  0
LINE
  5
42
100
AcDbEntity
  8
ALPHA
100
AcDbLine
 10
150.717321
 20
223.089423
 30
0.0
 11
150.717321
 21
230.049994
 31
0.0
  0
LINE
  5
43
100
AcDbEntity
  8
ALPHA
100
AcDbLine
 10
144.717321
 20
229.069708
 30
0.0
 11
150.717321
 21
229.069708
 31
0.0
  0
LINE
  5
44
100
AcDbEntity
  8
ALPHA
100
AcDbLine
 10
144.717321
 20
224.069708
 30
0.0
 11
150.717321
 21
224.069708
 31
0.0
  0
LINE
  5
45
100
AcDbEntity
  8
ALPHA
100
AcDbLine
 10
144.717321
 20
223.089423
 30
0.0
 11
150.717321
 21
223.089423
 31
0.0
  0
LINE
  5
46
100
AcDbEntity
  8
ALPHA
100
AcDbLine
 10
125.717321
 20
213.882056
 30
0.0
 11
140.217321
 21
213.882056
 31
0.0
  0
LINE
  5
47
100
AcDbEntity
  8
ALPHA
100
AcDbLine
 10
125.717321
 20
219.417975
 30
0.0
 11
140.217321
 21
219.417975
 31
0.0
  0
LINE
  5
48
100
AcDbEntity
  8
ALPHA
100
AcDbLine
 10
155.217321
 20
213.882056
 30
0.0
 11
169.717321
 21
213.882056
 31
0.0
  0
LINE
  5
49
100
AcDbEntity
  8
ALPHA
100
AcDbLine
 10
155.217321
 20
219.417975
 30
0.0
 11
169.717321
 21
219.417975
 31
0.0
  0
LINE
  5
4A
100
AcDbEntity
  8
ALPHA
100
AcDbLine
 10
138.617223
 20
210.15
 30
0.0
 11
138.617223
 21
211.65
 31
0.0
  0
LINE
  5
4B
100
AcDbEntity
  8
ALPHA
100
AcDbLine
 10
156.817419
 20
210.15
 30
0.0
 11
156.817419
 21
211.65
 31
0.0
  0
LINE
  5
4C
100
AcDbEntity
  8
ALPHA
100
AcDbLine
 10
136.717321
 20
210.15
 30
0.0
 11
138.617223
 21
210.15
 31
0.0
  0
LINE
  5
4D
100
AcDbEntity
  8
ALPHA
100
AcDbLine
 10
136.717321
 20
200.65
 30
0.0
 11
136.717321
 21
210.15
 31
0.0
  0
LINE
  5
4E
100
AcDbEntity
  8
ALPHA
100
AcDbLine
 10
158.717321
 20
200.65
 30
0.0
 11
158.717321
 21
210.15
 31
0.0
  0
LINE
  5
4F
100
AcDbEntity
  8
ALPHA
100
AcDbLine
 10
140.717321
 20
209.65
 30
0.0
 11
154.717321
 21
209.65
 31
0.0
  0
LINE
  5
50
100
AcDbEntity
  8
ALPHA
100
AcDbLine
 10
140.717321
 20
200.65
 30
0.0
 11
140.717321
 21
209.65
 31
0.0
  0
LINE
  5
51
100
AcDbEntity
  8
ALPHA
100
AcDbLine
 10
154.717321
 20
200.65
 30
0.0
 11
154.717321
 21
209.65
 31
0.0
  0
LINE
  5
52
100
AcDbEntity
  8
ALPHA
100
AcDbLine
 10
125.717321
 20
233.15
 30
0.0
 11
169.717321
 21
233.15
 31
0.0
  0
LINE
  5
53
100
AcDbEntity
  8
ALPHA
100
AcDbLine
 10
125.717321
 20
200.15
 30
0.0
 11
169.717321
 21
200.15
 31
0.0
  0
LINE
  5
54
100
AcDbEntity
  8
ALPHA
100
AcDbLine
 10
161.717321
 20
143.882056
 30
0.0
 11
161.717321
 21
149.417975
 31
0.0
  0
LINE
  5
55
100
AcDbEntity
  8
ALPHA
100
AcDbLine
 10
165.717321
 20
143.882056
 30
0.0
 11
165.717321
 21
149.417975
 31
0.0
  0
LINE
  5
56
100
AcDbEntity
  8
ALPHA
100
AcDbLine
 10
125.717321
 20
142.15
 30
0.0
 11
169.717321
 21
142.15
 31
0.0
  0
LINE
  5
57
100
AcDbEntity
  8
ALPHA
100
AcDbLine
 10
125.717321
 20
151.15
 30
0.0
 11
169.717321
 21
151.15
 31
0.0
  0
LINE
  5
58
100
AcDbEntity
  8
ALPHA
100
AcDbLine
 10
125.717321
 20
130.65
 30
0.0
 11
169.717321
 21
130.65
 31
0.0
  0
LINE
  5
59
100
AcDbEntity
  8
ALPHA
100
AcDbLine
 10
125.717321
 20
162.65
 30
0.0
 11
169.717321
 21
162.65
 31
0.0
  0
LINE
  5
5A
100
AcDbEntity
  8
ALPHA
100
AcDbLine
 10
140.217321
 20
142.15
 30
0.0
 11
140.217321
 21
151.15
 31
0.0
  0
LINE
  5
5B
100
AcDbEntity
  8
ALPHA
100
AcDbLine
 10
155.217321
 20
142.15
 30
0.0
 11
155.217321
 21
151.15
 31
0.0
  0
LINE
  5
5C
100
AcDbEntity
  8
ALPHA
100
AcDbLine
 10
138.617223
 20
141.65
 30
0.0
 11
156.817419
 21
141.65
 31
0.0
  0
LINE
  5
5D
100
AcDbEntity
  8
ALPHA
100
AcDbLine
 10
138.717321
 20
151.65
 30
0.0
 11
156.717321
 21
151.65
 31
0.0
  0
LINE
  5
5E
100
AcDbEntity
  8
ALPHA
100
AcDbLine
 10
138.717321
 20
151.65
 30
0.0
 11
138.717321
 21
162.65
 31
0.0
  0
LINE
  5
5F
100
AcDbEntity
  8
ALPHA
100
AcDbLine
 10
156.717321
 20
151.65
 30
0.0
 11
156.717321
 21
162.65
 31
0.0
  0
LINE
  5
60
100
AcDbEntity
  8
ALPHA
100
AcDbLine
 10
143.01737
 20
151.65
 30
0.0
 11
143.01737
 21
162.65
 31
0.0
  0
LINE
  5
61
100
AcDbEntity
  8
ALPHA
100
AcDbLine
 10
152.417272
 20
151.65
 30
0.0
 11
152.417272
 21
162.65
 31
0.0
  0
LINE
  5
62
100
AcDbEntity
  8
ALPHA
100
AcDbLine
 10
144.717321
 20
160.049994
 30
0.0
 11
150.717321
 21
160.049994
 31
0.0
  0
LINE
  5
63
100
AcDbEntity
  8
ALPHA
100
AcDbLine
 10
144.717321
 20
153.089423
 30
0.0
 11
144.717321
 21
160.049994
 31
0.0
  0
LINE
  5
64
100
AcDbEntity
  8
ALPHA
100
AcDbLine
 10
150.717321
 20
153.089423
 30
0.0
 11
150.717321
 21
160.049994
 31
0.0
  0
LINE
  5
65
100
AcDbEntity
  8
ALPHA
100
AcDbLine
 10
144.717321
 20
159.069708
 30
0.0
 11
150.717321
 21
159.069708
 31
0.0
  0
LINE
  5
66
100
AcDbEntity
  8
ALPHA
100
AcDbLine
 10
144.717321
 20
154.069708
 30
0.0
 11
150.717321
 21
154.069708
 31
0.0
  0
LINE
  5
67
100
AcDbEntity
  8
ALPHA
100
AcDbLine
 10
144.717321
 20
153.089423
 30
0.0
 11
150.717321
 21
153.089423
 31
0.0
  0
LINE
  5
68
100
AcDbEntity
  8
ALPHA
100
AcDbLine
 10
125.717321
 20
143.882056
 30
0.0
 11
140.217321
 21
143.882056
 31
0.0
  0
LINE
  5
69
100
AcDbEntity
  8
ALPHA
100
AcDbLine
 10
125.717321
 20
149.417975
 30
0.0
 11
140.217321
 21
149.417975
 31
0.0
  0
LINE
  5
6A
100
AcDbEntity
  8
ALPHA
100
AcDbLine
 10
155.217321
 20
143.882056
 30
0.0
 11
169.717321
 21
143.882056
 31
0.0
  0
LINE
  5
6B
100
AcDbEntity
  8
ALPHA
100
AcDbLine
 10
155.217321
 20
149.417975
 30
0.0
 11
169.717321
 21
149.417975
 31
0.0
  0
LINE
  5
6C
100
AcDbEntity
  8
ALPHA
100
AcDbLine
 10
138.617223
 20
140.15
 30
0.0
 11
138.617223
 21
141.65
 31
0.0
  0
LINE
  5
6D
100
AcDbEntity
  8
ALPHA
100
AcDbLine
 10
156.817419
 20
140.15
 30
0.0
 11
156.817419
 21
141.65
 31
0.0
  0
LINE
  5
6E
100
AcDbEntity
  8
ALPHA
100
AcDbLine
 10
136.717321
 20
140.15
 30
0.0
 11
138.617223
 21
140.15
 31
0.0
  0
LINE
  5
6F
100
AcDbEntity
  8
ALPHA
100
AcDbLine
 10
136.717321
 20
130.65
 30
0.0
 11
136.717321
 21
140.15
 31
0.0
  0
LINE
  5
70
100
AcDbEntity
  8
ALPHA
100
AcDbLine
 10
158.717321
 20
130.65
 30
0.0
 11
158.717321
 21
140.15
 31
0.0
  0
LINE
  5
71
100
AcDbEntity
  8
ALPHA
100
AcDbLine
 10
140.717321
 20
139.65
 30
0.0
 11
154.717321
 21
139.65
 31
0.0
  0
LINE
  5
72
100
AcDbEntity
  8
ALPHA
100
AcDbLine
 10
140.717321
 20
130.65
 30
0.0
 11
140.717321
 21
139.65
 31
0.0
  0
LINE
  5
73
100
AcDbEntity
  8
ALPHA
100
AcDbLine
 10
154.717321
 20
130.65
 30
0.0
 11
154.717321
 21
139.65
 31
0.0
  0
LINE
  5
74
100
AcDbEntity
  8
ALPHA
100
AcDbLine
 10
125.717321
 20
163.15
 30
0.0
 11
169.717321
 21
163.15
 31
0.0
  0
LINE
  5
75
100
AcDbEntity
  8
ALPHA
100
AcDbLine
 10
125.717321
 20
130.15
 30
0.0
 11
169.717321
 21
130.15
 31
0.0
  0
LINE
  5
76
100
AcDbEntity
  8
ALPHA
100
AcDbLine
 10
156.817419
 20
140.15
 30
0.0
 11
158.717321
 21
140.15
 31
0.0
  0
LINE
  5
77
100
AcDbEntity
  8
ALPHA
100
AcDbLine
 10
142.717321
 20
139.65
 30
0.0
 11
142.717321
 21
141.65
 31
0.0
  0
LINE
  5
78
100
AcDbEntity
  8
ALPHA
100
AcDbLine
 10
152.717321
 20
139.65
 30
0.0
 11
152.717321
 21
141.65
 31
0.0
  0
LINE
  5
79
100
AcDbEntity
  8
ALPHA
100
AcDbLine
 10
156.817419
 20
210.15
 30
0.0
 11
158.717321
 21
210.15
 31
0.0
  0
LINE
  5
7A
100
AcDbEntity
  8
ALPHA
100
AcDbLine
 10
142.717321
 20
209.65
 30
0.0
 11
142.717321
 21
211.65
 31
0.0
  0
LINE
  5
7B
100
AcDbEntity
  8
ALPHA
100
AcDbLine
 10
152.717321
 20
209.65
 30
0.0
 11
152.717321
 21
211.65
 31
0.0
  0
LINE
  5
7C
100
AcDbEntity
  8
ALPHA
100
AcDbLine
 10
6.217382
 20
235.65
 30
0.0
 11
6.217382
 21
127.65
 31
0.0
  0
LINE
  5
7D
100
AcDbEntity
  8
ALPHA
100
AcDbLine
 10
19.717382
 20
250.15
 30
0.0
 11
19.717382
 21
113.15
 31
0.0
  0
LINE
  5
7E
100
AcDbEntity
  8
ALPHA
100
AcDbLine
 10
8.217382
 20
237.65
 30
0.0
 11
19.717382
 21
237.65
 31
0.0
  0
LINE
  5
7F
100
AcDbEntity
  8
ALPHA
100
AcDbLine
 10
8.217382
 20
125.65
 30
0.0
 11
19.717382
 21
125.65
 31
0.0
  0
ARC
  5
80
100
AcDbEntity
  8
ALPHA
100
AcDbCircle
 10
8.217382
 20
235.65
 30
0.0
 40
2.0
100
AcDbArc
 50
89.999982
 51
179.999909
  0
ARC
  5
81
100
AcDbEntity
  8
ALPHA
100
AcDbCircle
 10
8.217382
 20
127.65
 30
0.0
 40
2.0
100
AcDbArc
 50
179.999964
 51
270.000001
  0
LINE
  5
82
100
AcDbEntity
  8
ALPHA
100
AcDbLine
 10
6.217382
 20
213.15
 30
0.0
 11
15.217382
 21
213.15
 31
0.0
  0
LINE
  5
83
100
AcDbEntity
  8
ALPHA
100
AcDbLine
 10
6.217382
 20
217.15
 30
0.0
 11
15.217382
 21
217.15
 31
0.0
  0
ARC
  5
84
100
AcDbEntity
  8
ALPHA
100
AcDbCircle
 10
15.217382
 20
215.15
 30
0.0
 40
2.0
100
AcDbArc
 50
270.000028
 51
90.000047
  0
LINE
  5
85
100
AcDbEntity
  8
ALPHA
100
AcDbLine
 10
7.717382
 20
217.15
 30
0.0
 11
7.717382
 21
213.15
 31
0.0
  0
LINE
  5
86
100
AcDbEntity
  8
ALPHA
100
AcDbLine
 10
6.217382
 20
206.65
 30
0.0
 11
17.217382
 21
206.65
 31
0.0
  0
LINE
  5
87
100
AcDbEntity
  8
ALPHA
100
AcDbLine
 10
17.217382
 20
215.15
 30
0.0
 11
17.217382
 21
206.65
 31
0.0
  0
LINE
  5
88
100
AcDbEntity
  8
ALPHA
100
AcDbLine
 10
7.217382
 20
194.950018
 30
0.0
 11
19.717382
 21
194.950018
 31
0.0
  0
LINE
  5
89
100
AcDbEntity
  8
ALPHA
100
AcDbLine
 10
7.217382
 20
168.350012
 30
0.0
 11
19.717382
 21
168.350012
 31
0.0
  0
ARC
  5
8A
100
AcDbEntity
  8
ALPHA
100
AcDbCircle
 10
7.217382
 20
193.950018
 30
0.0
 40
1.0
100
AcDbArc
 50
89.999982
 51
179.999909
  0
ARC
  5
8B
100
AcDbEntity
  8
ALPHA
100
AcDbCircle
 10
7.217382
 20
169.350012
 30
0.0
 40
1.0
100
AcDbArc
 50
179.999964
 51
270.000001
  0
LINE
  5
8C
100
AcDbEntity
  8
ALPHA
100
AcDbLine
 10
7.467382
 20
184.9
 30
0.0
 11
16.467382
 21
184.9
 31
0.0
  0
LINE
  5
8D
100
AcDbEntity
  8
ALPHA
100
AcDbLine
 10
7.467382
 20
178.4
 30
0.0
 11
16.467382
 21
178.4
 31
0.0
  0
LINE
  5
8E
100
AcDbEntity
  8
ALPHA
100
AcDbLine
 10
9.917364
 20
188.15
 30
0.0
 11
13.917364
 21
188.15
 31
0.0
  0
LINE
  5
8F
100
AcDbEntity
  8
ALPHA
100
AcDbLine
 10
9.917364
 20
192.15
 30
0.0
 11
13.917364
 21
192.15
 31
0.0
  0
LINE
  5
90
100
AcDbEntity
  8
ALPHA
100
AcDbLine
 10
9.917364
 20
192.15
 30
0.0
 11
9.917364
 21
188.15
 31
0.0
  0
LINE
  5
91
100
AcDbEntity
  8
ALPHA
100
AcDbLine
 10
13.917364
 20
192.15
 30
0.0
 11
13.917364
 21
188.15
 31
0.0
  0
LINE
  5
92
100
AcDbEntity
  8
ALPHA
100
AcDbLine
 10
8.467382
 20
184.9
 30
0.0
 11
8.467382
 21
178.4
 31
0.0
  0
LINE
  5
93
100
AcDbEntity
  8
ALPHA
100
AcDbLine
 10
16.467382
 20
184.9
 30
0.0
 11
16.467382
 21
178.4
 31
0.0
  0
LINE
  5
94
100
AcDbEntity
  8
ALPHA
100
AcDbLine
 10
7.467382
 20
184.9
 30
0.0
 11
7.467382
 21
178.4
 31
0.0
  0
LINE
  5
95
100
AcDbEntity
  8
ALPHA
100
AcDbLine
 10
8.667364
 20
184.799994
 30
0.0
 11
16.26737
 21
184.799994
 31
0.0
  0
LINE
  5
96
100
AcDbEntity
  8
ALPHA
100
AcDbLine
 10
8.667364
 20
178.500006
 30
0.0
 11
16.26737
 21
178.500006
 31
0.0
  0
LINE
  5
97
100
AcDbEntity
  8
ALPHA
100
AcDbLine
 10
16.26737
 20
178.500006
 30
0.0
 11
16.26737
 21
184.799994
 31
0.0
  0
LINE
  5
98
100
AcDbEntity
  8
ALPHA
100
AcDbLine
 10
8.667364
 20
178.500006
 30
0.0
 11
8.667364
 21
184.799994
 31
0.0
  0
LINE
  5
99
100
AcDbEntity
  8
ALPHA
100
AcDbLine
 10
11.76737
 20
178.500006
 30
0.0
 11
11.76737
 21
184.799994
 31
0.0
  0
LINE
  5
9A
100
AcDbEntity
  8
ALPHA
100
AcDbLine
 10
140.717321
 20
213.647864
 30
0.0
 11
140.717321
 21
219.647925
 31
0.0
  0
LINE
  5
9B
100
AcDbEntity
  8
ALPHA
100
AcDbLine
 10
154.717321
 20
213.647864
 30
0.0
 11
154.717321
 21
219.647925
 31
0.0
  0
LINE
  5
9C
100
AcDbEntity
  8
ALPHA
100
AcDbLine
 10
140.717321
 20
219.647925
 30
0.0
 11
154.717321
 21
219.647925
 31
0.0
  0
LINE
  5
9D
100
AcDbEntity
  8
ALPHA
100
AcDbLine
 10
149.967321
 20
214.149969
 30
0.0
 11
149.967321
 21
219.150031
 31
0.0
  0
LINE
  5
9E
100
AcDbEntity
  8
ALPHA
100
AcDbLine
 10
145.467321
 20
214.15
 30
0.0
 11
145.467321
 21
219.150031
 31
0.0
  0
LINE
  5
9F
100
AcDbEntity
  8
ALPHA
100
AcDbLine
 10
140.717321
 20
213.647864
 30
0.0
 11
154.717321
 21
213.647864
 31
0.0
  0
LINE
  5
A0
100
AcDbEntity
  8
ALPHA
100
AcDbLine
 10
149.967176
 20
219.149863
 30
0.0
 11
150.467168
 21
219.647772
 31
0.0
  0
LINE
  5
A1
100
AcDbEntity
  8
ALPHA
100
AcDbLine
 10
145.467542
 20
219.149939
 30
0.0
 11
144.96755
 21
219.647849
 31
0.0
  0
LINE
  5
A2
100
AcDbEntity
  8
ALPHA
100
AcDbLine
 10
150.467443
 20
213.648199
 30
0.0
 11
149.967428
 21
214.15032
 31
0.0
  0
LINE
  5
A3
100
AcDbEntity
  8
ALPHA
100
AcDbLine
 10
144.965169
 20
213.647528
 30
0.0
 11
145.46729
 21
214.149649
 31
0.0
  0
LINE
  5
A4
100
AcDbEntity
  8
ALPHA
100
AcDbLine
 10
140.717321
 20
143.647864
 30
0.0
 11
140.717321
 21
149.647925
 31
0.0
  0
LINE
  5
A5
100
AcDbEntity
  8
ALPHA
100
AcDbLine
 10
154.717321
 20
143.647864
 30
0.0
 11
154.717321
 21
149.647925
 31
0.0
  0
LINE
  5
A6
100
AcDbEntity
  8
ALPHA
100
AcDbLine
 10
140.717321
 20
149.647925
 30
0.0
 11
154.717321
 21
149.647925
 31
0.0
  0
LINE
  5
A7
100
AcDbEntity
  8
ALPHA
100
AcDbLine
 10
149.967321
 20
144.149969
 30
0.0
 11
149.967321
 21
149.150031
 31
0.0
  0
LINE
  5
A8
100
AcDbEntity
  8
ALPHA
100
AcDbLine
 10
145.467321
 20
144.15
 30
0.0
 11
145.467321
 21
149.150031
 31
0.0
  0
LINE
  5
A9
100
AcDbEntity
  8
ALPHA
100
AcDbLine
 10
140.717321
 20
143.647864
 30
0.0
 11
154.717321
 21
143.647864
 31
0.0
  0
LINE
  5
AA
100
AcDbEntity
  8
ALPHA
100
AcDbLine
 10
149.967161
 20
149.149847
 30
0.0
 11
150.467176
 21
149.647787
 31
0.0
  0
LINE
  5
AB
100
AcDbEntity
  8
ALPHA
100
AcDbLine
 10
145.467512
 20
149.15
 30
0.0
 11
144.967512
 21
149.647925
 31
0.0
  0
LINE
  5
AC
100
AcDbEntity
  8
ALPHA
100
AcDbLine
 10
150.467481
 20
143.648138
 30
0.0
 11
149.967489
 21
144.150237
 31
0.0
  0
LINE
  5
AD
100
AcDbEntity
  8
ALPHA
100
AcDbLine
 10
144.965101
 20
143.647597
 30
0.0
 11
145.467229
 21
144.149725
 31
0.0
  0
LINE
  5
AE
100
AcDbEntity
  8
ALPHA
100
AcDbLine
 10
19.717382
 20
233.870276
 30
0.0
 11
22.459646
 21
233.870276
 31
0.0
  0
LINE
  5
AF
100
AcDbEntity
  8
ALPHA
100
AcDbLine
 10
19.717382
 20
202.15
 30
0.0
 11
22.459646
 21
202.15
 31
0.0
  0
LINE
  5
B0
100
AcDbEntity
  8
ALPHA
100
AcDbLine
 10
19.717382
 20
210.392401
 30
0.0
 11
22.459646
 21
210.392401
 31
0.0
  0
LINE
  5
B1
100
AcDbEntity
  8
ALPHA
100
AcDbLine
 10
19.717382
 20
216.525
 30
0.0
 11
22.459646
 21
216.525
 31
0.0
  0
LINE
  5
B2
100
AcDbEntity
  8
ALPHA
100
AcDbLine
 10
19.717382
 20
221.775031
 30
0.0
 11
22.459646
 21
221.775031
 31
0.0
  0
LINE
  5
B3
100
AcDbEntity
  8
ALPHA
100
AcDbLine
 10
19.717382
 20
227.9
 30
0.0
 11
22.459646
 21
227.9
 31
0.0
  0
LINE
  5
B4
100
AcDbEntity
  8
ALPHA
100
AcDbLine
 10
19.717382
 20
232.013983
 30
0.0
 11
22.459646
 21
232.013983
 31
0.0
  0
LINE
  5
B5
100
AcDbEntity
  8
ALPHA
100
AcDbLine
 10
123.259634
 20
233.870276
 30
0.0
 11
125.717321
 21
233.870276
 31
0.0
  0
LINE
  5
B6
100
AcDbEntity
  8
ALPHA
100
AcDbLine
 10
123.259634
 20
232.013983
 30
0.0
 11
125.717321
 21
232.013983
 31
0.0
  0
LINE
  5
B7
100
AcDbEntity
  8
ALPHA
100
AcDbLine
 10
123.259634
 20
227.9
 30
0.0
 11
125.717321
 21
227.9
 31
0.0
  0
LINE
  5
B8
100
AcDbEntity
  8
ALPHA
100
AcDbLine
 10
123.259634
 20
221.775031
 30
0.0
 11
125.717321
 21
221.775031
 31
0.0
  0
LINE
  5
B9
100
AcDbEntity
  8
ALPHA
100
AcDbLine
 10
123.259634
 20
216.525
 30
0.0
 11
125.717321
 21
216.525
 31
0.0
  0
LINE
  5
BA
100
AcDbEntity
  8
ALPHA
100
AcDbLine
 10
123.259634
 20
210.392401
 30
0.0
 11
125.717321
 21
210.392401
 31
0.0
  0
LINE
  5
BB
100
AcDbEntity
  8
ALPHA
100
AcDbLine
 10
123.259634
 20
202.15
 30
0.0
 11
125.717321
 21
202.15
 31
0.0
  0
LINE
  5
BC
100
AcDbEntity
  8
ALPHA
100
AcDbLine
 10
19.717382
 20
161.15
 30
0.0
 11
22.459646
 21
161.15
 31
0.0
  0
LINE
  5
BD
100
AcDbEntity
  8
ALPHA
100
AcDbLine
 10
19.717382
 20
152.907568
 30
0.0
 11
22.459646
 21
152.907568
 31
0.0
  0
LINE
  5
BE
100
AcDbEntity
  8
ALPHA
100
AcDbLine
 10
19.717382
 20
146.775
 30
0.0
 11
22.459646
 21
146.775
 31
0.0
  0
LINE
  5
BF
100
AcDbEntity
  8
ALPHA
100
AcDbLine
 10
19.717382
 20
141.525
 30
0.0
 11
22.459646
 21
141.525
 31
0.0
  0
LINE
  5
C0
100
AcDbEntity
  8
ALPHA
100
AcDbLine
 10
19.717382
 20
135.4
 30
0.0
 11
22.459646
 21
135.4
 31
0.0
  0
LINE
  5
C1
100
AcDbEntity
  8
ALPHA
100
AcDbLine
 10
19.717382
 20
131.286047
 30
0.0
 11
22.459646
 21
131.286047
 31
0.0
  0
LINE
  5
C2
100
AcDbEntity
  8
ALPHA
100
AcDbLine
 10
19.717382
 20
129.429724
 30
0.0
 11
22.459646
 21
129.429724
 31
0.0
  0
LINE
  5
C3
100
AcDbEntity
  8
ALPHA
100
AcDbLine
 10
123.259634
 20
161.15
 30
0.0
 11
125.717321
 21
161.15
 31
0.0
  0
LINE
  5
C4
100
AcDbEntity
  8
ALPHA
100
AcDbLine
 10
123.259634
 20
152.907568
 30
0.0
 11
125.717321
 21
152.907568
 31
0.0
  0
LINE
  5
C5
100
AcDbEntity
  8
ALPHA
100
AcDbLine
 10
125.717321
 20
146.775
 30
0.0
 11
123.259634
 21
146.775
 31
0.0
  0
LINE
  5
C6
100
AcDbEntity
  8
ALPHA
100
AcDbLine
 10
123.259634
 20
141.525
 30
0.0
 11
125.717321
 21
141.525
 31
0.0
  0
LINE
  5
C7
100
AcDbEntity
  8
ALPHA
100
AcDbLine
 10
123.259634
 20
135.4
 30
0.0
 11
125.717321
 21
135.4
 31
0.0
  0
LINE
  5
C8
100
AcDbEntity
  8
ALPHA
100
AcDbLine
 10
123.259634
 20
131.286047
 30
0.0
 11
125.717321
 21
131.286047
 31
0.0
  0
LINE
  5
C9
100
AcDbEntity
  8
ALPHA
100
AcDbLine
 10
123.259634
 20
129.429724
 30
0.0
 11
125.717321
 21
129.429724
 31
0.0
  0
LINE
  5
CA
100
AcDbEntity
  8
ALPHA
100
AcDbLine
 10
19.717382
 20
250.15
 30
0.0
 11
23.717351
 21
250.15
 31
0.0
  0
LINE
  5
CB
100
AcDbEntity
  8
ALPHA
100
AcDbLine
 10
19.717382
 20
113.15
 30
0.0
 11
23.717382
 21
113.15
 31
0.0
  0
LINE
  5
CC
100
AcDbEntity
  8
ALPHA
100
AcDbLine
 10
43.217382
 20
250.15
 30
0.0
 11
62.717382
 21
250.15
 31
0.0
  0
LINE
  5
CD
100
AcDbEntity
  8
ALPHA
100
AcDbLine
 10
82.717382
 20
250.15
 30
0.0
 11
102.217382
 21
250.15
 31
0.0
  0
LINE
  5
CE
100
AcDbEntity
  8
ALPHA
100
AcDbLine
 10
121.717413
 20
250.15
 30
0.0
 11
125.717321
 21
250.15
 31
0.0
  0
LINE
  5
CF
100
AcDbEntity
  8
ALPHA
100
AcDbLine
 10
43.217382
 20
113.15
 30
0.0
 11
62.717382
 21
113.15
 31
0.0
  0
LINE
  5
D0
100
AcDbEntity
  8
ALPHA
100
AcDbLine
 10
82.717382
 20
113.15
 30
0.0
 11
102.217382
 21
113.15
 31
0.0
  0
LINE
  5
D1
100
AcDbEntity
  8
ALPHA
100
AcDbLine
 10
121.717382
 20
113.15
 30
0.0
 11
125.717321
 21
113.15
 31
0.0
  0
LINE
  5
D2
100
AcDbEntity
  8
ALPHA
100
AcDbLine
 10
125.717321
 20
123.15
 30
0.0
 11
125.717321
 21
178.65
 31
0.0
  0
LINE
  5
D3
100
AcDbEntity
  8
ALPHA
100
AcDbLine
 10
124.217321
 20
242.65
 30
0.0
 11
124.217321
 21
240.15
 31
0.0
  0
LINE
  5
D4
100
AcDbEntity
  8
ALPHA
100
AcDbLine
 10
124.217321
 20
120.65
 30
0.0
 11
124.217321
 21
123.15
 31
0.0
  0
LINE
  5
D5
100
AcDbEntity
  8
ALPHA
100
AcDbLine
 10
125.717321
 20
242.65
 30
0.0
 11
125.717321
 21
250.15
 31
0.0
  0
LINE
  5
D6
100
AcDbEntity
  8
ALPHA
100
AcDbLine
 10
125.717321
 20
113.15
 30
0.0
 11
125.717321
 21
120.65
 31
0.0
  0
LINE
  5
D7
100
AcDbEntity
  8
ALPHA
100
AcDbLine
 10
43.217382
 20
262.65
 30
0.0
 11
43.217382
 21
247.453864
 31
0.0
  0
LINE
  5
D8
100
AcDbEntity
  8
ALPHA
100
AcDbLine
 10
45.612785
 20
242.501074
 30
0.0
 11
43.619159
 21
245.954138
 31
0.0
  0
ARC
  5
D9
100
AcDbEntity
  8
ALPHA
100
AcDbCircle
 10
46.217382
 20
247.453864
 30
0.0
 40
3.0
100
AcDbArc
 50
180.000032
 51
210.000026
  0
LINE
  5
DA
100
AcDbEntity
  8
ALPHA
100
AcDbLine
 10
102.217382
 20
262.65
 30
0.0
 11
102.217382
 21
247.453864
 31
0.0
  0
LINE
  5
DB
100
AcDbEntity
  8
ALPHA
100
AcDbLine
 10
99.821979
 20
242.501074
 30
0.0
 11
101.815589
 21
245.954108
 31
0.0
  0
ARC
  5
DC
100
AcDbEntity
  8
ALPHA
100
AcDbCircle
 10
99.217382
 20
247.453864
 30
0.0
 40
3.0
100
AcDbArc
 50
329.999989
 51
359.999983
  0
LINE
  5
DD
100
AcDbEntity
  8
ALPHA
100
AcDbLine
 10
43.217382
 20
100.65
 30
0.0
 11
43.217382
 21
115.846136
 31
0.0
  0
LINE
  5
DE
100
AcDbEntity
  8
ALPHA
100
AcDbLine
 10
45.612758
 20
120.798933
 30
0.0
 11
43.619363
 21
117.346274
 31
0.0
  0
ARC
  5
DF
100
AcDbEntity
  8
ALPHA
100
AcDbCircle
 10
46.217382
 20
115.846136
 30
0.0
 40
3.0
100
AcDbArc
 50
149.99997
 51
179.999964
  0
LINE
  5
E0
100
AcDbEntity
  8
ALPHA
100
AcDbLine
 10
102.217382
 20
100.65
 30
0.0
 11
102.217382
 21
115.846136
 31
0.0
  0
LINE
  5
E1
100
AcDbEntity
  8
ALPHA
100
AcDbLine
 10
99.822006
 20
120.798933
 30
0.0
 11
101.815401
 21
117.346274
 31
0.0
  0
ARC
  5
E2
100
AcDbEntity
  8
ALPHA
100
AcDbCircle
 10
99.217382
 20
115.846136
 30
0.0
 40
3.0
100
AcDbArc
 50
0.000036
 51
30.000032
  0
LINE
  5
E3
100
AcDbEntity
  8
ALPHA
100
AcDbLine
 10
23.717382
 20
100.65
 30
0.0
 11
43.217382
 21
100.65
 31
0.0
  0
LINE
  5
E4
100
AcDbEntity
  8
ALPHA
100
AcDbLine
 10
23.717382
 20
115.674567
 30
0.0
 11
23.717382
 21
100.65
 31
0.0
  0
CIRCLE
  5
E5
100
AcDbEntity
  8
ALPHA
100
AcDbCircle
 10
35.717382
 20
108.15
 30
0.0
 40
3.3
  0
LINE
  5
E6
100
AcDbEntity
  8
ALPHA
100
AcDbLine
 10
26.596067
 20
117.528685
 30
0.0
 11
29.866319
 21
120.798933
 31
0.0
  0
ARC
  5
E7
100
AcDbEntity
  8
ALPHA
100
AcDbCircle
 10
24.474744
 20
119.65
 30
0.0
 40
3.0
100
AcDbArc
 50
276.353306
 51
315.000046
  0
ARC
  5
E8
100
AcDbEntity
  8
ALPHA
100
AcDbCircle
 10
24.717382
 20
115.674567
 30
0.0
 40
1.0
100
AcDbArc
 50
84.281406
 51
179.999991
  0
LINE
  5
E9
100
AcDbEntity
  8
ALPHA
100
AcDbLine
 10
121.717382
 20
100.65
 30
0.0
 11
102.217382
 21
100.65
 31
0.0
  0
LINE
  5
EA
100
AcDbEntity
  8
ALPHA
100
AcDbLine
 10
121.717382
 20
115.674567
 30
0.0
 11
121.717382
 21
100.65
 31
0.0
  0
CIRCLE
  5
EB
100
AcDbEntity
  8
ALPHA
100
AcDbCircle
 10
109.717382
 20
108.15
 30
0.0
 40
3.3
  0
LINE
  5
EC
100
AcDbEntity
  8
ALPHA
100
AcDbLine
 10
118.838697
 20
117.528685
 30
0.0
 11
115.568445
 21
120.798933
 31
0.0
  0
ARC
  5
ED
100
AcDbEntity
  8
ALPHA
100
AcDbCircle
 10
120.96002
 20
119.65
 30
0.0
 40
3.0
100
AcDbArc
 50
224.999969
 51
263.646695
  0
ARC
  5
EE
100
AcDbEntity
  8
ALPHA
100
AcDbCircle
 10
120.717382
 20
115.674567
 30
0.0
 40
1.0
100
AcDbArc
 50
0.000003
 51
95.718592
  0
LINE
  5
EF
100
AcDbEntity
  8
ALPHA
100
AcDbLine
 10
121.717413
 20
262.649756
 30
0.0
 11
102.217382
 21
262.649756
 31
0.0
  0
LINE
  5
F0
100
AcDbEntity
  8
ALPHA
100
AcDbLine
 10
121.717413
 20
247.625189
 30
0.0
 11
121.717413
 21
262.649756
 31
0.0
  0
CIRCLE
  5
F1
100
AcDbEntity
  8
ALPHA
100
AcDbCircle
 10
109.717413
 20
255.149756
 30
0.0
 40
3.3
  0
LINE
  5
F2
100
AcDbEntity
  8
ALPHA
100
AcDbLine
 10
118.838728
 20
245.771078
 30
0.0
 11
115.568723
 21
242.501074
 31
0.0
  0
ARC
  5
F3
100
AcDbEntity
  8
ALPHA
100
AcDbCircle
 10
120.96005
 20
243.649756
 30
0.0
 40
3.0
100
AcDbArc
 50
96.353294
 51
135.000041
  0
ARC
  5
F4
100
AcDbEntity
  8
ALPHA
100
AcDbCircle
 10
120.717413
 20
247.625189
 30
0.0
 40
1.0
100
AcDbArc
 50
264.281411
 51
0.00001
  0
LINE
  5
F5
100
AcDbEntity
  8
ALPHA
100
AcDbLine
 10
23.717351
 20
262.649756
 30
0.0
 11
43.217382
 21
262.649756
 31
0.0
  0
LINE
  5
F6
100
AcDbEntity
  8
ALPHA
100
AcDbLine
 10
23.717351
 20
247.625189
 30
0.0
 11
23.717351
 21
262.649756
 31
0.0
  0
CIRCLE
  5
F7
100
AcDbEntity
  8
ALPHA
100
AcDbCircle
 10
35.717351
 20
255.149756
 30
0.0
 40
3.3
  0
LINE
  5
F8
100
AcDbEntity
  8
ALPHA
100
AcDbLine
 10
26.596036
 20
245.771078
 30
0.0
 11
29.866041
 21
242.501074
 31
0.0
  0
ARC
  5
F9
100
AcDbEntity
  8
ALPHA
100
AcDbCircle
 10
24.474714
 20
243.649756
 30
0.0
 40
3.0
100
AcDbArc
 50
44.999964
 51
83.646704
  0
ARC
  5
FA
100
AcDbEntity
  8
ALPHA
100
AcDbCircle
 10
24.717351
 20
247.625189
 30
0.0
 40
1.0
100
AcDbArc
 50
180.000005
 51
275.71859
  0
LINE
  5
FB
100
AcDbEntity
  8
ALPHA
100
AcDbLine
 10
82.717382
 20
262.65
 30
0.0
 11
62.717382
 21
262.65
 31
0.0
  0
LINE
  5
FC
100
AcDbEntity
  8
ALPHA
100
AcDbLine
 10
62.717382
 20
247.453848
 30
0.0
 11
62.717382
 21
262.65
 31
0.0
  0
LINE
  5
FD
100
AcDbEntity
  8
ALPHA
100
AcDbLine
 10
82.717382
 20
247.453848
 30
0.0
 11
82.717382
 21
262.65
 31
0.0
  0
CIRCLE
  5
FE
100
AcDbEntity
  8
ALPHA
100
AcDbCircle
 10
72.717382
 20
255.15
 30
0.0
 40
3.3
  0
LINE
  5
FF
100
AcDbEntity
  8
ALPHA
100
AcDbLine
 10
63.119306
 20
245.953848
 30
0.0
 11
65.112764
 21
242.501074
 31
0.0
  0
LINE
  5
100
100
AcDbEntity
  8
ALPHA
100
AcDbLine
 10
82.315458
 20
245.953848
 30
0.0
 11
80.322
 21
242.501074
 31
0.0
  0
ARC
  5
101
100
AcDbEntity
  8
ALPHA
100
AcDbCircle
 10
79.717382
 20
247.453848
 30
0.0
 40
3.0
100
AcDbArc
 50
329.999989
 51
0.00001
  0
ARC
  5
102
100
AcDbEntity
  8
ALPHA
100
AcDbCircle
 10
65.717382
 20
247.453848
 30
0.0
 40
3.0
100
AcDbArc
 50
180.000005
 51
209.999999
  0
LINE
  5
103
100
AcDbEntity
  8
ALPHA
100
AcDbLine
 10
82.717382
 20
100.65
 30
0.0
 11
62.717382
 21
100.65
 31
0.0
  0
LINE
  5
104
100
AcDbEntity
  8
ALPHA
100
AcDbLine
 10
62.717382
 20
115.846152
 30
0.0
 11
62.717382
 21
100.65
 31
0.0
  0
LINE
  5
105
100
AcDbEntity
  8
ALPHA
100
AcDbLine
 10
82.717382
 20
115.846152
 30
0.0
 11
82.717382
 21
100.65
 31
0.0
  0
CIRCLE
  5
106
100
AcDbEntity
  8
ALPHA
100
AcDbCircle
 10
72.717382
 20
108.15
 30
0.0
 40
3.3
  0
LINE
  5
107
100
AcDbEntity
  8
ALPHA
100
AcDbLine
 10
63.119306
 20
117.346152
 30
0.0
 11
65.112771
 21
120.798933
 31
0.0
  0
LINE
  5
108
100
AcDbEntity
  8
ALPHA
100
AcDbLine
 10
82.315458
 20
117.346152
 30
0.0
 11
80.321993
 21
120.798933
 31
0.0
  0
ARC
  5
109
100
AcDbEntity
  8
ALPHA
100
AcDbCircle
 10
79.717382
 20
115.846152
 30
0.0
 40
3.0
100
AcDbArc
 50
0.000003
 51
30.000004
  0
ARC
  5
10A
100
AcDbEntity
  8
ALPHA
100
AcDbCircle
 10
65.717382
 20
115.846152
 30
0.0
 40
3.0
100
AcDbArc
 50
150.000011
 51
180.000005
  0
LINE
  5
10B
100
AcDbEntity
  8
ALPHA
100
AcDbLine
 10
121.259634
 20
120.798933
 30
0.0
 11
24.459646
 21
120.798933
 31
0.0
  0
LINE
  5
10C
100
AcDbEntity
  8
ALPHA
100
AcDbLine
 10
121.259634
 20
242.501074
 30
0.0
 11
24.459646
 21
242.501074
 31
0.0
  0
LINE
  5
10D
100
AcDbEntity
  8
ALPHA
100
AcDbLine
 10
123.259634
 20
122.798933
 30
0.0
 11
123.259634
 21
240.501074
 31
0.0
  0
LINE
  5
10E
100
AcDbEntity
  8
ALPHA
100
AcDbLine
 10
22.459646
 20
122.798933
 30
0.0
 11
22.459646
 21
240.501074
 31
0.0
  0
ARC
  5
10F
100
AcDbEntity
  8
ALPHA
100
AcDbCircle
 10
121.259634
 20
122.798933
 30
0.0
 40
2.0
100
AcDbArc
 50
270.000001
 51
0.00001
  0
ARC
  5
110
100
AcDbEntity
  8
ALPHA
100
AcDbCircle
 10
24.459646
 20
122.798933
 30
0.0
 40
2.0
100
AcDbArc
 50
180.000005
 51
270.000001
  0
ARC
  5
111
100
AcDbEntity
  8
ALPHA
100
AcDbCircle
 10
121.259634
 20
240.501074
 30
0.0
 40
2.0
100
AcDbArc
 50
0.000005
 51
90.000003
  0
ARC
  5
112
100
AcDbEntity
  8
ALPHA
100
AcDbCircle
 10
24.459646
 20
240.501074
 30
0.0
 40
2.0
100
AcDbArc
 50
90.000003
 51
180.000005
  0
LINE
  5
113
100
AcDbEntity
  8
ALPHA
100
AcDbLine
 10
96.559654
 20
242.501074
 30
0.0
 11
96.559652
 21
120.798933
 31
0.0
  0
LINE
  5
114
100
AcDbEntity
  8
ALPHA
100
AcDbLine
 10
24.459646
 20
224.650015
 30
0.0
 11
96.559654
 21
224.650015
 31
0.0
  0
LINE
  5
115
100
AcDbEntity
  8
ALPHA
100
AcDbLine
 10
24.459646
 20
216.650015
 30
0.0
 11
96.559654
 21
216.650015
 31
0.0
  0
LINE
  5
116
100
AcDbEntity
  8
ALPHA
100
AcDbLine
 10
24.459646
 20
216.650015
 30
0.0
 11
24.459646
 21
224.650015
 31
0.0
  0
LINE
  5
117
100
AcDbEntity
  8
ALPHA
100
AcDbLine
 10
47.745443
 20
220.786627
 30
0.0
 11
48.818151
 21
220.786627
 31
0.0
  0
LINE
  5
118
100
AcDbEntity
  8
ALPHA
100
AcDbLine
 10
47.745443
 20
220.397391
 30
0.0
 11
49.313406
 21
220.397391
 31
0.0
  0
LINE
  5
119
100
AcDbEntity
  8
ALPHA
100
AcDbLine
 10
48.720724
 20
220.247687
 30
0.0
 11
49.260671
 21
220.247687
 31
0.0
  0
LWPOLYLINE
  5
11A
100
AcDbEntity
  8
ALPHA
100
AcDbPolyline
 90
        9
 70
     0
 43
0.0
 10
47.745381
 20
220.397383
 10
47.816894
 20
220.277758
 10
47.919113
 20
220.178892
 10
48.045285
 20
220.107316
 10
48.187075
 20
220.067757
 10
48.335117
 20
220.06283
 10
48.479631
 20
220.09286
 10
48.611071
 20
220.155863
 10
48.720754
 20
220.247677
  0
LWPOLYLINE
  5
125
100
AcDbEntity
  8
ALPHA
100
AcDbPolyline
 90
        9
 70
     0
 43
0.0
 10
48.818045
 20
220.78662
 10
48.732088
 20
220.923646
 10
48.606174
 20
221.03125
 10
48.451474
 20
221.099883
 10
48.281713
 20
221.123459
 10
48.111952
 20
221.099883
 10
47.957253
 20
221.03125
 10
47.831338
 20
220.923647
 10
47.745381
 20
220.78662
  0
LINE
  5
130
100
AcDbEntity
  8
ALPHA
100
AcDbLine
 10
40.377264
 20
222.021689
 30
0.0
 11
40.377264
 21
219.716238
 31
0.0
  0
LINE
  5
131
100
AcDbEntity
  8
ALPHA
100
AcDbLine
 10
37.143636
 20
219.716238
 30
0.0
 11
37.697485
 21
219.716238
 31
0.0
  0
LINE
  5
132
100
AcDbEntity
  8
ALPHA
100
AcDbLine
 10
36.387624
 20
222.021689
 30
0.0
 11
38.453497
 21
222.021689
 31
0.0
  0
LINE
  5
133
100
AcDbEntity
  8
ALPHA
100
AcDbLine
 10
40.931127
 20
222.021689
 30
0.0
 11
40.931127
 21
219.716238
 31
0.0
  0
LINE
  5
134
100
AcDbEntity
  8
ALPHA
100
AcDbLine
 10
40.377264
 20
219.716238
 30
0.0
 11
40.931127
 21
219.716238
 31
0.0
  0
LINE
  5
135
100
AcDbEntity
  8
ALPHA
100
AcDbLine
 10
37.697485
 20
221.602515
 30
0.0
 11
37.697485
 21
219.716238
 31
0.0
  0
LINE
  5
136
100
AcDbEntity
  8
ALPHA
100
AcDbLine
 10
37.143636
 20
221.602515
 30
0.0
 11
37.143636
 21
219.716238
 31
0.0
  0
LINE
  5
137
100
AcDbEntity
  8
ALPHA
100
AcDbLine
 10
40.377264
 20
222.021689
 30
0.0
 11
40.931127
 21
222.021689
 31
0.0
  0
LINE
  5
138
100
AcDbEntity
  8
ALPHA
100
AcDbLine
 10
36.387624
 20
221.602515
 30
0.0
 11
37.143636
 21
221.602515
 31
0.0
  0
LINE
  5
139
100
AcDbEntity
  8
ALPHA
100
AcDbLine
 10
38.453497
 20
222.021689
 30
0.0
 11
38.453497
 21
221.602515
 31
0.0
  0
LINE
  5
13A
100
AcDbEntity
  8
ALPHA
100
AcDbLine
 10
37.697485
 20
221.602515
 30
0.0
 11
38.453497
 21
221.602515
 31
0.0
  0
LINE
  5
13B
100
AcDbEntity
  8
ALPHA
100
AcDbLine
 10
36.387624
 20
222.021689
 30
0.0
 11
36.387624
 21
221.602515
 31
0.0
  0
LWPOLYLINE
  5
13C
100
AcDbEntity
  8
ALPHA
100
AcDbPolyline
 90
       15
 70
     0
 43
0.0
 10
40.091521
 20
220.397383
 10
40.089086
 20
220.796196
 10
39.893542
 20
221.156694
 10
39.541583
 20
221.411234
 10
39.099248
 20
221.512053
 10
38.649538
 20
221.440234
 10
38.276836
 20
221.209254
 10
38.051076
 20
220.862452
 10
38.014618
 20
220.464904
 10
38.174304
 20
220.091203
 10
38.500171
 20
219.811473
 10
38.931073
 20
219.6782
 10
39.386155
 20
219.716392
 10
39.780028
 20
219.918883
 10
40.038783
 20
220.247678
  0
LINE
  5
14D
100
AcDbEntity
  8
ALPHA
100
AcDbLine
 10
38.523519
 20
220.786627
 30
0.0
 11
39.596227
 21
220.786627
 31
0.0
  0
LINE
  5
14E
100
AcDbEntity
  8
ALPHA
100
AcDbLine
 10
38.523519
 20
220.397391
 30
0.0
 11
40.091482
 21
220.397391
 31
0.0
  0
LINE
  5
14F
100
AcDbEntity
  8
ALPHA
100
AcDbLine
 10
39.498952
 20
220.247687
 30
0.0
 11
40.038747
 21
220.247687
 31
0.0
  0
LWPOLYLINE
  5
150
100
AcDbEntity
  8
ALPHA
100
AcDbPolyline
 90
        9
 70
     0
 43
0.0
 10
38.523609
 20
220.397383
 10
38.595122
 20
220.277758
 10
38.697341
 20
220.178892
 10
38.823513
 20
220.107316
 10
38.965304
 20
220.067757
 10
39.113346
 20
220.06283
 10
39.25786
 20
220.09286
 10
39.3893
 20
220.155863
 10
39.498983
 20
220.247677
  0
LWPOLYLINE
  5
15B
100
AcDbEntity
  8
ALPHA
100
AcDbPolyline
 90
        9
 70
     0
 43
0.0
 10
39.596274
 20
220.78662
 10
39.510317
 20
220.923646
 10
39.384403
 20
221.03125
 10
39.229703
 20
221.099883
 10
39.059942
 20
221.123459
 10
38.890181
 20
221.099883
 10
38.735481
 20
221.03125
 10
38.609567
 20
220.923647
 10
38.52361
 20
220.78662
  0
LWPOLYLINE
  5
166
100
AcDbEntity
  8
ALPHA
100
AcDbPolyline
 90
       15
 70
     0
 43
0.0
 10
49.313343
 20
220.397586
 10
49.310808
 20
220.796385
 10
49.115188
 20
221.156835
 10
48.763187
 20
221.411309
 10
48.320849
 20
221.512059
 10
47.871168
 20
221.440182
 10
47.498516
 20
221.209166
 10
47.272812
 20
220.862353
 10
47.236404
 20
220.464815
 10
47.396122
 20
220.091141
 10
47.722
 20
219.811441
 10
48.152895
 20
219.678194
 10
48.607959
 20
219.716401
 10
49.001811
 20
219.918893
 10
49.260554
 20
220.247678
  0
LINE
  5
177
100
AcDbEntity
  8
ALPHA
100
AcDbLine
 10
43.565939
 20
221.46778
 30
0.0
 11
43.565939
 21
219.716238
 31
0.0
  0
LINE
  5
178
100
AcDbEntity
  8
ALPHA
100
AcDbLine
 10
44.119955
 20
221.46778
 30
0.0
 11
44.119955
 21
221.359808
 31
0.0
  0
LINE
  5
179
100
AcDbEntity
  8
ALPHA
100
AcDbLine
 10
44.988164
 20
220.737891
 30
0.0
 11
44.988164
 21
219.716238
 31
0.0
  0
LINE
  5
17A
100
AcDbEntity
  8
ALPHA
100
AcDbLine
 10
45.542165
 20
220.737891
 30
0.0
 11
45.542165
 21
219.716238
 31
0.0
  0
LINE
  5
17B
100
AcDbEntity
  8
ALPHA
100
AcDbLine
 10
46.410375
 20
220.737891
 30
0.0
 11
46.410375
 21
219.716238
 31
0.0
  0
LINE
  5
17C
100
AcDbEntity
  8
ALPHA
100
AcDbLine
 10
46.964376
 20
220.858649
 30
0.0
 11
46.964376
 21
219.716238
 31
0.0
  0
LINE
  5
17D
100
AcDbEntity
  8
ALPHA
100
AcDbLine
 10
44.988164
 20
219.716238
 30
0.0
 11
45.542165
 21
219.716238
 31
0.0
  0
LINE
  5
17E
100
AcDbEntity
  8
ALPHA
100
AcDbLine
 10
46.410375
 20
219.716238
 30
0.0
 11
46.964376
 21
219.716238
 31
0.0
  0
LINE
  5
17F
100
AcDbEntity
  8
ALPHA
100
AcDbLine
 10
43.565939
 20
219.716238
 30
0.0
 11
44.119955
 21
219.716238
 31
0.0
  0
ARC
  5
180
100
AcDbEntity
  8
ALPHA
100
AcDbCircle
 10
44.554128
 20
220.6444
 30
0.0
 40
0.47906
100
AcDbArc
 50
51.317783
 51
128.682567
  0
ARC
  5
181
100
AcDbEntity
  8
ALPHA
100
AcDbCircle
 10
45.976339
 20
220.6444
 30
0.0
 40
0.47906
100
AcDbArc
 50
51.317783
 51
128.682567
  0
ARC
  5
182
100
AcDbEntity
  8
ALPHA
100
AcDbCircle
 10
44.479269
 20
220.737891
 30
0.0
 40
0.359295
100
AcDbArc
 50
128.682676
 51
180.000019
  0
ARC
  5
183
100
AcDbEntity
  8
ALPHA
100
AcDbCircle
 10
44.628973
 20
220.737891
 30
0.0
 40
0.359295
100
AcDbArc
 50
0.0
 51
51.317759
  0
ARC
  5
184
100
AcDbEntity
  8
ALPHA
100
AcDbCircle
 10
45.901495
 20
220.737891
 30
0.0
 40
0.359295
100
AcDbArc
 50
128.682676
 51
180.000019
  0
ARC
  5
185
100
AcDbEntity
  8
ALPHA
100
AcDbCircle
 10
46.051199
 20
220.737891
 30
0.0
 40
0.359295
100
AcDbArc
 50
0.0
 51
51.317759
  0
LINE
  5
186
100
AcDbEntity
  8
ALPHA
100
AcDbLine
 10
63.088796
 20
220.786627
 30
0.0
 11
64.161504
 21
220.786627
 31
0.0
  0
LINE
  5
187
100
AcDbEntity
  8
ALPHA
100
AcDbLine
 10
63.088796
 20
220.397391
 30
0.0
 11
64.656759
 21
220.397391
 31
0.0
  0
LINE
  5
188
100
AcDbEntity
  8
ALPHA
100
AcDbLine
 10
64.06423
 20
220.247687
 30
0.0
 11
64.604024
 21
220.247687
 31
0.0
  0
LWPOLYLINE
  5
189
100
AcDbEntity
  8
ALPHA
100
AcDbPolyline
 90
        9
 70
     0
 43
0.0
 10
63.088887
 20
220.397383
 10
63.1604
 20
220.277758
 10
63.262618
 20
220.178892
 10
63.38879
 20
220.107316
 10
63.530581
 20
220.067757
 10
63.678623
 20
220.06283
 10
63.823137
 20
220.09286
 10
63.954577
 20
220.155863
 10
64.06426
 20
220.247677
  0
LWPOLYLINE
  5
194
100
AcDbEntity
  8
ALPHA
100
AcDbPolyline
 90
        9
 70
     0
 43
0.0
 10
64.161551
 20
220.78662
 10
64.075594
 20
220.923646
 10
63.94968
 20
221.03125
 10
63.79498
 20
221.099883
 10
63.625219
 20
221.123459
 10
63.455458
 20
221.099883
 10
63.300758
 20
221.03125
 10
63.174844
 20
220.923647
 10
63.088887
 20
220.78662
  0
LWPOLYLINE
  5
19F
100
AcDbEntity
  8
ALPHA
100
AcDbPolyline
 90
       15
 70
     0
 43
0.0
 10
64.656849
 20
220.397586
 10
64.654314
 20
220.796385
 10
64.458694
 20
221.156835
 10
64.106693
 20
221.411309
 10
63.664355
 20
221.512059
 10
63.214674
 20
221.440182
 10
62.842022
 20
221.209166
 10
62.616318
 20
220.862353
 10
62.579909
 20
220.464815
 10
62.739628
 20
220.091141
 10
63.065506
 20
219.811441
 10
63.496401
 20
219.678194
 10
63.951465
 20
219.716401
 10
64.345317
 20
219.918893
 10
64.60406
 20
220.247678
  0
LWPOLYLINE
  5
1B0
100
AcDbEntity
  8
ALPHA
100
AcDbPolyline
 90
       15
 70
     0
 43
0.0
 10
51.647948
 20
220.789614
 10
51.467304
 20
221.137552
 10
51.140333
 20
221.391595
 10
50.723312
 20
221.508019
 10
50.288013
 20
221.466787
 10
49.909357
 20
221.274996
 10
49.652513
 20
220.965653
 10
49.561688
 20
220.592001
 10
49.652513
 20
220.218349
 10
49.909357
 20
219.909007
 10
50.288014
 20
219.717215
 10
50.723313
 20
219.675983
 10
51.140334
 20
219.792408
 10
51.467304
 20
220.046451
 10
51.647948
 20
220.394389
  0
ARC
  5
1C1
100
AcDbEntity
  8
ALPHA
100
AcDbCircle
 10
50.617116
 20
220.592001
 30
0.0
 40
0.509001
100
AcDbArc
 50
22.844766
 51
337.15524
  0
LINE
  5
1C2
100
AcDbEntity
  8
ALPHA
100
AcDbLine
 10
51.086309
 20
220.3944
 30
0.0
 11
51.648077
 21
220.3944
 31
0.0
  0
LINE
  5
1C3
100
AcDbEntity
  8
ALPHA
100
AcDbLine
 10
51.086309
 20
220.789603
 30
0.0
 11
51.648077
 21
220.789603
 31
0.0
  0
LINE
  5
1C4
100
AcDbEntity
  8
ALPHA
100
AcDbLine
 10
56.897344
 20
221.46778
 30
0.0
 11
56.897344
 21
219.716238
 31
0.0
  0
LINE
  5
1C5
100
AcDbEntity
  8
ALPHA
100
AcDbLine
 10
57.451345
 20
221.46778
 30
0.0
 11
57.451345
 21
219.716238
 31
0.0
  0
LINE
  5
1C6
100
AcDbEntity
  8
ALPHA
100
AcDbLine
 10
56.897344
 20
219.716238
 30
0.0
 11
57.451345
 21
219.716238
 31
0.0
  0
LINE
  5
1C7
100
AcDbEntity
  8
ALPHA
100
AcDbLine
 10
56.897344
 20
222.062109
 30
0.0
 11
56.897344
 21
221.635443
 31
0.0
  0
LINE
  5
1C8
100
AcDbEntity
  8
ALPHA
100
AcDbLine
 10
57.451345
 20
222.062109
 30
0.0
 11
57.451345
 21
221.635443
 31
0.0
  0
LINE
  5
1C9
100
AcDbEntity
  8
ALPHA
100
AcDbLine
 10
59.852514
 20
221.46778
 30
0.0
 11
59.852514
 21
218.976691
 31
0.0
  0
CIRCLE
  5
1CA
100
AcDbEntity
  8
ALPHA
100
AcDbCircle
 10
58.756673
 20
220.592001
 30
0.0
 40
0.534451
  0
LINE
  5
1CB
100
AcDbEntity
  8
ALPHA
100
AcDbLine
 10
59.298666
 20
221.46778
 30
0.0
 11
59.298666
 21
221.378775
 31
0.0
  0
LINE
  5
1CC
100
AcDbEntity
  8
ALPHA
100
AcDbLine
 10
59.298666
 20
218.976691
 30
0.0
 11
59.852514
 21
218.976691
 31
0.0
  0
LWPOLYLINE
  5
1CD
100
AcDbEntity
  8
ALPHA
100
AcDbPolyline
 90
       11
 70
     0
 43
0.0
 10
59.29861
 20
221.378778
 10
58.884415
 20
221.505766
 10
58.447663
 20
221.471393
 10
58.065479
 20
221.281728
 10
57.805354
 20
220.970263
 10
57.713222
 20
220.592001
 10
57.805354
 20
220.213739
 10
58.06548
 20
219.902275
 10
58.447664
 20
219.712609
 10
58.884416
 20
219.678236
 10
59.29861
 20
219.805225
  0
LINE
  5
1DA
100
AcDbEntity
  8
ALPHA
100
AcDbLine
 10
59.298666
 20
219.805228
 30
0.0
 11
59.298666
 21
218.976691
 31
0.0
  0
LINE
  5
1DB
100
AcDbEntity
  8
ALPHA
100
AcDbLine
 10
41.712331
 20
220.786627
 30
0.0
 11
42.784887
 21
220.786627
 31
0.0
  0
LINE
  5
1DC
100
AcDbEntity
  8
ALPHA
100
AcDbLine
 10
41.712331
 20
220.397391
 30
0.0
 11
43.280157
 21
220.397391
 31
0.0
  0
LINE
  5
1DD
100
AcDbEntity
  8
ALPHA
100
AcDbLine
 10
42.687627
 20
220.247687
 30
0.0
 11
43.227422
 21
220.247687
 31
0.0
  0
LWPOLYLINE
  5
1DE
100
AcDbEntity
  8
ALPHA
100
AcDbPolyline
 90
        9
 70
     0
 43
0.0
 10
41.712284
 20
220.397383
 10
41.783797
 20
220.277758
 10
41.886016
 20
220.178892
 10
42.012188
 20
220.107316
 10
42.153979
 20
220.067757
 10
42.302021
 20
220.06283
 10
42.446535
 20
220.09286
 10
42.577975
 20
220.155863
 10
42.687658
 20
220.247677
  0
LWPOLYLINE
  5
1E9
100
AcDbEntity
  8
ALPHA
100
AcDbPolyline
 90
        9
 70
     0
 43
0.0
 10
42.784949
 20
220.78662
 10
42.698992
 20
220.923646
 10
42.573078
 20
221.03125
 10
42.418378
 20
221.099883
 10
42.248617
 20
221.123459
 10
42.078856
 20
221.099883
 10
41.924156
 20
221.03125
 10
41.798242
 20
220.923647
 10
41.712285
 20
220.78662
  0
LWPOLYLINE
  5
1F4
100
AcDbEntity
  8
ALPHA
100
AcDbPolyline
 90
       15
 70
     0
 43
0.0
 10
43.280246
 20
220.397586
 10
43.277711
 20
220.796385
 10
43.082092
 20
221.156835
 10
42.730091
 20
221.411309
 10
42.287753
 20
221.512059
 10
41.838072
 20
221.440182
 10
41.46542
 20
221.209166
 10
41.239716
 20
220.862353
 10
41.203307
 20
220.464815
 10
41.363026
 20
220.091141
 10
41.688904
 20
219.811441
 10
42.119799
 20
219.678194
 10
42.574863
 20
219.716401
 10
42.968715
 20
219.918893
 10
43.227458
 20
220.247678
  0
ARC
  5
205
100
AcDbEntity
  8
ALPHA
100
AcDbCircle
 10
46.066137
 20
220.255164
 30
0.0
 40
1.272503
100
AcDbArc
 50
63.612284
 51
108.126375
  0
ARC
  5
206
100
AcDbEntity
  8
ALPHA
100
AcDbCircle
 10
46.36556
 20
220.858649
 30
0.0
 40
0.598825
100
AcDbArc
 50
0.0
 51
63.612393
  0
ARC
  5
207
100
AcDbEntity
  8
ALPHA
100
AcDbCircle
 10
45.856527
 20
220.895407
 30
0.0
 40
0.598825
100
AcDbArc
 50
108.12643
 51
144.765859
  0
LINE
  5
208
100
AcDbEntity
  8
ALPHA
100
AcDbLine
 10
44.119955
 20
220.737891
 30
0.0
 11
44.119955
 21
219.716238
 31
0.0
  0
ARC
  5
209
100
AcDbEntity
  8
ALPHA
100
AcDbCircle
 10
44.688741
 20
220.479727
 30
0.0
 40
1.047943
100
AcDbArc
 50
69.512638
 51
122.878382
  0
ARC
  5
20A
100
AcDbEntity
  8
ALPHA
100
AcDbCircle
 10
44.79363
 20
220.760199
 30
0.0
 40
0.748531
100
AcDbArc
 50
39.954103
 51
69.512638
  0
LINE
  5
20B
100
AcDbEntity
  8
ALPHA
100
AcDbLine
 10
54.427175
 20
221.46778
 30
0.0
 11
54.427175
 21
219.716238
 31
0.0
  0
LINE
  5
20C
100
AcDbEntity
  8
ALPHA
100
AcDbLine
 10
56.4932
 20
220.852652
 30
0.0
 11
56.4932
 21
219.716238
 31
0.0
  0
LINE
  5
20D
100
AcDbEntity
  8
ALPHA
100
AcDbLine
 10
54.981176
 20
220.712134
 30
0.0
 11
54.981176
 21
219.716238
 31
0.0
  0
LINE
  5
20E
100
AcDbEntity
  8
ALPHA
100
AcDbLine
 10
55.939184
 20
220.712134
 30
0.0
 11
55.939184
 21
219.716238
 31
0.0
  0
LINE
  5
20F
100
AcDbEntity
  8
ALPHA
100
AcDbLine
 10
54.427175
 20
219.716238
 30
0.0
 11
54.981176
 21
219.716238
 31
0.0
  0
LINE
  5
210
100
AcDbEntity
  8
ALPHA
100
AcDbLine
 10
55.939184
 20
219.716238
 30
0.0
 11
56.4932
 21
219.716238
 31
0.0
  0
LINE
  5
211
100
AcDbEntity
  8
ALPHA
100
AcDbLine
 10
54.427175
 20
221.46778
 30
0.0
 11
54.981176
 21
221.46778
 31
0.0
  0
ARC
  5
212
100
AcDbEntity
  8
ALPHA
100
AcDbCircle
 10
55.46018
 20
220.470755
 30
0.0
 40
0.628766
100
AcDbArc
 50
63.612338
 51
116.387953
  0
ARC
  5
213
100
AcDbEntity
  8
ALPHA
100
AcDbCircle
 10
55.580007
 20
220.712134
 30
0.0
 40
0.359295
100
AcDbArc
 50
0.0
 51
63.612502
  0
ARC
  5
214
100
AcDbEntity
  8
ALPHA
100
AcDbCircle
 10
55.340353
 20
220.712134
 30
0.0
 40
0.359295
100
AcDbArc
 50
116.388063
 51
180.000019
  0
LINE
  5
215
100
AcDbEntity
  8
ALPHA
100
AcDbLine
 10
54.981176
 20
221.46778
 30
0.0
 11
54.981176
 21
221.293921
 31
0.0
  0
ARC
  5
216
100
AcDbEntity
  8
ALPHA
100
AcDbCircle
 10
55.594945
 20
220.249182
 30
0.0
 40
1.272503
100
AcDbArc
 50
63.612284
 51
101.537155
  0
ARC
  5
217
100
AcDbEntity
  8
ALPHA
100
AcDbCircle
 10
55.894353
 20
220.852652
 30
0.0
 40
0.598825
100
AcDbArc
 50
0.0
 51
63.612393
  0
ARC
  5
218
100
AcDbEntity
  8
ALPHA
100
AcDbCircle
 10
55.475118
 20
220.835898
 30
0.0
 40
0.673678
100
AcDbArc
 50
101.537319
 51
137.166591
  0
LINE
  5
219
100
AcDbEntity
  8
ALPHA
100
AcDbLine
 10
62.307745
 20
219.716223
 30
0.0
 11
62.307748
 21
221.467749
 31
0.0
  0
LINE
  5
21A
100
AcDbEntity
  8
ALPHA
100
AcDbLine
 10
60.241735
 20
220.331335
 30
0.0
 11
60.241735
 21
221.46778
 31
0.0
  0
LINE
  5
21B
100
AcDbEntity
  8
ALPHA
100
AcDbLine
 10
61.753744
 20
220.471869
 30
0.0
 11
61.753748
 21
221.46778
 31
0.0
  0
LINE
  5
21C
100
AcDbEntity
  8
ALPHA
100
AcDbLine
 10
60.795736
 20
220.471869
 30
0.0
 11
60.795736
 21
221.46778
 31
0.0
  0
LINE
  5
21D
100
AcDbEntity
  8
ALPHA
100
AcDbLine
 10
62.307748
 20
221.467749
 30
0.0
 11
61.753748
 21
221.467749
 31
0.0
  0
LINE
  5
21E
100
AcDbEntity
  8
ALPHA
100
AcDbLine
 10
60.795736
 20
221.467749
 30
0.0
 11
60.241735
 21
221.467749
 31
0.0
  0
LINE
  5
21F
100
AcDbEntity
  8
ALPHA
100
AcDbLine
 10
62.307745
 20
219.716223
 30
0.0
 11
61.753744
 21
219.716223
 31
0.0
  0
ARC
  5
220
100
AcDbEntity
  8
ALPHA
100
AcDbCircle
 10
61.27474
 20
220.713263
 30
0.0
 40
0.628766
100
AcDbArc
 50
243.610253
 51
296.38789
  0
ARC
  5
221
100
AcDbEntity
  8
ALPHA
100
AcDbCircle
 10
61.394552
 20
220.471869
 30
0.0
 40
0.359295
100
AcDbArc
 50
296.387999
 51
359.999955
  0
LINE
  5
222
100
AcDbEntity
  8
ALPHA
100
AcDbLine
 10
61.753744
 20
219.716223
 30
0.0
 11
61.753744
 21
219.890082
 31
0.0
  0
ARC
  5
223
100
AcDbEntity
  8
ALPHA
100
AcDbCircle
 10
61.139974
 20
220.934836
 30
0.0
 40
1.272503
100
AcDbArc
 50
243.612221
 51
281.537092
  0
ARC
  5
224
100
AcDbEntity
  8
ALPHA
100
AcDbCircle
 10
60.840551
 20
220.331351
 30
0.0
 40
0.598825
100
AcDbArc
 50
179.999964
 51
243.612357
  0
ARC
  5
225
100
AcDbEntity
  8
ALPHA
100
AcDbCircle
 10
61.259786
 20
220.348105
 30
0.0
 40
0.673678
100
AcDbArc
 50
281.537256
 51
317.166528
  0
ARC
  5
226
100
AcDbEntity
  8
ALPHA
100
AcDbCircle
 10
61.15505
 20
220.471869
 30
0.0
 40
0.359295
100
AcDbArc
 50
179.999964
 51
243.610062
  0
LINE
  5
227
100
AcDbEntity
  8
ALPHA
100
AcDbLine
 10
43.565939
 20
221.46778
 30
0.0
 11
44.119955
 21
221.46778
 31
0.0
  0
LINE
  5
228
100
AcDbEntity
  8
ALPHA
100
AcDbLine
 10
59.298666
 20
221.46778
 30
0.0
 11
59.852514
 21
221.46778
 31
0.0
  0
LINE
  5
229
100
AcDbEntity
  8
ALPHA
100
AcDbLine
 10
56.897344
 20
221.46778
 30
0.0
 11
57.451345
 21
221.46778
 31
0.0
  0
LINE
  5
22A
100
AcDbEntity
  8
ALPHA
100
AcDbLine
 10
56.897344
 20
221.635443
 30
0.0
 11
57.451345
 21
221.635443
 31
0.0
  0
LINE
  5
22B
100
AcDbEntity
  8
ALPHA
100
AcDbLine
 10
56.897344
 20
222.062109
 30
0.0
 11
57.451345
 21
222.062109
 31
0.0
  0
LINE
  5
22C
100
AcDbEntity
  8
ALPHA
100
AcDbLine
 10
35.707494
 20
223.658575
 30
0.0
 11
65.344366
 21
223.658575
 31
0.0
  0
LINE
  5
22D
100
AcDbEntity
  8
ALPHA
100
AcDbLine
 10
35.707494
 20
217.641302
 30
0.0
 11
65.344366
 21
217.641302
 31
0.0
  0
LINE
  5
22E
100
AcDbEntity
  8
ALPHA
100
AcDbLine
 10
29.459646
 20
217.526022
 30
0.0
 11
65.459646
 21
217.526022
 31
0.0
  0
LINE
  5
22F
100
AcDbEntity
  8
ALPHA
100
AcDbLine
 10
29.459646
 20
223.773856
 30
0.0
 11
65.459646
 21
223.773856
 31
0.0
  0
LINE
  5
230
100
AcDbEntity
  8
ALPHA
100
AcDbLine
 10
35.707494
 20
223.658575
 30
0.0
 11
35.707494
 21
217.641302
 31
0.0
  0
LINE
  5
231
100
AcDbEntity
  8
ALPHA
100
AcDbLine
 10
65.344366
 20
223.658575
 30
0.0
 11
65.344366
 21
217.641302
 31
0.0
  0
LINE
  5
232
100
AcDbEntity
  8
ALPHA
100
AcDbLine
 10
65.459646
 20
223.773856
 30
0.0
 11
65.459646
 21
217.526022
 31
0.0
  0
CIRCLE
  5
233
100
AcDbEntity
  8
ALPHA
100
AcDbCircle
 10
32.583578
 20
220.649939
 30
0.0
 40
2.231371
  0
CIRCLE
  5
234
100
AcDbEntity
  8
ALPHA
100
AcDbCircle
 10
32.583578
 20
220.649939
 30
0.0
 40
1.985919
  0
ARC
  5
235
100
AcDbEntity
  8
ALPHA
100
AcDbCircle
 10
32.583578
 20
220.649939
 30
0.0
 40
1.785097
100
AcDbArc
 50
8.626922
 51
26.743691
  0
ARC
  5
236
100
AcDbEntity
  8
ALPHA
100
AcDbCircle
 10
32.583578
 20
220.649939
 30
0.0
 40
1.338822
100
AcDbArc
 50
11.536958
 51
15.466014
  0
LINE
  5
237
100
AcDbEntity
  8
ALPHA
100
AcDbLine
 10
32.806661
 20
221.810248
 30
0.0
 11
32.806661
 21
221.453223
 31
0.0
  0
LINE
  5
238
100
AcDbEntity
  8
ALPHA
100
AcDbLine
 10
32.360479
 20
221.810248
 30
0.0
 11
32.360479
 21
221.453223
 31
0.0
  0
LINE
  5
239
100
AcDbEntity
  8
ALPHA
100
AcDbLine
 10
31.512472
 20
221.006964
 30
0.0
 11
31.512472
 21
220.739188
 31
0.0
  0
LINE
  5
23A
100
AcDbEntity
  8
ALPHA
100
AcDbLine
 10
33.253011
 20
220.828436
 30
0.0
 11
33.253011
 21
220.739188
 31
0.0
  0
LINE
  5
23B
100
AcDbEntity
  8
ALPHA
100
AcDbLine
 10
33.654668
 20
220.828436
 30
0.0
 11
33.654668
 21
220.20368
 31
0.0
  0
LINE
  5
23C
100
AcDbEntity
  8
ALPHA
100
AcDbLine
 10
31.512472
 20
220.739188
 30
0.0
 11
32.360479
 21
220.739188
 31
0.0
  0
LINE
  5
23D
100
AcDbEntity
  8
ALPHA
100
AcDbLine
 10
30.834554
 20
221.006964
 30
0.0
 11
31.066289
 21
221.006964
 31
0.0
  0
LINE
  5
23E
100
AcDbEntity
  8
ALPHA
100
AcDbLine
 10
30.989385
 20
221.453223
 30
0.0
 11
32.360479
 21
221.453223
 31
0.0
  0
LINE
  5
23F
100
AcDbEntity
  8
ALPHA
100
AcDbLine
 10
31.915609
 20
221.810248
 30
0.0
 11
32.360479
 21
221.810248
 31
0.0
  0
LINE
  5
240
100
AcDbEntity
  8
ALPHA
100
AcDbLine
 10
31.80544
 20
222.256522
 30
0.0
 11
33.3617
 21
222.256522
 31
0.0
  0
LINE
  5
241
100
AcDbEntity
  8
ALPHA
100
AcDbLine
 10
31.512472
 20
220.292929
 30
0.0
 11
32.360479
 21
220.292929
 31
0.0
  0
LINE
  5
242
100
AcDbEntity
  8
ALPHA
100
AcDbLine
 10
30.911459
 20
220.025168
 30
0.0
 11
31.066289
 21
220.025168
 31
0.0
  0
LINE
  5
243
100
AcDbEntity
  8
ALPHA
100
AcDbLine
 10
31.155492
 20
219.578894
 30
0.0
 11
32.360479
 21
219.578894
 31
0.0
  0
LINE
  5
244
100
AcDbEntity
  8
ALPHA
100
AcDbLine
 10
32.271123
 20
219.266501
 30
0.0
 11
32.360479
 21
219.266501
 31
0.0
  0
LINE
  5
245
100
AcDbEntity
  8
ALPHA
100
AcDbLine
 10
32.271123
 20
218.864844
 30
0.0
 11
32.896017
 21
218.864844
 31
0.0
  0
LINE
  5
246
100
AcDbEntity
  8
ALPHA
100
AcDbLine
 10
32.896017
 20
219.266501
 30
0.0
 11
32.896017
 21
218.864844
 31
0.0
  0
LINE
  5
247
100
AcDbEntity
  8
ALPHA
100
AcDbLine
 10
32.271123
 20
219.266501
 30
0.0
 11
32.271123
 21
218.864844
 31
0.0
  0
LINE
  5
248
100
AcDbEntity
  8
ALPHA
100
AcDbLine
 10
32.806661
 20
219.266501
 30
0.0
 11
32.896017
 21
219.266501
 31
0.0
  0
LINE
  5
249
100
AcDbEntity
  8
ALPHA
100
AcDbLine
 10
32.806661
 20
219.578894
 30
0.0
 11
34.011648
 21
219.578894
 31
0.0
  0
LINE
  5
24A
100
AcDbEntity
  8
ALPHA
100
AcDbLine
 10
32.360479
 20
219.578894
 30
0.0
 11
32.360479
 21
219.266501
 31
0.0
  0
LINE
  5
24B
100
AcDbEntity
  8
ALPHA
100
AcDbLine
 10
32.806661
 20
219.578894
 30
0.0
 11
32.806661
 21
219.266501
 31
0.0
  0
LINE
  5
24C
100
AcDbEntity
  8
ALPHA
100
AcDbLine
 10
32.360479
 20
220.292929
 30
0.0
 11
32.360479
 21
220.025168
 31
0.0
  0
LINE
  5
24D
100
AcDbEntity
  8
ALPHA
100
AcDbLine
 10
32.806661
 20
220.292929
 30
0.0
 11
32.806661
 21
220.025168
 31
0.0
  0
LINE
  5
24E
100
AcDbEntity
  8
ALPHA
100
AcDbLine
 10
31.512472
 20
220.292929
 30
0.0
 11
31.512472
 21
220.025168
 31
0.0
  0
LINE
  5
24F
100
AcDbEntity
  8
ALPHA
100
AcDbLine
 10
32.806661
 20
220.025168
 30
0.0
 11
33.767751
 21
220.025168
 31
0.0
  0
LINE
  5
250
100
AcDbEntity
  8
ALPHA
100
AcDbLine
 10
32.806661
 20
220.292929
 30
0.0
 11
33.253011
 21
220.292929
 31
0.0
  0
LINE
  5
251
100
AcDbEntity
  8
ALPHA
100
AcDbLine
 10
32.360479
 20
221.006964
 30
0.0
 11
32.360479
 21
220.739188
 31
0.0
  0
LINE
  5
252
100
AcDbEntity
  8
ALPHA
100
AcDbLine
 10
32.806661
 20
221.006964
 30
0.0
 11
33.873952
 21
221.006964
 31
0.0
  0
LINE
  5
253
100
AcDbEntity
  8
ALPHA
100
AcDbLine
 10
32.806661
 20
220.739188
 30
0.0
 11
33.253011
 21
220.739188
 31
0.0
  0
LINE
  5
254
100
AcDbEntity
  8
ALPHA
100
AcDbLine
 10
31.512472
 20
221.006964
 30
0.0
 11
32.360479
 21
221.006964
 31
0.0
  0
LINE
  5
255
100
AcDbEntity
  8
ALPHA
100
AcDbLine
 10
31.512472
 20
220.025168
 30
0.0
 11
32.360479
 21
220.025168
 31
0.0
  0
ARC
  5
256
100
AcDbEntity
  8
ALPHA
100
AcDbCircle
 10
32.583578
 20
220.649939
 30
0.0
 40
1.785097
100
AcDbArc
 50
200.487321
 51
216.869885
  0
ARC
  5
257
100
AcDbEntity
  8
ALPHA
100
AcDbCircle
 10
32.583578
 20
220.649939
 30
0.0
 40
1.785097
100
AcDbArc
 50
153.256276
 51
168.46301
  0
ARC
  5
258
100
AcDbEntity
  8
ALPHA
100
AcDbCircle
 10
32.583578
 20
220.649939
 30
0.0
 40
1.785097
100
AcDbArc
 50
323.130102
 51
342.542402
  0
LINE
  5
259
100
AcDbEntity
  8
ALPHA
100
AcDbLine
 10
31.066289
 20
221.006964
 30
0.0
 11
31.066289
 21
220.025168
 31
0.0
  0
ARC
  5
25A
100
AcDbEntity
  8
ALPHA
100
AcDbCircle
 10
32.583578
 20
220.649939
 30
0.0
 40
1.785097
100
AcDbArc
 50
115.841975
 51
143.130111
  0
ARC
  5
25B
100
AcDbEntity
  8
ALPHA
100
AcDbCircle
 10
32.583578
 20
220.649939
 30
0.0
 40
1.785097
100
AcDbArc
 50
36.869897
 51
64.158043
  0
LINE
  5
25C
100
AcDbEntity
  8
ALPHA
100
AcDbLine
 10
32.806661
 20
221.810248
 30
0.0
 11
33.251546
 21
221.810248
 31
0.0
  0
LINE
  5
25D
100
AcDbEntity
  8
ALPHA
100
AcDbLine
 10
33.253011
 20
220.828436
 30
0.0
 11
33.654668
 21
220.828436
 31
0.0
  0
LINE
  5
25E
100
AcDbEntity
  8
ALPHA
100
AcDbLine
 10
33.253011
 20
220.20368
 30
0.0
 11
33.654668
 21
220.20368
 31
0.0
  0
LINE
  5
25F
100
AcDbEntity
  8
ALPHA
100
AcDbLine
 10
33.253011
 20
220.292929
 30
0.0
 11
33.253011
 21
220.20368
 31
0.0
  0
LINE
  5
260
100
AcDbEntity
  8
ALPHA
100
AcDbLine
 10
32.806661
 20
221.006964
 30
0.0
 11
32.806661
 21
220.739188
 31
0.0
  0
LINE
  5
261
100
AcDbEntity
  8
ALPHA
100
AcDbLine
 10
33.810674
 20
220.114417
 30
0.0
 11
34.286459
 21
220.114417
 31
0.0
  0
LINE
  5
262
100
AcDbEntity
  8
ALPHA
100
AcDbLine
 10
33.895345
 20
220.9177
 30
0.0
 11
34.348409
 21
220.9177
 31
0.0
  0
LINE
  5
263
100
AcDbEntity
  8
ALPHA
100
AcDbLine
 10
33.386892
 20
221.720999
 30
0.0
 11
34.011648
 21
221.720999
 31
0.0
  0
LINE
  5
264
100
AcDbEntity
  8
ALPHA
100
AcDbLine
 10
31.155492
 20
221.720999
 30
0.0
 11
31.780248
 21
221.720999
 31
0.0
  0
LINE
  5
265
100
AcDbEntity
  8
ALPHA
100
AcDbLine
 10
32.806661
 20
221.453223
 30
0.0
 11
34.177755
 21
221.453223
 31
0.0
  0
ARC
  5
266
100
AcDbEntity
  8
ALPHA
100
AcDbCircle
 10
32.583578
 20
220.649939
 30
0.0
 40
1.338822
100
AcDbArc
 50
119.926483
 51
126.86989
  0
ARC
  5
267
100
AcDbEntity
  8
ALPHA
100
AcDbCircle
 10
32.583578
 20
220.649939
 30
0.0
 40
1.338822
100
AcDbArc
 50
53.130085
 51
60.073535
  0
ARC
  5
268
100
AcDbEntity
  8
ALPHA
100
AcDbCircle
 10
32.583578
 20
220.649939
 30
0.0
 40
1.338822
100
AcDbArc
 50
332.181852
 51
336.421815
  0
LINE
  5
269
100
AcDbEntity
  8
ALPHA
100
AcDbLine
 10
29.459646
 20
217.526022
 30
0.0
 11
29.459646
 21
223.773856
 31
0.0
  0
LINE
  5
26A
100
AcDbEntity
  8
ALPHA
100
AcDbLine
 10
54.023031
 20
220.824789
 30
0.0
 11
54.023031
 21
219.716238
 31
0.0
  0
LINE
  5
26B
100
AcDbEntity
  8
ALPHA
100
AcDbLine
 10
53.469015
 20
220.54476
 30
0.0
 11
53.469015
 21
220.257086
 31
0.0
  0
LINE
  5
26C
100
AcDbEntity
  8
ALPHA
100
AcDbLine
 10
53.469015
 20
219.716238
 30
0.0
 11
54.023031
 21
219.716238
 31
0.0
  0
ARC
  5
26D
100
AcDbEntity
  8
ALPHA
100
AcDbCircle
 10
52.982549
 20
219.39437
 30
0.0
 40
2.095887
100
AcDbArc
 50
72.842438
 51
101.469509
  0
ARC
  5
26E
100
AcDbEntity
  8
ALPHA
100
AcDbCircle
 10
53.4242
 20
220.824789
 30
0.0
 40
0.598825
100
AcDbArc
 50
0.0
 51
72.842438
  0
LINE
  5
26F
100
AcDbEntity
  8
ALPHA
100
AcDbLine
 10
51.987035
 20
220.868964
 30
0.0
 11
52.473516
 21
220.868964
 31
0.0
  0
ARC
  5
270
100
AcDbEntity
  8
ALPHA
100
AcDbCircle
 10
52.511007
 20
220.868964
 30
0.0
 40
0.523972
100
AcDbArc
 50
123.565335
 51
180.000019
  0
ARC
  5
271
100
AcDbEntity
  8
ALPHA
100
AcDbCircle
 10
52.759298
 20
220.494742
 30
0.0
 40
0.97309
100
AcDbArc
 50
101.469509
 51
123.565335
  0
LINE
  5
272
100
AcDbEntity
  8
ALPHA
100
AcDbLine
 10
53.469015
 20
219.892447
 30
0.0
 11
53.469015
 21
219.716238
 31
0.0
  0
ARC
  5
273
100
AcDbEntity
  8
ALPHA
100
AcDbCircle
 10
52.653249
 20
220.868964
 30
0.0
 40
0.179648
100
AcDbArc
 50
134.09918
 51
180.000019
  0
ARC
  5
274
100
AcDbEntity
  8
ALPHA
100
AcDbCircle
 10
52.990011
 20
220.16535
 30
0.0
 40
0.97309
100
AcDbArc
 50
70.423403
 51
109.639945
  0
ARC
  5
275
100
AcDbEntity
  8
ALPHA
100
AcDbCircle
 10
52.788747
 20
220.72933
 30
0.0
 40
0.374266
100
AcDbArc
 50
109.639945
 51
134.180924
  0
ARC
  5
276
100
AcDbEntity
  8
ALPHA
100
AcDbCircle
 10
53.165655
 20
220.659018
 30
0.0
 40
0.449119
100
AcDbArc
 50
55.411802
 51
70.423403
  0
ARC
  5
277
100
AcDbEntity
  8
ALPHA
100
AcDbCircle
 10
53.094747
 20
222.366019
 30
0.0
 40
1.571915
100
AcDbArc
 50
263.312453
 51
278.890038
  0
ARC
  5
278
100
AcDbEntity
  8
ALPHA
100
AcDbCircle
 10
53.302908
 20
221.034827
 30
0.0
 40
0.224559
100
AcDbArc
 50
278.851243
 51
298.677643
  0
ARC
  5
279
100
AcDbEntity
  8
ALPHA
100
AcDbCircle
 10
53.356817
 20
220.936316
 30
0.0
 40
0.11228
100
AcDbArc
 50
298.677588
 51
55.411832
  0
ARC
  5
27A
100
AcDbEntity
  8
ALPHA
100
AcDbCircle
 10
52.720495
 20
219.16918
 30
0.0
 40
1.646769
100
AcDbArc
 50
83.312899
 51
102.239517
  0
ARC
  5
27B
100
AcDbEntity
  8
ALPHA
100
AcDbCircle
 10
52.436163
 20
220.247687
 30
0.0
 40
0.523972
100
AcDbArc
 50
121.643156
 51
226.388642
  0
ARC
  5
27C
100
AcDbEntity
  8
ALPHA
100
AcDbCircle
 10
52.514669
 20
220.120245
 30
0.0
 40
0.673678
100
AcDbArc
 50
102.15832
 51
121.643156
  0
ARC
  5
27D
100
AcDbEntity
  8
ALPHA
100
AcDbCircle
 10
52.720495
 20
221.235739
 30
0.0
 40
1.571915
100
AcDbArc
 50
258.372478
 51
289.783206
  0
ARC
  5
27E
100
AcDbEntity
  8
ALPHA
100
AcDbCircle
 10
52.539571
 20
220.355948
 30
0.0
 40
0.673678
100
AcDbArc
 50
226.254729
 51
258.372478
  0
ARC
  5
27F
100
AcDbEntity
  8
ALPHA
100
AcDbCircle
 10
53.049932
 20
220.32009
 30
0.0
 40
0.598825
100
AcDbArc
 50
289.783206
 51
314.427021
  0
ARC
  5
280
100
AcDbEntity
  8
ALPHA
100
AcDbCircle
 10
52.847784
 20
221.101004
 30
0.0
 40
1.047943
100
AcDbArc
 50
254.119838
 51
306.360021
  0
ARC
  5
281
100
AcDbEntity
  8
ALPHA
100
AcDbCircle
 10
52.600805
 20
220.232718
 30
0.0
 40
0.145195
100
AcDbArc
 50
120.410334
 51
254.119866
  0
ARC
  5
282
100
AcDbEntity
  8
ALPHA
100
AcDbCircle
 10
52.802953
 20
218.765585
 30
0.0
 40
1.646769
100
AcDbArc
 50
84.72112
 51
93.88248
  0
ARC
  5
283
100
AcDbEntity
  8
ALPHA
100
AcDbCircle
 10
52.71668
 20
220.035178
 30
0.0
 40
0.374266
100
AcDbArc
 50
93.88248
 51
120.410388
  0
ARC
  5
284
100
AcDbEntity
  8
ALPHA
100
AcDbCircle
 10
53.049932
 20
221.44895
 30
0.0
 40
1.047943
100
AcDbArc
 50
264.710074
 51
285.826669
  0
ARC
  5
285
100
AcDbEntity
  8
ALPHA
100
AcDbCircle
 10
53.274496
 20
220.656775
 30
0.0
 40
0.224559
100
AcDbArc
 50
285.826669
 51
330.073563
  0
LINE
  5
286
100
AcDbEntity
  8
ALPHA
100
AcDbLine
 10
96.85964
 20
215.15
 30
0.0
 11
120.85964
 21
215.15
 31
0.0
  0
LINE
  5
287
100
AcDbEntity
  8
ALPHA
100
AcDbLine
 10
96.85964
 20
207.15
 30
0.0
 11
120.85964
 21
207.15
 31
0.0
  0
LINE
  5
288
100
AcDbEntity
  8
ALPHA
100
AcDbLine
 10
96.85964
 20
207.15
 30
0.0
 11
96.85964
 21
215.15
 31
0.0
  0
LINE
  5
289
100
AcDbEntity
  8
ALPHA
100
AcDbLine
 10
120.85964
 20
207.15
 30
0.0
 11
120.85964
 21
215.15
 31
0.0
  0
INSERT
  5
2CE
100
AcDbEntity
  8
0
100
AcDbBlockReference
  2
SCH_ISO
 10
0.0
 20
0.0
 30
0.0
  0
DIMENSION
  5
2E8
100
AcDbEntity
  8
COTATION1
100
AcDbDimension
  2
*D16
 10
43.217382
 20
278.025
 30
0.0
 11
33.467367
 21
280.525
 31
0.0
  3
SC_STAND
100
AcDbAlignedDimension
 13
23.717351
 23
262.649756
 33
0.0
 14
43.217382
 24
262.649756
 34
0.0
100
AcDbRotatedDimension
  0
DIMENSION
  5
2F7
100
AcDbEntity
  8
COTATION1
100
AcDbDimension
  2
*D15
 10
6.217382
 20
70.675
 30
0.0
 11
20.967382
 21
73.175
 31
0.0
  3
SC_STAND
100
AcDbAlignedDimension
 13
35.717382
 23
108.15
 33
0.0
 14
6.217382
 24
127.650002
 34
0.0
100
AcDbRotatedDimension
  0
DIMENSION
  5
304
100
AcDbEntity
  8
COTATION1
100
AcDbDimension
  2
*D14
 10
72.717382
 20
70.675
 30
0.0
 11
54.217382
 21
73.175
 31
0.0
  3
SC_STAND
100
AcDbAlignedDimension
 13
35.717382
 23
108.15
 33
0.0
 14
72.717382
 24
108.15
 34
0.0
100
AcDbRotatedDimension
  0
DIMENSION
  5
305
100
AcDbEntity
  8
COTATION1
100
AcDbDimension
  2
*D13
 10
109.717382
 20
70.675
 30
0.0
 11
91.217382
 21
73.175
 31
0.0
  3
SC_STAND
100
AcDbAlignedDimension
 13
72.717382
 23
108.15
 33
0.0
 14
109.717382
 24
108.15
 34
0.0
100
AcDbRotatedDimension
  0
DIMENSION
  5
31E
100
AcDbEntity
  8
COTATION1
100
AcDbDimension
  2
*D12
 10
169.717321
 20
70.675
 30
0.0
 11
139.717352
 21
73.175
 31
0.0
  3
SC_STAND
100
AcDbAlignedDimension
 13
109.717382
 23
70.495
 33
0.0
 14
169.717321
 24
120.65
 34
0.0
100
AcDbRotatedDimension
  0
DIMENSION
  5
336
100
AcDbEntity
  8
COTATION1
100
AcDbDimension
  2
*D11
 10
169.717321
 20
57.475
 30
0.0
 11
87.967352
 21
59.975
 31
0.0
  3
SC_STAND
100
AcDbAlignedDimension
 13
6.217382
 23
127.650002
 33
0.0
 14
169.717321
 24
120.65
 34
0.0
100
AcDbRotatedDimension
  0
DIMENSION
  5
343
100
AcDbEntity
  8
COTATION1
100
AcDbDimension
  2
*D10
 10
194.042
 20
255.149756
 30
0.0
 11
191.542
 21
181.649878
 31
0.0
  3
SC_STAND
100
AcDbAlignedDimension
 13
109.717382
 23
108.15
 33
0.0
 14
109.717413
 24
255.149756
 34
0.0
 50
90.0
100
AcDbRotatedDimension
  0
ENDSEC
  0
SECTION
  2
OBJECTS
  0
DICTIONARY
  5
3A0
100
AcDbDictionary
  3
ACAD_GROUP
350
3A1
  3
ACAD_MLINESTYLE
350
3AE
  3
ACDBVARIABLEDICTIONARY
350
3F9
  0
DICTIONARY
  5
3A1
102
{ACAD_REACTORS
330
3A0
102
}
100
AcDbDictionary
  0
DICTIONARY
  5
3AE
102
{ACAD_REACTORS
330
3A0
102
}
100
AcDbDictionary
  3
STANDARD
350
3AF
  0
DICTIONARY
  5
3F9
102
{ACAD_REACTORS
330
3A0
102
}
100
AcDbDictionary
  3
DIMADEC
350
3FA
  0
MLINESTYLE
  5
3AF
102
{ACAD_REACTORS
330
3AE
102
}
100
AcDbMlineStyle
  2
STANDARD
 70
     0
  3

 62
   256
 51
90.0
 52
90.0
 71
     2
 49
0.5
 62
   256
  6
BYLAYER
 49
-0.5
 62
   256
  6
BYLAYER
  0
DICTIONARYVAR
  5
3FA
102
{ACAD_REACTORS
330
3F9
102
}
100
DictionaryVariables
280
     0
  1
0
  0
ENDSEC
  0
EOF
