  0
SECTION
  2
HEADER
  9
$ACADVER
  1
AC1012
  9
$DWGCODEPAGE
  3
ANSI_1252
  9
$INSBASE
 10
0.0
 20
0.0
 30
0.0
  9
$EXTMIN
 10
4.641503
 20
4.021155
 30
-0.001526
  9
$EXTMAX
 10
127.650321
 20
212.791744
 30
0.0
  9
$LIMMIN
 10
19.077216
 20
43.616976
  9
$LIMMAX
 10
194.084622
 20
146.65737
  9
$ORTHOMODE
 70
     0
  9
$REGENMODE
 70
     1
  9
$FILLMODE
 70
     1
  9
$QTEXTMODE
 70
     0
  9
$MIRRTEXT
 70
     1
  9
$DRAGMODE
 70
     2
  9
$LTSCALE
 40
10.0
  9
$OSMODE
 70
    37
  9
$ATTMODE
 70
     1
  9
$TEXTSIZE
 40
0.2
  9
$TRACEWID
 40
0.05
  9
$TEXTSTYLE
  7
STANDARD
  9
$CLAYER
  8
ALPHA
  9
$CELTYPE
  6
CONTINUOUS
  9
$CECOLOR
 62
   256
  9
$CELTSCALE
 40
1.0
  9
$DELOBJ
 70
     1
  9
$DISPSILH
 70
     0
  9
$DIMSCALE
 40
1.0
  9
$DIMASZ
 40
0.18
  9
$DIMEXO
 40
0.0625
  9
$DIMDLI
 40
0.38
  9
$DIMRND
 40
0.0
  9
$DIMDLE
 40
0.0
  9
$DIMEXE
 40
0.18
  9
$DIMTP
 40
0.0
  9
$DIMTM
 40
0.0
  9
$DIMTXT
 40
0.18
  9
$DIMCEN
 40
0.09
  9
$DIMTSZ
 40
0.0
  9
$DIMTOL
 70
     0
  9
$DIMLIM
 70
     0
  9
$DIMTIH
 70
     1
  9
$DIMTOH
 70
     1
  9
$DIMSE1
 70
     0
  9
$DIMSE2
 70
     0
  9
$DIMTAD
 70
     0
  9
$DIMZIN
 70
     0
  9
$DIMBLK
  1

  9
$DIMASO
 70
     1
  9
$DIMSHO
 70
     1
  9
$DIMPOST
  1

  9
$DIMAPOST
  1

  9
$DIMALT
 70
     0
  9
$DIMALTD
 70
     2
  9
$DIMALTF
 40
25.4
  9
$DIMLFAC
 40
1.0
  9
$DIMTOFL
 70
     0
  9
$DIMTVP
 40
0.0
  9
$DIMTIX
 70
     0
  9
$DIMSOXD
 70
     0
  9
$DIMSAH
 70
     0
  9
$DIMBLK1
  1

  9
$DIMBLK2
  1

  9
$DIMSTYLE
  2
STANDARD
  9
$DIMCLRD
 70
     0
  9
$DIMCLRE
 70
     0
  9
$DIMCLRT
 70
     0
  9
$DIMTFAC
 40
1.0
  9
$DIMGAP
 40
0.09
  9
$DIMJUST
 70
     0
  9
$DIMSD1
 70
     0
  9
$DIMSD2
 70
     0
  9
$DIMTOLJ
 70
     1
  9
$DIMTZIN
 70
     0
  9
$DIMALTZ
 70
     0
  9
$DIMALTTZ
 70
     0
  9
$DIMFIT
 70
     3
  9
$DIMUPT
 70
     0
  9
$DIMUNIT
 70
     2
  9
$DIMDEC
 70
     4
  9
$DIMTDEC
 70
     4
  9
$DIMALTU
 70
     2
  9
$DIMALTTD
 70
     2
  9
$DIMTXSTY
  7
STANDARD
  9
$DIMAUNIT
 70
     0
  9
$LUNITS
 70
     2
  9
$LUPREC
 70
     4
  9
$SKETCHINC
 40
0.1
  9
$FILLETRAD
 40
0.0
  9
$AUNITS
 70
     0
  9
$AUPREC
 70
     0
  9
$MENU
  1
acad
  9
$ELEVATION
 40
0.0
  9
$PELEVATION
 40
0.0
  9
$THICKNESS
 40
0.0
  9
$LIMCHECK
 70
     0
  9
$BLIPMODE
 70
     0
  9
$CHAMFERA
 40
0.0
  9
$CHAMFERB
 40
0.0
  9
$CHAMFERC
 40
0.0
  9
$CHAMFERD
 40
0.0
  9
$SKPOLY
 70
     0
  9
$TDCREATE
 40
2453634.413430799
  9
$TDUPDATE
 40
2453893.725060486
  9
$TDINDWG
 40
1.8106656713
  9
$TDUSRTIMER
 40
1.8106645833
  9
$USRTIMER
 70
     1
  9
$ANGBASE
 50
0.0
  9
$ANGDIR
 70
     0
  9
$PDMODE
 70
     0
  9
$PDSIZE
 40
0.0
  9
$PLINEWID
 40
0.0
  9
$COORDS
 70
     1
  9
$SPLFRAME
 70
     0
  9
$SPLINETYPE
 70
     6
  9
$SPLINESEGS
 70
     8
  9
$ATTDIA
 70
     0
  9
$ATTREQ
 70
     1
  9
$HANDLING
 70
     1
  9
$HANDSEED
  5
1257C
  9
$SURFTAB1
 70
     6
  9
$SURFTAB2
 70
     6
  9
$SURFTYPE
 70
     6
  9
$SURFU
 70
     6
  9
$SURFV
 70
     6
  9
$UCSNAME
  2

  9
$UCSORG
 10
0.0
 20
0.0
 30
0.0
  9
$UCSXDIR
 10
1.0
 20
0.0
 30
0.0
  9
$UCSYDIR
 10
0.0
 20
1.0
 30
0.0
  9
$PUCSNAME
  2

  9
$PUCSORG
 10
0.0
 20
0.0
 30
0.0
  9
$PUCSXDIR
 10
1.0
 20
0.0
 30
0.0
  9
$PUCSYDIR
 10
0.0
 20
1.0
 30
0.0
  9
$USERI1
 70
     0
  9
$USERI2
 70
     0
  9
$USERI3
 70
     0
  9
$USERI4
 70
     0
  9
$USERI5
 70
     0
  9
$USERR1
 40
0.0
  9
$USERR2
 40
0.0
  9
$USERR3
 40
0.0
  9
$USERR4
 40
0.0
  9
$USERR5
 40
0.0
  9
$WORLDVIEW
 70
     1
  9
$SHADEDGE
 70
     3
  9
$SHADEDIF
 70
    70
  9
$TILEMODE
 70
     1
  9
$MAXACTVP
 70
    16
  9
$PINSBASE
 10
0.0
 20
0.0
 30
0.0
  9
$PLIMCHECK
 70
     0
  9
$PEXTMIN
 10
1.000000E+20
 20
1.000000E+20
 30
1.000000E+20
  9
$PEXTMAX
 10
-1.000000E+20
 20
-1.000000E+20
 30
-1.000000E+20
  9
$PLIMMIN
 10
0.0
 20
0.0
  9
$PLIMMAX
 10
12.0
 20
9.0
  9
$UNITMODE
 70
     0
  9
$VISRETAIN
 70
     0
  9
$PLINEGEN
 70
     1
  9
$PSLTSCALE
 70
     0
  9
$TREEDEPTH
 70
  3020
  9
$PICKSTYLE
 70
     0
  9
$CMLSTYLE
  2
STANDARD
  9
$CMLJUST
 70
     0
  9
$CMLSCALE
 40
1.0
  9
$SAVEIMAGES
 70
     0
  0
ENDSEC
  0
SECTION
  2
CLASSES
  0
CLASS
  1
LWPOLYLINE
  2
AcDbPolyline
  3
"AutoCAD"
 90
    32768
280
     0
281
     1
  0
CLASS
  1
IMAGE
  2
AcDbRasterImage
  3
ISM
 90
    32895
280
     0
281
     1
  0
CLASS
  1
OLE2FRAME
  2
AcDbOle2Frame
  3
""
 90
    32768
280
     0
281
     1
  0
CLASS
  1
HATCH
  2
AcDbHatch
  3
"ACAD_SEDONA"
 90
    32768
280
     0
281
     1
  0
CLASS
  1
DICTIONARYVAR
  2
AcDbDictionaryVar
  3
"AutoCAD"
 90
    32768
280
     0
281
     0
  0
CLASS
  1
RASTERVARIABLES
  2
AcDbRasterVariables
  3
ISM
 90
    32768
280
     0
281
     0
  0
CLASS
  1
IMAGEDEF
  2
AcDbRasterImageDef
  3
ISM
 90
    32768
280
     0
281
     0
  0
CLASS
  1
IMAGEDEF_REACTOR
  2
AcDbRasterImageDefReactor
  3
ISM
 90
    32769
280
     0
281
     0
  0
CLASS
  1
SPATIAL_FILTER
  2
AcDbSpatialFilter
  3
"Acad"
 90
    32768
280
     0
281
     0
  0
CLASS
  1
XRECORD
  2
AcDbXrecord
  3
"<Built In>"
 90
    32768
280
     0
281
     0
  0
CLASS
  1
SORTENTSTABLE
  2
AcDbSortentsTable
  3
"AutoCAD"
 90
    32768
280
     0
281
     0
  0
CLASS
  1
LAYER_INDEX
  2
AcDbLayerIndex
  3
"Acad"
 90
    32768
280
     0
281
     0
  0
CLASS
  1
SPATIAL_INDEX
  2
AcDbSpatialIndex
  3
"Acad"
 90
    32768
280
     0
281
     0
  0
CLASS
  1
OBJECT_PTR
  2
CAseDLPNTableRecord
  3
ASE-LPNTableRecord
 90
    32769
280
     0
281
     0
  0
CLASS
  1
LAYOUT
  2
AcDbLayout
  3
AutoCAD 2000
 90
    32768
280
     0
281
     0
  0
CLASS
  1
PLOTSETTINGS
  2
AcDbPlotSettings
  3
AutoCAD 2000
 90
    32768
280
     0
281
     0
  0
CLASS
  1
ACDBDICTIONARYWDFLT
  2
AcDbDictionaryWithDefault
  3
AutoCAD 2000
 90
    32768
280
     0
281
     0
  0
CLASS
  1
ACDBPLACEHOLDER
  2
AcDbPlaceHolder
  3
AutoCAD 2000
 90
    32768
280
     0
281
     0
  0
CLASS
  1
VBA_PROJECT
  2
AcDbVbaProject
  3
acad
 90
    32768
280
     0
281
     0
  0
CLASS
  1
WIPEOUT
  2
AcDbWipeout
  3
WipeOut|AutoCAD Express Tool|expresstools@autodesk.com
 90
    32895
280
     0
281
     1
  0
CLASS
  1
WIPEOUTVARIABLES
  2
AcDbWipeoutVariables
  3
WipeOut|AutoCAD Express Tool|expresstools@autodesk.com
 90
    32768
280
     0
281
     0
  0
CLASS
  1
RTEXT
  2
RText
  3
RText|AutoCAD Express Tool|expresstools@autodesk.com
 90
    32768
280
     0
281
     1
  0
CLASS
  1
ARCALIGNEDTEXT
  2
AcDbArcAlignedText
  3
ATEXT|AutoCAD Express Tool|expresstools@autodesk.com
 90
    32768
280
     0
281
     1
  0
CLASS
  1
TABLESTYLE
  2
AcDbTableStyle
  3
ObjectDBX Classes
 90
    34815
280
     0
281
     0
  0
CLASS
  1
ACAD_PROXY_OBJECT_WRAPPER
  2
AcDbProxyObjectWrapper
  3
AutoCAD 2000
 90
    32768
280
     0
281
     0
  0
CLASS
  1
LONG_TRANSACTION
  2
AcDbLongTransaction
  3
AutoCAD 2000
 90
    32768
280
     0
281
     0
  0
CLASS
  1
LWPOLYLINE
  2
AcDbPolyline
  3
"AutoCAD"
 90
    32768
280
     0
281
     1
  0
CLASS
  1
HATCH
  2
AcDbHatch
  3
"ACAD_SEDONA"
 90
    32768
280
     0
281
     1
  0
CLASS
  1
XRECORD
  2
AcDbXrecord
  3
"<Built In>"
 90
    32768
280
     0
281
     0
  0
ENDSEC
  0
SECTION
  2
TABLES
  0
TABLE
  2
VPORT
  5
7
100
AcDbSymbolTable
 70
     2
  0
VPORT
  5
1257B
100
AcDbSymbolTableRecord
100
AcDbViewportTableRecord
  2
*ACTIVE
 70
     0
 10
0.0
 20
0.0
 11
1.0
 21
1.0
 12
66.145912
 22
108.40645
 13
0.0
 23
0.0
 14
1.0
 24
1.0
 15
0.0
 25
0.0
 16
0.0
 26
0.0
 36
1.0
 17
0.0
 27
0.0
 37
0.0
 40
210.941514
 41
1.673611
 42
50.0
 43
0.0
 44
0.0
 50
0.0
 51
0.0
 71
     0
 72
   100
 73
     1
 74
     2
 75
     0
 76
     0
 77
     0
 78
     0
  0
ENDTAB
  0
TABLE
  2
LTYPE
  5
4
100
AcDbSymbolTable
 70
     3
  0
LTYPE
  5
11
102
{ACAD_XDICTIONARY
360
12538
102
}
100
AcDbSymbolTableRecord
100
AcDbLinetypeTableRecord
  2
BYBLOCK
 70
     0
  3

 72
    65
 73
     0
 40
0.0
  0
LTYPE
  5
12
102
{ACAD_XDICTIONARY
360
1253A
102
}
100
AcDbSymbolTableRecord
100
AcDbLinetypeTableRecord
  2
BYLAYER
 70
     0
  3

 72
    65
 73
     0
 40
0.0
  0
LTYPE
  5
13
102
{ACAD_XDICTIONARY
360
1253C
102
}
100
AcDbSymbolTableRecord
100
AcDbLinetypeTableRecord
  2
CONTINUOUS
 70
     0
  3
Solid line
 72
    65
 73
     0
 40
0.0
  0
LTYPE
  5
725
100
AcDbSymbolTableRecord
100
AcDbLinetypeTableRecord
  2
AXES2
 70
     0
  3
___ _ ___ _ ___ _ ___ _ ___ _ ___ _ ___ _ ___ _
 72
    65
 73
     4
 40
1.125
 49
0.75
 74
     0
 49
-0.125
 74
     0
 49
0.125
 74
     0
 49
-0.125
 74
     0
  0
LTYPE
  5
FF12
100
AcDbSymbolTableRecord
100
AcDbLinetypeTableRecord
  2
CACHE2
 70
     0
  3
Caché (x.5) _ _ _ _ _ _ _ _ _ _ _ _ _ _ _ _ _
 72
    65
 73
     2
 40
0.1875
 49
0.125
 74
     0
 49
-0.0625
 74
     0
  0
ENDTAB
  0
TABLE
  2
LAYER
  5
2
102
{ACAD_XDICTIONARY
360
26F0
102
}
100
AcDbSymbolTable
 70
     6
  0
LAYER
  5
14
100
AcDbSymbolTableRecord
100
AcDbLayerTableRecord
  2
0
 70
     0
 62
     7
  6
CONTINUOUS
  0
LAYER
  5
6EC
102
{ACAD_XDICTIONARY
360
12536
102
}
100
AcDbSymbolTableRecord
100
AcDbLayerTableRecord
  2
DEFPOINTS
 70
     0
 62
     7
  6
CONTINUOUS
  0
LAYER
  5
727
100
AcDbSymbolTableRecord
100
AcDbLayerTableRecord
  2
COTATION1
 70
     0
 62
     2
  6
CONTINUOUS
  0
LAYER
  5
728
100
AcDbSymbolTableRecord
100
AcDbLayerTableRecord
  2
AXE
 70
     0
 62
    80
  6
AXES2
  0
LAYER
  5
729
100
AcDbSymbolTableRecord
100
AcDbLayerTableRecord
  2
ALPHA
 70
     0
 62
   254
  6
CONTINUOUS
  0
LAYER
  5
FF13
100
AcDbSymbolTableRecord
100
AcDbLayerTableRecord
  2
POINTILLE_COURT
 70
     0
 62
    41
  6
CACHE2
  0
ENDTAB
  0
TABLE
  2
STYLE
  5
3
100
AcDbSymbolTable
 70
     2
  0
STYLE
  5
17
102
{ACAD_XDICTIONARY
360
12542
102
}
100
AcDbSymbolTableRecord
100
AcDbTextStyleTableRecord
  2
STANDARD
 70
     0
 40
0.0
 41
1.0
 50
0.0
 71
     0
 42
0.0
  3
txt
  4

  0
STYLE
  5
72B
100
AcDbSymbolTableRecord
100
AcDbTextStyleTableRecord
  2
ROMANS
 70
     0
 40
0.0
 41
1.0
 50
0.0
 71
     0
 42
6.0
  3
romans
  4

  0
ENDTAB
  0
TABLE
  2
VIEW
  5
5
100
AcDbSymbolTable
 70
     0
  0
ENDTAB
  0
TABLE
  2
UCS
  5
6
100
AcDbSymbolTable
 70
     0
  0
ENDTAB
  0
TABLE
  2
APPID
  5
8
100
AcDbSymbolTable
 70
     4
  0
APPID
  5
16
100
AcDbSymbolTableRecord
100
AcDbRegAppTableRecord
  2
ACAD
 70
     0
  0
APPID
  5
26EF
102
{ACAD_XDICTIONARY
360
1253E
102
}
100
AcDbSymbolTableRecord
100
AcDbRegAppTableRecord
  2
ACAECLAYERSTANDARD
 70
     0
  0
APPID
  5
320E
100
AcDbSymbolTableRecord
100
AcDbRegAppTableRecord
  2
DCO15
 70
     0
  0
APPID
  5
3569
102
{ACAD_XDICTIONARY
360
12540
102
}
100
AcDbSymbolTableRecord
100
AcDbRegAppTableRecord
  2
ACAD_EXEMPT_FROM_CAD_STAND
 70
     0
  0
ENDTAB
  0
TABLE
  2
DIMSTYLE
  5
9
100
AcDbSymbolTable
 70
     2
  0
DIMSTYLE
105
18
102
{ACAD_XDICTIONARY
360
12534
102
}
100
AcDbSymbolTableRecord
100
AcDbDimStyleTableRecord
  2
STANDARD
 70
     0
  3

  4

  5

  6

  7

 40
1.0
 41
0.18
 42
0.0625
 43
0.38
 44
0.18
 45
0.0
 46
0.0
 47
0.0
 48
0.0
140
0.18
141
0.09
142
0.0
143
25.4
144
1.0
145
0.0
146
1.0
147
0.09
 71
     0
 72
     0
 73
     1
 74
     1
 75
     0
 76
     0
 77
     0
 78
     0
170
     0
171
     2
172
     0
173
     0
174
     0
175
     0
176
     0
177
     0
178
     0
270
     2
271
     4
272
     4
273
     2
274
     2
340
17
275
     0
280
     0
281
     0
282
     0
283
     1
284
     0
285
     0
286
     0
287
     3
288
     0
  0
DIMSTYLE
105
72C
102
{ACAD_XDICTIONARY
360
12572
102
}
102
{ACAD_REACTORS
330
FF72
330
10010
330
10B46
330
10B70
102
}
100
AcDbSymbolTableRecord
100
AcDbDimStyleTableRecord
  2
SC_DEFAUT
 70
     0
  3

  4

  5
OPEN30
  6

  7

 40
1.0
 41
5.0
 42
2.0
 43
0.38
 44
2.5
 45
0.0
 46
0.0
 47
0.0
 48
0.0
140
2.5
141
0.0
142
0.0
143
25.4
144
1.0
145
0.0
146
1.0
147
2.0
 71
     0
 72
     0
 73
     1
 74
     1
 75
     0
 76
     0
 77
     1
 78
    12
170
     0
171
     2
172
     0
173
     0
174
     0
175
     0
176
     0
177
     0
178
     0
270
     2
271
     1
272
     1
273
     2
274
     2
340
72B
275
     0
280
     0
281
     0
282
     0
283
     1
284
    12
285
    12
286
    12
287
     5
288
     0
  0
ENDTAB
  0
TABLE
  2
BLOCK_RECORD
  5
1
100
AcDbSymbolTable
 70
     5
  0
BLOCK_RECORD
  5
A
102
{ACAD_XDICTIONARY
360
7D7
102
}
100
AcDbSymbolTableRecord
100
AcDbBlockTableRecord
  2
*MODEL_SPACE
  0
BLOCK_RECORD
  5
B
102
{ACAD_XDICTIONARY
360
12568
102
}
100
AcDbSymbolTableRecord
100
AcDbBlockTableRecord
  2
*PAPER_SPACE
  0
BLOCK_RECORD
  5
6FA
100
AcDbSymbolTableRecord
100
AcDbBlockTableRecord
  2
_OPEN30
  0
BLOCK_RECORD
  5
FF9F
100
AcDbSymbolTableRecord
100
AcDbBlockTableRecord
  2
*D1
  0
BLOCK_RECORD
  5
10011
100
AcDbSymbolTableRecord
100
AcDbBlockTableRecord
  2
*D2
  0
BLOCK_RECORD
  5
10B47
100
AcDbSymbolTableRecord
100
AcDbBlockTableRecord
  2
*D3
  0
BLOCK_RECORD
  5
10B71
100
AcDbSymbolTableRecord
100
AcDbBlockTableRecord
  2
*D4
  0
ENDTAB
  0
ENDSEC
  0
SECTION
  2
BLOCKS
  0
BLOCK
  5
D
100
AcDbEntity
  8
0
100
AcDbBlockBegin
  2
*MODEL_SPACE
 70
     0
 10
0.0
 20
0.0
 30
0.0
  3
*MODEL_SPACE
  1

  0
ENDBLK
  5
E
100
AcDbEntity
  8
0
100
AcDbBlockEnd
  0
BLOCK
  5
F
100
AcDbEntity
 67
     1
  8
0
100
AcDbBlockBegin
  2
*PAPER_SPACE
 70
     0
 10
0.0
 20
0.0
 30
0.0
  3
*PAPER_SPACE
  1

  0
ENDBLK
  5
10
100
AcDbEntity
 67
     1
  8
0
100
AcDbBlockEnd
  0
BLOCK
  5
6FB
100
AcDbEntity
  8
0
100
AcDbBlockBegin
  2
_OPEN30
 70
     0
 10
0.0
 20
0.0
 30
0.0
  3
_OPEN30
  1

  0
LINE
  5
6FC
100
AcDbEntity
  8
COTATION1
 62
     0
100
AcDbLine
 10
-1.0
 20
0.267949
 30
0.0
 11
0.0
 21
0.0
 31
0.0
1001
ACAD
1000
RTLwPs
1070
   158
  0
LINE
  5
6FD
100
AcDbEntity
  8
COTATION1
 62
     0
100
AcDbLine
 10
0.0
 20
0.0
 30
0.0
 11
-1.0
 21
-0.267949
 31
0.0
1001
ACAD
1000
RTLwPs
1070
   158
  0
LINE
  5
6FE
100
AcDbEntity
  8
COTATION1
 62
     0
100
AcDbLine
 10
0.0
 20
0.0
 30
0.0
 11
-1.0
 21
0.0
 31
0.0
1001
ACAD
1000
RTLwPs
1070
   158
  0
ENDBLK
  5
6FF
100
AcDbEntity
  8
0
100
AcDbBlockEnd
  0
BLOCK
  5
FFAA
100
AcDbEntity
  8
0
100
AcDbBlockBegin
  2
*D1
 70
     1
 10
0.0
 20
0.0
 30
0.0
  3
*D1
  1

1001
ACAD
1000
RTLwPs
1070
   128
  0
LINE
  5
12503
100
AcDbEntity
  8
COTATION1
 62
     0
100
AcDbLine
 10
26.897283
 20
28.285373
 30
0.0
 11
26.897283
 21
18.641559
 31
0.0
1001
ACAD
1000
RTLwPs
1070
   158
  0
LINE
  5
12504
100
AcDbEntity
  8
COTATION1
 62
     0
100
AcDbLine
 10
29.397283
 20
28.285373
 30
0.0
 11
29.397283
 21
18.641559
 31
0.0
1001
ACAD
1000
RTLwPs
1070
   158
  0
LINE
  5
12505
100
AcDbEntity
  8
COTATION1
 62
     0
100
AcDbLine
 10
21.897283
 20
21.141559
 30
0.0
 11
16.897283
 21
21.141559
 31
0.0
1001
ACAD
1000
RTLwPs
1070
   158
  0
LINE
  5
12506
100
AcDbEntity
  8
COTATION1
 62
     0
100
AcDbLine
 10
34.397283
 20
21.141559
 30
0.0
 11
39.397283
 21
21.141559
 31
0.0
1001
ACAD
1000
RTLwPs
1070
   158
  0
MTEXT
  5
12507
100
AcDbEntity
  8
COTATION1
 62
     0
100
AcDbMText
 10
40.506187
 20
24.032243
 30
0.0
 40
2.5
 41
0.0
 71
     5
 72
     1
  1
\A1;1...6
  7
ROMANS
1001
ACAD
1000
MTEXTBEGIN
1070
    73
1070
     1
1070
    44
1040
1.0
1070
    74
1070
     0
1000
MTEXTEND
1000
MTEXTBEGIN
1070
    73
1070
     1
1070
    44
1040
1.0
1070
    74
1070
     0
1000
MTEXTEND
  0
INSERT
  5
12508
100
AcDbEntity
  8
COTATION1
 62
     0
100
AcDbBlockReference
  2
_OPEN30
 10
26.897283
 20
21.141559
 30
0.0
 41
5.0
 42
5.0
 43
5.0
1001
ACAD
1000
RTLwPs
1070
   158
  0
INSERT
  5
12509
100
AcDbEntity
  8
COTATION1
 62
     0
100
AcDbBlockReference
  2
_OPEN30
 10
29.397283
 20
21.141559
 30
0.0
 41
5.0
 42
5.0
 43
5.0
 50
180.0
1001
ACAD
1000
RTLwPs
1070
   158
  0
POINT
  5
1250A
100
AcDbEntity
  8
DEFPOINTS
 62
     0
100
AcDbPoint
 10
26.897283
 20
30.285373
 30
0.0
1001
ACAD
1000
RTLwPs
1070
   128
  0
POINT
  5
1250B
100
AcDbEntity
  8
DEFPOINTS
 62
     0
100
AcDbPoint
 10
29.397283
 20
30.285373
 30
0.0
1001
ACAD
1000
RTLwPs
1070
   128
  0
POINT
  5
1250C
100
AcDbEntity
  8
DEFPOINTS
 62
     0
100
AcDbPoint
 10
29.397283
 20
21.141559
 30
0.0
1001
ACAD
1000
RTLwPs
1070
   128
  0
ENDBLK
  5
FFAB
100
AcDbEntity
  8
0
100
AcDbBlockEnd
1001
ACAD
1000
RTLwPs
1070
   128
  0
BLOCK
  5
1001B
100
AcDbEntity
  8
0
100
AcDbBlockBegin
  2
*D2
 70
     1
 10
0.0
 20
0.0
 30
0.0
  3
*D2
  1

1001
ACAD
1000
RTLwPs
1070
   128
  0
LINE
  5
1250D
100
AcDbEntity
  8
COTATION1
 62
     0
100
AcDbLine
 10
14.647283
 20
171.285373
 30
0.0
 11
14.647283
 21
200.785373
 31
0.0
1001
ACAD
1000
RTLwPs
1070
   158
  0
LINE
  5
1250E
100
AcDbEntity
  8
COTATION1
 62
     0
100
AcDbLine
 10
26.647283
 20
175.285373
 30
0.0
 11
26.647283
 21
200.785373
 31
0.0
1001
ACAD
1000
RTLwPs
1070
   158
  0
LINE
  5
1250F
100
AcDbEntity
  8
COTATION1
 62
     0
100
AcDbLine
 10
9.647283
 20
198.285373
 30
0.0
 11
4.647283
 21
198.285373
 31
0.0
1001
ACAD
1000
RTLwPs
1070
   158
  0
LINE
  5
12510
100
AcDbEntity
  8
COTATION1
 62
     0
100
AcDbLine
 10
31.647283
 20
198.285373
 30
0.0
 11
36.647283
 21
198.285373
 31
0.0
1001
ACAD
1000
RTLwPs
1070
   158
  0
INSERT
  5
12511
100
AcDbEntity
  8
COTATION1
 62
     0
100
AcDbBlockReference
  2
_OPEN30
 10
14.647283
 20
198.285373
 30
0.0
 41
5.0
 42
5.0
 43
5.0
1001
ACAD
1000
RTLwPs
1070
   158
  0
INSERT
  5
12512
100
AcDbEntity
  8
COTATION1
 62
     0
100
AcDbBlockReference
  2
_OPEN30
 10
26.647283
 20
198.285373
 30
0.0
 41
5.0
 42
5.0
 43
5.0
 50
180.0
1001
ACAD
1000
RTLwPs
1070
   158
  0
MTEXT
  5
12513
100
AcDbEntity
  8
COTATION1
 62
     0
100
AcDbMText
 10
20.647283
 20
201.535373
 30
0.0
 40
2.5
 41
0.0
 71
     5
 72
     1
  1
\A1;12
  7
ROMANS
1001
ACAD
1000
MTEXTBEGIN
1070
    73
1070
     1
1070
    44
1040
1.0
1070
    74
1070
     0
1000
MTEXTEND
1000
MTEXTBEGIN
1070
    73
1070
     1
1070
    44
1040
1.0
1070
    74
1070
     0
1000
MTEXTEND
  0
POINT
  5
12514
100
AcDbEntity
  8
DEFPOINTS
 62
     0
100
AcDbPoint
 10
14.647283
 20
169.285373
 30
0.0
1001
ACAD
1000
RTLwPs
1070
   128
  0
POINT
  5
12515
100
AcDbEntity
  8
DEFPOINTS
 62
     0
100
AcDbPoint
 10
26.647283
 20
173.285373
 30
0.0
1001
ACAD
1000
RTLwPs
1070
   128
  0
POINT
  5
12516
100
AcDbEntity
  8
DEFPOINTS
 62
     0
100
AcDbPoint
 10
26.647283
 20
198.285373
 30
0.0
1001
ACAD
1000
RTLwPs
1070
   128
  0
ENDBLK
  5
1001C
100
AcDbEntity
  8
0
100
AcDbBlockEnd
1001
ACAD
1000
RTLwPs
1070
   128
  0
BLOCK
  5
10B52
100
AcDbEntity
  8
0
100
AcDbBlockBegin
  2
*D3
 70
     1
 10
0.0
 20
0.0
 30
0.0
  3
*D3
  1

1001
ACAD
1000
RTLwPs
1070
   128
  0
LINE
  5
12517
100
AcDbEntity
  8
COTATION1
 62
     0
100
AcDbLine
 10
26.647283
 20
175.285373
 30
0.0
 11
26.647283
 21
200.785373
 31
0.0
1001
ACAD
1000
RTLwPs
1070
   158
  0
LINE
  5
12518
100
AcDbEntity
  8
COTATION1
 62
     0
100
AcDbLine
 10
97.647283
 20
158.785373
 30
0.0
 11
97.647283
 21
200.785373
 31
0.0
1001
ACAD
1000
RTLwPs
1070
   158
  0
LINE
  5
12519
100
AcDbEntity
  8
COTATION1
 62
     0
100
AcDbLine
 10
31.647283
 20
198.285373
 30
0.0
 11
92.647283
 21
198.285373
 31
0.0
1001
ACAD
1000
RTLwPs
1070
   158
  0
INSERT
  5
1251A
100
AcDbEntity
  8
COTATION1
 62
     0
100
AcDbBlockReference
  2
_OPEN30
 10
26.647283
 20
198.285373
 30
0.0
 41
5.0
 42
5.0
 43
5.0
 50
180.0
1001
ACAD
1000
RTLwPs
1070
   158
  0
INSERT
  5
1251B
100
AcDbEntity
  8
COTATION1
 62
     0
100
AcDbBlockReference
  2
_OPEN30
 10
97.647283
 20
198.285373
 30
0.0
 41
5.0
 42
5.0
 43
5.0
1001
ACAD
1000
RTLwPs
1070
   158
  0
MTEXT
  5
1251C
100
AcDbEntity
  8
COTATION1
 62
     0
100
AcDbMText
 10
62.147283
 20
201.535373
 30
0.0
 40
2.5
 41
0.0
 71
     5
 72
     1
  1
\A1;71
  7
ROMANS
1001
ACAD
1000
MTEXTBEGIN
1070
    73
1070
     1
1070
    44
1040
1.0
1070
    74
1070
     0
1000
MTEXTEND
1000
MTEXTBEGIN
1070
    73
1070
     1
1070
    44
1040
1.0
1070
    74
1070
     0
1000
MTEXTEND
  0
POINT
  5
1251D
100
AcDbEntity
  8
DEFPOINTS
 62
     0
100
AcDbPoint
 10
26.647283
 20
173.285373
 30
0.0
1001
ACAD
1000
RTLwPs
1070
   128
  0
POINT
  5
1251E
100
AcDbEntity
  8
DEFPOINTS
 62
     0
100
AcDbPoint
 10
97.647283
 20
156.785373
 30
0.0
1001
ACAD
1000
RTLwPs
1070
   128
  0
POINT
  5
1251F
100
AcDbEntity
  8
DEFPOINTS
 62
     0
100
AcDbPoint
 10
97.647283
 20
198.285373
 30
0.0
1001
ACAD
1000
RTLwPs
1070
   128
  0
ENDBLK
  5
10B53
100
AcDbEntity
  8
0
100
AcDbBlockEnd
1001
ACAD
1000
RTLwPs
1070
   128
  0
BLOCK
  5
10B7B
100
AcDbEntity
  8
0
100
AcDbBlockBegin
  2
*D4
 70
     1
 10
0.0
 20
0.0
 30
0.0
  3
*D4
  1

1001
ACAD
1000
RTLwPs
1070
   128
  0
LINE
  5
12520
100
AcDbEntity
  8
COTATION1
 62
     0
100
AcDbLine
 10
26.647283
 20
175.285373
 30
0.0
 11
26.647283
 21
210.785373
 31
0.0
1001
ACAD
1000
RTLwPs
1070
   158
  0
LINE
  5
12521
100
AcDbEntity
  8
COTATION1
 62
     0
100
AcDbLine
 10
112.647283
 20
158.785373
 30
0.0
 11
112.647283
 21
210.785373
 31
0.0
1001
ACAD
1000
RTLwPs
1070
   158
  0
LINE
  5
12522
100
AcDbEntity
  8
COTATION1
 62
     0
100
AcDbLine
 10
31.647283
 20
208.285373
 30
0.0
 11
107.647283
 21
208.285373
 31
0.0
1001
ACAD
1000
RTLwPs
1070
   158
  0
INSERT
  5
12523
100
AcDbEntity
  8
COTATION1
 62
     0
100
AcDbBlockReference
  2
_OPEN30
 10
26.647283
 20
208.285373
 30
0.0
 41
5.0
 42
5.0
 43
5.0
 50
180.0
1001
ACAD
1000
RTLwPs
1070
   158
  0
INSERT
  5
12524
100
AcDbEntity
  8
COTATION1
 62
     0
100
AcDbBlockReference
  2
_OPEN30
 10
112.647283
 20
208.285373
 30
0.0
 41
5.0
 42
5.0
 43
5.0
1001
ACAD
1000
RTLwPs
1070
   158
  0
MTEXT
  5
12525
100
AcDbEntity
  8
COTATION1
 62
     0
100
AcDbMText
 10
69.647283
 20
211.535373
 30
0.0
 40
2.5
 41
0.0
 71
     5
 72
     1
  1
\A1;86
  7
ROMANS
1001
ACAD
1000
MTEXTBEGIN
1070
    73
1070
     1
1070
    44
1040
1.0
1070
    74
1070
     0
1000
MTEXTEND
1000
MTEXTBEGIN
1070
    73
1070
     1
1070
    44
1040
1.0
1070
    74
1070
     0
1000
MTEXTEND
  0
POINT
  5
12526
100
AcDbEntity
  8
DEFPOINTS
 62
     0
100
AcDbPoint
 10
26.647283
 20
173.285373
 30
0.0
1001
ACAD
1000
RTLwPs
1070
   128
  0
POINT
  5
12527
100
AcDbEntity
  8
DEFPOINTS
 62
     0
100
AcDbPoint
 10
112.647283
 20
156.785373
 30
0.0
1001
ACAD
1000
RTLwPs
1070
   128
  0
POINT
  5
12528
100
AcDbEntity
  8
DEFPOINTS
 62
     0
100
AcDbPoint
 10
112.647283
 20
208.285373
 30
0.0
1001
ACAD
1000
RTLwPs
1070
   128
  0
ENDBLK
  5
10B7C
100
AcDbEntity
  8
0
100
AcDbBlockEnd
1001
ACAD
1000
RTLwPs
1070
   128
  0
ENDSEC
  0
SECTION
  2
ENTITIES
  0
LINE
  5
FECB
100
AcDbEntity
  8
ALPHA
  6
CONTINUOUS
100
AcDbLine
 10
26.647283
 20
173.285373
 30
0.0
 11
26.647283
 21
40.285373
 31
0.0
1001
ACAD
1000
RTLwPs
1070
   128
  0
LINE
  5
FECC
100
AcDbEntity
  8
ALPHA
  6
CONTINUOUS
100
AcDbLine
 10
26.647283
 20
40.285373
 30
0.0
 11
18.647283
 21
40.285373
 31
0.0
1001
ACAD
1000
RTLwPs
1070
   128
  0
LINE
  5
FECD
100
AcDbEntity
  8
ALPHA
  6
CONTINUOUS
100
AcDbLine
 10
14.647283
 20
169.285373
 30
0.0
 11
14.647283
 21
44.285373
 31
0.0
1001
ACAD
1000
RTLwPs
1070
   128
  0
LINE
  5
FECE
100
AcDbEntity
  8
ALPHA
  6
CONTINUOUS
100
AcDbLine
 10
26.647283
 20
173.285373
 30
0.0
 11
18.647283
 21
173.285373
 31
0.0
1001
ACAD
1000
RTLwPs
1070
   128
  0
ARC
  5
FECF
100
AcDbEntity
  8
ALPHA
  6
CONTINUOUS
100
AcDbCircle
 10
18.647283
 20
44.285373
 30
0.0
 40
4.0
100
AcDbArc
 50
180.0
 51
270.0
1001
ACAD
1000
RTLwPs
1070
   128
  0
ARC
  5
FED0
100
AcDbEntity
  8
ALPHA
  6
CONTINUOUS
100
AcDbCircle
 10
18.647283
 20
169.285373
 30
0.0
 40
4.0
100
AcDbArc
 50
90.0
 51
180.0
1001
ACAD
1000
RTLwPs
1070
   128
  0
LINE
  5
FF55
100
AcDbEntity
  8
POINTILLE_COURT
100
AcDbLine
 10
29.397283
 20
30.285373
 30
0.0
 11
29.397283
 21
183.285373
 31
0.0
  0
LINE
  5
FF56
100
AcDbEntity
  8
POINTILLE_COURT
100
AcDbLine
 10
26.897283
 20
183.285373
 30
0.0
 11
26.897283
 21
30.285373
 31
0.0
  0
LINE
  5
FF70
100
AcDbEntity
  8
AXE
100
AcDbLine
 10
28.147283
 20
4.027525
 30
0.0
 11
28.147283
 21
188.285373
 31
0.0
  0
TEXT
  5
FF71
100
AcDbEntity
  8
AXE
100
AcDbText
 10
20.671093
 20
4.027525
 30
0.0
 40
8.0
  1
Y
  7
ROMANS
 72
     2
 11
27.147283
 21
4.027525
 31
0.0
100
AcDbText
  0
DIMENSION
  5
FF72
100
AcDbEntity
  8
COTATION1
100
AcDbDimension
  2
*D1
 10
29.397283
 20
21.141559
 30
0.0
 11
40.506187
 21
24.032243
 31
0.0
 70
   160
  1
1...6
  3
SC_DEFAUT
100
AcDbAlignedDimension
 13
26.897283
 23
30.285373
 33
0.0
 14
29.397283
 24
30.285373
 34
0.0
100
AcDbRotatedDimension
  0
LINE
  5
FFFD
100
AcDbEntity
  8
ALPHA
  6
CONTINUOUS
100
AcDbLine
 10
29.647283
 20
165.785373
 30
0.0
 11
29.647283
 21
164.285373
 31
0.0
1001
ACAD
1000
RTLwPs
1070
   128
  0
LINE
  5
FFFE
100
AcDbEntity
  8
ALPHA
  6
CONTINUOUS
100
AcDbLine
 10
35.647283
 20
165.785373
 30
0.0
 11
35.647283
 21
164.285373
 31
0.0
1001
ACAD
1000
RTLwPs
1070
   128
  0
LINE
  5
10000
100
AcDbEntity
  8
ALPHA
  6
CONTINUOUS
100
AcDbLine
 10
29.647283
 20
164.285373
 30
0.0
 11
35.647283
 21
164.285373
 31
0.0
1001
ACAD
1000
RTLwPs
1070
   128
  0
LINE
  5
10002
100
AcDbEntity
  8
ALPHA
  6
CONTINUOUS
100
AcDbLine
 10
29.647283
 20
167.285373
 30
0.0
 11
35.647283
 21
167.285373
 31
0.0
1001
ACAD
1000
RTLwPs
1070
   128
  0
LINE
  5
10003
100
AcDbEntity
  8
ALPHA
  6
CONTINUOUS
100
AcDbLine
 10
29.647283
 20
165.785373
 30
0.0
 11
29.647283
 21
167.285373
 31
0.0
1001
ACAD
1000
RTLwPs
1070
   128
  0
LINE
  5
10004
100
AcDbEntity
  8
ALPHA
  6
CONTINUOUS
100
AcDbLine
 10
35.647283
 20
165.785373
 30
0.0
 11
35.647283
 21
167.285373
 31
0.0
1001
ACAD
1000
RTLwPs
1070
   128
  0
LINE
  5
10007
100
AcDbEntity
  8
ALPHA
  6
CONTINUOUS
100
AcDbLine
 10
29.647283
 20
49.285373
 30
0.0
 11
35.647283
 21
49.285373
 31
0.0
1001
ACAD
1000
RTLwPs
1070
   128
  0
LINE
  5
10008
100
AcDbEntity
  8
ALPHA
  6
CONTINUOUS
100
AcDbLine
 10
29.647283
 20
47.785373
 30
0.0
 11
29.647283
 21
49.285373
 31
0.0
1001
ACAD
1000
RTLwPs
1070
   128
  0
LINE
  5
10009
100
AcDbEntity
  8
ALPHA
  6
CONTINUOUS
100
AcDbLine
 10
35.647283
 20
47.785373
 30
0.0
 11
35.647283
 21
49.285373
 31
0.0
1001
ACAD
1000
RTLwPs
1070
   128
  0
LINE
  5
1000A
100
AcDbEntity
  8
ALPHA
  6
CONTINUOUS
100
AcDbLine
 10
29.647283
 20
46.285373
 30
0.0
 11
35.647283
 21
46.285373
 31
0.0
1001
ACAD
1000
RTLwPs
1070
   128
  0
LINE
  5
1000B
100
AcDbEntity
  8
ALPHA
  6
CONTINUOUS
100
AcDbLine
 10
29.647283
 20
47.785373
 30
0.0
 11
29.647283
 21
46.285373
 31
0.0
1001
ACAD
1000
RTLwPs
1070
   128
  0
LINE
  5
1000C
100
AcDbEntity
  8
ALPHA
  6
CONTINUOUS
100
AcDbLine
 10
35.647283
 20
47.785373
 30
0.0
 11
35.647283
 21
46.285373
 31
0.0
1001
ACAD
1000
RTLwPs
1070
   128
  0
TEXT
  5
1000E
100
AcDbEntity
  8
AXE
100
AcDbText
 10
121.131411
 20
107.789643
 30
0.0
 40
8.0
  1
Z
  7
ROMANS
 72
     2
 11
127.607602
 21
107.789643
 31
0.0
100
AcDbText
  0
LINE
  5
1000F
100
AcDbEntity
  8
AXE
100
AcDbLine
 10
127.647283
 20
106.785373
 30
0.0
 11
9.647283
 21
106.785373
 31
0.0
  0
DIMENSION
  5
10010
100
AcDbEntity
  8
COTATION1
100
AcDbDimension
  2
*D2
 10
26.647283
 20
198.285373
 30
0.0
 11
20.647283
 21
201.535373
 31
0.0
 70
    32
  3
SC_DEFAUT
100
AcDbAlignedDimension
 13
14.647283
 23
169.285373
 33
0.0
 14
26.647283
 24
173.285373
 34
0.0
100
AcDbRotatedDimension
  0
LINE
  5
1083F
100
AcDbEntity
  8
ALPHA
  6
CONTINUOUS
100
AcDbLine
 10
97.647283
 20
156.785373
 30
0.0
 11
97.647283
 21
106.785373
 31
0.0
1001
ACAD
1000
RTLwPs
1070
   128
  0
LINE
  5
10AD2
100
AcDbEntity
  8
ALPHA
  6
CONTINUOUS
100
AcDbLine
 10
29.647283
 20
156.785373
 30
0.0
 11
29.647283
 21
106.785373
 31
0.0
1001
ACAD
1000
RTLwPs
1070
   128
  0
LINE
  5
10ADA
100
AcDbEntity
  8
ALPHA
  6
CONTINUOUS
100
AcDbLine
 10
97.647283
 20
150.785373
 30
0.0
 11
29.647283
 21
156.785373
 31
0.0
1001
ACAD
1000
RTLwPs
1070
   128
  0
LINE
  5
10ADC
100
AcDbEntity
  8
ALPHA
  6
CONTINUOUS
100
AcDbLine
 10
112.647283
 20
156.785373
 30
0.0
 11
112.647283
 21
138.785373
 31
0.0
1001
ACAD
1000
RTLwPs
1070
   128
  0
LINE
  5
10ADF
100
AcDbEntity
  8
ALPHA
  6
CONTINUOUS
100
AcDbLine
 10
97.647283
 20
156.785373
 30
0.0
 11
112.647283
 21
156.785373
 31
0.0
1001
ACAD
1000
RTLwPs
1070
   128
  0
LINE
  5
10AE1
100
AcDbEntity
  8
ALPHA
  6
CONTINUOUS
100
AcDbLine
 10
97.647283
 20
123.785373
 30
0.0
 11
112.647283
 21
138.785373
 31
0.0
1001
ACAD
1000
RTLwPs
1070
   128
  0
LINE
  5
10AE2
100
AcDbEntity
  8
ALPHA
  6
CONTINUOUS
100
AcDbLine
 10
97.647283
 20
56.785373
 30
0.0
 11
97.647283
 21
106.785373
 31
0.0
1001
ACAD
1000
RTLwPs
1070
   128
  0
LINE
  5
10AE3
100
AcDbEntity
  8
ALPHA
  6
CONTINUOUS
100
AcDbLine
 10
112.647283
 20
56.785373
 30
0.0
 11
112.647283
 21
74.785373
 31
0.0
1001
ACAD
1000
RTLwPs
1070
   128
  0
LINE
  5
10AE4
100
AcDbEntity
  8
ALPHA
  6
CONTINUOUS
100
AcDbLine
 10
97.647283
 20
62.785373
 30
0.0
 11
29.647283
 21
56.785373
 31
0.0
1001
ACAD
1000
RTLwPs
1070
   128
  0
LINE
  5
10AE5
100
AcDbEntity
  8
ALPHA
  6
CONTINUOUS
100
AcDbLine
 10
29.647283
 20
56.785373
 30
0.0
 11
29.647283
 21
106.785373
 31
0.0
1001
ACAD
1000
RTLwPs
1070
   128
  0
LINE
  5
10AE6
100
AcDbEntity
  8
ALPHA
  6
CONTINUOUS
100
AcDbLine
 10
97.647283
 20
56.785373
 30
0.0
 11
112.647283
 21
56.785373
 31
0.0
1001
ACAD
1000
RTLwPs
1070
   128
  0
LINE
  5
10AE7
100
AcDbEntity
  8
ALPHA
  6
CONTINUOUS
100
AcDbLine
 10
97.647283
 20
89.785373
 30
0.0
 11
112.647283
 21
74.785373
 31
0.0
1001
ACAD
1000
RTLwPs
1070
   128
  0
DIMENSION
  5
10B46
100
AcDbEntity
  8
COTATION1
100
AcDbDimension
  2
*D3
 10
97.647283
 20
198.285373
 30
0.0
 11
62.147283
 21
201.535373
 31
0.0
 70
    32
  3
SC_DEFAUT
100
AcDbAlignedDimension
 13
26.647283
 23
173.285373
 33
0.0
 14
97.647283
 24
156.785373
 34
0.0
100
AcDbRotatedDimension
  0
DIMENSION
  5
10B70
100
AcDbEntity
  8
COTATION1
100
AcDbDimension
  2
*D4
 10
112.647283
 20
208.285373
 30
0.0
 11
69.647283
 21
211.535373
 31
0.0
 70
    32
  3
SC_DEFAUT
100
AcDbAlignedDimension
 13
26.647283
 23
173.285373
 33
0.0
 14
112.647283
 24
156.785373
 34
0.0
100
AcDbRotatedDimension
  0
ENDSEC
  0
SECTION
  2
OBJECTS
  0
DICTIONARY
  5
19
102
{ACAD_XDICTIONARY
360
1256A
102
}
100
AcDbDictionary
  3
ACAD_COLOR
350
6DB
  3
ACAD_GROUP
350
1A
  3
ACAD_LAYOUT
350
1E
  3
ACAD_MATERIAL
350
6DA
  3
ACAD_MLINESTYLE
350
1B
  3
ACAD_PLOTSETTINGS
350
22
  3
ACAD_PLOTSTYLENAME
350
1F
  3
ACAD_TABLESTYLE
350
6DC
  3
ACAD_WIPEOUT_VARS
350
23
  3
ACDBHEADERROUNDTRIPXREC
350
12546
  3
ACDBVARIABLEDICTIONARY
350
7DA
  3
ASE_INDEX_DICTIONARY
350
3571
  0
DICTIONARY
  5
12538
100
AcDbDictionary
  3
ACAD_XREC_ROUNDTRIP
360
12539
  0
DICTIONARY
  5
1253A
100
AcDbDictionary
  3
ACAD_XREC_ROUNDTRIP
360
1253B
  0
DICTIONARY
  5
1253C
100
AcDbDictionary
  3
ACAD_XREC_ROUNDTRIP
360
1253D
  0
DICTIONARY
  5
26F0
100
AcDbDictionary
  3
ACAD_LAYERFILTERS
360
26F2
  3
ACAD_LAYERSTATES
360
3474
  3
ACLYDICTIONARY
360
26F1
  0
DICTIONARY
  5
12536
100
AcDbDictionary
  3
ACAD_XREC_ROUNDTRIP
360
12537
  0
DICTIONARY
  5
12542
100
AcDbDictionary
  3
ACAD_XREC_ROUNDTRIP
360
12543
  0
DICTIONARY
  5
1253E
100
AcDbDictionary
  3
ACAD_XREC_ROUNDTRIP
360
1253F
  0
DICTIONARY
  5
12540
100
AcDbDictionary
  3
ACAD_XREC_ROUNDTRIP
360
12541
  0
DICTIONARY
  5
12534
100
AcDbDictionary
  3
ACAD_XREC_ROUNDTRIP
360
12535
  0
DICTIONARY
  5
12572
100
AcDbDictionary
  3
ACAD_XREC_ROUNDTRIP
360
12573
  0
DICTIONARY
  5
7D7
100
AcDbDictionary
  3
ACAD_LAYOUTSELFREF
360
12567
  3
ACAD_SORTENTS
360
7D8
  0
DICTIONARY
  5
12568
100
AcDbDictionary
  3
ACAD_LAYOUTSELFREF
360
12569
  0
DICTIONARY
  5
1256A
100
AcDbDictionary
  3
ACAD_XREC_ROUNDTRIP
360
1256B
  0
DICTIONARY
  5
6DB
102
{ACAD_REACTORS
330
19
102
}
100
AcDbDictionary
  0
DICTIONARY
  5
1A
102
{ACAD_REACTORS
330
19
102
}
100
AcDbDictionary
  0
DICTIONARY
  5
1E
102
{ACAD_XDICTIONARY
360
1256E
102
}
102
{ACAD_REACTORS
330
19
102
}
100
AcDbDictionary
  3
LAYOUT1
350
21
  3
MODEL
350
20
  0
DICTIONARY
  5
6DA
102
{ACAD_REACTORS
330
19
102
}
100
AcDbDictionary
  0
DICTIONARY
  5
1B
102
{ACAD_XDICTIONARY
360
1256C
102
}
102
{ACAD_REACTORS
330
19
102
}
100
AcDbDictionary
  3
STANDARD
350
1C
  0
DICTIONARY
  5
22
102
{ACAD_REACTORS
330
19
102
}
100
AcDbDictionary
  0
ACAD_ZOMBIE_OBJECT
  5
1F
102
{ACAD_REACTORS
330
19
102
}
100
AcDbZombieObject
 90
      499
 91
      517
 93
       86
310
405010041939BDC9B585B0
350
1D
340
1D
 94
        0
  0
DICTIONARY
  5
6DC
102
{ACAD_XDICTIONARY
360
12570
102
}
102
{ACAD_REACTORS
330
19
102
}
100
AcDbDictionary
  3
STANDARD
350
6DD
  0
ACAD_ZOMBIE_OBJECT
  5
23
102
{ACAD_REACTORS
330
19
102
}
100
AcDbZombieObject
 90
      499
 91
      521
 93
       10
310
406A
 94
        0
  0
DICTIONARY
  5
12546
102
{ACAD_REACTORS
330
19
102
}
100
AcDbDictionary
  3
CEPSNTYPE
350
12550
  3
DIMSTYLEDATA
350
12554
  3
FINGERPRINTGUID
350
12551
  3
HYPERLINKBASE
350
12549
  3
INSUNITS
350
1254F
  3
LAYOUTDICT
350
1254B
  3
LWETCUNION
350
1254E
  3
PLOTSETDICT
350
1254C
  3
PLOTSTYLNAMDICT
350
1254D
  3
PSVPSCALE
350
12553
  3
PUCSBASE
350
12557
  3
PUCSORGBACK
350
1255D
  3
PUCSORGBOTTOM
350
12559
  3
PUCSORGFRONT
350
1255C
  3
PUCSORGLEFT
350
1255A
  3
PUCSORGRIGHT
350
1255B
  3
PUCSORGTOP
350
12558
  3
PUCSORTHOREF
350
12555
  3
PUCSORTHOVIEW
350
12556
  3
STYLESHEET
350
1254A
  3
TSTACKALIGN
350
12547
  3
TSTACKSIZE
350
12548
  3
UCSBASE
350
12560
  3
UCSORGBACK
350
12566
  3
UCSORGBOTTOM
350
12562
  3
UCSORGFRONT
350
12565
  3
UCSORGLEFT
350
12563
  3
UCSORGRIGHT
350
12564
  3
UCSORGTOP
350
12561
  3
UCSORTHOREF
350
1255E
  3
UCSORTHOVIEW
350
1255F
  3
VERSIONGUID
350
12552
  0
DICTIONARY
  5
7DA
102
{ACAD_REACTORS
330
19
102
}
100
AcDbDictionary
  3
CTABLESTYLE
350
7DB
  3
DIMASSOC
350
1A71
  3
PROJECTNAME
350
1A72
  0
DICTIONARY
  5
3571
102
{ACAD_XDICTIONARY
360
12574
102
}
102
{ACAD_REACTORS
330
19
102
}
100
AcDbDictionary
  3
ASEBLOCKHIERARCHYINDEXRECORD
350
3572
1001
DCO15
1040
1558939622.437
  0
XRECORD
  5
12539
102
{ACAD_REACTORS
330
12538
102
}
100
AcDbXrecord
102
EXTNAMES
  1
BYBLOCK
  2
ByBlock
  0
XRECORD
  5
1253B
102
{ACAD_REACTORS
330
1253A
102
}
100
AcDbXrecord
102
EXTNAMES
  1
BYLAYER
  2
ByLayer
  0
XRECORD
  5
1253D
102
{ACAD_REACTORS
330
1253C
102
}
100
AcDbXrecord
102
EXTNAMES
  1
CONTINUOUS
  2
Continuous
  0
DICTIONARY
  5
26F2
102
{ACAD_REACTORS
330
26F0
102
}
100
AcDbDictionary
  0
DICTIONARY
  5
3474
102
{ACAD_REACTORS
330
26F0
102
}
100
AcDbDictionary
  0
DICTIONARY
  5
26F1
102
{ACAD_REACTORS
330
26F0
102
}
100
AcDbDictionary
1001
ACAD
1000
<All
  0
XRECORD
  5
12537
102
{ACAD_REACTORS
330
12536
102
}
100
AcDbXrecord
102
EXTNAMES
  1
DEFPOINTS
  2
Defpoints
102
PLOTBIT
280
     0
  0
XRECORD
  5
12543
102
{ACAD_REACTORS
330
12542
102
}
100
AcDbXrecord
102
EXTNAMES
  1
STANDARD
  2
Standard
  0
XRECORD
  5
1253F
102
{ACAD_REACTORS
330
1253E
102
}
100
AcDbXrecord
102
EXTNAMES
  1
ACAECLAYERSTANDARD
  2
AcAecLayerStandard
  0
XRECORD
  5
12541
102
{ACAD_REACTORS
330
12540
102
}
100
AcDbXrecord
102
EXTNAMES
  1
ACAD_EXEMPT_FROM_CAD_STAND
  2
ACAD_EXEMPT_FROM_CAD_STANDARDS
  0
XRECORD
  5
12535
102
{ACAD_REACTORS
330
12534
102
}
100
AcDbXrecord
102
EXTNAMES
  1
STANDARD
  2
Standard
  0
XRECORD
  5
12573
102
{ACAD_REACTORS
330
12572
102
}
100
AcDbXrecord
102
ACADR14ROUNDTRIP
1000
DSTYLE
1002
{
1070
   279
 70
     2
1070
   341
340
6FA
1070
   342
340
6FA
1002
}
  0
XRECORD
  5
12567
102
{ACAD_REACTORS
330
7D7
102
}
100
AcDbXrecord
340
A
  0
SORTENTSTABLE
  5
7D8
102
{ACAD_REACTORS
330
7D7
102
}
100
AcDbSortentsTable
330
A
331
10004
  5
1000A
331
FECB
  5
FECB
331
FF71
  5
10004
331
10009
  5
1000D
331
FED0
  5
FF5B
331
1000E
  5
10055
331
10AE5
  5
10AE5
331
FF72
  5
10005
331
10AE1
  5
10AE1
331
10000
  5
FF75
331
10AE6
  5
10AE6
331
1000F
  5
10056
331
1000A
  5
1000E
331
10AD2
  5
10ADE
331
FECC
  5
FF4B
331
FF55
  5
FF76
331
10ADC
  5
FECD
331
10AE2
  5
10AE2
331
10AE7
  5
10AE7
331
10010
  5
10059
331
1000B
  5
1000F
331
FECD
  5
FF4A
331
FF56
  5
FF77
331
10AE3
  5
10AE3
331
10002
  5
10008
331
1000C
  5
10010
331
10007
  5
1000B
331
FFFD
  5
10006
331
1083F
  5
FECC
331
FECE
  5
FF5A
331
10003
  5
10009
331
FF70
  5
10003
331
FECF
  5
FF4D
331
10AE4
  5
10AE4
331
10B70
  5
10B70
331
10B46
  5
10B46
331
10ADA
  5
10057
331
10ADF
  5
10ADF
331
FFFE
  5
10007
331
10008
  5
1000C
  0
XRECORD
  5
12569
102
{ACAD_REACTORS
330
12568
102
}
100
AcDbXrecord
340
B
  0
XRECORD
  5
1256B
102
{ACAD_REACTORS
330
1256A
102
}
100
AcDbXrecord
102
EXTNAMES
  1
ACDBVARIABLEDICTIONARY
  2
AcDbVariableDictionary
  0
DICTIONARY
  5
1256E
100
AcDbDictionary
  3
ACAD_XREC_ROUNDTRIP
360
1256F
  0
ACAD_ZOMBIE_OBJECT
  5
21
102
{ACAD_XDICTIONARY
360
1252D
102
}
102
{ACAD_REACTORS
330
1E
102
}
100
AcDbZombieObject
 90
      499
 91
      515
 93
      812
310
AAAAAAAAAA5A69074C61796F757431406A800000000000000000000000000000000000000000000A1000000000000008902A6A6A10232D5E076BC5510408CB5781DAF154410232D5E076BC5510408CB5781DAF15C410232D5E076BC5710408CB5781DAF15C47
330
B
330
0
340
0
340
0
 94
        0
  0
ACAD_ZOMBIE_OBJECT
  5
20
102
{ACAD_XDICTIONARY
360
1252B
102
}
102
{ACAD_REACTORS
330
1E
102
}
100
AcDbZombieObject
 90
      499
 91
      515
 93
      420
310
A00012AAAAAAAA5A69054D6F64656CAA80000000000000000000000000000000000000000000000000000000000000002AAAAAAAA0
330
A
330
0
340
0
340
0
 94
        0
  0
DICTIONARY
  5
1256C
100
AcDbDictionary
  3
ACAD_XREC_ROUNDTRIP
360
1256D
  0
MLINESTYLE
  5
1C
102
{ACAD_REACTORS
330
1B
102
}
100
AcDbMlineStyle
  2
STANDARD
 70
     0
  3

 62
     0
 51
90.0
 52
90.0
 71
     2
 49
0.5
 62
   256
  6
BYLAYER
 49
-0.5
 62
   256
  6
BYLAYER
  0
ACAD_ZOMBIE_OBJECT
  5
1D
102
{ACAD_REACTORS
330
1F
102
}
100
AcDbZombieObject
 90
      499
 91
      518
 93
        0
 94
        0
  0
DICTIONARY
  5
12570
100
AcDbDictionary
  3
ACAD_XREC_ROUNDTRIP
360
12571
  0
ACAD_ZOMBIE_OBJECT
  5
6DD
102
{ACAD_REACTORS
330
6DC
102
}
100
AcDbZombieObject
 90
      499
 91
      525
 93
     1841
310
4214DD185B99185C9928000000000000F83F0000000000003E0FC00000000000004901028000000C1008070000C3001FDFF8000000C1003FBFF000000182007F7FE00000030400FEFFC00000060801FDFF8000000C1003FBFF000000182000000000000000C2020B0000001820100E000186003FBFF000000182007F7FE000
310
00030400FEFFC00000060801FDFF8000000C1003FBFF000000182007F7FE0000003040000000000000012404160000003040201C00030C007F7FE00000030400FEFFC00000060801FDFF8000000C1003FBFF000000182007F7FE00000030400FEFFC000000608000
340
17
340
17
340
17
 94
        0
1001
ACAD
1000
AcadProxyRoundTripData
1071
      524
1071
   393239
1070
     0
  0
XRECORD
  5
12550
102
{ACAD_REACTORS
330
12546
102
}
100
AcDbXrecord
 90
        0
  0
XRECORD
  5
12554
102
{ACAD_REACTORS
330
12546
102
}
100
AcDbXrecord
1000
DSTYLE
1002
{
1070
   278
 70
     0
1070
   371
 70
     0
1070
   372
 70
     0
1002
}
  0
XRECORD
  5
12551
102
{ACAD_REACTORS
330
12546
102
}
100
AcDbXrecord
  1

  0
XRECORD
  5
12549
102
{ACAD_REACTORS
330
12546
102
}
100
AcDbXrecord
  1

  0
XRECORD
  5
1254F
102
{ACAD_REACTORS
330
12546
102
}
100
AcDbXrecord
 90
        0
  0
XRECORD
  5
1254B
102
{ACAD_REACTORS
330
12546
102
}
100
AcDbXrecord
340
1E
  0
XRECORD
  5
1254E
102
{ACAD_REACTORS
330
12546
102
}
100
AcDbXrecord
 90
    10752
  0
XRECORD
  5
1254C
102
{ACAD_REACTORS
330
12546
102
}
100
AcDbXrecord
340
22
  0
XRECORD
  5
1254D
102
{ACAD_REACTORS
330
12546
102
}
100
AcDbXrecord
340
1F
  0
XRECORD
  5
12553
102
{ACAD_REACTORS
330
12546
102
}
100
AcDbXrecord
 40
0.0
  0
XRECORD
  5
12557
102
{ACAD_REACTORS
330
12546
102
}
100
AcDbXrecord
340
0
  0
XRECORD
  5
1255D
102
{ACAD_REACTORS
330
12546
102
}
100
AcDbXrecord
 10
0.0
 20
0.0
 30
0.0
  0
XRECORD
  5
12559
102
{ACAD_REACTORS
330
12546
102
}
100
AcDbXrecord
 10
0.0
 20
0.0
 30
0.0
  0
XRECORD
  5
1255C
102
{ACAD_REACTORS
330
12546
102
}
100
AcDbXrecord
 10
0.0
 20
0.0
 30
0.0
  0
XRECORD
  5
1255A
102
{ACAD_REACTORS
330
12546
102
}
100
AcDbXrecord
 10
0.0
 20
0.0
 30
0.0
  0
XRECORD
  5
1255B
102
{ACAD_REACTORS
330
12546
102
}
100
AcDbXrecord
 10
0.0
 20
0.0
 30
0.0
  0
XRECORD
  5
12558
102
{ACAD_REACTORS
330
12546
102
}
100
AcDbXrecord
 10
0.0
 20
0.0
 30
0.0
  0
XRECORD
  5
12555
102
{ACAD_REACTORS
330
12546
102
}
100
AcDbXrecord
340
0
  0
XRECORD
  5
12556
102
{ACAD_REACTORS
330
12546
102
}
100
AcDbXrecord
 70
     0
  0
XRECORD
  5
1254A
102
{ACAD_REACTORS
330
12546
102
}
100
AcDbXrecord
  1

  0
XRECORD
  5
12547
102
{ACAD_REACTORS
330
12546
102
}
100
AcDbXrecord
 90
        1
  0
XRECORD
  5
12548
102
{ACAD_REACTORS
330
12546
102
}
100
AcDbXrecord
 90
       70
  0
XRECORD
  5
12560
102
{ACAD_REACTORS
330
12546
102
}
100
AcDbXrecord
340
0
  0
XRECORD
  5
12566
102
{ACAD_REACTORS
330
12546
102
}
100
AcDbXrecord
 10
0.0
 20
0.0
 30
0.0
  0
XRECORD
  5
12562
102
{ACAD_REACTORS
330
12546
102
}
100
AcDbXrecord
 10
0.0
 20
0.0
 30
0.0
  0
XRECORD
  5
12565
102
{ACAD_REACTORS
330
12546
102
}
100
AcDbXrecord
 10
0.0
 20
0.0
 30
0.0
  0
XRECORD
  5
12563
102
{ACAD_REACTORS
330
12546
102
}
100
AcDbXrecord
 10
0.0
 20
0.0
 30
0.0
  0
XRECORD
  5
12564
102
{ACAD_REACTORS
330
12546
102
}
100
AcDbXrecord
 10
0.0
 20
0.0
 30
0.0
  0
XRECORD
  5
12561
102
{ACAD_REACTORS
330
12546
102
}
100
AcDbXrecord
 10
0.0
 20
0.0
 30
0.0
  0
XRECORD
  5
1255E
102
{ACAD_REACTORS
330
12546
102
}
100
AcDbXrecord
340
0
  0
XRECORD
  5
1255F
102
{ACAD_REACTORS
330
12546
102
}
100
AcDbXrecord
 70
     0
  0
XRECORD
  5
12552
102
{ACAD_REACTORS
330
12546
102
}
100
AcDbXrecord
  1
{45ECACC7-383B-46E2-968A-F35910B2CBE4}
  0
DICTIONARYVAR
  5
7DB
102
{ACAD_REACTORS
330
7DA
102
}
100
DictionaryVariables
280
     0
  1
STANDARD
  0
DICTIONARYVAR
  5
1A71
102
{ACAD_REACTORS
330
7DA
102
}
100
DictionaryVariables
280
     0
  1
1
  0
DICTIONARYVAR
  5
1A72
102
{ACAD_REACTORS
330
7DA
102
}
100
DictionaryVariables
280
     0
  1

  0
DICTIONARY
  5
12574
100
AcDbDictionary
  3
ACAD_XREC_ROUNDTRIP
360
12575
  0
XRECORD
  5
3572
102
{ACAD_REACTORS
330
3571
102
}
100
AcDbXrecord
330
0
330
0
330
0
330
0
330
0
330
0
330
0
330
0
330
0
330
0
330
0
330
0
330
0
330
0
330
0
330
0
330
0
330
0
330
0
330
0
330
0
330
0
330
0
330
0
330
0
330
0
330
0
330
0
330
0
330
0
330
0
  0
XRECORD
  5
1256F
102
{ACAD_REACTORS
330
1256E
102
}
100
AcDbXrecord
102
EXTNAMES
  1
LAYOUT1
  2
Layout1
  1
MODEL
  2
Model
  0
DICTIONARY
  5
1252D
100
AcDbDictionary
  3
ACAD_XREC_ROUNDTRIP
360
1252E
  0
DICTIONARY
  5
1252B
100
AcDbDictionary
  3
ACAD_XREC_ROUNDTRIP
360
1252C
  0
XRECORD
  5
1256D
102
{ACAD_REACTORS
330
1256C
102
}
100
AcDbXrecord
102
EXTNAMES
  1
STANDARD
  2
Standard
  0
XRECORD
  5
12571
102
{ACAD_REACTORS
330
12570
102
}
100
AcDbXrecord
102
EXTNAMES
  1
STANDARD
  2
Standard
  0
XRECORD
  5
12575
102
{ACAD_REACTORS
330
12574
102
}
100
AcDbXrecord
102
EXTNAMES
  1
ASEBLOCKHIERARCHYINDEXRECORD
  2
ASEBlockHierarchyIndexRecord
  0
XRECORD
  5
1252E
102
{ACAD_REACTORS
330
1252D
102
}
100
AcDbXrecord
102
SHADEPLOT
 70
     0
102
SHADEPLOTRESLEVEL
 70
     2
102
SHADEPLOTCUSTOMDPI
 70
   300
  0
XRECORD
  5
1252C
102
{ACAD_REACTORS
330
1252B
102
}
100
AcDbXrecord
102
SHADEPLOT
 70
     0
102
SHADEPLOTRESLEVEL
 70
     2
102
SHADEPLOTCUSTOMDPI
 70
   300
  0
ENDSEC
  0
EOF
