  0
SECTION
  2
HEADER
  9
$ACADVER
  1
AC1012
  9
$DWGCODEPAGE
  3
ANSI_1252
  9
$INSBASE
 10
0.0
 20
0.0
 30
0.0
  9
$EXTMIN
 10
6.527015
 20
4.096203
 30
-0.001526
  9
$EXTMAX
 10
146.069096
 20
178.606853
 30
0.0
  9
$LIMMIN
 10
19.077216
 20
43.616976
  9
$LIMMAX
 10
194.084622
 20
146.65737
  9
$ORTHOMODE
 70
     1
  9
$REGENMODE
 70
     1
  9
$FILLMODE
 70
     1
  9
$QTEXTMODE
 70
     0
  9
$MIRRTEXT
 70
     1
  9
$DRAGMODE
 70
     2
  9
$LTSCALE
 40
10.0
  9
$OSMODE
 70
    37
  9
$ATTMODE
 70
     1
  9
$TEXTSIZE
 40
0.2
  9
$TRACEWID
 40
0.05
  9
$TEXTSTYLE
  7
STANDARD
  9
$CLAYER
  8
ALPHA
  9
$CELTYPE
  6
CONTINUOUS
  9
$CECOLOR
 62
   256
  9
$CELTSCALE
 40
1.0
  9
$DELOBJ
 70
     1
  9
$DISPSILH
 70
     0
  9
$DIMSCALE
 40
1.0
  9
$DIMASZ
 40
0.18
  9
$DIMEXO
 40
0.0625
  9
$DIMDLI
 40
0.38
  9
$DIMRND
 40
0.0
  9
$DIMDLE
 40
0.0
  9
$DIMEXE
 40
0.18
  9
$DIMTP
 40
0.0
  9
$DIMTM
 40
0.0
  9
$DIMTXT
 40
0.18
  9
$DIMCEN
 40
0.09
  9
$DIMTSZ
 40
0.0
  9
$DIMTOL
 70
     0
  9
$DIMLIM
 70
     0
  9
$DIMTIH
 70
     1
  9
$DIMTOH
 70
     1
  9
$DIMSE1
 70
     0
  9
$DIMSE2
 70
     0
  9
$DIMTAD
 70
     0
  9
$DIMZIN
 70
     0
  9
$DIMBLK
  1

  9
$DIMASO
 70
     1
  9
$DIMSHO
 70
     1
  9
$DIMPOST
  1

  9
$DIMAPOST
  1

  9
$DIMALT
 70
     0
  9
$DIMALTD
 70
     2
  9
$DIMALTF
 40
25.4
  9
$DIMLFAC
 40
1.0
  9
$DIMTOFL
 70
     0
  9
$DIMTVP
 40
0.0
  9
$DIMTIX
 70
     0
  9
$DIMSOXD
 70
     0
  9
$DIMSAH
 70
     0
  9
$DIMBLK1
  1

  9
$DIMBLK2
  1

  9
$DIMSTYLE
  2
STANDARD
  9
$DIMCLRD
 70
     0
  9
$DIMCLRE
 70
     0
  9
$DIMCLRT
 70
     0
  9
$DIMTFAC
 40
1.0
  9
$DIMGAP
 40
0.09
  9
$DIMJUST
 70
     0
  9
$DIMSD1
 70
     0
  9
$DIMSD2
 70
     0
  9
$DIMTOLJ
 70
     1
  9
$DIMTZIN
 70
     0
  9
$DIMALTZ
 70
     0
  9
$DIMALTTZ
 70
     0
  9
$DIMFIT
 70
     3
  9
$DIMUPT
 70
     0
  9
$DIMUNIT
 70
     2
  9
$DIMDEC
 70
     4
  9
$DIMTDEC
 70
     4
  9
$DIMALTU
 70
     2
  9
$DIMALTTD
 70
     2
  9
$DIMTXSTY
  7
STANDARD
  9
$DIMAUNIT
 70
     0
  9
$LUNITS
 70
     2
  9
$LUPREC
 70
     4
  9
$SKETCHINC
 40
0.1
  9
$FILLETRAD
 40
0.0
  9
$AUNITS
 70
     0
  9
$AUPREC
 70
     0
  9
$MENU
  1
acad
  9
$ELEVATION
 40
0.0
  9
$PELEVATION
 40
0.0
  9
$THICKNESS
 40
0.0
  9
$LIMCHECK
 70
     0
  9
$BLIPMODE
 70
     0
  9
$CHAMFERA
 40
0.0
  9
$CHAMFERB
 40
0.0
  9
$CHAMFERC
 40
0.0
  9
$CHAMFERD
 40
0.0
  9
$SKPOLY
 70
     0
  9
$TDCREATE
 40
2453634.413430799
  9
$TDUPDATE
 40
2453893.724912592
  9
$TDINDWG
 40
1.8083887731
  9
$TDUSRTIMER
 40
1.8083876852
  9
$USRTIMER
 70
     1
  9
$ANGBASE
 50
0.0
  9
$ANGDIR
 70
     0
  9
$PDMODE
 70
     0
  9
$PDSIZE
 40
0.0
  9
$PLINEWID
 40
0.0
  9
$COORDS
 70
     1
  9
$SPLFRAME
 70
     0
  9
$SPLINETYPE
 70
     6
  9
$SPLINESEGS
 70
     8
  9
$ATTDIA
 70
     0
  9
$ATTREQ
 70
     1
  9
$HANDLING
 70
     1
  9
$HANDSEED
  5
124AA
  9
$SURFTAB1
 70
     6
  9
$SURFTAB2
 70
     6
  9
$SURFTYPE
 70
     6
  9
$SURFU
 70
     6
  9
$SURFV
 70
     6
  9
$UCSNAME
  2

  9
$UCSORG
 10
0.0
 20
0.0
 30
0.0
  9
$UCSXDIR
 10
1.0
 20
0.0
 30
0.0
  9
$UCSYDIR
 10
0.0
 20
1.0
 30
0.0
  9
$PUCSNAME
  2

  9
$PUCSORG
 10
0.0
 20
0.0
 30
0.0
  9
$PUCSXDIR
 10
1.0
 20
0.0
 30
0.0
  9
$PUCSYDIR
 10
0.0
 20
1.0
 30
0.0
  9
$USERI1
 70
     0
  9
$USERI2
 70
     0
  9
$USERI3
 70
     0
  9
$USERI4
 70
     0
  9
$USERI5
 70
     0
  9
$USERR1
 40
0.0
  9
$USERR2
 40
0.0
  9
$USERR3
 40
0.0
  9
$USERR4
 40
0.0
  9
$USERR5
 40
0.0
  9
$WORLDVIEW
 70
     1
  9
$SHADEDGE
 70
     3
  9
$SHADEDIF
 70
    70
  9
$TILEMODE
 70
     1
  9
$MAXACTVP
 70
    16
  9
$PINSBASE
 10
0.0
 20
0.0
 30
0.0
  9
$PLIMCHECK
 70
     0
  9
$PEXTMIN
 10
1.000000E+20
 20
1.000000E+20
 30
1.000000E+20
  9
$PEXTMAX
 10
-1.000000E+20
 20
-1.000000E+20
 30
-1.000000E+20
  9
$PLIMMIN
 10
0.0
 20
0.0
  9
$PLIMMAX
 10
12.0
 20
9.0
  9
$UNITMODE
 70
     0
  9
$VISRETAIN
 70
     0
  9
$PLINEGEN
 70
     1
  9
$PSLTSCALE
 70
     0
  9
$TREEDEPTH
 70
  3020
  9
$PICKSTYLE
 70
     0
  9
$CMLSTYLE
  2
STANDARD
  9
$CMLJUST
 70
     0
  9
$CMLSCALE
 40
1.0
  9
$SAVEIMAGES
 70
     0
  0
ENDSEC
  0
SECTION
  2
CLASSES
  0
CLASS
  1
LWPOLYLINE
  2
AcDbPolyline
  3
"AutoCAD"
 90
    32768
280
     0
281
     1
  0
CLASS
  1
IMAGE
  2
AcDbRasterImage
  3
ISM
 90
    32895
280
     0
281
     1
  0
CLASS
  1
OLE2FRAME
  2
AcDbOle2Frame
  3
""
 90
    32768
280
     0
281
     1
  0
CLASS
  1
HATCH
  2
AcDbHatch
  3
"ACAD_SEDONA"
 90
    32768
280
     0
281
     1
  0
CLASS
  1
DICTIONARYVAR
  2
AcDbDictionaryVar
  3
"AutoCAD"
 90
    32768
280
     0
281
     0
  0
CLASS
  1
RASTERVARIABLES
  2
AcDbRasterVariables
  3
ISM
 90
    32768
280
     0
281
     0
  0
CLASS
  1
IMAGEDEF
  2
AcDbRasterImageDef
  3
ISM
 90
    32768
280
     0
281
     0
  0
CLASS
  1
IMAGEDEF_REACTOR
  2
AcDbRasterImageDefReactor
  3
ISM
 90
    32769
280
     0
281
     0
  0
CLASS
  1
SPATIAL_FILTER
  2
AcDbSpatialFilter
  3
"Acad"
 90
    32768
280
     0
281
     0
  0
CLASS
  1
XRECORD
  2
AcDbXrecord
  3
"<Built In>"
 90
    32768
280
     0
281
     0
  0
CLASS
  1
SORTENTSTABLE
  2
AcDbSortentsTable
  3
"AutoCAD"
 90
    32768
280
     0
281
     0
  0
CLASS
  1
LAYER_INDEX
  2
AcDbLayerIndex
  3
"Acad"
 90
    32768
280
     0
281
     0
  0
CLASS
  1
SPATIAL_INDEX
  2
AcDbSpatialIndex
  3
"Acad"
 90
    32768
280
     0
281
     0
  0
CLASS
  1
OBJECT_PTR
  2
CAseDLPNTableRecord
  3
ASE-LPNTableRecord
 90
    32769
280
     0
281
     0
  0
CLASS
  1
LAYOUT
  2
AcDbLayout
  3
AutoCAD 2000
 90
    32768
280
     0
281
     0
  0
CLASS
  1
PLOTSETTINGS
  2
AcDbPlotSettings
  3
AutoCAD 2000
 90
    32768
280
     0
281
     0
  0
CLASS
  1
ACDBDICTIONARYWDFLT
  2
AcDbDictionaryWithDefault
  3
AutoCAD 2000
 90
    32768
280
     0
281
     0
  0
CLASS
  1
ACDBPLACEHOLDER
  2
AcDbPlaceHolder
  3
AutoCAD 2000
 90
    32768
280
     0
281
     0
  0
CLASS
  1
VBA_PROJECT
  2
AcDbVbaProject
  3
acad
 90
    32768
280
     0
281
     0
  0
CLASS
  1
WIPEOUT
  2
AcDbWipeout
  3
WipeOut|AutoCAD Express Tool|expresstools@autodesk.com
 90
    32895
280
     0
281
     1
  0
CLASS
  1
WIPEOUTVARIABLES
  2
AcDbWipeoutVariables
  3
WipeOut|AutoCAD Express Tool|expresstools@autodesk.com
 90
    32768
280
     0
281
     0
  0
CLASS
  1
RTEXT
  2
RText
  3
RText|AutoCAD Express Tool|expresstools@autodesk.com
 90
    32768
280
     0
281
     1
  0
CLASS
  1
ARCALIGNEDTEXT
  2
AcDbArcAlignedText
  3
ATEXT|AutoCAD Express Tool|expresstools@autodesk.com
 90
    32768
280
     0
281
     1
  0
CLASS
  1
TABLESTYLE
  2
AcDbTableStyle
  3
ObjectDBX Classes
 90
    34815
280
     0
281
     0
  0
CLASS
  1
ACAD_PROXY_OBJECT_WRAPPER
  2
AcDbProxyObjectWrapper
  3
AutoCAD 2000
 90
    32768
280
     0
281
     0
  0
CLASS
  1
LONG_TRANSACTION
  2
AcDbLongTransaction
  3
AutoCAD 2000
 90
    32768
280
     0
281
     0
  0
CLASS
  1
LWPOLYLINE
  2
AcDbPolyline
  3
"AutoCAD"
 90
    32768
280
     0
281
     1
  0
CLASS
  1
HATCH
  2
AcDbHatch
  3
"ACAD_SEDONA"
 90
    32768
280
     0
281
     1
  0
CLASS
  1
XRECORD
  2
AcDbXrecord
  3
"<Built In>"
 90
    32768
280
     0
281
     0
  0
ENDSEC
  0
SECTION
  2
TABLES
  0
TABLE
  2
VPORT
  5
7
100
AcDbSymbolTable
 70
     2
  0
VPORT
  5
124A9
100
AcDbSymbolTableRecord
100
AcDbViewportTableRecord
  2
*ACTIVE
 70
     0
 10
0.0
 20
0.0
 11
1.0
 21
1.0
 12
76.298056
 22
91.351528
 13
0.0
 23
0.0
 14
1.0
 24
1.0
 15
0.0
 25
0.0
 16
0.0
 26
0.0
 36
1.0
 17
0.0
 27
0.0
 37
0.0
 40
176.325319
 41
1.673611
 42
50.0
 43
0.0
 44
0.0
 50
0.0
 51
0.0
 71
     0
 72
   100
 73
     1
 74
     2
 75
     0
 76
     0
 77
     0
 78
     0
  0
ENDTAB
  0
TABLE
  2
LTYPE
  5
4
100
AcDbSymbolTable
 70
     2
  0
LTYPE
  5
11
102
{ACAD_XDICTIONARY
360
12466
102
}
100
AcDbSymbolTableRecord
100
AcDbLinetypeTableRecord
  2
BYBLOCK
 70
     0
  3

 72
    65
 73
     0
 40
0.0
  0
LTYPE
  5
12
102
{ACAD_XDICTIONARY
360
12468
102
}
100
AcDbSymbolTableRecord
100
AcDbLinetypeTableRecord
  2
BYLAYER
 70
     0
  3

 72
    65
 73
     0
 40
0.0
  0
LTYPE
  5
13
102
{ACAD_XDICTIONARY
360
1246A
102
}
100
AcDbSymbolTableRecord
100
AcDbLinetypeTableRecord
  2
CONTINUOUS
 70
     0
  3
Solid line
 72
    65
 73
     0
 40
0.0
  0
LTYPE
  5
725
100
AcDbSymbolTableRecord
100
AcDbLinetypeTableRecord
  2
AXES2
 70
     0
  3
___ _ ___ _ ___ _ ___ _ ___ _ ___ _ ___ _ ___ _
 72
    65
 73
     4
 40
1.125
 49
0.75
 74
     0
 49
-0.125
 74
     0
 49
0.125
 74
     0
 49
-0.125
 74
     0
  0
ENDTAB
  0
TABLE
  2
LAYER
  5
2
102
{ACAD_XDICTIONARY
360
26F0
102
}
100
AcDbSymbolTable
 70
     5
  0
LAYER
  5
14
100
AcDbSymbolTableRecord
100
AcDbLayerTableRecord
  2
0
 70
     0
 62
     7
  6
CONTINUOUS
  0
LAYER
  5
6EC
102
{ACAD_XDICTIONARY
360
12464
102
}
100
AcDbSymbolTableRecord
100
AcDbLayerTableRecord
  2
DEFPOINTS
 70
     0
 62
     7
  6
CONTINUOUS
  0
LAYER
  5
727
100
AcDbSymbolTableRecord
100
AcDbLayerTableRecord
  2
COTATION1
 70
     0
 62
     2
  6
CONTINUOUS
  0
LAYER
  5
728
100
AcDbSymbolTableRecord
100
AcDbLayerTableRecord
  2
AXE
 70
     0
 62
    80
  6
AXES2
  0
LAYER
  5
729
100
AcDbSymbolTableRecord
100
AcDbLayerTableRecord
  2
ALPHA
 70
     0
 62
   254
  6
CONTINUOUS
  0
ENDTAB
  0
TABLE
  2
STYLE
  5
3
100
AcDbSymbolTable
 70
     2
  0
STYLE
  5
17
102
{ACAD_XDICTIONARY
360
12470
102
}
100
AcDbSymbolTableRecord
100
AcDbTextStyleTableRecord
  2
STANDARD
 70
     0
 40
0.0
 41
1.0
 50
0.0
 71
     0
 42
0.0
  3
txt
  4

  0
STYLE
  5
72B
100
AcDbSymbolTableRecord
100
AcDbTextStyleTableRecord
  2
ROMANS
 70
     0
 40
0.0
 41
1.0
 50
0.0
 71
     0
 42
6.0
  3
romans
  4

  0
ENDTAB
  0
TABLE
  2
VIEW
  5
5
100
AcDbSymbolTable
 70
     0
  0
ENDTAB
  0
TABLE
  2
UCS
  5
6
100
AcDbSymbolTable
 70
     0
  0
ENDTAB
  0
TABLE
  2
APPID
  5
8
100
AcDbSymbolTable
 70
     4
  0
APPID
  5
16
100
AcDbSymbolTableRecord
100
AcDbRegAppTableRecord
  2
ACAD
 70
     0
  0
APPID
  5
26EF
102
{ACAD_XDICTIONARY
360
1246C
102
}
100
AcDbSymbolTableRecord
100
AcDbRegAppTableRecord
  2
ACAECLAYERSTANDARD
 70
     0
  0
APPID
  5
320E
100
AcDbSymbolTableRecord
100
AcDbRegAppTableRecord
  2
DCO15
 70
     0
  0
APPID
  5
3569
102
{ACAD_XDICTIONARY
360
1246E
102
}
100
AcDbSymbolTableRecord
100
AcDbRegAppTableRecord
  2
ACAD_EXEMPT_FROM_CAD_STAND
 70
     0
  0
ENDTAB
  0
TABLE
  2
DIMSTYLE
  5
9
100
AcDbSymbolTable
 70
     2
  0
DIMSTYLE
105
18
102
{ACAD_XDICTIONARY
360
12462
102
}
100
AcDbSymbolTableRecord
100
AcDbDimStyleTableRecord
  2
STANDARD
 70
     0
  3

  4

  5

  6

  7

 40
1.0
 41
0.18
 42
0.0625
 43
0.38
 44
0.18
 45
0.0
 46
0.0
 47
0.0
 48
0.0
140
0.18
141
0.09
142
0.0
143
25.4
144
1.0
145
0.0
146
1.0
147
0.09
 71
     0
 72
     0
 73
     1
 74
     1
 75
     0
 76
     0
 77
     0
 78
     0
170
     0
171
     2
172
     0
173
     0
174
     0
175
     0
176
     0
177
     0
178
     0
270
     2
271
     4
272
     4
273
     2
274
     2
340
17
275
     0
280
     0
281
     0
282
     0
283
     1
284
     0
285
     0
286
     0
287
     3
288
     0
  0
DIMSTYLE
105
72C
102
{ACAD_XDICTIONARY
360
124A0
102
}
102
{ACAD_REACTORS
330
1015F
330
10160
102
}
100
AcDbSymbolTableRecord
100
AcDbDimStyleTableRecord
  2
SC_DEFAUT
 70
     0
  3

  4

  5
OPEN30
  6

  7

 40
1.0
 41
5.0
 42
2.0
 43
0.38
 44
2.5
 45
0.0
 46
0.0
 47
0.0
 48
0.0
140
2.5
141
0.0
142
0.0
143
25.4
144
1.0
145
0.0
146
1.0
147
2.0
 71
     0
 72
     0
 73
     1
 74
     1
 75
     0
 76
     0
 77
     1
 78
    12
170
     0
171
     2
172
     0
173
     0
174
     0
175
     0
176
     0
177
     0
178
     0
270
     2
271
     1
272
     1
273
     2
274
     2
340
72B
275
     0
280
     0
281
     0
282
     0
283
     1
284
    12
285
    12
286
    12
287
     5
288
     0
  0
ENDTAB
  0
TABLE
  2
BLOCK_RECORD
  5
1
100
AcDbSymbolTable
 70
     3
  0
BLOCK_RECORD
  5
A
102
{ACAD_XDICTIONARY
360
7D7
102
}
100
AcDbSymbolTableRecord
100
AcDbBlockTableRecord
  2
*MODEL_SPACE
  0
BLOCK_RECORD
  5
B
102
{ACAD_XDICTIONARY
360
12496
102
}
100
AcDbSymbolTableRecord
100
AcDbBlockTableRecord
  2
*PAPER_SPACE
  0
BLOCK_RECORD
  5
6FA
100
AcDbSymbolTableRecord
100
AcDbBlockTableRecord
  2
_OPEN30
  0
BLOCK_RECORD
  5
10161
100
AcDbSymbolTableRecord
100
AcDbBlockTableRecord
  2
*D1
  0
BLOCK_RECORD
  5
1016D
100
AcDbSymbolTableRecord
100
AcDbBlockTableRecord
  2
*D2
  0
ENDTAB
  0
ENDSEC
  0
SECTION
  2
BLOCKS
  0
BLOCK
  5
D
100
AcDbEntity
  8
0
100
AcDbBlockBegin
  2
*MODEL_SPACE
 70
     0
 10
0.0
 20
0.0
 30
0.0
  3
*MODEL_SPACE
  1

  0
ENDBLK
  5
E
100
AcDbEntity
  8
0
100
AcDbBlockEnd
  0
BLOCK
  5
F
100
AcDbEntity
 67
     1
  8
0
100
AcDbBlockBegin
  2
*PAPER_SPACE
 70
     0
 10
0.0
 20
0.0
 30
0.0
  3
*PAPER_SPACE
  1

  0
ENDBLK
  5
10
100
AcDbEntity
 67
     1
  8
0
100
AcDbBlockEnd
  0
BLOCK
  5
6FB
100
AcDbEntity
  8
0
100
AcDbBlockBegin
  2
_OPEN30
 70
     0
 10
0.0
 20
0.0
 30
0.0
  3
_OPEN30
  1

  0
LINE
  5
6FC
100
AcDbEntity
  8
COTATION1
 62
     0
100
AcDbLine
 10
-1.0
 20
0.267949
 30
0.0
 11
0.0
 21
0.0
 31
0.0
1001
ACAD
1000
RTLwPs
1070
   158
  0
LINE
  5
6FD
100
AcDbEntity
  8
COTATION1
 62
     0
100
AcDbLine
 10
0.0
 20
0.0
 30
0.0
 11
-1.0
 21
-0.267949
 31
0.0
1001
ACAD
1000
RTLwPs
1070
   158
  0
LINE
  5
6FE
100
AcDbEntity
  8
COTATION1
 62
     0
100
AcDbLine
 10
0.0
 20
0.0
 30
0.0
 11
-1.0
 21
0.0
 31
0.0
1001
ACAD
1000
RTLwPs
1070
   158
  0
ENDBLK
  5
6FF
100
AcDbEntity
  8
0
100
AcDbBlockEnd
  0
BLOCK
  5
1016B
100
AcDbEntity
  8
0
100
AcDbBlockBegin
  2
*D1
 70
     1
 10
0.0
 20
0.0
 30
0.0
  3
*D1
  1

1001
ACAD
1000
RTLwPs
1070
   128
  0
LINE
  5
1244E
100
AcDbEntity
  8
COTATION1
 62
     0
100
AcDbLine
 10
118.032738
 20
154.101528
 30
0.0
 11
118.032738
 21
176.601528
 31
0.0
1001
ACAD
1000
RTLwPs
1070
   158
  0
LINE
  5
1244F
100
AcDbEntity
  8
COTATION1
 62
     0
100
AcDbLine
 10
11.532738
 20
154.101528
 30
0.0
 11
11.532738
 21
176.601528
 31
0.0
1001
ACAD
1000
RTLwPs
1070
   158
  0
LINE
  5
12450
100
AcDbEntity
  8
COTATION1
 62
     0
100
AcDbLine
 10
113.032738
 20
174.101528
 30
0.0
 11
16.532738
 21
174.101528
 31
0.0
1001
ACAD
1000
RTLwPs
1070
   158
  0
INSERT
  5
12451
100
AcDbEntity
  8
COTATION1
 62
     0
100
AcDbBlockReference
  2
_OPEN30
 10
118.032738
 20
174.101528
 30
0.0
 41
5.0
 42
5.0
 43
5.0
1001
ACAD
1000
RTLwPs
1070
   158
  0
INSERT
  5
12452
100
AcDbEntity
  8
COTATION1
 62
     0
100
AcDbBlockReference
  2
_OPEN30
 10
11.532738
 20
174.101528
 30
0.0
 41
5.0
 42
5.0
 43
5.0
 50
180.0
1001
ACAD
1000
RTLwPs
1070
   158
  0
MTEXT
  5
12453
100
AcDbEntity
  8
COTATION1
 62
     0
100
AcDbMText
 10
64.782738
 20
177.351528
 30
0.0
 40
2.5
 41
0.0
 71
     5
 72
     1
  1
\A1;106.5
  7
ROMANS
1001
ACAD
1000
MTEXTBEGIN
1070
    73
1070
     1
1070
    44
1040
1.0
1070
    74
1070
     0
1000
MTEXTEND
1000
MTEXTBEGIN
1070
    73
1070
     1
1070
    44
1040
1.0
1070
    74
1070
     0
1000
MTEXTEND
  0
POINT
  5
12454
100
AcDbEntity
  8
DEFPOINTS
 62
     0
100
AcDbPoint
 10
118.032738
 20
152.101528
 30
0.0
1001
ACAD
1000
RTLwPs
1070
   128
  0
POINT
  5
12455
100
AcDbEntity
  8
DEFPOINTS
 62
     0
100
AcDbPoint
 10
11.532738
 20
152.101528
 30
0.0
1001
ACAD
1000
RTLwPs
1070
   128
  0
POINT
  5
12456
100
AcDbEntity
  8
DEFPOINTS
 62
     0
100
AcDbPoint
 10
11.532738
 20
174.101528
 30
0.0
1001
ACAD
1000
RTLwPs
1070
   128
  0
ENDBLK
  5
1016C
100
AcDbEntity
  8
0
100
AcDbBlockEnd
1001
ACAD
1000
RTLwPs
1070
   128
  0
BLOCK
  5
10178
100
AcDbEntity
  8
0
100
AcDbBlockBegin
  2
*D2
 70
     1
 10
0.0
 20
0.0
 30
0.0
  3
*D2
  1

1001
ACAD
1000
RTLwPs
1070
   128
  0
LINE
  5
12442
100
AcDbEntity
  8
COTATION1
 62
     0
100
AcDbLine
 10
113.032738
 20
159.101528
 30
0.0
 11
145.532738
 21
159.101528
 31
0.0
1001
ACAD
1000
RTLwPs
1070
   158
  0
LINE
  5
12443
100
AcDbEntity
  8
COTATION1
 62
     0
100
AcDbLine
 10
113.032738
 20
19.101528
 30
0.0
 11
145.532738
 21
19.101528
 31
0.0
1001
ACAD
1000
RTLwPs
1070
   158
  0
LINE
  5
12444
100
AcDbEntity
  8
COTATION1
 62
     0
100
AcDbLine
 10
143.032738
 20
154.101528
 30
0.0
 11
143.032738
 21
92.351528
 31
0.0
1001
ACAD
1000
RTLwPs
1070
   158
  0
LINE
  5
12445
100
AcDbEntity
  8
COTATION1
 62
     0
100
AcDbLine
 10
143.032738
 20
24.101528
 30
0.0
 11
143.032738
 21
85.851528
 31
0.0
1001
ACAD
1000
RTLwPs
1070
   158
  0
INSERT
  5
12446
100
AcDbEntity
  8
COTATION1
 62
     0
100
AcDbBlockReference
  2
_OPEN30
 10
143.032738
 20
159.101528
 30
0.0
 41
5.0
 42
5.0
 43
5.0
 50
90.0
1001
ACAD
1000
RTLwPs
1070
   158
  0
INSERT
  5
12447
100
AcDbEntity
  8
COTATION1
 62
     0
100
AcDbBlockReference
  2
_OPEN30
 10
143.032738
 20
19.101528
 30
0.0
 41
5.0
 42
5.0
 43
5.0
 50
270.0
1001
ACAD
1000
RTLwPs
1070
   158
  0
MTEXT
  5
12448
100
AcDbEntity
  8
COTATION1
 62
     0
100
AcDbMText
 10
143.032738
 20
89.101528
 30
0.0
 40
2.5
 41
0.0
 71
     5
 72
     1
  1
\A1;140
  7
ROMANS
1001
ACAD
1000
MTEXTBEGIN
1070
    73
1070
     1
1070
    44
1040
1.0
1070
    74
1070
     0
1000
MTEXTEND
1000
MTEXTBEGIN
1070
    73
1070
     1
1070
    44
1040
1.0
1070
    74
1070
     0
1000
MTEXTEND
  0
POINT
  5
12449
100
AcDbEntity
  8
DEFPOINTS
 62
     0
100
AcDbPoint
 10
111.032738
 20
159.101528
 30
0.0
1001
ACAD
1000
RTLwPs
1070
   128
  0
POINT
  5
1244A
100
AcDbEntity
  8
DEFPOINTS
 62
     0
100
AcDbPoint
 10
111.032738
 20
19.101528
 30
0.0
1001
ACAD
1000
RTLwPs
1070
   128
  0
POINT
  5
1244B
100
AcDbEntity
  8
DEFPOINTS
 62
     0
100
AcDbPoint
 10
143.032738
 20
19.101528
 30
0.0
1001
ACAD
1000
RTLwPs
1070
   128
  0
ENDBLK
  5
10179
100
AcDbEntity
  8
0
100
AcDbBlockEnd
1001
ACAD
1000
RTLwPs
1070
   128
  0
ENDSEC
  0
SECTION
  2
ENTITIES
  0
LINE
  5
100C6
100
AcDbEntity
  8
ALPHA
  6
CONTINUOUS
100
AcDbLine
 10
11.532738
 20
152.101528
 30
0.0
 11
11.532738
 21
26.101528
 31
0.0
1001
ACAD
1000
RTLwPs
1070
   128
  0
LINE
  5
100C7
100
AcDbEntity
  8
ALPHA
  6
CONTINUOUS
100
AcDbLine
 10
64.782738
 20
159.101528
 30
0.0
 11
18.532738
 21
159.101528
 31
0.0
1001
ACAD
1000
RTLwPs
1070
   128
  0
LINE
  5
100C8
100
AcDbEntity
  8
AXE
100
AcDbLine
 10
64.782738
 20
164.101528
 30
0.0
 11
64.782738
 21
4.101528
 31
0.0
  0
ARC
  5
100C9
100
AcDbEntity
  8
ALPHA
  6
CONTINUOUS
100
AcDbCircle
 10
18.532738
 20
152.101528
 30
0.0
 40
7.0
100
AcDbArc
 50
90.0
 51
180.0
1001
ACAD
1000
RTLwPs
1070
   128
  0
LINE
  5
100CA
100
AcDbEntity
  8
ALPHA
  6
CONTINUOUS
100
AcDbLine
 10
64.782738
 20
19.101528
 30
0.0
 11
18.532738
 21
19.101528
 31
0.0
1001
ACAD
1000
RTLwPs
1070
   128
  0
ARC
  5
100CB
100
AcDbEntity
  8
ALPHA
  6
CONTINUOUS
100
AcDbCircle
 10
18.532738
 20
26.101528
 30
0.0
 40
7.0
100
AcDbArc
 50
180.0
 51
270.0
1001
ACAD
1000
RTLwPs
1070
   128
  0
LINE
  5
1013F
100
AcDbEntity
  8
ALPHA
  6
CONTINUOUS
100
AcDbLine
 10
64.782738
 20
122.601528
 30
0.0
 11
94.782738
 21
122.601528
 31
0.0
1001
ACAD
1000
RTLwPs
1070
   128
  0
LINE
  5
10140
100
AcDbEntity
  8
ALPHA
  6
CONTINUOUS
100
AcDbLine
 10
64.782738
 20
116.601528
 30
0.0
 11
88.782738
 21
116.601528
 31
0.0
1001
ACAD
1000
RTLwPs
1070
   128
  0
LINE
  5
10141
100
AcDbEntity
  8
ALPHA
  6
CONTINUOUS
100
AcDbLine
 10
64.782738
 20
72.601528
 30
0.0
 11
94.782738
 21
72.601528
 31
0.0
1001
ACAD
1000
RTLwPs
1070
   128
  0
LINE
  5
10142
100
AcDbEntity
  8
ALPHA
  6
CONTINUOUS
100
AcDbLine
 10
64.782738
 20
78.601528
 30
0.0
 11
88.782738
 21
78.601528
 31
0.0
1001
ACAD
1000
RTLwPs
1070
   128
  0
ARC
  5
10143
100
AcDbEntity
  8
ALPHA
  6
CONTINUOUS
100
AcDbCircle
 10
94.782738
 20
78.601528
 30
0.0
 40
6.0
100
AcDbArc
 50
270.0
 51
0.0
1001
ACAD
1000
RTLwPs
1070
   128
  0
LINE
  5
10144
100
AcDbEntity
  8
ALPHA
  6
CONTINUOUS
100
AcDbLine
 10
100.782738
 20
116.601528
 30
0.0
 11
100.782738
 21
78.601528
 31
0.0
1001
ACAD
1000
RTLwPs
1070
   128
  0
LINE
  5
10145
100
AcDbEntity
  8
ALPHA
  6
CONTINUOUS
100
AcDbLine
 10
95.782738
 20
109.601528
 30
0.0
 11
95.782738
 21
85.601528
 31
0.0
1001
ACAD
1000
RTLwPs
1070
   128
  0
ARC
  5
10146
100
AcDbEntity
  8
ALPHA
  6
CONTINUOUS
100
AcDbCircle
 10
88.782738
 20
85.601528
 30
0.0
 40
7.0
100
AcDbArc
 50
270.0
 51
0.0
1001
ACAD
1000
RTLwPs
1070
   128
  0
ARC
  5
10147
100
AcDbEntity
  8
ALPHA
  6
CONTINUOUS
100
AcDbCircle
 10
88.782738
 20
109.601528
 30
0.0
 40
7.0
100
AcDbArc
 50
0.0
 51
90.0
1001
ACAD
1000
RTLwPs
1070
   128
  0
ARC
  5
10148
100
AcDbEntity
  8
ALPHA
  6
CONTINUOUS
100
AcDbCircle
 10
94.782738
 20
116.601528
 30
0.0
 40
6.0
100
AcDbArc
 50
0.0
 51
90.0
1001
ACAD
1000
RTLwPs
1070
   128
  0
LINE
  5
10149
100
AcDbEntity
  8
ALPHA
  6
CONTINUOUS
100
AcDbLine
 10
73.282738
 20
78.601528
 30
0.0
 11
73.282738
 21
116.601528
 31
0.0
1001
ACAD
1000
RTLwPs
1070
   128
  0
LINE
  5
1014A
100
AcDbEntity
  8
ALPHA
  6
CONTINUOUS
100
AcDbLine
 10
64.782738
 20
122.601528
 30
0.0
 11
34.782738
 21
122.601528
 31
0.0
1001
ACAD
1000
RTLwPs
1070
   128
  0
LINE
  5
1014B
100
AcDbEntity
  8
ALPHA
  6
CONTINUOUS
100
AcDbLine
 10
64.782738
 20
116.601528
 30
0.0
 11
40.782738
 21
116.601528
 31
0.0
1001
ACAD
1000
RTLwPs
1070
   128
  0
LINE
  5
1014C
100
AcDbEntity
  8
ALPHA
  6
CONTINUOUS
100
AcDbLine
 10
64.782738
 20
72.601528
 30
0.0
 11
34.782738
 21
72.601528
 31
0.0
1001
ACAD
1000
RTLwPs
1070
   128
  0
LINE
  5
1014D
100
AcDbEntity
  8
ALPHA
  6
CONTINUOUS
100
AcDbLine
 10
64.782738
 20
78.601528
 30
0.0
 11
40.782738
 21
78.601528
 31
0.0
1001
ACAD
1000
RTLwPs
1070
   128
  0
ARC
  5
1014E
100
AcDbEntity
  8
ALPHA
  6
CONTINUOUS
100
AcDbCircle
 10
34.782738
 20
78.601528
 30
0.0
 40
6.0
100
AcDbArc
 50
180.0
 51
270.0
1001
ACAD
1000
RTLwPs
1070
   128
  0
LINE
  5
1014F
100
AcDbEntity
  8
ALPHA
  6
CONTINUOUS
100
AcDbLine
 10
28.782738
 20
116.601528
 30
0.0
 11
28.782738
 21
78.601528
 31
0.0
1001
ACAD
1000
RTLwPs
1070
   128
  0
LINE
  5
10150
100
AcDbEntity
  8
ALPHA
  6
CONTINUOUS
100
AcDbLine
 10
33.782738
 20
109.601528
 30
0.0
 11
33.782738
 21
85.601528
 31
0.0
1001
ACAD
1000
RTLwPs
1070
   128
  0
ARC
  5
10151
100
AcDbEntity
  8
ALPHA
  6
CONTINUOUS
100
AcDbCircle
 10
40.782738
 20
85.601528
 30
0.0
 40
7.0
100
AcDbArc
 50
180.0
 51
270.0
1001
ACAD
1000
RTLwPs
1070
   128
  0
ARC
  5
10152
100
AcDbEntity
  8
ALPHA
  6
CONTINUOUS
100
AcDbCircle
 10
40.782738
 20
109.601528
 30
0.0
 40
7.0
100
AcDbArc
 50
90.0
 51
180.0
1001
ACAD
1000
RTLwPs
1070
   128
  0
ARC
  5
10153
100
AcDbEntity
  8
ALPHA
  6
CONTINUOUS
100
AcDbCircle
 10
34.782738
 20
116.601528
 30
0.0
 40
6.0
100
AcDbArc
 50
90.0
 51
180.0
1001
ACAD
1000
RTLwPs
1070
   128
  0
LINE
  5
10155
100
AcDbEntity
  8
ALPHA
  6
CONTINUOUS
100
AcDbLine
 10
118.032738
 20
152.101528
 30
0.0
 11
118.032738
 21
26.101528
 31
0.0
1001
ACAD
1000
RTLwPs
1070
   128
  0
LINE
  5
10156
100
AcDbEntity
  8
ALPHA
  6
CONTINUOUS
100
AcDbLine
 10
64.782738
 20
159.101528
 30
0.0
 11
111.032738
 21
159.101528
 31
0.0
1001
ACAD
1000
RTLwPs
1070
   128
  0
ARC
  5
10157
100
AcDbEntity
  8
ALPHA
  6
CONTINUOUS
100
AcDbCircle
 10
111.032738
 20
152.101528
 30
0.0
 40
7.0
100
AcDbArc
 50
0.0
 51
90.0
1001
ACAD
1000
RTLwPs
1070
   128
  0
LINE
  5
10158
100
AcDbEntity
  8
ALPHA
  6
CONTINUOUS
100
AcDbLine
 10
64.782738
 20
19.101528
 30
0.0
 11
111.032738
 21
19.101528
 31
0.0
1001
ACAD
1000
RTLwPs
1070
   128
  0
ARC
  5
10159
100
AcDbEntity
  8
ALPHA
  6
CONTINUOUS
100
AcDbCircle
 10
111.032738
 20
26.101528
 30
0.0
 40
7.0
100
AcDbArc
 50
270.0
 51
0.0
1001
ACAD
1000
RTLwPs
1070
   128
  0
TEXT
  5
1015A
100
AcDbEntity
  8
AXE
100
AcDbText
 10
57.306548
 20
4.101528
 30
0.0
 40
8.0
  1
Y
  7
ROMANS
 72
     2
 11
63.782738
 21
4.101528
 31
0.0
100
AcDbText
  0
TEXT
  5
1015B
100
AcDbEntity
  8
AXE
100
AcDbText
 10
126.516866
 20
90.105797
 30
0.0
 40
8.0
  1
X
  7
ROMANS
 72
     2
 11
132.993056
 21
90.105797
 31
0.0
100
AcDbText
  0
LINE
  5
1015C
100
AcDbEntity
  8
AXE
100
AcDbLine
 10
133.032738
 20
89.101528
 30
0.0
 11
6.532738
 21
89.101528
 31
0.0
  0
DIMENSION
  5
1015F
100
AcDbEntity
  8
COTATION1
100
AcDbDimension
  2
*D1
 10
11.532738
 20
174.101528
 30
0.0
 11
64.782738
 21
177.351528
 31
0.0
 70
    32
  3
SC_DEFAUT
100
AcDbAlignedDimension
 13
118.032738
 23
152.101528
 33
0.0
 14
11.532738
 24
152.101528
 34
0.0
100
AcDbRotatedDimension
  0
DIMENSION
  5
10160
100
AcDbEntity
  8
COTATION1
100
AcDbDimension
  2
*D2
 10
143.032738
 20
19.101528
 30
0.0
 11
143.032738
 21
89.101528
 31
0.0
 70
    32
  3
SC_DEFAUT
100
AcDbAlignedDimension
 13
111.032738
 23
159.101528
 33
0.0
 14
111.032738
 24
19.101528
 34
0.0
 50
90.0
100
AcDbRotatedDimension
  0
CIRCLE
  5
12371
100
AcDbEntity
  8
ALPHA
  6
CONTINUOUS
100
AcDbCircle
 10
64.782738
 20
140.101528
 30
0.0
 40
8.5
1001
ACAD
1000
RTLwPs
1070
   128
  0
CIRCLE
  5
12382
100
AcDbEntity
  8
ALPHA
  6
CONTINUOUS
100
AcDbCircle
 10
64.782738
 20
152.601528
 30
0.0
 40
2.75
1001
ACAD
1000
RTLwPs
1070
   128
  0
CIRCLE
  5
12383
100
AcDbEntity
  8
ALPHA
  6
CONTINUOUS
100
AcDbCircle
 10
64.782738
 20
25.601528
 30
0.0
 40
2.75
1001
ACAD
1000
RTLwPs
1070
   128
  0
ENDSEC
  0
SECTION
  2
OBJECTS
  0
DICTIONARY
  5
19
102
{ACAD_XDICTIONARY
360
12498
102
}
100
AcDbDictionary
  3
ACAD_COLOR
350
6DB
  3
ACAD_GROUP
350
1A
  3
ACAD_LAYOUT
350
1E
  3
ACAD_MATERIAL
350
6DA
  3
ACAD_MLINESTYLE
350
1B
  3
ACAD_PLOTSETTINGS
350
22
  3
ACAD_PLOTSTYLENAME
350
1F
  3
ACAD_TABLESTYLE
350
6DC
  3
ACAD_WIPEOUT_VARS
350
23
  3
ACDBHEADERROUNDTRIPXREC
350
12474
  3
ACDBVARIABLEDICTIONARY
350
7DA
  3
ASE_INDEX_DICTIONARY
350
3571
  0
DICTIONARY
  5
12466
100
AcDbDictionary
  3
ACAD_XREC_ROUNDTRIP
360
12467
  0
DICTIONARY
  5
12468
100
AcDbDictionary
  3
ACAD_XREC_ROUNDTRIP
360
12469
  0
DICTIONARY
  5
1246A
100
AcDbDictionary
  3
ACAD_XREC_ROUNDTRIP
360
1246B
  0
DICTIONARY
  5
26F0
100
AcDbDictionary
  3
ACAD_LAYERFILTERS
360
26F2
  3
ACAD_LAYERSTATES
360
3474
  3
ACLYDICTIONARY
360
26F1
  0
DICTIONARY
  5
12464
100
AcDbDictionary
  3
ACAD_XREC_ROUNDTRIP
360
12465
  0
DICTIONARY
  5
12470
100
AcDbDictionary
  3
ACAD_XREC_ROUNDTRIP
360
12471
  0
DICTIONARY
  5
1246C
100
AcDbDictionary
  3
ACAD_XREC_ROUNDTRIP
360
1246D
  0
DICTIONARY
  5
1246E
100
AcDbDictionary
  3
ACAD_XREC_ROUNDTRIP
360
1246F
  0
DICTIONARY
  5
12462
100
AcDbDictionary
  3
ACAD_XREC_ROUNDTRIP
360
12463
  0
DICTIONARY
  5
124A0
100
AcDbDictionary
  3
ACAD_XREC_ROUNDTRIP
360
124A1
  0
DICTIONARY
  5
7D7
100
AcDbDictionary
  3
ACAD_LAYOUTSELFREF
360
12495
  3
ACAD_SORTENTS
360
7D8
  0
DICTIONARY
  5
12496
100
AcDbDictionary
  3
ACAD_LAYOUTSELFREF
360
12497
  0
DICTIONARY
  5
12498
100
AcDbDictionary
  3
ACAD_XREC_ROUNDTRIP
360
12499
  0
DICTIONARY
  5
6DB
102
{ACAD_REACTORS
330
19
102
}
100
AcDbDictionary
  0
DICTIONARY
  5
1A
102
{ACAD_REACTORS
330
19
102
}
100
AcDbDictionary
  0
DICTIONARY
  5
1E
102
{ACAD_XDICTIONARY
360
1249C
102
}
102
{ACAD_REACTORS
330
19
102
}
100
AcDbDictionary
  3
LAYOUT1
350
21
  3
MODEL
350
20
  0
DICTIONARY
  5
6DA
102
{ACAD_REACTORS
330
19
102
}
100
AcDbDictionary
  0
DICTIONARY
  5
1B
102
{ACAD_XDICTIONARY
360
1249A
102
}
102
{ACAD_REACTORS
330
19
102
}
100
AcDbDictionary
  3
STANDARD
350
1C
  0
DICTIONARY
  5
22
102
{ACAD_REACTORS
330
19
102
}
100
AcDbDictionary
  0
ACAD_ZOMBIE_OBJECT
  5
1F
102
{ACAD_REACTORS
330
19
102
}
100
AcDbZombieObject
 90
      499
 91
      517
 93
       86
310
405010041939BDC9B585B0
350
1D
340
1D
 94
        0
  0
DICTIONARY
  5
6DC
102
{ACAD_XDICTIONARY
360
1249E
102
}
102
{ACAD_REACTORS
330
19
102
}
100
AcDbDictionary
  3
STANDARD
350
6DD
  0
ACAD_ZOMBIE_OBJECT
  5
23
102
{ACAD_REACTORS
330
19
102
}
100
AcDbZombieObject
 90
      499
 91
      521
 93
       10
310
406A
 94
        0
  0
DICTIONARY
  5
12474
102
{ACAD_REACTORS
330
19
102
}
100
AcDbDictionary
  3
CEPSNTYPE
350
1247E
  3
DIMSTYLEDATA
350
12482
  3
FINGERPRINTGUID
350
1247F
  3
HYPERLINKBASE
350
12477
  3
INSUNITS
350
1247D
  3
LAYOUTDICT
350
12479
  3
LWETCUNION
350
1247C
  3
PLOTSETDICT
350
1247A
  3
PLOTSTYLNAMDICT
350
1247B
  3
PSVPSCALE
350
12481
  3
PUCSBASE
350
12485
  3
PUCSORGBACK
350
1248B
  3
PUCSORGBOTTOM
350
12487
  3
PUCSORGFRONT
350
1248A
  3
PUCSORGLEFT
350
12488
  3
PUCSORGRIGHT
350
12489
  3
PUCSORGTOP
350
12486
  3
PUCSORTHOREF
350
12483
  3
PUCSORTHOVIEW
350
12484
  3
STYLESHEET
350
12478
  3
TSTACKALIGN
350
12475
  3
TSTACKSIZE
350
12476
  3
UCSBASE
350
1248E
  3
UCSORGBACK
350
12494
  3
UCSORGBOTTOM
350
12490
  3
UCSORGFRONT
350
12493
  3
UCSORGLEFT
350
12491
  3
UCSORGRIGHT
350
12492
  3
UCSORGTOP
350
1248F
  3
UCSORTHOREF
350
1248C
  3
UCSORTHOVIEW
350
1248D
  3
VERSIONGUID
350
12480
  0
DICTIONARY
  5
7DA
102
{ACAD_REACTORS
330
19
102
}
100
AcDbDictionary
  3
CTABLESTYLE
350
7DB
  3
DIMASSOC
350
1A71
  3
PROJECTNAME
350
1A72
  0
DICTIONARY
  5
3571
102
{ACAD_XDICTIONARY
360
124A2
102
}
102
{ACAD_REACTORS
330
19
102
}
100
AcDbDictionary
  3
ASEBLOCKHIERARCHYINDEXRECORD
350
3572
1001
DCO15
1040
1558939622.437
  0
XRECORD
  5
12467
102
{ACAD_REACTORS
330
12466
102
}
100
AcDbXrecord
102
EXTNAMES
  1
BYBLOCK
  2
ByBlock
  0
XRECORD
  5
12469
102
{ACAD_REACTORS
330
12468
102
}
100
AcDbXrecord
102
EXTNAMES
  1
BYLAYER
  2
ByLayer
  0
XRECORD
  5
1246B
102
{ACAD_REACTORS
330
1246A
102
}
100
AcDbXrecord
102
EXTNAMES
  1
CONTINUOUS
  2
Continuous
  0
DICTIONARY
  5
26F2
102
{ACAD_REACTORS
330
26F0
102
}
100
AcDbDictionary
  0
DICTIONARY
  5
3474
102
{ACAD_REACTORS
330
26F0
102
}
100
AcDbDictionary
  0
DICTIONARY
  5
26F1
102
{ACAD_REACTORS
330
26F0
102
}
100
AcDbDictionary
1001
ACAD
1000
<All
  0
XRECORD
  5
12465
102
{ACAD_REACTORS
330
12464
102
}
100
AcDbXrecord
102
EXTNAMES
  1
DEFPOINTS
  2
Defpoints
102
PLOTBIT
280
     0
  0
XRECORD
  5
12471
102
{ACAD_REACTORS
330
12470
102
}
100
AcDbXrecord
102
EXTNAMES
  1
STANDARD
  2
Standard
  0
XRECORD
  5
1246D
102
{ACAD_REACTORS
330
1246C
102
}
100
AcDbXrecord
102
EXTNAMES
  1
ACAECLAYERSTANDARD
  2
AcAecLayerStandard
  0
XRECORD
  5
1246F
102
{ACAD_REACTORS
330
1246E
102
}
100
AcDbXrecord
102
EXTNAMES
  1
ACAD_EXEMPT_FROM_CAD_STAND
  2
ACAD_EXEMPT_FROM_CAD_STANDARDS
  0
XRECORD
  5
12463
102
{ACAD_REACTORS
330
12462
102
}
100
AcDbXrecord
102
EXTNAMES
  1
STANDARD
  2
Standard
  0
XRECORD
  5
124A1
102
{ACAD_REACTORS
330
124A0
102
}
100
AcDbXrecord
102
ACADR14ROUNDTRIP
1000
DSTYLE
1002
{
1070
   279
 70
     2
1070
   341
340
6FA
1070
   342
340
6FA
1002
}
  0
XRECORD
  5
12495
102
{ACAD_REACTORS
330
7D7
102
}
100
AcDbXrecord
340
A
  0
SORTENTSTABLE
  5
7D8
102
{ACAD_REACTORS
330
7D7
102
}
100
AcDbSortentsTable
330
A
331
10149
  5
10151
331
12382
  5
12382
331
1014E
  5
10158
331
10153
  5
1015D
331
1013F
  5
10147
331
10144
  5
1014C
331
10158
  5
101EE
331
100C8
  5
10140
331
12383
  5
12383
331
1014F
  5
10159
331
10159
  5
101EF
331
100C9
  5
10144
331
10145
  5
1014D
331
10140
  5
10148
331
1014A
  5
10152
331
1014B
  5
10153
331
10150
  5
1015A
331
10155
  5
1015E
331
1015F
  5
10287
331
10141
  5
10149
331
10146
  5
1014E
331
1015A
  5
101F0
331
100CA
  5
10145
331
100C6
  5
1013F
331
10151
  5
1015B
331
100CB
  5
10146
331
12371
  5
12371
331
1015B
  5
101F1
331
10160
  5
102BD
331
10147
  5
1014F
331
10142
  5
1014A
331
10156
  5
1015F
331
1014C
  5
10155
331
1014D
  5
10157
331
100C7
  5
10143
331
10157
  5
10160
331
10143
  5
1014B
331
1015C
  5
101F3
331
10152
  5
1015C
331
10148
  5
10150
  0
XRECORD
  5
12497
102
{ACAD_REACTORS
330
12496
102
}
100
AcDbXrecord
340
B
  0
XRECORD
  5
12499
102
{ACAD_REACTORS
330
12498
102
}
100
AcDbXrecord
102
EXTNAMES
  1
ACDBVARIABLEDICTIONARY
  2
AcDbVariableDictionary
  0
DICTIONARY
  5
1249C
100
AcDbDictionary
  3
ACAD_XREC_ROUNDTRIP
360
1249D
  0
ACAD_ZOMBIE_OBJECT
  5
21
102
{ACAD_XDICTIONARY
360
1245B
102
}
102
{ACAD_REACTORS
330
1E
102
}
100
AcDbZombieObject
 90
      499
 91
      515
 93
      812
310
AAAAAAAAAA5A69074C61796F757431406A800000000000000000000000000000000000000000000A1000000000000008902A6A6A10232D5E076BC5510408CB5781DAF154410232D5E076BC5510408CB5781DAF15C410232D5E076BC5710408CB5781DAF15C47
330
B
330
0
340
0
340
0
 94
        0
  0
ACAD_ZOMBIE_OBJECT
  5
20
102
{ACAD_XDICTIONARY
360
12459
102
}
102
{ACAD_REACTORS
330
1E
102
}
100
AcDbZombieObject
 90
      499
 91
      515
 93
      420
310
A00012AAAAAAAA5A69054D6F64656CAA80000000000000000000000000000000000000000000000000000000000000002AAAAAAAA0
330
A
330
0
340
0
340
0
 94
        0
  0
DICTIONARY
  5
1249A
100
AcDbDictionary
  3
ACAD_XREC_ROUNDTRIP
360
1249B
  0
MLINESTYLE
  5
1C
102
{ACAD_REACTORS
330
1B
102
}
100
AcDbMlineStyle
  2
STANDARD
 70
     0
  3

 62
     0
 51
90.0
 52
90.0
 71
     2
 49
0.5
 62
   256
  6
BYLAYER
 49
-0.5
 62
   256
  6
BYLAYER
  0
ACAD_ZOMBIE_OBJECT
  5
1D
102
{ACAD_REACTORS
330
1F
102
}
100
AcDbZombieObject
 90
      499
 91
      518
 93
        0
 94
        0
  0
DICTIONARY
  5
1249E
100
AcDbDictionary
  3
ACAD_XREC_ROUNDTRIP
360
1249F
  0
ACAD_ZOMBIE_OBJECT
  5
6DD
102
{ACAD_REACTORS
330
6DC
102
}
100
AcDbZombieObject
 90
      499
 91
      525
 93
     1841
310
4214DD185B99185C9928000000000000F83F0000000000003E0FC00000000000004901028000000C1008070000C3001FDFF8000000C1003FBFF000000182007F7FE00000030400FEFFC00000060801FDFF8000000C1003FBFF000000182000000000000000C2020B0000001820100E000186003FBFF000000182007F7FE000
310
00030400FEFFC00000060801FDFF8000000C1003FBFF000000182007F7FE0000003040000000000000012404160000003040201C00030C007F7FE00000030400FEFFC00000060801FDFF8000000C1003FBFF000000182007F7FE00000030400FEFFC000000608000
340
17
340
17
340
17
 94
        0
1001
ACAD
1000
AcadProxyRoundTripData
1071
      524
1071
   393239
1070
     0
  0
XRECORD
  5
1247E
102
{ACAD_REACTORS
330
12474
102
}
100
AcDbXrecord
 90
        0
  0
XRECORD
  5
12482
102
{ACAD_REACTORS
330
12474
102
}
100
AcDbXrecord
1000
DSTYLE
1002
{
1070
   278
 70
     0
1070
   371
 70
     0
1070
   372
 70
     0
1002
}
  0
XRECORD
  5
1247F
102
{ACAD_REACTORS
330
12474
102
}
100
AcDbXrecord
  1

  0
XRECORD
  5
12477
102
{ACAD_REACTORS
330
12474
102
}
100
AcDbXrecord
  1

  0
XRECORD
  5
1247D
102
{ACAD_REACTORS
330
12474
102
}
100
AcDbXrecord
 90
        0
  0
XRECORD
  5
12479
102
{ACAD_REACTORS
330
12474
102
}
100
AcDbXrecord
340
1E
  0
XRECORD
  5
1247C
102
{ACAD_REACTORS
330
12474
102
}
100
AcDbXrecord
 90
    10752
  0
XRECORD
  5
1247A
102
{ACAD_REACTORS
330
12474
102
}
100
AcDbXrecord
340
22
  0
XRECORD
  5
1247B
102
{ACAD_REACTORS
330
12474
102
}
100
AcDbXrecord
340
1F
  0
XRECORD
  5
12481
102
{ACAD_REACTORS
330
12474
102
}
100
AcDbXrecord
 40
0.0
  0
XRECORD
  5
12485
102
{ACAD_REACTORS
330
12474
102
}
100
AcDbXrecord
340
0
  0
XRECORD
  5
1248B
102
{ACAD_REACTORS
330
12474
102
}
100
AcDbXrecord
 10
0.0
 20
0.0
 30
0.0
  0
XRECORD
  5
12487
102
{ACAD_REACTORS
330
12474
102
}
100
AcDbXrecord
 10
0.0
 20
0.0
 30
0.0
  0
XRECORD
  5
1248A
102
{ACAD_REACTORS
330
12474
102
}
100
AcDbXrecord
 10
0.0
 20
0.0
 30
0.0
  0
XRECORD
  5
12488
102
{ACAD_REACTORS
330
12474
102
}
100
AcDbXrecord
 10
0.0
 20
0.0
 30
0.0
  0
XRECORD
  5
12489
102
{ACAD_REACTORS
330
12474
102
}
100
AcDbXrecord
 10
0.0
 20
0.0
 30
0.0
  0
XRECORD
  5
12486
102
{ACAD_REACTORS
330
12474
102
}
100
AcDbXrecord
 10
0.0
 20
0.0
 30
0.0
  0
XRECORD
  5
12483
102
{ACAD_REACTORS
330
12474
102
}
100
AcDbXrecord
340
0
  0
XRECORD
  5
12484
102
{ACAD_REACTORS
330
12474
102
}
100
AcDbXrecord
 70
     0
  0
XRECORD
  5
12478
102
{ACAD_REACTORS
330
12474
102
}
100
AcDbXrecord
  1

  0
XRECORD
  5
12475
102
{ACAD_REACTORS
330
12474
102
}
100
AcDbXrecord
 90
        1
  0
XRECORD
  5
12476
102
{ACAD_REACTORS
330
12474
102
}
100
AcDbXrecord
 90
       70
  0
XRECORD
  5
1248E
102
{ACAD_REACTORS
330
12474
102
}
100
AcDbXrecord
340
0
  0
XRECORD
  5
12494
102
{ACAD_REACTORS
330
12474
102
}
100
AcDbXrecord
 10
0.0
 20
0.0
 30
0.0
  0
XRECORD
  5
12490
102
{ACAD_REACTORS
330
12474
102
}
100
AcDbXrecord
 10
0.0
 20
0.0
 30
0.0
  0
XRECORD
  5
12493
102
{ACAD_REACTORS
330
12474
102
}
100
AcDbXrecord
 10
0.0
 20
0.0
 30
0.0
  0
XRECORD
  5
12491
102
{ACAD_REACTORS
330
12474
102
}
100
AcDbXrecord
 10
0.0
 20
0.0
 30
0.0
  0
XRECORD
  5
12492
102
{ACAD_REACTORS
330
12474
102
}
100
AcDbXrecord
 10
0.0
 20
0.0
 30
0.0
  0
XRECORD
  5
1248F
102
{ACAD_REACTORS
330
12474
102
}
100
AcDbXrecord
 10
0.0
 20
0.0
 30
0.0
  0
XRECORD
  5
1248C
102
{ACAD_REACTORS
330
12474
102
}
100
AcDbXrecord
340
0
  0
XRECORD
  5
1248D
102
{ACAD_REACTORS
330
12474
102
}
100
AcDbXrecord
 70
     0
  0
XRECORD
  5
12480
102
{ACAD_REACTORS
330
12474
102
}
100
AcDbXrecord
  1
{0CC08F7D-AEE7-4CFB-BB88-EFDE2044DE8E}
  0
DICTIONARYVAR
  5
7DB
102
{ACAD_REACTORS
330
7DA
102
}
100
DictionaryVariables
280
     0
  1
STANDARD
  0
DICTIONARYVAR
  5
1A71
102
{ACAD_REACTORS
330
7DA
102
}
100
DictionaryVariables
280
     0
  1
1
  0
DICTIONARYVAR
  5
1A72
102
{ACAD_REACTORS
330
7DA
102
}
100
DictionaryVariables
280
     0
  1

  0
DICTIONARY
  5
124A2
100
AcDbDictionary
  3
ACAD_XREC_ROUNDTRIP
360
124A3
  0
XRECORD
  5
3572
102
{ACAD_REACTORS
330
3571
102
}
100
AcDbXrecord
330
0
330
0
330
0
330
0
330
0
330
0
330
0
330
0
330
0
330
0
330
0
330
0
330
0
330
0
330
0
330
0
330
0
330
0
330
0
330
0
330
0
330
0
330
0
330
0
330
0
330
0
330
0
330
0
330
0
330
0
330
0
  0
XRECORD
  5
1249D
102
{ACAD_REACTORS
330
1249C
102
}
100
AcDbXrecord
102
EXTNAMES
  1
LAYOUT1
  2
Layout1
  1
MODEL
  2
Model
  0
DICTIONARY
  5
1245B
100
AcDbDictionary
  3
ACAD_XREC_ROUNDTRIP
360
1245C
  0
DICTIONARY
  5
12459
100
AcDbDictionary
  3
ACAD_XREC_ROUNDTRIP
360
1245A
  0
XRECORD
  5
1249B
102
{ACAD_REACTORS
330
1249A
102
}
100
AcDbXrecord
102
EXTNAMES
  1
STANDARD
  2
Standard
  0
XRECORD
  5
1249F
102
{ACAD_REACTORS
330
1249E
102
}
100
AcDbXrecord
102
EXTNAMES
  1
STANDARD
  2
Standard
  0
XRECORD
  5
124A3
102
{ACAD_REACTORS
330
124A2
102
}
100
AcDbXrecord
102
EXTNAMES
  1
ASEBLOCKHIERARCHYINDEXRECORD
  2
ASEBlockHierarchyIndexRecord
  0
XRECORD
  5
1245C
102
{ACAD_REACTORS
330
1245B
102
}
100
AcDbXrecord
102
SHADEPLOT
 70
     0
102
SHADEPLOTRESLEVEL
 70
     2
102
SHADEPLOTCUSTOMDPI
 70
   300
  0
XRECORD
  5
1245A
102
{ACAD_REACTORS
330
12459
102
}
100
AcDbXrecord
102
SHADEPLOT
 70
     0
102
SHADEPLOTRESLEVEL
 70
     2
102
SHADEPLOTCUSTOMDPI
 70
   300
  0
ENDSEC
  0
EOF
