  0
SECTION
  2
HEADER
  9
$ACADVER
  1
AC1009
  9
$INSBASE
 10
402.590624
 20
-1.041018
 30
0.0
  9
$EXTMIN
 10
30.309374
 20
-1.667221
 30
0.0
  9
$EXTMAX
 10
147.993169
 20
173.981038
 30
0.0
  9
$LIMMIN
 10
-407.970438
 20
-367.832444
  9
$LIMMAX
 10
429.804077
 20
234.370848
  9
$ORTHOMODE
 70
     1
  9
$REGENMODE
 70
     1
  9
$FILLMODE
 70
     1
  9
$QTEXTMODE
 70
     0
  9
$MIRRTEXT
 70
     1
  9
$DRAGMODE
 70
     2
  9
$LTSCALE
 40
10.0
  9
$OSMODE
 70
    37
  9
$ATTMODE
 70
     1
  9
$TEXTSIZE
 40
6.0
  9
$TRACEWID
 40
1.0
  9
$TEXTSTYLE
  7
ROMANS
  9
$CLAYER
  8
ALPHA
  9
$CELTYPE
  6
BYLAYER
  9
$CECOLOR
 62
   256
  9
$DIMSCALE
 40
1.0
  9
$DIMASZ
 40
5.0
  9
$DIMEXO
 40
2.0
  9
$DIMDLI
 40
0.38
  9
$DIMRND
 40
0.0
  9
$DIMDLE
 40
0.0
  9
$DIMEXE
 40
2.5
  9
$DIMTP
 40
0.0
  9
$DIMTM
 40
0.0
  9
$DIMTXT
 40
2.5
  9
$DIMCEN
 40
0.0
  9
$DIMTSZ
 40
0.0
  9
$DIMTOL
 70
     0
  9
$DIMLIM
 70
     0
  9
$DIMTIH
 70
     1
  9
$DIMTOH
 70
     1
  9
$DIMSE1
 70
     0
  9
$DIMSE2
 70
     0
  9
$DIMTAD
 70
     1
  9
$DIMZIN
 70
    12
  9
$DIMBLK
  1
OPEN30
  9
$DIMASO
 70
     1
  9
$DIMSHO
 70
     1
  9
$DIMPOST
  1

  9
$DIMAPOST
  1

  9
$DIMALT
 70
     0
  9
$DIMALTD
 70
     2
  9
$DIMALTF
 40
25.4
  9
$DIMLFAC
 40
1.0
  9
$DIMTOFL
 70
     0
  9
$DIMTVP
 40
0.0
  9
$DIMTIX
 70
     0
  9
$DIMSOXD
 70
     0
  9
$DIMSAH
 70
     0
  9
$DIMBLK1
  1

  9
$DIMBLK2
  1

  9
$DIMSTYLE
  2
SC_DEFAUT
  9
$DIMCLRD
 70
     0
  9
$DIMCLRE
 70
     0
  9
$DIMCLRT
 70
     0
  9
$DIMTFAC
 40
1.0
  9
$DIMGAP
 40
2.0
  9
$LUNITS
 70
     2
  9
$LUPREC
 70
     1
  9
$SKETCHINC
 40
0.1
  9
$FILLETRAD
 40
5.0
  9
$AUNITS
 70
     0
  9
$AUPREC
 70
     0
  9
$MENU
  1
acad
  9
$ELEVATION
 40
0.0
  9
$PELEVATION
 40
0.0
  9
$THICKNESS
 40
0.0
  9
$LIMCHECK
 70
     0
  9
$BLIPMODE
 70
     0
  9
$CHAMFERA
 40
0.0
  9
$CHAMFERB
 40
0.0
  9
$SKPOLY
 70
     0
  9
$TDCREATE
 40
2450373.687919
  9
$TDUPDATE
 40
2452852.570115
  9
$TDINDWG
 40
1.589306
  9
$TDUSRTIMER
 40
1.589306
  9
$USRTIMER
 70
     1
  9
$ANGBASE
 50
0.0
  9
$ANGDIR
 70
     0
  9
$PDMODE
 70
    32
  9
$PDSIZE
 40
0.0
  9
$PLINEWID
 40
0.0
  9
$COORDS
 70
     1
  9
$SPLFRAME
 70
     0
  9
$SPLINETYPE
 70
     6
  9
$SPLINESEGS
 70
     8
  9
$ATTDIA
 70
     0
  9
$ATTREQ
 70
     1
  9
$HANDLING
 70
     1
  9
$HANDSEED
  5
12218
  9
$SURFTAB1
 70
     6
  9
$SURFTAB2
 70
     6
  9
$SURFTYPE
 70
     6
  9
$SURFU
 70
     6
  9
$SURFV
 70
     6
  9
$UCSNAME
  2

  9
$UCSORG
 10
0.0
 20
0.0
 30
0.0
  9
$UCSXDIR
 10
1.0
 20
0.0
 30
0.0
  9
$UCSYDIR
 10
0.0
 20
1.0
 30
0.0
  9
$PUCSNAME
  2

  9
$PUCSORG
 10
0.0
 20
0.0
 30
0.0
  9
$PUCSXDIR
 10
1.0
 20
0.0
 30
0.0
  9
$PUCSYDIR
 10
0.0
 20
1.0
 30
0.0
  9
$USERI1
 70
     0
  9
$USERI2
 70
     0
  9
$USERI3
 70
     0
  9
$USERI4
 70
     0
  9
$USERI5
 70
     0
  9
$USERR1
 40
0.0
  9
$USERR2
 40
0.0
  9
$USERR3
 40
0.0
  9
$USERR4
 40
0.0
  9
$USERR5
 40
0.0
  9
$WORLDVIEW
 70
     1
  9
$SHADEDGE
 70
     3
  9
$SHADEDIF
 70
    70
  9
$TILEMODE
 70
     1
  9
$MAXACTVP
 70
    16
  9
$PLIMCHECK
 70
     0
  9
$PEXTMIN
 10
-1.452248
 20
-0.437698
 30
0.0
  9
$PEXTMAX
 10
12.749749
 20
8.310198
 30
0.0
  9
$PLIMMIN
 10
0.0
 20
0.0
  9
$PLIMMAX
 10
12.0
 20
9.0
  9
$UNITMODE
 70
     0
  9
$VISRETAIN
 70
     0
  9
$PLINEGEN
 70
     0
  9
$PSLTSCALE
 70
     0
  0
ENDSEC
  0
SECTION
  2
TABLES
  0
TABLE
  2
VPORT
 70
     2
  0
VPORT
  2
*ACTIVE
 70
     0
 10
0.0
 20
0.0
 11
1.0
 21
1.0
 12
89.15138
 22
86.172383
 13
0.0
 23
0.0
 14
1.0
 24
1.0
 15
10.0
 25
10.0
 16
0.0
 26
0.0
 36
1.0
 17
0.0
 27
0.0
 37
0.0
 40
177.195414
 41
1.56
 42
50.0
 43
0.0
 44
0.0
 50
0.0
 51
0.0
 71
     0
 72
   100
 73
     1
 74
     0
 75
     0
 76
     0
 77
     0
 78
     0
  0
ENDTAB
  0
TABLE
  2
LTYPE
 70
     3
  0
LTYPE
  2
CONTINUOUS
 70
     0
  3
Solid line
 72
    65
 73
     0
 40
0.0
  0
LTYPE
  2
AXES2
 70
     0
  3
___ _ ___ _ ___ _ ___ _ ___ _ ___ _ ___ _ ___ _
 72
    65
 73
     4
 40
1.125
 49
0.75
 49
-0.125
 49
0.125
 49
-0.125
  0
LTYPE
  2
CACHE2
 70
     0
  3
Caché (x.5) _ _ _ _ _ _ _ _ _ _ _ _ _ _ _ _ _
 72
    65
 73
     2
 40
0.1875
 49
0.125
 49
-0.0625
  0
ENDTAB
  0
TABLE
  2
LAYER
 70
     7
  0
LAYER
  2
0
 70
     0
 62
   255
  6
CONTINUOUS
  0
LAYER
  2
COTATION1
 70
     0
 62
     2
  6
CONTINUOUS
  0
LAYER
  2
AXE
 70
     0
 62
    80
  6
AXES2
  0
LAYER
  2
DEFPOINTS
 70
     0
 62
     7
  6
CONTINUOUS
  0
LAYER
  2
ALPHA
 70
     0
 62
   254
  6
CONTINUOUS
  0
LAYER
  2
ALPHA_FIN
 70
     0
 62
   255
  6
CONTINUOUS
  0
LAYER
  2
POINTILLE_COURT
 70
     0
 62
    41
  6
CACHE2
  0
ENDTAB
  0
TABLE
  2
STYLE
 70
     2
  0
STYLE
  2
ROMANS
 70
     0
 40
0.0
 41
1.0
 50
0.0
 71
     0
 42
6.0
  3
romans
  4

  0
STYLE
  2
STANDARD
 70
     0
 40
0.2
 41
1.0
 50
0.0
 71
     0
 42
0.2
  3
txt
  4

  0
ENDTAB
  0
TABLE
  2
VIEW
 70
     0
  0
ENDTAB
  0
TABLE
  2
UCS
 70
     0
  0
ENDTAB
  0
TABLE
  2
APPID
 70
     1
  0
APPID
  2
ACAD
 70
     0
  0
ENDTAB
  0
TABLE
  2
DIMSTYLE
 70
     1
  0
DIMSTYLE
  2
SC_DEFAUT
 70
     0
  3

  4

  5
OPEN30
  6

  7

 40
1.0
 41
5.0
 42
2.0
 43
0.38
 44
2.5
 45
0.0
 46
0.0
 47
0.0
 48
0.0
140
2.5
141
0.0
142
0.0
143
25.4
144
1.0
145
0.0
146
1.0
147
2.0
 71
     0
 72
     0
 73
     1
 74
     1
 75
     0
 76
     0
 77
     1
 78
    12
170
     0
171
     2
172
     0
173
     0
174
     0
175
     0
176
     0
177
     0
178
     0
  0
ENDTAB
  0
ENDSEC
  0
SECTION
  2
BLOCKS
  0
BLOCK
  8
0
  2
$MODEL_SPACE
 70
     0
 10
0.0
 20
0.0
 30
0.0
  3
$MODEL_SPACE
  1

  0
ENDBLK
  5
121AA
  8
0
  0
BLOCK
 67
     1
  8
0
  2
$PAPER_SPACE
 70
     0
 10
0.0
 20
0.0
 30
0.0
  3
$PAPER_SPACE
  1

  0
ENDBLK
  5
121A8
 67
     1
  8
0
  0
BLOCK
  8
0
  2
COTE
 70
     0
 10
0.0
 20
0.0
 30
0.0
  3
COTE
  1

  0
ENDBLK
  5
F
  8
0
  0
BLOCK
  8
0
  2
FOND
 70
     0
 10
0.0
 20
0.0
 30
0.0
  3
FOND
  1

  0
ENDBLK
  5
75
  8
0
  0
BLOCK
  8
0
  2
_OPEN30
 70
     0
 10
0.0
 20
0.0
 30
0.0
  3
_OPEN30
  1

  0
LINE
  5
4B05
  8
COTATION1
 62
     0
 10
-1.0
 20
0.267949
 30
0.0
 11
0.0
 21
0.0
 31
0.0
1001
ACAD
1000
RTLwPs
1070
   158
  0
LINE
  5
4B06
  8
COTATION1
 62
     0
 10
0.0
 20
0.0
 30
0.0
 11
-1.0
 21
-0.267949
 31
0.0
1001
ACAD
1000
RTLwPs
1070
   158
  0
LINE
  5
4B07
  8
COTATION1
 62
     0
 10
0.0
 20
0.0
 30
0.0
 11
-1.0
 21
0.0
 31
0.0
1001
ACAD
1000
RTLwPs
1070
   158
  0
ENDBLK
  5
4B09
  8
0
  0
BLOCK
  8
0
  2
*D3
 70
     1
 10
0.0
 20
0.0
 30
0.0
  3
*D3
  1

  0
LINE
  5
120A0
  8
COTATION1
 62
     0
 10
71.837124
 20
160.832779
 30
0.0
 11
137.457455
 21
160.832779
 31
0.0
1001
ACAD
1000
RTLwPs
1070
   158
  0
LINE
  5
120A1
  8
COTATION1
 62
     0
 10
95.957455
 20
66.832779
 30
0.0
 11
137.457455
 21
66.832779
 31
0.0
1001
ACAD
1000
RTLwPs
1070
   158
  0
LINE
  5
120A2
  8
COTATION1
 62
     0
 10
134.957455
 20
155.832779
 30
0.0
 11
134.957455
 21
117.082779
 31
0.0
1001
ACAD
1000
RTLwPs
1070
   158
  0
LINE
  5
120A3
  8
COTATION1
 62
     0
 10
134.957455
 20
71.832779
 30
0.0
 11
134.957455
 21
110.582779
 31
0.0
1001
ACAD
1000
RTLwPs
1070
   158
  0
INSERT
  5
120A4
  8
COTATION1
 62
     0
  2
_OPEN30
 10
134.957455
 20
160.832779
 30
0.0
 41
5.0
 42
5.0
 43
5.0
 50
90.0
1001
ACAD
1000
RTLwPs
1070
   158
  0
INSERT
  5
120A5
  8
COTATION1
 62
     0
  2
_OPEN30
 10
134.957455
 20
66.832779
 30
0.0
 41
5.0
 42
5.0
 43
5.0
 50
270.0
1001
ACAD
1000
RTLwPs
1070
   158
  0
TEXT
  5
120A6
  8
COTATION1
 62
     0
 10
132.516979
 20
112.582779
 30
0.0
 40
2.5
  1
94
1001
ACAD
1000
MTEXTBEGIN
1070
    73
1070
     1
1070
    44
1040
1.0
1070
    74
1070
     0
1000
MTEXTEND
  0
POINT
  5
120A7
  8
DEFPOINTS
 62
     0
 10
69.837124
 20
160.832779
 30
0.0
  0
POINT
  5
120A8
  8
DEFPOINTS
 62
     0
 10
93.957455
 20
66.832779
 30
0.0
  0
POINT
  5
120A9
  8
DEFPOINTS
 62
     0
 10
134.957455
 20
66.832779
 30
0.0
  0
ENDBLK
  5
11266
  8
0
  0
BLOCK
  8
0
  2
*D4
 70
     1
 10
0.0
 20
0.0
 30
0.0
  3
*D4
  1

  0
LINE
  5
12096
  8
COTATION1
 62
     0
 10
71.837124
 20
160.832779
 30
0.0
 11
147.457455
 21
160.832779
 31
0.0
1001
ACAD
1000
RTLwPs
1070
   158
  0
LINE
  5
12097
  8
COTATION1
 62
     0
 10
84.225404
 20
44.832779
 30
0.0
 11
147.457455
 21
44.832779
 31
0.0
1001
ACAD
1000
RTLwPs
1070
   158
  0
LINE
  5
12098
  8
COTATION1
 62
     0
 10
144.957455
 20
155.832779
 30
0.0
 11
144.957455
 21
106.082779
 31
0.0
1001
ACAD
1000
RTLwPs
1070
   158
  0
LINE
  5
12099
  8
COTATION1
 62
     0
 10
144.957455
 20
49.832779
 30
0.0
 11
144.957455
 21
99.582779
 31
0.0
1001
ACAD
1000
RTLwPs
1070
   158
  0
INSERT
  5
1209A
  8
COTATION1
 62
     0
  2
_OPEN30
 10
144.957455
 20
160.832779
 30
0.0
 41
5.0
 42
5.0
 43
5.0
 50
90.0
1001
ACAD
1000
RTLwPs
1070
   158
  0
INSERT
  5
1209B
  8
COTATION1
 62
     0
  2
_OPEN30
 10
144.957455
 20
44.832779
 30
0.0
 41
5.0
 42
5.0
 43
5.0
 50
270.0
1001
ACAD
1000
RTLwPs
1070
   158
  0
TEXT
  5
1209C
  8
COTATION1
 62
     0
 10
141.207455
 20
101.582779
 30
0.0
 40
2.5
  1
116
1001
ACAD
1000
MTEXTBEGIN
1070
    73
1070
     1
1070
    44
1040
1.0
1070
    74
1070
     0
1000
MTEXTEND
  0
POINT
  5
1209D
  8
DEFPOINTS
 62
     0
 10
69.837124
 20
160.832779
 30
0.0
  0
POINT
  5
1209E
  8
DEFPOINTS
 62
     0
 10
82.225404
 20
44.832779
 30
0.0
  0
POINT
  5
1209F
  8
DEFPOINTS
 62
     0
 10
144.957455
 20
44.832779
 30
0.0
  0
ENDBLK
  5
11273
  8
0
  0
BLOCK
  8
0
  2
*D5
 70
     1
 10
0.0
 20
0.0
 30
0.0
  3
*D5
  1

  0
LINE
  5
11382
  8
COTATION1
 62
     0
 10
54.957455
 20
64.832779
 30
0.0
 11
54.957455
 21
-1.667221
 31
0.0
1001
ACAD
1000
RTLwPs
1070
   158
  0
LINE
  5
11383
  8
COTATION1
 62
     0
 10
106.957455
 20
67.56483
 30
0.0
 11
106.957455
 21
-1.667221
 31
0.0
1001
ACAD
1000
RTLwPs
1070
   158
  0
LINE
  5
11384
  8
COTATION1
 62
     0
 10
59.957455
 20
0.832779
 30
0.0
 11
101.957455
 21
0.832779
 31
0.0
1001
ACAD
1000
RTLwPs
1070
   158
  0
INSERT
  5
11385
  8
COTATION1
 62
     0
  2
_OPEN30
 10
54.957455
 20
0.832779
 30
0.0
 41
5.0
 42
5.0
 43
5.0
 50
180.0
1001
ACAD
1000
RTLwPs
1070
   158
  0
INSERT
  5
11386
  8
COTATION1
 62
     0
  2
_OPEN30
 10
106.957455
 20
0.832779
 30
0.0
 41
5.0
 42
5.0
 43
5.0
1001
ACAD
1000
RTLwPs
1070
   158
  0
TEXT
  5
11387
  8
COTATION1
 62
     0
 10
78.576502
 20
2.832779
 30
0.0
 40
2.5
  1
52
1001
ACAD
1000
MTEXTBEGIN
1070
    73
1070
     1
1070
    44
1040
1.0
1070
    74
1070
     0
1000
MTEXTEND
1000
MTEXTBEGIN
1070
    73
1070
     1
1070
    44
1040
1.0
1070
    74
1070
     0
1000
MTEXTEND
1000
MTEXTBEGIN
1070
    73
1070
     1
1070
    44
1040
1.0
1070
    74
1070
     0
1000
MTEXTEND
1000
MTEXTBEGIN
1070
    73
1070
     1
1070
    44
1040
1.0
1070
    74
1070
     0
1000
MTEXTEND
1000
MTEXTBEGIN
1070
    73
1070
     1
1070
    44
1040
1.0
1070
    74
1070
     0
1000
MTEXTEND
  0
POINT
  5
11388
  8
DEFPOINTS
 62
     0
 10
54.957455
 20
66.832779
 30
0.0
  0
POINT
  5
11389
  8
DEFPOINTS
 62
     0
 10
106.957455
 20
69.56483
 30
0.0
  0
POINT
  5
1138A
  8
DEFPOINTS
 62
     0
 10
106.957455
 20
0.832779
 30
0.0
  0
ENDBLK
  5
1127F
  8
0
  0
BLOCK
  8
0
  2
*D6
 70
     1
 10
0.0
 20
0.0
 30
0.0
  3
*D6
  1

  0
LINE
  5
1139D
  8
COTATION1
 62
     0
 10
71.957455
 20
43.832779
 30
0.0
 11
71.957455
 21
28.332779
 31
0.0
1001
ACAD
1000
RTLwPs
1070
   158
  0
LINE
  5
1139E
  8
COTATION1
 62
     0
 10
83.957455
 20
43.832779
 30
0.0
 11
83.957455
 21
28.332779
 31
0.0
1001
ACAD
1000
RTLwPs
1070
   158
  0
LINE
  5
1139F
  8
COTATION1
 62
     0
 10
66.957455
 20
30.832779
 30
0.0
 11
61.957455
 21
30.832779
 31
0.0
1001
ACAD
1000
RTLwPs
1070
   158
  0
LINE
  5
113A0
  8
COTATION1
 62
     0
 10
88.957455
 20
30.832779
 30
0.0
 11
104.975851
 21
30.832779
 31
0.0
1001
ACAD
1000
RTLwPs
1070
   158
  0
INSERT
  5
113A1
  8
COTATION1
 62
     0
  2
_OPEN30
 10
71.957455
 20
30.832779
 30
0.0
 41
5.0
 42
5.0
 43
5.0
1001
ACAD
1000
RTLwPs
1070
   158
  0
INSERT
  5
113A2
  8
COTATION1
 62
     0
  2
_OPEN30
 10
83.957455
 20
30.832779
 30
0.0
 41
5.0
 42
5.0
 43
5.0
 50
180.0
1001
ACAD
1000
RTLwPs
1070
   158
  0
TEXT
  5
113A3
  8
COTATION1
 62
     0
 10
95.713946
 20
32.832779
 30
0.0
 40
2.5
  1
M12
1001
ACAD
1000
MTEXTBEGIN
1070
    73
1070
     1
1070
    44
1040
1.0
1070
    74
1070
     0
1000
MTEXTEND
1000
MTEXTBEGIN
1070
    73
1070
     1
1070
    44
1040
1.0
1070
    74
1070
     0
1000
MTEXTEND
1000
MTEXTBEGIN
1070
    73
1070
     1
1070
    44
1040
1.0
1070
    74
1070
     0
1000
MTEXTEND
1000
MTEXTBEGIN
1070
    73
1070
     1
1070
    44
1040
1.0
1070
    74
1070
     0
1000
MTEXTEND
1000
MTEXTBEGIN
1070
    73
1070
     1
1070
    44
1040
1.0
1070
    74
1070
     0
1000
MTEXTEND
  0
POINT
  5
113A4
  8
DEFPOINTS
 62
     0
 10
71.957455
 20
45.832779
 30
0.0
  0
POINT
  5
113A5
  8
DEFPOINTS
 62
     0
 10
83.957455
 20
45.832779
 30
0.0
  0
POINT
  5
113A6
  8
DEFPOINTS
 62
     0
 10
83.957455
 20
30.832779
 30
0.0
  0
ENDBLK
  5
1128C
  8
0
  0
BLOCK
  8
0
  2
*D7
 70
     1
 10
0.0
 20
0.0
 30
0.0
  3
*D7
  1

  0
LINE
  5
1135A
  8
COTATION1
 62
     0
 10
88.337124
 20
106.832779
 30
0.0
 11
117.457455
 21
106.832779
 31
0.0
1001
ACAD
1000
RTLwPs
1070
   158
  0
LINE
  5
1135B
  8
COTATION1
 62
     0
 10
95.957455
 20
66.832779
 30
0.0
 11
117.457455
 21
66.832779
 31
0.0
1001
ACAD
1000
RTLwPs
1070
   158
  0
LINE
  5
1135C
  8
COTATION1
 62
     0
 10
114.957455
 20
101.832779
 30
0.0
 11
114.957455
 21
90.082779
 31
0.0
1001
ACAD
1000
RTLwPs
1070
   158
  0
LINE
  5
1135D
  8
COTATION1
 62
     0
 10
114.957455
 20
71.832779
 30
0.0
 11
114.957455
 21
83.582779
 31
0.0
1001
ACAD
1000
RTLwPs
1070
   158
  0
INSERT
  5
1135E
  8
COTATION1
 62
     0
  2
_OPEN30
 10
114.957455
 20
106.832779
 30
0.0
 41
5.0
 42
5.0
 43
5.0
 50
90.0
1001
ACAD
1000
RTLwPs
1070
   158
  0
INSERT
  5
1135F
  8
COTATION1
 62
     0
  2
_OPEN30
 10
114.957455
 20
66.832779
 30
0.0
 41
5.0
 42
5.0
 43
5.0
 50
270.0
1001
ACAD
1000
RTLwPs
1070
   158
  0
TEXT
  5
11360
  8
COTATION1
 62
     0
 10
112.576502
 20
85.582779
 30
0.0
 40
2.5
  1
40
1001
ACAD
1000
MTEXTBEGIN
1070
    73
1070
     1
1070
    44
1040
1.0
1070
    74
1070
     0
1000
MTEXTEND
1000
MTEXTBEGIN
1070
    73
1070
     1
1070
    44
1040
1.0
1070
    74
1070
     0
1000
MTEXTEND
1000
MTEXTBEGIN
1070
    73
1070
     1
1070
    44
1040
1.0
1070
    74
1070
     0
1000
MTEXTEND
1000
MTEXTBEGIN
1070
    73
1070
     1
1070
    44
1040
1.0
1070
    74
1070
     0
1000
MTEXTEND
1000
MTEXTBEGIN
1070
    73
1070
     1
1070
    44
1040
1.0
1070
    74
1070
     0
1000
MTEXTEND
  0
POINT
  5
11361
  8
DEFPOINTS
 62
     0
 10
86.337124
 20
106.832779
 30
0.0
  0
POINT
  5
11362
  8
DEFPOINTS
 62
     0
 10
93.957455
 20
66.832779
 30
0.0
  0
POINT
  5
11363
  8
DEFPOINTS
 62
     0
 10
114.957455
 20
66.832779
 30
0.0
  0
ENDBLK
  5
11299
  8
0
  0
BLOCK
  8
0
  2
*D8
 70
     1
 10
0.0
 20
0.0
 30
0.0
  3
*D8
  1

  0
LINE
  5
11394
  8
COTATION1
 62
     0
 10
54.957455
 20
64.832779
 30
0.0
 11
54.957455
 21
8.332779
 31
0.0
1001
ACAD
1000
RTLwPs
1070
   158
  0
LINE
  5
11395
  8
COTATION1
 62
     0
 10
84.957455
 20
55.832779
 30
0.0
 11
84.957455
 21
8.332779
 31
0.0
1001
ACAD
1000
RTLwPs
1070
   158
  0
LINE
  5
11396
  8
COTATION1
 62
     0
 10
59.957455
 20
10.832779
 30
0.0
 11
79.957455
 21
10.832779
 31
0.0
1001
ACAD
1000
RTLwPs
1070
   158
  0
INSERT
  5
11397
  8
COTATION1
 62
     0
  2
_OPEN30
 10
54.957455
 20
10.832779
 30
0.0
 41
5.0
 42
5.0
 43
5.0
 50
180.0
1001
ACAD
1000
RTLwPs
1070
   158
  0
INSERT
  5
11398
  8
COTATION1
 62
     0
  2
_OPEN30
 10
84.957455
 20
10.832779
 30
0.0
 41
5.0
 42
5.0
 43
5.0
1001
ACAD
1000
RTLwPs
1070
   158
  0
TEXT
  5
11399
  8
COTATION1
 62
     0
 10
67.576502
 20
12.832779
 30
0.0
 40
2.5
  1
30
1001
ACAD
1000
MTEXTBEGIN
1070
    73
1070
     1
1070
    44
1040
1.0
1070
    74
1070
     0
1000
MTEXTEND
1000
MTEXTBEGIN
1070
    73
1070
     1
1070
    44
1040
1.0
1070
    74
1070
     0
1000
MTEXTEND
1000
MTEXTBEGIN
1070
    73
1070
     1
1070
    44
1040
1.0
1070
    74
1070
     0
1000
MTEXTEND
1000
MTEXTBEGIN
1070
    73
1070
     1
1070
    44
1040
1.0
1070
    74
1070
     0
1000
MTEXTEND
1000
MTEXTBEGIN
1070
    73
1070
     1
1070
    44
1040
1.0
1070
    74
1070
     0
1000
MTEXTEND
  0
POINT
  5
1139A
  8
DEFPOINTS
 62
     0
 10
54.957455
 20
66.832779
 30
0.0
  0
POINT
  5
1139B
  8
DEFPOINTS
 62
     0
 10
84.957455
 20
57.832779
 30
0.0
  0
POINT
  5
1139C
  8
DEFPOINTS
 62
     0
 10
84.957455
 20
10.832779
 30
0.0
  0
ENDBLK
  5
112A5
  8
0
  0
BLOCK
  8
0
  2
*D9
 70
     1
 10
0.0
 20
0.0
 30
0.0
  3
*D9
  1

  0
LINE
  5
1138B
  8
COTATION1
 62
     0
 10
59.837124
 20
98.332779
 30
0.0
 11
59.837124
 21
18.332779
 31
0.0
1001
ACAD
1000
RTLwPs
1070
   158
  0
LINE
  5
1138C
  8
COTATION1
 62
     0
 10
79.837124
 20
98.332779
 30
0.0
 11
79.837124
 21
18.332779
 31
0.0
1001
ACAD
1000
RTLwPs
1070
   158
  0
LINE
  5
1138D
  8
COTATION1
 62
     0
 10
64.837124
 20
20.832779
 30
0.0
 11
74.837124
 21
20.832779
 31
0.0
1001
ACAD
1000
RTLwPs
1070
   158
  0
INSERT
  5
1138E
  8
COTATION1
 62
     0
  2
_OPEN30
 10
59.837124
 20
20.832779
 30
0.0
 41
5.0
 42
5.0
 43
5.0
 50
180.0
1001
ACAD
1000
RTLwPs
1070
   158
  0
INSERT
  5
1138F
  8
COTATION1
 62
     0
  2
_OPEN30
 10
79.837124
 20
20.832779
 30
0.0
 41
5.0
 42
5.0
 43
5.0
1001
ACAD
1000
RTLwPs
1070
   158
  0
TEXT
  5
11390
  8
COTATION1
 62
     0
 10
67.456171
 20
22.832779
 30
0.0
 40
2.5
  1
20
1001
ACAD
1000
MTEXTBEGIN
1070
    73
1070
     1
1070
    44
1040
1.0
1070
    74
1070
     0
1000
MTEXTEND
1000
MTEXTBEGIN
1070
    73
1070
     1
1070
    44
1040
1.0
1070
    74
1070
     0
1000
MTEXTEND
1000
MTEXTBEGIN
1070
    73
1070
     1
1070
    44
1040
1.0
1070
    74
1070
     0
1000
MTEXTEND
1000
MTEXTBEGIN
1070
    73
1070
     1
1070
    44
1040
1.0
1070
    74
1070
     0
1000
MTEXTEND
1000
MTEXTBEGIN
1070
    73
1070
     1
1070
    44
1040
1.0
1070
    74
1070
     0
1000
MTEXTEND
  0
POINT
  5
11391
  8
DEFPOINTS
 62
     0
 10
59.837124
 20
100.332779
 30
0.0
  0
POINT
  5
11392
  8
DEFPOINTS
 62
     0
 10
79.837124
 20
100.332779
 30
0.0
  0
POINT
  5
11393
  8
DEFPOINTS
 62
     0
 10
79.837124
 20
20.832779
 30
0.0
  0
ENDBLK
  5
112B1
  8
0
  0
BLOCK
  8
0
  2
*D10
 70
     1
 10
0.0
 20
0.0
 30
0.0
  3
*D10
  1

  0
LINE
  5
11354
  8
COTATION1
 62
     0
 10
31.812262
 20
93.482114
 30
0.0
 11
37.740834
 21
93.482114
 31
0.0
1001
ACAD
1000
RTLwPs
1070
   158
  0
LINE
  5
11355
  8
COTATION1
 62
     0
 10
37.740834
 20
93.482114
 30
0.0
 11
52.134011
 21
102.178528
 31
0.0
1001
ACAD
1000
RTLwPs
1070
   158
  0
TEXT
  5
11356
  8
COTATION1
 62
     0
 10
31.574167
 20
95.482114
 30
0.0
 40
2.5
  1
%%c8
1001
ACAD
1000
MTEXTBEGIN
1070
    73
1070
     1
1070
    44
1040
1.0
1070
    74
1070
     0
1000
MTEXTEND
1000
MTEXTBEGIN
1070
    73
1070
     1
1070
    44
1040
1.0
1070
    74
1070
     0
1000
MTEXTEND
1000
MTEXTBEGIN
1070
    73
1070
     1
1070
    44
1040
1.0
1070
    74
1070
     0
1000
MTEXTEND
1000
MTEXTBEGIN
1070
    73
1070
     1
1070
    44
1040
1.0
1070
    74
1070
     0
1000
MTEXTEND
1000
MTEXTBEGIN
1070
    73
1070
     1
1070
    44
1040
1.0
1070
    74
1070
     0
1000
MTEXTEND
  0
INSERT
  5
11357
  8
COTATION1
 62
     0
  2
_OPEN30
 10
56.413518
 20
104.764223
 30
0.0
 41
5.0
 42
5.0
 43
5.0
 50
31.140535
1001
ACAD
1000
RTLwPs
1070
   158
  0
POINT
  5
11358
  8
DEFPOINTS
 62
     0
 10
56.413518
 20
104.764223
 30
0.0
  0
POINT
  5
11359
  8
DEFPOINTS
 62
     0
 10
63.260729
 20
108.901335
 30
0.0
  0
ENDBLK
  5
112BA
  8
0
  0
BLOCK
  8
0
  2
*D11
 70
     1
 10
0.0
 20
0.0
 30
0.0
  3
*D11
  1

  0
LINE
  5
113BA
  8
COTATION1
 62
     0
 10
41.548723
 20
116.592548
 30
0.0
 11
51.048723
 21
116.592548
 31
0.0
1001
ACAD
1000
RTLwPs
1070
   158
  0
LINE
  5
113BB
  8
COTATION1
 62
     0
 10
51.048723
 20
116.592548
 30
0.0
 11
55.086098
 21
112.108928
 31
0.0
1001
ACAD
1000
RTLwPs
1070
   158
  0
TEXT
  5
113BC
  8
COTATION1
 62
     0
 10
41.310627
 20
118.592548
 30
0.0
 40
2.5
  1
%%c4.2
1001
ACAD
1000
MTEXTBEGIN
1070
    73
1070
     1
1070
    44
1040
1.0
1070
    74
1070
     0
1000
MTEXTEND
1000
MTEXTBEGIN
1070
    73
1070
     1
1070
    44
1040
1.0
1070
    74
1070
     0
1000
MTEXTEND
1000
MTEXTBEGIN
1070
    73
1070
     1
1070
    44
1040
1.0
1070
    74
1070
     0
1000
MTEXTEND
1000
MTEXTBEGIN
1070
    73
1070
     1
1070
    44
1040
1.0
1070
    74
1070
     0
1000
MTEXTEND
1000
MTEXTBEGIN
1070
    73
1070
     1
1070
    44
1040
1.0
1070
    74
1070
     0
1000
MTEXTEND
  0
INSERT
  5
113BD
  8
COTATION1
 62
     0
  2
_OPEN30
 10
58.431891
 20
108.39333
 30
0.0
 41
5.0
 42
5.0
 43
5.0
 50
312.002156
1001
ACAD
1000
RTLwPs
1070
   158
  0
POINT
  5
113BE
  8
DEFPOINTS
 62
     0
 10
58.431891
 20
108.39333
 30
0.0
  0
POINT
  5
113BF
  8
DEFPOINTS
 62
     0
 10
61.242357
 20
105.272227
 30
0.0
  0
ENDBLK
  5
112C3
  8
0
  0
BLOCK
  8
0
  2
*D12
 70
     1
 10
0.0
 20
0.0
 30
0.0
  3
*D12
  1

  0
LINE
  5
11DFA
  8
COTATION1
 62
     0
 10
67.837124
 20
160.832779
 30
0.0
 11
30.309374
 21
160.832779
 31
0.0
1001
ACAD
1000
RTLwPs
1070
   158
  0
LINE
  5
11DFB
  8
COTATION1
 62
     0
 10
51.337124
 20
106.832779
 30
0.0
 11
30.309374
 21
106.832779
 31
0.0
1001
ACAD
1000
RTLwPs
1070
   158
  0
LINE
  5
11DFC
  8
COTATION1
 62
     0
 10
32.809374
 20
155.832779
 30
0.0
 11
32.809374
 21
137.082779
 31
0.0
1001
ACAD
1000
RTLwPs
1070
   158
  0
LINE
  5
11DFD
  8
COTATION1
 62
     0
 10
32.809374
 20
111.832779
 30
0.0
 11
32.809374
 21
130.582779
 31
0.0
1001
ACAD
1000
RTLwPs
1070
   158
  0
INSERT
  5
11DFE
  8
COTATION1
 62
     0
  2
_OPEN30
 10
32.809374
 20
160.832779
 30
0.0
 41
5.0
 42
5.0
 43
5.0
 50
90.0
1001
ACAD
1000
RTLwPs
1070
   158
  0
INSERT
  5
11DFF
  8
COTATION1
 62
     0
  2
_OPEN30
 10
32.809374
 20
106.832779
 30
0.0
 41
5.0
 42
5.0
 43
5.0
 50
270.0
1001
ACAD
1000
RTLwPs
1070
   158
  0
TEXT
  5
11E00
  8
COTATION1
 62
     0
 10
30.368897
 20
132.582779
 30
0.0
 40
2.5
  1
54
1001
ACAD
1000
MTEXTBEGIN
1070
    73
1070
     1
1070
    44
1040
1.0
1070
    74
1070
     0
1000
MTEXTEND
1000
MTEXTBEGIN
1070
    73
1070
     1
1070
    44
1040
1.0
1070
    74
1070
     0
1000
MTEXTEND
1000
MTEXTBEGIN
1070
    73
1070
     1
1070
    44
1040
1.0
1070
    74
1070
     0
1000
MTEXTEND
  0
POINT
  5
11E01
  8
DEFPOINTS
 62
     0
 10
69.837124
 20
160.832779
 30
0.0
  0
POINT
  5
11E02
  8
DEFPOINTS
 62
     0
 10
53.337124
 20
106.832779
 30
0.0
  0
POINT
  5
11E03
  8
DEFPOINTS
 62
     0
 10
32.809374
 20
106.832779
 30
0.0
  0
ENDBLK
  5
11DC9
  8
0
  0
BLOCK
  8
0
  2
*D13
 70
     1
 10
0.0
 20
0.0
 30
0.0
  3
*D13
  1

  0
LINE
  5
11DF4
  8
COTATION1
 62
     0
 10
91.760116
 20
169.481038
 30
0.0
 11
83.450593
 21
169.481038
 31
0.0
1001
ACAD
1000
RTLwPs
1070
   158
  0
LINE
  5
11DF5
  8
COTATION1
 62
     0
 10
83.450593
 20
169.481038
 30
0.0
 11
78.066378
 21
162.896544
 31
0.0
1001
ACAD
1000
RTLwPs
1070
   158
  0
TEXT
  5
11DF6
  8
COTATION1
 62
     0
 10
85.212497
 20
171.481038
 30
0.0
 40
2.5
  1
%%c16
1001
ACAD
1000
MTEXTBEGIN
1070
    73
1070
     1
1070
    44
1040
1.0
1070
    74
1070
     0
1000
MTEXTEND
1000
MTEXTBEGIN
1070
    73
1070
     1
1070
    44
1040
1.0
1070
    74
1070
     0
1000
MTEXTEND
1000
MTEXTBEGIN
1070
    73
1070
     1
1070
    44
1040
1.0
1070
    74
1070
     0
1000
MTEXTEND
  0
INSERT
  5
11DF7
  8
COTATION1
 62
     0
  2
_OPEN30
 10
74.90128
 20
159.025865
 30
0.0
 41
5.0
 42
5.0
 43
5.0
 50
230.726747
1001
ACAD
1000
RTLwPs
1070
   158
  0
POINT
  5
11DF8
  8
DEFPOINTS
 62
     0
 10
74.90128
 20
159.025865
 30
0.0
  0
POINT
  5
11DF9
  8
DEFPOINTS
 62
     0
 10
64.772967
 20
146.639692
 30
0.0
  0
ENDBLK
  5
11DDF
  8
0
  0
BLOCK
  8
0
  2
*D14
 70
     1
 10
0.0
 20
0.0
 30
0.0
  3
*D14
  1

  0
LINE
  5
120C2
  8
COTATION1
 62
     0
 10
71.837124
 20
116.832779
 30
0.0
 11
127.457455
 21
116.832779
 31
0.0
1001
ACAD
1000
RTLwPs
1070
   158
  0
LINE
  5
120C3
  8
COTATION1
 62
     0
 10
105.957455
 20
66.832779
 30
0.0
 11
127.457455
 21
66.832779
 31
0.0
1001
ACAD
1000
RTLwPs
1070
   158
  0
LINE
  5
120C4
  8
COTATION1
 62
     0
 10
124.957455
 20
111.832779
 30
0.0
 11
124.957455
 21
95.082779
 31
0.0
1001
ACAD
1000
RTLwPs
1070
   158
  0
LINE
  5
120C5
  8
COTATION1
 62
     0
 10
124.957455
 20
71.832779
 30
0.0
 11
124.957455
 21
88.582779
 31
0.0
1001
ACAD
1000
RTLwPs
1070
   158
  0
INSERT
  5
120C6
  8
COTATION1
 62
     0
  2
_OPEN30
 10
124.957455
 20
116.832779
 30
0.0
 41
5.0
 42
5.0
 43
5.0
 50
90.0
1001
ACAD
1000
RTLwPs
1070
   158
  0
INSERT
  5
120C7
  8
COTATION1
 62
     0
  2
_OPEN30
 10
124.957455
 20
66.832779
 30
0.0
 41
5.0
 42
5.0
 43
5.0
 50
270.0
1001
ACAD
1000
RTLwPs
1070
   158
  0
TEXT
  5
120C8
  8
COTATION1
 62
     0
 10
122.576502
 20
90.582779
 30
0.0
 40
2.5
  1
50
1001
ACAD
1000
MTEXTBEGIN
1070
    73
1070
     1
1070
    44
1040
1.0
1070
    74
1070
     0
1000
MTEXTEND
  0
POINT
  5
120C9
  8
DEFPOINTS
 62
     0
 10
69.837124
 20
116.832779
 30
0.0
  0
POINT
  5
120CA
  8
DEFPOINTS
 62
     0
 10
103.957455
 20
66.832779
 30
0.0
  0
POINT
  5
120CB
  8
DEFPOINTS
 62
     0
 10
124.957455
 20
66.832779
 30
0.0
  0
ENDBLK
  5
120B7
  8
0
  0
ENDSEC
  0
SECTION
  2
ENTITIES
  0
INSERT
  5
A
  8
0
  2
COTE
 10
0.0
 20
0.0
 30
0.0
  0
INSERT
  5
17
  8
0
  2
COTE
 10
284.010391
 20
6.373258
 30
0.0
  0
INSERT
  5
72
  8
0
  2
FOND
 10
0.0
 20
0.0
 30
0.0
  0
POLYLINE
  5
111B4
  8
ALPHA
 66
     1
 10
0.0
 20
0.0
 30
0.0
 70
   128
210
0.0
220
0.0
230
-1.0
  0
VERTEX
  5
121B0
  8
ALPHA
 10
-73.282969
 20
111.949789
 30
0.0
  0
VERTEX
  5
121B1
  8
ALPHA
 10
-72.693462
 20
109.586374
 30
0.0
  0
VERTEX
  5
121B2
  8
ALPHA
 10
-71.919152
 20
107.017873
 30
0.0
  0
VERTEX
  5
121B3
  8
ALPHA
 10
-70.964634
 20
104.955335
 30
0.0
  0
VERTEX
  5
121B4
  8
ALPHA
 10
-70.421231
 20
104.336006
 30
0.0
  0
VERTEX
  5
121B5
  8
ALPHA
 10
-69.834499
 20
104.109812
 30
0.0
  0
VERTEX
  5
121B6
  8
ALPHA
 10
-69.247767
 20
104.336006
 30
0.0
  0
VERTEX
  5
121B7
  8
ALPHA
 10
-68.704373
 20
104.955335
 30
0.0
  0
VERTEX
  5
121B8
  8
ALPHA
 10
-67.749918
 20
107.017873
 30
0.0
  0
VERTEX
  5
121B9
  8
ALPHA
 10
-66.975782
 20
109.586374
 30
0.0
  0
VERTEX
  5
121BA
  8
ALPHA
 10
-66.386612
 20
111.949789
 30
0.0
  0
SEQEND
  5
121BB
  8
ALPHA
  0
DIMENSION
  5
111BC
  8
COTATION1
  2
*D3
 10
134.957455
 20
66.832779
 30
0.0
 11
134.957455
 21
113.832779
 31
0.0
 13
69.837124
 23
160.832779
 33
0.0
 14
93.957455
 24
66.832779
 34
0.0
 50
90.0
  0
LINE
  5
111BD
  8
AXE
 10
69.837124
 20
167.190073
 30
0.0
 11
69.837124
 21
40.832779
 31
0.0
  0
DIMENSION
  5
111BE
  8
COTATION1
  2
*D4
 10
144.957455
 20
44.832779
 30
0.0
 11
144.957455
 21
102.832779
 31
0.0
 13
69.837124
 23
160.832779
 33
0.0
 14
82.225404
 24
44.832779
 34
0.0
 50
90.0
  0
DIMENSION
  5
111BF
  8
COTATION1
  2
*D5
 10
106.957455
 20
0.832779
 30
0.0
 11
80.957455
 21
4.082779
 31
0.0
 13
54.957455
 23
66.832779
 33
0.0
 14
106.957455
 24
69.56483
 34
0.0
  0
DIMENSION
  5
111C0
  8
COTATION1
  2
*D6
 10
83.957455
 20
30.832779
 30
0.0
 11
99.582994
 21
30.832779
 31
0.0
 70
   128
  1
M<>
 13
71.957455
 23
45.832779
 33
0.0
 14
83.957455
 24
45.832779
 34
0.0
  0
LINE
  5
111C1
  8
POINTILLE_COURT
 10
94.957455
 20
78.75927
 30
0.0
 11
106.577246
 21
78.75927
 31
0.0
  0
LINE
  5
111C2
  8
POINTILLE_COURT
 10
105.957455
 20
79.832779
 30
0.0
 11
94.957455
 21
79.832779
 31
0.0
  0
LINE
  5
111C3
  8
POINTILLE_COURT
 10
94.957455
 20
68.906288
 30
0.0
 11
106.577246
 21
68.906288
 31
0.0
  0
LINE
  5
111C4
  8
POINTILLE_COURT
 10
105.957455
 20
67.832779
 30
0.0
 11
94.957455
 21
67.832779
 31
0.0
  0
TEXT
  5
111C5
  8
AXE
 10
90.981264
 20
92.832779
 30
0.0
 40
8.0
  1
X
 72
     2
 11
97.457455
 21
92.832779
 31
0.0
  0
LINE
  5
111C6
  8
AXE
 10
49.957455
 20
91.832779
 30
0.0
 11
97.457455
 21
91.832779
 31
0.0
  0
DIMENSION
  5
111C7
  8
COTATION1
  2
*D7
 10
114.957455
 20
66.832779
 30
0.0
 11
114.957455
 21
86.832779
 31
0.0
 13
86.337124
 23
106.832779
 33
0.0
 14
93.957455
 24
66.832779
 34
0.0
 50
90.0
  0
DIMENSION
  5
111C8
  8
COTATION1
  2
*D8
 10
84.957455
 20
10.832779
 30
0.0
 11
69.957455
 21
14.082779
 31
0.0
 13
54.957455
 23
66.832779
 33
0.0
 14
84.957455
 24
57.832779
 34
0.0
  0
DIMENSION
  5
111C9
  8
COTATION1
  2
*D9
 10
79.837124
 20
20.832779
 30
0.0
 11
69.837124
 21
24.082779
 31
0.0
 13
59.837124
 23
100.332779
 33
0.0
 14
79.837124
 24
100.332779
 34
0.0
  0
LINE
  5
111CA
  8
ALPHA
 10
84.957455
 20
80.832779
 30
0.0
 11
70.957455
 21
66.832779
 31
0.0
  0
LINE
  5
111CB
  8
POINTILLE_COURT
 10
93.957455
 20
80.832779
 30
0.0
 11
93.957455
 21
73.832779
 31
0.0
  0
LINE
  5
111CC
  8
POINTILLE_COURT
 10
94.957455
 20
79.832779
 30
0.0
 11
94.957455
 21
73.832779
 31
0.0
  0
LINE
  5
111CD
  8
ALPHA
 10
54.957455
 20
66.832779
 30
0.0
 11
54.957455
 21
114.832779
 31
0.0
  0
LINE
  5
111CE
  8
ALPHA
 10
84.957455
 20
57.832779
 30
0.0
 11
84.957455
 21
114.832779
 31
0.0
  0
LINE
  5
111CF
  8
ALPHA
 10
54.957455
 20
68.832779
 30
0.0
 11
72.957455
 21
68.832779
 31
0.0
  0
TEXT
  5
111D0
  8
AXE
 10
62.360933
 20
40.832779
 30
0.0
 40
8.0
  1
Y
 72
     2
 11
68.837124
 21
40.832779
 31
0.0
  0
LINE
  5
111D1
  8
ALPHA
 10
54.957455
 20
66.832779
 30
0.0
 11
84.957455
 21
66.832779
 31
0.0
  0
LINE
  5
111D2
  8
ALPHA
 10
71.957455
 20
45.832779
 30
0.0
 11
71.957455
 21
56.832779
 31
0.0
  0
LINE
  5
111D3
  8
ALPHA_FIN
 10
73.030964
 20
56.832779
 30
0.0
 11
73.030964
 21
45.212988
 31
0.0
  0
LINE
  5
111D4
  8
ALPHA
 10
83.957455
 20
45.832779
 30
0.0
 11
83.957455
 21
56.832779
 31
0.0
  0
LINE
  5
111D5
  8
ALPHA_FIN
 10
82.883946
 20
56.832779
 30
0.0
 11
82.883946
 21
45.212988
 31
0.0
  0
LINE
  5
111D6
  8
ALPHA
 10
77.957455
 20
45.832779
 30
0.0
 11
83.957455
 21
45.832779
 31
0.0
  0
LINE
  5
111D7
  8
ALPHA
 10
77.957455
 20
44.832779
 30
0.0
 11
82.225404
 21
44.832779
 31
0.0
  0
LINE
  5
111D8
  8
ALPHA
 10
71.957455
 20
45.832779
 30
0.0
 11
73.689506
 21
44.832779
 31
0.0
  0
LINE
  5
111D9
  8
ALPHA
 10
77.957455
 20
45.832779
 30
0.0
 11
71.957455
 21
45.832779
 31
0.0
  0
LINE
  5
111DA
  8
ALPHA
 10
77.957455
 20
44.832779
 30
0.0
 11
73.689506
 21
44.832779
 31
0.0
  0
LINE
  5
111DB
  8
ALPHA
 10
83.957455
 20
45.832779
 30
0.0
 11
82.225404
 21
44.832779
 31
0.0
  0
LINE
  5
111DC
  8
ALPHA
 10
83.957455
 20
56.832779
 30
0.0
 11
77.957455
 21
56.832779
 31
0.0
  0
LINE
  5
111DD
  8
ALPHA
 10
84.957455
 20
57.832779
 30
0.0
 11
77.957455
 21
57.832779
 31
0.0
  0
LINE
  5
111DE
  8
ALPHA
 10
70.957455
 20
66.832779
 30
0.0
 11
70.957455
 21
57.832779
 31
0.0
  0
LINE
  5
111DF
  8
ALPHA
 10
71.957455
 20
56.832779
 30
0.0
 11
70.957455
 21
57.832779
 31
0.0
  0
LINE
  5
111E0
  8
ALPHA
 10
70.957455
 20
57.832779
 30
0.0
 11
77.957455
 21
57.832779
 31
0.0
  0
LINE
  5
111E1
  8
ALPHA
 10
71.957455
 20
56.832779
 30
0.0
 11
77.957455
 21
56.832779
 31
0.0
  0
LINE
  5
111E2
  8
ALPHA
 10
83.957455
 20
56.832779
 30
0.0
 11
84.957455
 21
57.832779
 31
0.0
  0
LINE
  5
111E3
  8
POINTILLE_COURT
 10
84.957455
 20
66.832779
 30
0.0
 11
93.957455
 21
66.832779
 31
0.0
  0
LINE
  5
111E4
  8
POINTILLE_COURT
 10
94.957455
 20
67.832779
 30
0.0
 11
94.957455
 21
73.832779
 31
0.0
  0
LINE
  5
111E5
  8
POINTILLE_COURT
 10
93.957455
 20
66.832779
 30
0.0
 11
93.957455
 21
73.832779
 31
0.0
  0
LINE
  5
111E6
  8
POINTILLE_COURT
 10
94.957455
 20
67.832779
 30
0.0
 11
93.957455
 21
66.832779
 31
0.0
  0
LINE
  5
111E7
  8
ALPHA
 10
60.475283
 20
111.94979
 30
0.0
 11
69.342859
 21
111.94979
 31
0.0
  0
LINE
  5
111E8
  8
ALPHA
 10
79.194881
 20
114.116382
 30
0.0
 11
60.475283
 21
114.116382
 31
0.0
  0
DIMENSION
  5
111E9
  8
COTATION1
  2
*D10
 10
63.260729
 20
108.901335
 30
0.0
 11
33.776548
 21
93.482114
 31
0.0
 70
   131
 15
56.413518
 25
104.764223
 35
0.0
 40
0.0
  0
LINE
  5
111EA
  8
AXE
 10
53.337124
 20
106.832779
 30
0.0
 11
66.337124
 21
106.832779
 31
0.0
  0
CIRCLE
  5
111EB
  8
ALPHA
 10
59.837124
 20
106.832779
 30
0.0
 40
4.0
  0
ARC
  5
111EC
  8
ALPHA
 10
69.957455
 20
59.586399
 30
0.0
 40
57.246507
 50
74.809764
 51
105.190236
  0
DIMENSION
  5
111EF
  8
COTATION1
  2
*D11
 10
61.242357
 20
105.272227
 30
0.0
 11
45.298723
 21
116.592548
 31
0.0
 70
   131
 15
58.431891
 25
108.39333
 35
0.0
 40
0.0
  0
LINE
  5
111F0
  8
AXE
 10
59.837124
 20
100.332779
 30
0.0
 11
59.837124
 21
113.332779
 31
0.0
  0
CIRCLE
  5
111F1
  8
ALPHA
 10
59.837124
 20
106.832779
 30
0.0
 40
2.1
  0
LINE
  5
111F2
  8
ALPHA
 10
60.475283
 20
114.116382
 30
0.0
 11
60.475283
 21
111.94979
 31
0.0
  0
LINE
  5
111F5
  8
POINTILLE_COURT
 10
93.957455
 20
80.832779
 30
0.0
 11
84.957455
 21
80.832779
 31
0.0
  0
LINE
  5
111F6
  8
POINTILLE_COURT
 10
94.957455
 20
79.832779
 30
0.0
 11
93.957455
 21
80.832779
 31
0.0
  0
LINE
  5
111F7
  8
AXE
 10
86.337124
 20
106.832779
 30
0.0
 11
73.337124
 21
106.832779
 31
0.0
  0
CIRCLE
  5
111F8
  8
ALPHA
 10
79.837124
 20
106.832779
 30
0.0
 40
2.1
  0
CIRCLE
  5
111F9
  8
ALPHA
 10
79.837124
 20
106.832779
 30
0.0
 40
4.0
  0
LINE
  5
111FA
  8
ALPHA
 10
70.327888
 20
111.94979
 30
0.0
 11
79.194881
 21
111.94979
 31
0.0
  0
LINE
  5
111FE
  8
ALPHA
 10
70.327888
 20
112.934817
 30
0.0
 11
70.327888
 21
111.94979
 31
0.0
  0
LINE
  5
111FF
  8
ALPHA
 10
69.342859
 20
112.934817
 30
0.0
 11
70.327888
 21
112.934817
 31
0.0
  0
LINE
  5
11200
  8
ALPHA
 10
69.342859
 20
111.94979
 30
0.0
 11
69.342859
 21
112.934817
 31
0.0
  0
LINE
  5
11203
  8
ALPHA
 10
79.194881
 20
111.94979
 30
0.0
 11
79.194881
 21
114.116382
 31
0.0
  0
LINE
  5
11207
  8
AXE
 10
79.837124
 20
100.332779
 30
0.0
 11
79.837124
 21
113.332779
 31
0.0
  0
LINE
  5
1120A
  8
POINTILLE_COURT
 10
106.957455
 20
73.832779
 30
0.0
 11
106.957455
 21
78.100728
 31
0.0
  0
LINE
  5
1120B
  8
POINTILLE_COURT
 10
105.957455
 20
73.832779
 30
0.0
 11
105.957455
 21
79.832779
 31
0.0
  0
LINE
  5
1120C
  8
POINTILLE_COURT
 10
106.957455
 20
73.832779
 30
0.0
 11
106.957455
 21
69.56483
 31
0.0
  0
LINE
  5
1120D
  8
POINTILLE_COURT
 10
105.957455
 20
73.832779
 30
0.0
 11
105.957455
 21
67.832779
 31
0.0
  0
LINE
  5
1120E
  8
POINTILLE_COURT
 10
105.957455
 20
67.832779
 30
0.0
 11
106.957455
 21
69.56483
 31
0.0
  0
LINE
  5
1120F
  8
POINTILLE_COURT
 10
105.957455
 20
79.832779
 30
0.0
 11
106.957455
 21
78.100728
 31
0.0
  0
LINE
  5
11DA5
  8
ALPHA
 10
77.448497
 20
133.281946
 30
0.0
 11
77.843977
 21
132.082
 31
0.0
  0
POLYLINE
  5
11DA6
  8
ALPHA
 66
     1
 10
0.0
 20
0.0
 30
0.0
 70
   128
  0
VERTEX
  5
121BC
  8
ALPHA
 10
61.845221
 20
126.334334
 30
0.0
  0
VERTEX
  5
121BD
  8
ALPHA
 10
61.854615
 20
126.501092
 30
0.0
  0
VERTEX
  5
121BE
  8
ALPHA
 10
61.881596
 20
126.980012
 30
0.0
  0
VERTEX
  5
121BF
  8
ALPHA
 10
61.981096
 20
128.746226
 30
0.0
  0
VERTEX
  5
121C0
  8
ALPHA
 10
62.129287
 20
131.376746
 30
0.0
  0
VERTEX
  5
121C1
  8
ALPHA
 10
62.311735
 20
134.615344
 30
0.0
  0
VERTEX
  5
121C2
  8
ALPHA
 10
62.72166
 20
141.891852
 30
0.0
  0
VERTEX
  5
121C3
  8
ALPHA
 10
62.920267
 20
145.417305
 30
0.0
  0
VERTEX
  5
121C4
  8
ALPHA
 10
63.095392
 20
148.525917
 30
0.0
  0
SEQEND
  5
121C5
  8
ALPHA
  0
POLYLINE
  5
11DA7
  8
ALPHA
 66
     1
 10
0.0
 20
0.0
 30
0.0
 70
   128
  0
VERTEX
  5
121C6
  8
ALPHA
 10
76.580606
 20
148.528658
 30
0.0
  0
VERTEX
  5
121C7
  8
ALPHA
 10
76.742624
 20
145.682389
 30
0.0
  0
VERTEX
  5
121C8
  8
ALPHA
 10
76.925782
 20
142.464759
 30
0.0
  0
VERTEX
  5
121C9
  8
ALPHA
 10
77.309836
 20
135.717877
 30
0.0
  0
VERTEX
  5
121CA
  8
ALPHA
 10
77.487893
 20
132.589859
 30
0.0
  0
VERTEX
  5
121CB
  8
ALPHA
 10
77.64141
 20
129.892943
 30
0.0
  0
VERTEX
  5
121CC
  8
ALPHA
 10
77.758967
 20
127.827745
 30
0.0
  0
VERTEX
  5
121CD
  8
ALPHA
 10
77.829146
 20
126.594883
 30
0.0
  0
VERTEX
  5
121CE
  8
ALPHA
 10
77.842899
 20
126.35327
 30
0.0
  0
VERTEX
  5
121CF
  8
ALPHA
 10
77.835984
 20
125.973559
 30
0.0
  0
VERTEX
  5
121D0
  8
ALPHA
 10
77.710411
 20
124.871078
 30
0.0
  0
VERTEX
  5
121D1
  8
ALPHA
 10
77.036532
 20
122.828281
 30
0.0
  0
VERTEX
  5
121D2
  8
ALPHA
 10
75.868316
 20
121.07101
 30
0.0
  0
VERTEX
  5
121D3
  8
ALPHA
 10
74.288934
 20
119.682435
 30
0.0
  0
VERTEX
  5
121D4
  8
ALPHA
 10
72.381553
 20
118.745725
 30
0.0
  0
VERTEX
  5
121D5
  8
ALPHA
 10
70.229343
 20
118.344049
 30
0.0
  0
VERTEX
  5
121D6
  8
ALPHA
 10
68.016642
 20
118.544737
 30
0.0
  0
VERTEX
  5
121D7
  8
ALPHA
 10
66.016413
 20
119.308636
 30
0.0
  0
VERTEX
  5
121D8
  8
ALPHA
 10
64.3161
 20
120.552715
 30
0.0
  0
VERTEX
  5
121D9
  8
ALPHA
 10
62.99876
 20
122.193803
 30
0.0
  0
VERTEX
  5
121DA
  8
ALPHA
 10
62.147448
 20
124.148733
 30
0.0
  0
VERTEX
  5
121DB
  8
ALPHA
 10
61.845221
 20
126.334334
 30
0.0
  0
SEQEND
  5
121DC
  8
ALPHA
  0
LINE
  5
11DA8
  8
ALPHA
 10
61.845221
 20
132.082
 30
0.0
 11
62.236278
 21
133.275924
 31
0.0
  0
POLYLINE
  5
11DA9
  8
ALPHA
 66
     1
 10
0.0
 20
0.0
 30
0.0
 70
   128
  0
VERTEX
  5
121DD
  8
ALPHA
 10
61.845221
 20
116.25521
 30
0.0
  0
VERTEX
  5
121DE
  8
ALPHA
 10
61.845221
 20
116.432952
 30
0.0
  0
VERTEX
  5
121DF
  8
ALPHA
 10
61.845221
 20
116.935267
 30
0.0
  0
VERTEX
  5
121E0
  8
ALPHA
 10
61.845221
 20
118.728146
 30
0.0
  0
VERTEX
  5
121E1
  8
ALPHA
 10
61.845221
 20
121.262905
 30
0.0
  0
VERTEX
  5
121E2
  8
ALPHA
 10
61.845221
 20
124.168605
 30
0.0
  0
VERTEX
  5
121E3
  8
ALPHA
 10
61.845221
 20
127.074305
 30
0.0
  0
VERTEX
  5
121E4
  8
ALPHA
 10
61.845221
 20
129.609064
 30
0.0
  0
VERTEX
  5
121E5
  8
ALPHA
 10
61.845221
 20
131.401943
 30
0.0
  0
VERTEX
  5
121E6
  8
ALPHA
 10
61.845221
 20
131.904258
 30
0.0
  0
VERTEX
  5
121E7
  8
ALPHA
 10
61.845221
 20
132.082
 30
0.0
  0
SEQEND
  5
121E8
  8
ALPHA
  0
POLYLINE
  5
11DAA
  8
ALPHA
 66
     1
 10
0.0
 20
0.0
 30
0.0
 70
   129
  0
VERTEX
  5
121E9
  8
ALPHA
 10
69.839616
 20
126.004118
 30
0.0
  0
VERTEX
  5
121EA
  8
ALPHA
 10
69.919751
 20
126.012331
 30
0.0
  0
VERTEX
  5
121EB
  8
ALPHA
 10
69.996899
 20
126.03574
 30
0.0
  0
VERTEX
  5
121EC
  8
ALPHA
 10
70.068273
 20
126.073498
 30
0.0
  0
VERTEX
  5
121ED
  8
ALPHA
 10
70.131292
 20
126.124242
 30
0.0
  0
VERTEX
  5
121EE
  8
ALPHA
 10
70.18368
 20
126.186138
 30
0.0
  0
VERTEX
  5
121EF
  8
ALPHA
 10
70.223542
 20
126.256947
 30
0.0
  0
VERTEX
  5
121F0
  8
ALPHA
 10
70.249437
 20
126.334112
 30
0.0
  0
VERTEX
  5
121F1
  8
ALPHA
 10
70.260431
 20
126.414843
 30
0.0
  0
VERTEX
  5
121F2
  8
ALPHA
 10
70.256125
 20
126.496222
 30
0.0
  0
VERTEX
  5
121F3
  8
ALPHA
 10
70.236676
 20
126.575308
 30
0.0
  0
VERTEX
  5
121F4
  8
ALPHA
 10
70.202786
 20
126.649242
 30
0.0
  0
VERTEX
  5
121F5
  8
ALPHA
 10
70.155679
 20
126.715353
 30
0.0
  0
VERTEX
  5
121F6
  8
ALPHA
 10
70.097059
 20
126.771251
 30
0.0
  0
VERTEX
  5
121F7
  8
ALPHA
 10
70.029045
 20
126.814916
 30
0.0
  0
VERTEX
  5
121F8
  8
ALPHA
 10
69.954094
 20
126.844769
 30
0.0
  0
VERTEX
  5
121F9
  8
ALPHA
 10
69.874915
 20
126.859732
 30
0.0
  0
VERTEX
  5
121FA
  8
ALPHA
 10
69.794371
 20
126.859264
 30
0.0
  0
VERTEX
  5
121FB
  8
ALPHA
 10
69.715371
 20
126.843382
 30
0.0
  0
VERTEX
  5
121FC
  8
ALPHA
 10
69.640772
 20
126.812659
 30
0.0
  0
VERTEX
  5
121FD
  8
ALPHA
 10
69.57327
 20
126.768206
 30
0.0
  0
VERTEX
  5
121FE
  8
ALPHA
 10
69.515304
 20
126.71163
 30
0.0
  0
VERTEX
  5
121FF
  8
ALPHA
 10
69.46897
 20
126.644976
 30
0.0
  0
VERTEX
  5
12200
  8
ALPHA
 10
69.435941
 20
126.570652
 30
0.0
  0
VERTEX
  5
12201
  8
ALPHA
 10
69.417413
 20
126.491345
 30
0.0
  0
VERTEX
  5
12202
  8
ALPHA
 10
69.414053
 20
126.409922
 30
0.0
  0
VERTEX
  5
12203
  8
ALPHA
 10
69.425985
 20
126.329324
 30
0.0
  0
VERTEX
  5
12204
  8
ALPHA
 10
69.452776
 20
126.252466
 30
0.0
  0
VERTEX
  5
12205
  8
ALPHA
 10
69.493459
 20
126.182125
 30
0.0
  0
VERTEX
  5
12206
  8
ALPHA
 10
69.546563
 20
126.120843
 30
0.0
  0
VERTEX
  5
12207
  8
ALPHA
 10
69.610168
 20
126.070835
 30
0.0
  0
VERTEX
  5
12208
  8
ALPHA
 10
69.681976
 20
126.033909
 30
0.0
  0
VERTEX
  5
12209
  8
ALPHA
 10
69.759391
 20
126.011399
 30
0.0
  0
SEQEND
  5
1220A
  8
ALPHA
  0
POLYLINE
  5
11DAB
  8
ALPHA
 66
     1
 10
0.0
 20
0.0
 30
0.0
 70
   128
  0
VERTEX
  5
1220B
  8
ALPHA
 10
77.843977
 20
132.082
 30
0.0
  0
VERTEX
  5
1220C
  8
ALPHA
 10
77.843977
 20
131.904616
 30
0.0
  0
VERTEX
  5
1220D
  8
ALPHA
 10
77.843977
 20
131.403311
 30
0.0
  0
VERTEX
  5
1220E
  8
ALPHA
 10
77.843977
 20
129.614041
 30
0.0
  0
VERTEX
  5
1220F
  8
ALPHA
 10
77.843977
 20
127.084383
 30
0.0
  0
VERTEX
  5
12210
  8
ALPHA
 10
77.843977
 20
124.184531
 30
0.0
  0
VERTEX
  5
12211
  8
ALPHA
 10
77.843977
 20
121.284679
 30
0.0
  0
VERTEX
  5
12212
  8
ALPHA
 10
77.843977
 20
118.755021
 30
0.0
  0
VERTEX
  5
12213
  8
ALPHA
 10
77.843977
 20
116.965751
 30
0.0
  0
VERTEX
  5
12214
  8
ALPHA
 10
77.843977
 20
116.464447
 30
0.0
  0
VERTEX
  5
12215
  8
ALPHA
 10
77.843977
 20
116.287062
 30
0.0
  0
SEQEND
  5
12216
  8
ALPHA
  0
CIRCLE
  5
11DAC
  8
ALPHA
 10
69.8446
 20
126.432779
 30
0.0
 40
6.500001
  0
LINE
  5
11DAD
  8
ALPHA
 10
61.845221
 20
117.633399
 30
0.0
 11
77.843977
 21
117.633399
 31
0.0
  0
DIMENSION
  5
11DAE
  8
COTATION1
  2
*D13
 10
64.772967
 20
146.639692
 30
0.0
 11
88.605354
 21
169.481038
 31
0.0
 70
   131
 15
74.90128
 25
159.025865
 35
0.0
 40
0.0
  0
CIRCLE
  5
11DB1
  8
ALPHA
 10
69.837124
 20
152.832779
 30
0.0
 40
8.0
  0
LINE
  5
11DB2
  8
ALPHA
 10
62.810955
 20
143.832156
 30
0.0
 11
76.832139
 21
143.832156
 31
0.0
  0
LINE
  5
11DB3
  8
ALPHA
 10
63.255189
 20
139.333089
 30
0.0
 11
76.391641
 21
139.333089
 31
0.0
  0
LINE
  5
11DB4
  8
ALPHA
 10
69.839616
 20
128.869541
 30
0.0
 11
72.168587
 21
127.179199
 31
0.0
  0
CIRCLE
  5
11DB5
  8
ALPHA
 10
69.8446
 20
126.432779
 30
0.0
 40
4.000313
  0
LINE
  5
11DB6
  8
ALPHA
 10
72.168587
 20
127.179199
 30
0.0
 11
71.278866
 21
124.439632
 31
0.0
  0
LINE
  5
11DB7
  8
ALPHA
 10
67.509397
 20
127.179199
 30
0.0
 11
69.839616
 21
128.869541
 31
0.0
  0
LINE
  5
11DB8
  8
ALPHA
 10
71.278866
 20
124.439632
 30
0.0
 11
68.401609
 21
124.439632
 31
0.0
  0
LINE
  5
11DB9
  8
ALPHA
 10
68.401609
 20
124.439632
 30
0.0
 11
67.509397
 21
127.179199
 31
0.0
  0
CIRCLE
  5
11DBB
  8
ALPHA
 10
69.837124
 20
152.832468
 30
0.0
 40
3.999691
  0
DIMENSION
  5
11DBC
  8
COTATION1
  2
*D12
 10
32.809374
 20
106.832779
 30
0.0
 11
32.809374
 21
133.832779
 31
0.0
 70
   128
 13
69.837124
 23
160.832779
 33
0.0
 14
53.337124
 24
106.832779
 34
0.0
 50
90.0
  0
DIMENSION
  5
120AA
  8
COTATION1
  2
*D14
 10
124.957455
 20
66.832779
 30
0.0
 11
124.957455
 21
91.832779
 31
0.0
 13
69.837124
 23
116.832779
 33
0.0
 14
103.957455
 24
66.832779
 34
0.0
 50
90.0
  0
VIEWPORT
  5
494D
 67
     1
  8
0
 10
4.995325
 20
6.556512
 30
0.0
 40
22.70986
 41
13.988421
 68
    -1
 69
     1
1001
ACAD
1000
MVIEW
1002
{
1070
    16
1010
0.0
1020
0.0
1030
0.0
1010
0.0
1020
0.0
1030
1.0
1040
0.0
1040
13.988421
1040
4.995325
1040
6.556512
1040
50.0
1040
0.0
1040
0.0
1070
     0
1070
   100
1070
     1
1070
     1
1070
     0
1070
     0
1070
     0
1070
     0
1040
0.0
1040
0.0
1040
0.0
1040
10.0
1040
10.0
1040
10.0
1040
10.0
1070
     0
1002
{
1002
}
1002
}
  0
ENDSEC
  0
EOF
