  0
SECTION
  2
HEADER
  9
$ACADVER
  1
AC1018
  9
$ACADMAINTVER
 70
    77
  9
$DWGCODEPAGE
  3
ANSI_1252
  9
$INSBASE
 10
0.0
 20
0.0
 30
0.0
  9
$EXTMIN
 10
0.0
 20
0.0
 30
0.0
  9
$EXTMAX
 10
210.0
 20
297.0
 30
0.0
  9
$LIMMIN
 10
0.0
 20
0.0
  9
$LIMMAX
 10
210.0
 20
297.0
  9
$ORTHOMODE
 70
     0
  9
$REGENMODE
 70
     1
  9
$FILLMODE
 70
     1
  9
$QTEXTMODE
 70
     0
  9
$MIRRTEXT
 70
     0
  9
$LTSCALE
 40
19.36
  9
$ATTMODE
 70
     1
  9
$TEXTSIZE
 40
0.2
  9
$TRACEWID
 40
0.05
  9
$TEXTSTYLE
  7
Standard
  9
$CLAYER
  8
0
  9
$CELTYPE
  6
ByLayer
  9
$CECOLOR
 62
   256
  9
$CELTSCALE
 40
1.0
  9
$DISPSILH
 70
     0
  9
$DIMSCALE
 40
1.0
  9
$DIMASZ
 40
3.0
  9
$DIMEXO
 40
2.2
  9
$DIMDLI
 40
13.376
  9
$DIMRND
 40
0.0
  9
$DIMDLE
 40
0.0
  9
$DIMEXE
 40
6.336
  9
$DIMTP
 40
0.0
  9
$DIMTM
 40
0.0
  9
$DIMTXT
 40
0.18
  9
$DIMCEN
 40
3.168
  9
$DIMTSZ
 40
0.0
  9
$DIMTOL
 70
     0
  9
$DIMLIM
 70
     0
  9
$DIMTIH
 70
     1
  9
$DIMTOH
 70
     1
  9
$DIMSE1
 70
     0
  9
$DIMSE2
 70
     0
  9
$DIMTAD
 70
     0
  9
$DIMZIN
 70
     0
  9
$DIMBLK
  1

  9
$DIMASO
 70
     1
  9
$DIMSHO
 70
     1
  9
$DIMPOST
  1

  9
$DIMAPOST
  1

  9
$DIMALT
 70
     0
  9
$DIMALTD
 70
     2
  9
$DIMALTF
 40
25.4
  9
$DIMLFAC
 40
1.0
  9
$DIMTOFL
 70
     0
  9
$DIMTVP
 40
0.0
  9
$DIMTIX
 70
     0
  9
$DIMSOXD
 70
     0
  9
$DIMSAH
 70
     0
  9
$DIMBLK1
  1

  9
$DIMBLK2
  1

  9
$DIMSTYLE
  2
Standard
  9
$DIMCLRD
 70
     0
  9
$DIMCLRE
 70
     0
  9
$DIMCLRT
 70
     0
  9
$DIMTFAC
 40
1.0
  9
$DIMGAP
 40
0.09
  9
$DIMJUST
 70
     0
  9
$DIMSD1
 70
     0
  9
$DIMSD2
 70
     0
  9
$DIMTOLJ
 70
     1
  9
$DIMTZIN
 70
     0
  9
$DIMALTZ
 70
     0
  9
$DIMALTTZ
 70
     0
  9
$DIMUPT
 70
     0
  9
$DIMDEC
 70
     4
  9
$DIMTDEC
 70
     4
  9
$DIMALTU
 70
     2
  9
$DIMALTTD
 70
     2
  9
$DIMTXSTY
  7
Standard
  9
$DIMAUNIT
 70
     0
  9
$DIMADEC
 70
     0
  9
$DIMALTRND
 40
0.0
  9
$DIMAZIN
 70
     0
  9
$DIMDSEP
 70
    46
  9
$DIMATFIT
 70
     3
  9
$DIMFRAC
 70
     0
  9
$DIMLDRBLK
  1

  9
$DIMLUNIT
 70
     2
  9
$DIMLWD
 70
    -2
  9
$DIMLWE
 70
    -2
  9
$DIMTMOVE
 70
     0
  9
$LUNITS
 70
     2
  9
$LUPREC
 70
     4
  9
$SKETCHINC
 40
0.1
  9
$FILLETRAD
 40
0.0
  9
$AUNITS
 70
     0
  9
$AUPREC
 70
     0
  9
$MENU
  1
.
  9
$ELEVATION
 40
0.0
  9
$PELEVATION
 40
0.0
  9
$THICKNESS
 40
0.0
  9
$LIMCHECK
 70
     0
  9
$CHAMFERA
 40
0.0
  9
$CHAMFERB
 40
0.0
  9
$CHAMFERC
 40
0.0
  9
$CHAMFERD
 40
0.0
  9
$SKPOLY
 70
     0
  9
$TDCREATE
 40
2454592.701405706
  9
$TDUCREATE
 40
2454592.618072373
  9
$TDUPDATE
 40
2454592.701820023
  9
$TDUUPDATE
 40
2454592.618486690
  9
$TDINDWG
 40
0.0004148611
  9
$TDUSRTIMER
 40
0.0004148611
  9
$USRTIMER
 70
     1
  9
$ANGBASE
 50
0.0
  9
$ANGDIR
 70
     0
  9
$PDMODE
 70
     0
  9
$PDSIZE
 40
0.0
  9
$PLINEWID
 40
0.0
  9
$SPLFRAME
 70
     0
  9
$SPLINETYPE
 70
     6
  9
$SPLINESEGS
 70
     8
  9
$HANDSEED
  5
3AA
  9
$SURFTAB1
 70
     6
  9
$SURFTAB2
 70
     6
  9
$SURFTYPE
 70
     6
  9
$SURFU
 70
     6
  9
$SURFV
 70
     6
  9
$UCSBASE
  2

  9
$UCSNAME
  2

  9
$UCSORG
 10
0.0
 20
0.0
 30
0.0
  9
$UCSXDIR
 10
1.0
 20
0.0
 30
0.0
  9
$UCSYDIR
 10
0.0
 20
1.0
 30
0.0
  9
$UCSORTHOREF
  2

  9
$UCSORTHOVIEW
 70
     0
  9
$UCSORGTOP
 10
0.0
 20
0.0
 30
0.0
  9
$UCSORGBOTTOM
 10
0.0
 20
0.0
 30
0.0
  9
$UCSORGLEFT
 10
0.0
 20
0.0
 30
0.0
  9
$UCSORGRIGHT
 10
0.0
 20
0.0
 30
0.0
  9
$UCSORGFRONT
 10
0.0
 20
0.0
 30
0.0
  9
$UCSORGBACK
 10
0.0
 20
0.0
 30
0.0
  9
$PUCSBASE
  2

  9
$PUCSNAME
  2

  9
$PUCSORG
 10
0.0
 20
0.0
 30
0.0
  9
$PUCSXDIR
 10
1.0
 20
0.0
 30
0.0
  9
$PUCSYDIR
 10
0.0
 20
1.0
 30
0.0
  9
$PUCSORTHOREF
  2

  9
$PUCSORTHOVIEW
 70
     0
  9
$PUCSORGTOP
 10
0.0
 20
0.0
 30
0.0
  9
$PUCSORGBOTTOM
 10
0.0
 20
0.0
 30
0.0
  9
$PUCSORGLEFT
 10
0.0
 20
0.0
 30
0.0
  9
$PUCSORGRIGHT
 10
0.0
 20
0.0
 30
0.0
  9
$PUCSORGFRONT
 10
0.0
 20
0.0
 30
0.0
  9
$PUCSORGBACK
 10
0.0
 20
0.0
 30
0.0
  9
$USERI1
 70
     0
  9
$USERI2
 70
     0
  9
$USERI3
 70
     0
  9
$USERI4
 70
     0
  9
$USERI5
 70
     0
  9
$USERR1
 40
0.0
  9
$USERR2
 40
0.0
  9
$USERR3
 40
0.0
  9
$USERR4
 40
0.0
  9
$USERR5
 40
0.0
  9
$WORLDVIEW
 70
     1
  9
$SHADEDGE
 70
     3
  9
$SHADEDIF
 70
    70
  9
$TILEMODE
 70
     1
  9
$MAXACTVP
 70
    64
  9
$PINSBASE
 10
0.0
 20
0.0
 30
0.0
  9
$PLIMCHECK
 70
     0
  9
$PEXTMIN
 10
1.000000000000000E+20
 20
1.000000000000000E+20
 30
1.000000000000000E+20
  9
$PEXTMAX
 10
-1.000000000000000E+20
 20
-1.000000000000000E+20
 30
-1.000000000000000E+20
  9
$PLIMMIN
 10
0.0
 20
0.0
  9
$PLIMMAX
 10
12.0
 20
9.0
  9
$UNITMODE
 70
     0
  9
$VISRETAIN
 70
     1
  9
$PLINEGEN
 70
     0
  9
$PSLTSCALE
 70
     1
  9
$TREEDEPTH
 70
  3020
  9
$CMLSTYLE
  2
Standard
  9
$CMLJUST
 70
     0
  9
$CMLSCALE
 40
1.0
  9
$PROXYGRAPHICS
 70
     1
  9
$MEASUREMENT
 70
     0
  9
$CELWEIGHT
370
    -1
  9
$ENDCAPS
280
     0
  9
$JOINSTYLE
280
     0
  9
$LWDISPLAY
290
     0
  9
$INSUNITS
 70
     0
  9
$HYPERLINKBASE
  1

  9
$STYLESHEET
  1

  9
$XEDIT
290
     1
  9
$CEPSNTYPE
380
     0
  9
$PSTYLEMODE
290
     1
  9
$FINGERPRINTGUID
  2
{AE845363-0007-4C50-84B6-030935E6E32B}
  9
$VERSIONGUID
  2
{192B0981-5B8B-4857-AA9D-34F72054EA9E}
  9
$EXTNAMES
290
     1
  9
$PSVPSCALE
 40
0.0
  9
$OLESTARTUP
290
     0
  9
$SORTENTS
280
   127
  9
$INDEXCTL
280
     0
  9
$HIDETEXT
280
     0
  9
$XCLIPFRAME
290
     0
  9
$HALOGAP
280
     0
  9
$OBSCOLOR
 70
   257
  9
$OBSLTYPE
280
     0
  9
$INTERSECTIONDISPLAY
280
     0
  9
$INTERSECTIONCOLOR
 70
   257
  9
$DIMASSOC
280
     1
  9
$PROJECTNAME
  1

  0
ENDSEC
  0
SECTION
  2
CLASSES
  0
CLASS
  1
ACDBDICTIONARYWDFLT
  2
AcDbDictionaryWithDefault
  3
ObjectDBX Classes
 90
        0
 91
        1
280
     0
281
     0
  0
CLASS
  1
TABLESTYLE
  2
AcDbTableStyle
  3
ObjectDBX Classes
 90
     2047
 91
        1
280
     0
281
     0
  0
CLASS
  1
DICTIONARYVAR
  2
AcDbDictionaryVar
  3
ObjectDBX Classes
 90
        0
 91
        1
280
     0
281
     0
  0
ENDSEC
  0
SECTION
  2
TABLES
  0
TABLE
  2
VPORT
  5
8
330
0
100
AcDbSymbolTable
 70
     3
  0
VPORT
  5
3A9
330
8
100
AcDbSymbolTableRecord
100
AcDbViewportTableRecord
  2
*Active
 70
     0
 10
0.0
 20
0.0
 11
1.0
 21
1.0
 12
159.5855803445662
 22
193.4878302928892
 13
0.0
 23
0.0
 14
1.0
 24
1.0
 15
0.0
 25
0.0
 16
0.0
 26
0.0
 36
1.0
 17
0.0
 27
0.0
 37
0.0
 40
138.5537827145836
 41
1.354709418837675
 42
50.0
 43
0.0
 44
0.0
 50
0.0
 51
0.0
 71
     0
 72
   100
 73
     1
 74
     1
 75
     0
 76
     0
 77
     0
 78
     0
281
     0
 65
     1
110
0.0
120
0.0
130
0.0
111
1.0
121
0.0
131
0.0
112
0.0
122
1.0
132
0.0
 79
     0
146
0.0
  0
ENDTAB
  0
TABLE
  2
LTYPE
  5
5
330
0
100
AcDbSymbolTable
 70
     8
  0
LTYPE
  5
13
330
5
100
AcDbSymbolTableRecord
100
AcDbLinetypeTableRecord
  2
ByBlock
 70
     0
  3

 72
    65
 73
     0
 40
0.0
  0
LTYPE
  5
14
330
5
100
AcDbSymbolTableRecord
100
AcDbLinetypeTableRecord
  2
ByLayer
 70
     0
  3

 72
    65
 73
     0
 40
0.0
  0
LTYPE
  5
15
330
5
100
AcDbSymbolTableRecord
100
AcDbLinetypeTableRecord
  2
CONTINUOUS
 70
     0
  3
Solid line
 72
    65
 73
     0
 40
0.0
  0
LTYPE
  5
26
330
5
100
AcDbSymbolTableRecord
100
AcDbLinetypeTableRecord
  2
BYBLOCK
 70
     0
  3

 72
    65
 73
     0
 40
0.0
  0
LTYPE
  5
27
330
5
100
AcDbSymbolTableRecord
100
AcDbLinetypeTableRecord
  2
BYLAYER
 70
     0
  3

 72
    65
 73
     0
 40
0.0
  0
LTYPE
  5
28
330
5
100
AcDbSymbolTableRecord
100
AcDbLinetypeTableRecord
  2
CENTER
 70
     0
  3
____ _ ____ _ ____ _ ____ _ ____ _ ____ _ ____
 72
    65
 73
     4
 40
0.6
 49
0.375
 74
     0
 49
-0.075
 74
     0
 49
0.075
 74
     0
 49
-0.075
 74
     0
  0
LTYPE
  5
29
330
5
100
AcDbSymbolTableRecord
100
AcDbLinetypeTableRecord
  2
HIDDEN
 70
     0
  3
- - - - - - - - - - - - - - - - - - - -
 72
    65
 73
     2
 40
0.2
 49
0.1
 74
     0
 49
-0.1
 74
     0
  0
LTYPE
  5
2A
330
5
100
AcDbSymbolTableRecord
100
AcDbLinetypeTableRecord
  2
PHANTOM
 70
     0
  3
_____ _ _ _____ _ _ _____ _ _ _____
 72
    65
 73
     6
 40
0.8
 49
0.45
 74
     0
 49
-0.05
 74
     0
 49
0.1
 74
     0
 49
-0.05
 74
     0
 49
0.1
 74
     0
 49
-0.05
 74
     0
  0
LTYPE
  5
2B
330
5
100
AcDbSymbolTableRecord
100
AcDbLinetypeTableRecord
  2
DOT
 70
     0
  3
. . . . . . . . . . . . . . . . . . . .
 72
    65
 73
     2
 40
0.2
 49
0.1
 74
     0
 49
-0.1
 74
     0
  0
LTYPE
  5
2C
330
5
100
AcDbSymbolTableRecord
100
AcDbLinetypeTableRecord
  2
DASHED
 70
     0
  3
- - - - - - - - - - - - - - - - - - - -
 72
    65
 73
     2
 40
0.2
 49
0.1
 74
     0
 49
-0.1
 74
     0
  0
ENDTAB
  0
TABLE
  2
LAYER
  5
2
330
0
100
AcDbSymbolTable
 70
    16
  0
LAYER
  5
10
330
2
100
AcDbSymbolTableRecord
100
AcDbLayerTableRecord
  2
0
 70
     0
 62
     7
  6
CONTINUOUS
370
    -3
390
F
  0
LAYER
  5
2D
330
2
100
AcDbSymbolTableRecord
100
AcDbLayerTableRecord
  2
DEFAULT_1
 70
     0
 62
     7
  6
CENTER
370
    -3
390
F
  0
LAYER
  5
2E
330
2
100
AcDbSymbolTableRecord
100
AcDbLayerTableRecord
  2
DEFAULT_2
 70
     0
 62
     8
  6
HIDDEN
370
    -3
390
F
  0
LAYER
  5
2F
330
2
100
AcDbSymbolTableRecord
100
AcDbLayerTableRecord
  2
DEFAULT_3
 70
     0
 62
     7
  6
PHANTOM
370
    -3
390
F
  0
LAYER
  5
30
330
2
100
AcDbSymbolTableRecord
100
AcDbLayerTableRecord
  2
AXE
 70
     0
 62
     7
  6
CONTINUOUS
370
    -3
390
F
  0
LAYER
  5
31
330
2
100
AcDbSymbolTableRecord
100
AcDbLayerTableRecord
  2
AXIS
 70
     0
 62
     7
  6
CONTINUOUS
370
    -3
390
F
  0
LAYER
  5
32
330
2
100
AcDbSymbolTableRecord
100
AcDbLayerTableRecord
  2
CURVE
 70
     0
 62
     7
  6
CONTINUOUS
370
    -3
390
F
  0
LAYER
  5
33
330
2
100
AcDbSymbolTableRecord
100
AcDbLayerTableRecord
  2
NOTE
 70
     0
 62
     7
  6
CONTINUOUS
370
    -3
390
F
  0
LAYER
  5
34
330
2
100
AcDbSymbolTableRecord
100
AcDbLayerTableRecord
  2
PLANE
 70
     0
 62
     7
  6
CONTINUOUS
370
    -3
390
F
  0
LAYER
  5
35
330
2
100
AcDbSymbolTableRecord
100
AcDbLayerTableRecord
  2
POINT
 70
     0
 62
     7
  6
CONTINUOUS
370
    -3
390
F
  0
LAYER
  5
36
330
2
100
AcDbSymbolTableRecord
100
AcDbLayerTableRecord
  2
REF
 70
     0
 62
     7
  6
CONTINUOUS
370
    -3
390
F
  0
LAYER
  5
37
330
2
100
AcDbSymbolTableRecord
100
AcDbLayerTableRecord
  2
REF_C
 70
     0
 62
     7
  6
CONTINUOUS
370
    -3
390
F
  0
LAYER
  5
38
330
2
100
AcDbSymbolTableRecord
100
AcDbLayerTableRecord
  2
ROUND
 70
     0
 62
     7
  6
CONTINUOUS
370
    -3
390
F
  0
LAYER
  5
39
330
2
100
AcDbSymbolTableRecord
100
AcDbLayerTableRecord
  2
SYMBOL
 70
     0
 62
     7
  6
CONTINUOUS
370
    -3
390
F
  0
LAYER
  5
3A
330
2
100
AcDbSymbolTableRecord
100
AcDbLayerTableRecord
  2
TAMPOGRAPHIE
 70
     0
 62
     7
  6
CONTINUOUS
370
    -3
390
F
  0
LAYER
  5
3B
330
2
100
AcDbSymbolTableRecord
100
AcDbLayerTableRecord
  2
XSEC_DATUMS
 70
     0
 62
     7
  6
CONTINUOUS
370
    -3
390
F
  0
ENDTAB
  0
TABLE
  2
STYLE
  5
3
330
0
100
AcDbSymbolTable
 70
     1
  0
STYLE
  5
11
330
3
100
AcDbSymbolTableRecord
100
AcDbTextStyleTableRecord
  2
Standard
 70
     0
 40
0.0
 41
1.0
 50
0.0
 71
     0
 42
0.2
  3
txt
  4

  0
ENDTAB
  0
TABLE
  2
VIEW
  5
6
330
0
100
AcDbSymbolTable
 70
     0
  0
ENDTAB
  0
TABLE
  2
UCS
  5
7
330
0
100
AcDbSymbolTable
 70
     0
  0
ENDTAB
  0
TABLE
  2
APPID
  5
9
330
0
100
AcDbSymbolTable
 70
     1
  0
APPID
  5
12
330
9
100
AcDbSymbolTableRecord
100
AcDbRegAppTableRecord
  2
ACAD
 70
     0
  0
ENDTAB
  0
TABLE
  2
DIMSTYLE
  5
A
330
0
100
AcDbSymbolTable
 70
     1
100
AcDbDimStyleTable
 71
     0
  0
DIMSTYLE
105
3A4
330
A
100
AcDbSymbolTableRecord
100
AcDbDimStyleTableRecord
  2
Standard
 70
     0
340
11
  0
ENDTAB
  0
TABLE
  2
BLOCK_RECORD
  5
1
330
0
100
AcDbSymbolTable
 70
     3
  0
BLOCK_RECORD
  5
22
330
1
100
AcDbSymbolTableRecord
100
AcDbBlockTableRecord
  2
*Model_Space
340
25
  0
BLOCK_RECORD
  5
1E
330
1
100
AcDbSymbolTableRecord
100
AcDbBlockTableRecord
  2
*Paper_Space
340
21
  0
BLOCK_RECORD
  5
3E
330
1
100
AcDbSymbolTableRecord
100
AcDbBlockTableRecord
  2
*D0
340
0
  0
BLOCK_RECORD
  5
48
330
1
100
AcDbSymbolTableRecord
100
AcDbBlockTableRecord
  2
*D1
340
0
  0
BLOCK_RECORD
  5
52
330
1
100
AcDbSymbolTableRecord
100
AcDbBlockTableRecord
  2
*D2
340
0
  0
ENDTAB
  0
ENDSEC
  0
SECTION
  2
BLOCKS
  0
BLOCK
  5
23
330
22
100
AcDbEntity
  8
0
100
AcDbBlockBegin
  2
*Model_Space
 70
     0
 10
0.0
 20
0.0
 30
0.0
  3
*Model_Space
  1

  0
ENDBLK
  5
24
330
22
100
AcDbEntity
  8
0
100
AcDbBlockEnd
  0
BLOCK
  5
1F
330
1E
100
AcDbEntity
 67
     1
  8
0
100
AcDbBlockBegin
  2
*Paper_Space
 70
     0
 10
0.0
 20
0.0
 30
0.0
  3
*Paper_Space
  1

  0
ENDBLK
  5
20
330
1E
100
AcDbEntity
 67
     1
  8
0
100
AcDbBlockEnd
  0
BLOCK
  5
3F
330
3E
100
AcDbEntity
  8
0
  6
Continuous
 62
     2
100
AcDbBlockBegin
  2
*D0
 70
     1
 10
0.0
 20
0.0
 30
0.0
  3
*D0
  1

  0
TEXT
  5
40
330
3E
100
AcDbEntity
  8
0
  6
Continuous
 62
     2
100
AcDbText
 10
95.6779258587
 20
183.9447498987
 30
0.0
 40
2.5
  1
33
 41
0.7200000000000001
 72
     5
 11
98.67792585870001
 21
183.9447498987
 31
0.0
100
AcDbText
  0
LINE
  5
41
330
3E
100
AcDbEntity
  8
0
  6
Continuous
 62
     2
100
AcDbLine
 10
80.2495793477
 20
175.8197498987
 30
0.0
 11
80.2495793477
 21
184.3197498987
 31
0.0
  0
LINE
  5
42
330
3E
100
AcDbEntity
  8
0
  6
Continuous
 62
     2
100
AcDbLine
 10
113.2495793477
 20
175.8197498987
 30
0.0
 11
113.2495793477
 21
184.3197498987
 31
0.0
  0
LINE
  5
43
330
3E
100
AcDbEntity
  8
0
  6
Continuous
 62
     2
100
AcDbLine
 10
80.2495793477
 20
183.3197498987
 30
0.0
 11
96.7495793477
 21
183.3197498987
 31
0.0
  0
LINE
  5
44
330
3E
100
AcDbEntity
  8
0
  6
Continuous
 62
     2
100
AcDbLine
 10
113.2495793477
 20
183.3197498987
 30
0.0
 11
96.7495793477
 21
183.3197498987
 31
0.0
  0
SOLID
  5
45
330
3E
100
AcDbEntity
  8
0
  6
Continuous
 62
     2
100
AcDbTrace
 10
83.24957934770001
 20
184.3197498987
 30
0.0
 11
80.2495793477
 21
183.3197498987
 31
0.0
 12
83.24957934770001
 22
182.3197498987
 32
0.0
 13
83.24957934770001
 23
182.3197498987
 33
0.0
  0
SOLID
  5
46
330
3E
100
AcDbEntity
  8
0
  6
Continuous
 62
     2
100
AcDbTrace
 10
110.2495793477
 20
182.3197498987
 30
0.0
 11
113.2495793477
 21
183.3197498987
 31
0.0
 12
110.2495793477
 22
184.3197498987
 32
0.0
 13
110.2495793477
 23
184.3197498987
 33
0.0
  0
ENDBLK
  5
47
330
3E
100
AcDbEntity
  8
0
100
AcDbBlockEnd
  0
BLOCK
  5
49
330
48
100
AcDbEntity
  8
0
  6
Continuous
 62
     2
100
AcDbBlockBegin
  2
*D1
 70
     1
 10
0.0
 20
0.0
 30
0.0
  3
*D1
  1

  0
TEXT
  5
4A
330
48
100
AcDbEntity
  8
0
  6
Continuous
 62
     2
100
AcDbText
 10
95.79207008510001
 20
188.9447498987
 30
0.0
 40
2.5
  1
40
 41
0.8
 72
     5
 11
98.7920700851
 21
188.9447498987
 31
0.0
100
AcDbText
  0
LINE
  5
4B
330
48
100
AcDbEntity
  8
0
  6
Continuous
 62
     2
100
AcDbLine
 10
76.7495793477
 20
177.3198260525999
 30
0.0
 11
76.7495793477
 21
189.3197498987
 31
0.0
  0
LINE
  5
4C
330
48
100
AcDbEntity
  8
0
  6
Continuous
 62
     2
100
AcDbLine
 10
116.7495793477
 20
177.3198260525999
 30
0.0
 11
116.7495793477
 21
189.3197498987
 31
0.0
  0
LINE
  5
4D
330
48
100
AcDbEntity
  8
0
  6
Continuous
 62
     2
100
AcDbLine
 10
76.7495793477
 20
188.3197498987
 30
0.0
 11
96.7495793477
 21
188.3197498987
 31
0.0
  0
LINE
  5
4E
330
48
100
AcDbEntity
  8
0
  6
Continuous
 62
     2
100
AcDbLine
 10
116.7495793477
 20
188.3197498987
 30
0.0
 11
96.7495793477
 21
188.3197498987
 31
0.0
  0
SOLID
  5
4F
330
48
100
AcDbEntity
  8
0
  6
Continuous
 62
     2
100
AcDbTrace
 10
79.7495793477
 20
189.3197498987
 30
0.0
 11
76.7495793477
 21
188.3197498987
 31
0.0
 12
79.7495793477
 22
187.3197498987
 32
0.0
 13
79.7495793477
 23
187.3197498987
 33
0.0
  0
SOLID
  5
50
330
48
100
AcDbEntity
  8
0
  6
Continuous
 62
     2
100
AcDbTrace
 10
113.7495793477
 20
187.3197498987
 30
0.0
 11
116.7495793477
 21
188.3197498987
 31
0.0
 12
113.7495793477
 22
189.3197498987
 32
0.0
 13
113.7495793477
 23
189.3197498987
 33
0.0
  0
ENDBLK
  5
51
330
48
100
AcDbEntity
  8
0
100
AcDbBlockEnd
  0
BLOCK
  5
53
330
52
100
AcDbEntity
  8
0
  6
Continuous
 62
     2
100
AcDbBlockBegin
  2
*D2
 70
     1
 10
0.0
 20
0.0
 30
0.0
  3
*D2
  1

  0
TEXT
  5
54
330
52
100
AcDbEntity
  8
0
  6
Continuous
 62
     2
100
AcDbText
 10
121.1245793477
 20
157.4719215675
 30
0.0
 40
2.5
  1
33
 50
90.0
 41
0.7200000000000001
 72
     5
 11
121.1245793477
 21
160.4719215675
 31
0.0
100
AcDbText
  0
LINE
  5
55
330
52
100
AcDbEntity
  8
0
  6
Continuous
 62
     2
100
AcDbLine
 10
114.2495793477
 20
174.8197498987
 30
0.0
 11
122.7495793477
 21
174.8197498987
 31
0.0
  0
LINE
  5
56
330
52
100
AcDbEntity
  8
0
  6
Continuous
 62
     2
100
AcDbLine
 10
114.2495793477
 20
141.8197498987
 30
0.0
 11
122.7495793477
 21
141.8197498987
 31
0.0
  0
LINE
  5
57
330
52
100
AcDbEntity
  8
0
  6
Continuous
 62
     2
100
AcDbLine
 10
121.7495793477
 20
174.8197498987
 30
0.0
 11
121.7495793477
 21
158.3197498987
 31
0.0
  0
LINE
  5
58
330
52
100
AcDbEntity
  8
0
  6
Continuous
 62
     2
100
AcDbLine
 10
121.7495793477
 20
141.8197498987
 30
0.0
 11
121.7495793477
 21
158.3197498987
 31
0.0
  0
SOLID
  5
59
330
52
100
AcDbEntity
  8
0
  6
Continuous
 62
     2
100
AcDbTrace
 10
122.7495793477
 20
171.8197498987
 30
0.0
 11
121.7495793477
 21
174.8197498987
 31
0.0
 12
120.7495793477
 22
171.8197498987
 32
0.0
 13
120.7495793477
 23
171.8197498987
 33
0.0
  0
SOLID
  5
5A
330
52
100
AcDbEntity
  8
0
  6
Continuous
 62
     2
100
AcDbTrace
 10
120.7495793477
 20
144.8197498987
 30
0.0
 11
121.7495793477
 21
141.8197498987
 31
0.0
 12
122.7495793477
 22
144.8197498987
 32
0.0
 13
122.7495793477
 23
144.8197498987
 33
0.0
  0
ENDBLK
  5
5B
330
52
100
AcDbEntity
  8
0
100
AcDbBlockEnd
  0
ENDSEC
  0
SECTION
  2
ENTITIES
  0
DIMENSION
  5
5C
330
22
100
AcDbEntity
  8
0
  6
Continuous
 62
     2
100
AcDbDimension
  2
*D0
 10
113.2495793477
 20
183.3197498987
 30
0.0
 11
97.1779258587
 21
185.1947498987
 31
0.0
 70
   128
 71
     5
 42
-1.0
100
AcDbAlignedDimension
 13
80.2495793477
 23
175.8197498987
 33
0.0
 14
113.2495793477
 24
175.8197498987
 34
0.0
100
AcDbRotatedDimension
  0
DIMENSION
  5
5D
330
22
100
AcDbEntity
  8
0
  6
Continuous
 62
     2
100
AcDbDimension
  2
*D1
 10
116.7495793477
 20
188.3197498987
 30
0.0
 11
97.29207008510002
 21
190.1947498987
 31
0.0
 70
   128
 71
     5
 42
-1.0
100
AcDbAlignedDimension
 13
76.7495793477
 23
177.3198260525999
 33
0.0
 14
116.7495793477
 24
177.3198260525999
 34
0.0
100
AcDbRotatedDimension
  0
DIMENSION
  5
5E
330
22
100
AcDbEntity
  8
0
  6
Continuous
 62
     2
100
AcDbDimension
  2
*D2
 10
121.7495793477
 20
141.8197498987
 30
0.0
 11
119.8745793477
 21
158.9719215675
 31
0.0
 70
   128
 71
     5
 42
-1.0
100
AcDbAlignedDimension
 13
114.2495793477
 23
174.8197498987
 33
0.0
 14
114.2495793477
 24
141.8197498987
 34
0.0
 50
270.0
100
AcDbRotatedDimension
  0
TEXT
  5
5F
330
22
100
AcDbEntity
  8
NOTE
  6
Continuous
 62
     2
100
AcDbText
 10
177.2878998609
 20
4.935326842799999
 30
0.0
 40
5.0
  1
FRONT VIEW
 41
0.6000000000000001
 72
     5
 11
207.2878998609
 21
4.935326842799999
 31
0.0
100
AcDbText
  0
LINE
  5
60
330
22
100
AcDbEntity
  8
0
  6
Continuous
 62
     7
100
AcDbLine
 10
0.0
 20
0.0
 30
0.0
 11
210.0
 21
0.0
 31
0.0
  0
LINE
  5
61
330
22
100
AcDbEntity
  8
0
  6
Continuous
 62
     7
100
AcDbLine
 10
0.0
 20
0.0
 30
0.0
 11
0.0
 21
297.0
 31
0.0
  0
LINE
  5
62
330
22
100
AcDbEntity
  8
0
  6
Continuous
 62
     7
100
AcDbLine
 10
210.0
 20
0.0
 30
0.0
 11
210.0
 21
297.0
 31
0.0
  0
LINE
  5
63
330
22
100
AcDbEntity
  8
0
  6
Continuous
 62
     7
100
AcDbLine
 10
0.0
 20
297.0
 30
0.0
 11
210.0
 21
297.0
 31
0.0
  0
LWPOLYLINE
  5
64
330
22
100
AcDbEntity
  8
0
  6
Continuous
 62
     9
100
AcDbPolyline
 90
        7
 70
     0
 43
0.0
 10
80.9896463541
 20
137.9200796736
 10
80.99864079719999
 20
137.9072133179
 10
81.0198038088
 20
137.8953410985
 10
81.05178719340001
 20
137.8852195691
 10
81.09253828659999
 20
137.877496794
 10
81.13946538569999
 20
137.8726624724
 10
81.18937226099999
 20
137.871024973
  0
LWPOLYLINE
  5
6D
330
22
100
AcDbEntity
  8
0
  6
Continuous
 62
     9
100
AcDbPolyline
 90
       12
 70
     0
 43
0.0
 10
77.03118317720001
 20
176.2382146076
 10
77.0493098229
 20
176.4930297615
 10
77.10366938979999
 20
176.743880932
 10
77.19338289709999
 20
176.9849500705
 10
77.3165896258
 20
177.2108414245999
 10
77.4706871979
 20
177.4167866295
 10
77.65254222760001
 20
177.5986417209
 10
77.8584893064
 20
177.7527406127999
 10
78.0843822871
 20
177.875947798
 10
78.32544963770001
 20
177.9656603375
 10
78.5762934384
 20
178.0200185484
 10
78.8311146387
 20
178.0381460691999
  0
LWPOLYLINE
  5
7B
330
22
100
AcDbEntity
  8
0
  6
Continuous
 62
     9
100
AcDbPolyline
 90
       12
 70
     0
 43
0.0
 10
76.83119079259999
 20
176.2382146076
 10
76.85137326340001
 20
176.5216148213
 10
76.9117974838
 20
176.8002791109
 10
77.01148805369999
 20
177.0680702582
 10
77.1483742913
 20
177.318997924
 10
77.3195654545
 20
177.5477681662
 10
77.5215808791
 20
177.7497809447
 10
77.75035404189999
 20
177.9209695468999
 10
78.0012837038
 20
178.057852464
 10
78.2690724724
 20
178.1575383036
 10
78.5477276121
 20
178.2179578706
 10
78.8311146387
 20
178.2381384538
  0
LWPOLYLINE
  5
89
330
22
100
AcDbEntity
  8
0
  6
Continuous
 62
     7
100
AcDbPolyline
 90
       11
 70
     0
 43
0.0
 10
76.7495793477
 20
176.3198260526
 10
76.77420209260001
 20
176.6326954766
 10
76.8474617248
 20
176.9378505195
 10
76.9675557779
 20
177.2277880833
 10
77.13152088050001
 20
177.4953585191999
 10
77.3353342422
 20
177.7339950042
 10
77.5739707271
 20
177.9378083659
 10
77.8415411631
 20
178.1017734685
 10
78.1314787269
 20
178.2218675216
 10
78.43663376970001
 20
178.2951271538
 10
78.74950319379999
 20
178.3197498987
  0
LWPOLYLINE
  5
96
330
22
100
AcDbEntity
  8
0
  6
Continuous
 62
     9
100
AcDbPolyline
 90
        6
 70
     0
 43
0.0
 10
76.8346510776
 20
169.6994813488
 10
76.84098633739999
 20
169.7494101473
 10
76.85958536680001
 20
169.79617709
 10
76.8892703333
 20
169.8368205511
 10
76.92816136240001
 20
169.8687666976
 10
76.97379559409999
 20
169.8899924793
  0
LWPOLYLINE
  5
9E
330
22
100
AcDbEntity
  8
0
  6
Continuous
 62
     9
100
AcDbPolyline
 90
        6
 70
     0
 43
0.0
 10
76.8700862785
 20
169.6735949453
 10
76.87642553759999
 20
169.7235392452
 10
76.8950360558
 20
169.770318714
 10
76.9247385363
 20
169.810969067
 10
76.96365078869999
 20
169.8429143879
 10
77.0093069284
 20
169.8641303755
  0
LWPOLYLINE
  5
A6
330
22
100
AcDbEntity
  8
0
  6
Continuous
 62
     9
100
AcDbPolyline
 90
        5
 70
     0
 43
0.0
 10
76.9991337229
 20
169.995241015
 10
76.98735570290001
 20
169.948871356
 10
76.97925189100001
 20
169.915956887
 10
76.97479039529999
 20
169.8965183523
 10
76.97379559409999
 20
169.8899924793
  0
LINE
  5
AD
330
22
100
AcDbEntity
  8
0
  6
Continuous
 62
     9
100
AcDbLine
 10
77.03118317720001
 20
170.1181432025
 30
0.0
 11
76.9991337229
 21
169.995241015
 31
0.0
  0
LWPOLYLINE
  5
AE
330
22
100
AcDbEntity
  8
0
  6
Continuous
 62
     9
100
AcDbPolyline
 90
        6
 70
     0
 43
0.0
 10
108.5479726515
 20
138.6013537282
 10
108.425070434
 20
138.5693042649
 10
108.3787007829
 20
138.5575262477
 10
108.3457863274
 20
138.54942244
 10
108.326347799
 20
138.5449609459
 10
108.3198219283
 20
138.5439661451
  0
LWPOLYLINE
  5
B6
330
22
100
AcDbEntity
  8
0
  6
Continuous
 62
     7
100
AcDbPolyline
 90
        6
 70
     0
 43
0.0
 10
108.0983674569
 20
138.4471773995
 10
108.1485097699
 20
138.4535679996
 10
108.1953889962
 20
138.4722918017
 10
108.2361729509
 20
138.5022390327
 10
108.2679834778
 20
138.5412146993
 10
108.288907632
 20
138.5864129281
  0
LWPOLYLINE
  5
BE
330
22
100
AcDbEntity
  8
0
  6
Continuous
 62
     9
100
AcDbPolyline
 90
        6
 70
     0
 43
0.0
 10
108.1293107981
 20
138.4048216286
 10
108.1792395963
 20
138.4111568884
 10
108.226006539
 20
138.4297559177
 10
108.2666500003
 20
138.4594408841
 10
108.2985961468
 20
138.4983319133
 10
108.3198219286
 20
138.5439661451
  0
LWPOLYLINE
  5
C6
330
22
100
AcDbEntity
  8
0
  6
Continuous
 62
     7
100
AcDbPolyline
 90
       18
 70
     0
 43
0.0
 10
81.17174172909999
 20
137.7197498987
 10
81.1514657028
 20
137.7207273276
 10
81.1308240502
 20
137.7236883644
 10
81.11084780829999
 20
137.7284260893
 10
81.09283329870001
 20
137.7343093644
 10
81.07652688079999
 20
137.7410116005
 10
81.06095879979999
 20
137.7487127236
 10
81.0460647852
 20
137.7573760025
 10
81.03175294340001
 20
137.7670276399
 10
81.01797346739999
 20
137.7777194441
 10
81.0047285377
 20
137.7895110229
 10
80.9920538931
 20
137.8024772151
 10
80.9800229912
 20
137.8167046808
 10
80.9687510308
 20
137.8322914495
 10
80.95840030419999
 20
137.849351484
 10
80.9491970174
 20
137.8680120668
 10
80.94145141510001
 20
137.888419085
 10
80.9355951496
 20
137.9107398008
  0
LWPOLYLINE
  5
DA
330
22
100
AcDbEntity
  8
0
  6
Continuous
 62
     9
100
AcDbPolyline
 90
       12
 70
     0
 43
0.0
 10
78.8311146387
 20
138.4013613436
 10
78.54771442499999
 20
138.4215438144
 10
78.26905013539999
 20
138.4819680349
 10
78.00125898819999
 20
138.5816586048
 10
77.75033132229999
 20
138.7185448424
 10
77.5215610802
 20
138.8897360056
 10
77.3195483017
 20
139.0917514302
 10
77.14835969949999
 20
139.3205245929
 10
77.01147678239999
 20
139.5714542548
 10
76.91179094279999
 20
139.8392430234
 10
76.85137137569999
 20
140.1178981631
 10
76.83119079259999
 20
140.4012851897
  0
LWPOLYLINE
  5
E8
330
22
100
AcDbEntity
  8
0
  6
Continuous
 62
     7
100
AcDbPolyline
 90
       11
 70
     0
 43
0.0
 10
78.74950319379999
 20
138.3197498987
 10
78.43663376970001
 20
138.3443726436
 10
78.1314787269
 20
138.4176322758
 10
77.8415411631
 20
138.5377263289
 10
77.5739707271
 20
138.7016914315
 10
77.3353342422
 20
138.9055047932
 10
77.13152088050001
 20
139.1441412782
 10
76.9675557779
 20
139.4117117141
 10
76.8474617248
 20
139.7016492779
 10
76.77420209260001
 20
140.0068043208
 10
76.7495793477
 20
140.3196737448
  0
LWPOLYLINE
  5
F5
330
22
100
AcDbEntity
  8
0
  6
Continuous
 62
     9
100
AcDbPolyline
 90
        6
 70
     0
 43
0.0
 10
85.36984789260001
 20
138.4048216286
 10
85.3199190988
 20
138.4111568872
 10
85.27315215539999
 20
138.4297559157
 10
85.23250869299999
 20
138.4594408817
 10
85.2005625452
 20
138.4983319112
 10
85.17933676210001
 20
138.5439661451
  0
LWPOLYLINE
  5
FD
330
22
100
AcDbEntity
  8
0
  6
Continuous
 62
     9
100
AcDbPolyline
 90
        6
 70
     0
 43
0.0
 10
85.4007912385
 20
138.4471773995
 10
85.3508439552
 20
138.4535174285
 10
85.30406207670001
 20
138.4721301577
 10
85.2634104
 20
138.5018360069
 10
85.2314652213
 20
138.5407523708
 10
85.21025106329998
 20
138.5864129281
  0
LINE
  5
105
330
22
100
AcDbEntity
  8
0
  6
Continuous
 62
     9
100
AcDbLine
 10
85.30978643430001
 20
137.7227963974
 30
0.0
 11
85.3274169662
 21
137.7197498987
 31
0.0
  0
LINE
  5
106
330
22
100
AcDbEntity
  8
0
  6
Continuous
 62
     9
100
AcDbLine
 10
85.5095123413
 20
137.9200796736
 30
0.0
 11
85.56356354569999
 21
137.9107398008
 31
0.0
  0
LINE
  5
107
330
22
100
AcDbEntity
  8
0
  6
Continuous
 62
     7
100
AcDbLine
 10
85.6747705173
 20
138.3197498987
 30
0.0
 11
85.5095123413
 21
138.3483059755
 31
0.0
  0
LWPOLYLINE
  5
108
330
22
100
AcDbEntity
  8
0
  6
Continuous
 62
     9
100
AcDbPolyline
 90
        5
 70
     0
 43
0.0
 10
85.07408823129999
 20
138.569304274
 10
85.1204578904
 20
138.5575262539
 10
85.1533723594
 20
138.549422442
 10
85.17281089399999
 20
138.5449609464
 10
85.179336767
 20
138.5439661451
  0
LINE
  5
10F
330
22
100
AcDbEntity
  8
0
  6
Continuous
 62
     9
100
AcDbLine
 10
84.95118604380001
 20
138.6013537282
 30
0.0
 11
85.07408823129999
 21
138.569304274
 31
0.0
  0
LWPOLYLINE
  5
110
330
22
100
AcDbEntity
  8
0
  6
Continuous
 62
     9
100
AcDbPolyline
 90
        6
 70
     0
 43
0.0
 10
77.03118317720001
 20
146.5213565948
 10
76.9991337139
 20
146.6442588123
 10
76.98735569670001
 20
146.6906284635
 10
76.979251889
 20
146.723542919
 10
76.9747903949
 20
146.7429814474
 10
76.97379559409999
 20
146.7495073181
  0
LWPOLYLINE
  5
118
330
22
100
AcDbEntity
  8
0
  6
Continuous
 62
     9
100
AcDbPolyline
 90
        6
 70
     0
 43
0.0
 10
76.8346510776
 20
146.9400184486
 10
76.84098633739999
 20
146.89008965
 10
76.85958536680001
 20
146.8433227074
 10
76.8892703333
 20
146.8026792462
 10
76.92816136250001
 20
146.7707330997
 10
76.97379559409999
 20
146.7495073181
  0
LWPOLYLINE
  5
120
330
22
100
AcDbEntity
  8
0
  6
Continuous
 62
     9
100
AcDbPolyline
 90
        6
 70
     0
 43
0.0
 10
76.8700862785
 20
146.9659048521
 10
76.8764255377
 20
146.9159605519
 10
76.89503605600001
 20
146.869181083
 10
76.92473853670001
 20
146.8285307298
 10
76.9636507891
 20
146.7965854093
 10
77.0093069284
 20
146.7753694219
  0
LWPOLYLINE
  5
128
330
22
100
AcDbEntity
  8
0
  6
Continuous
 62
     7
100
AcDbPolyline
 90
        4
 70
     0
 43
0.0
 10
76.7583062155
 20
147.9197498987
 10
76.7578544781
 20
147.9265647775
 10
76.75743354479999
 20
147.9465437496
 10
76.7570720389
 20
147.9783298108
  0
LWPOLYLINE
  5
12E
330
22
100
AcDbEntity
  8
0
  6
Continuous
 62
     7
100
AcDbPolyline
 90
        4
 70
     0
 43
0.0
 10
76.8665193761
 20
168.7197498987
 10
76.86697111339999
 20
168.7129350199
 10
76.86739204670001
 20
168.6929560478
 10
76.8677535526
 20
168.6611699866
  0
LWPOLYLINE
  5
134
330
22
100
AcDbEntity
  8
0
  6
Continuous
 62
     9
100
AcDbPolyline
 90
        5
 70
     0
 43
0.0
 10
76.8331731035
 20
169.7402215461
 10
76.83358635890001
 20
169.720326573
 10
76.8339695186
 20
169.708075775
 10
76.8343228242
 20
169.7015836011
 10
76.8346510776
 20
169.6994813488
  0
LWPOLYLINE
  5
13B
330
22
100
AcDbEntity
  8
0
  6
Continuous
 62
     7
100
AcDbPolyline
 90
        4
 70
     0
 43
0.0
 10
76.8570720389
 20
147.9783298108
 10
76.85743354479999
 20
147.9465437496
 10
76.85785447810001
 20
147.9265647775
 10
76.8583062155
 20
147.9197498987
  0
LINE
  5
141
330
22
100
AcDbEntity
  8
0
  6
Continuous
 62
     9
100
AcDbLine
 10
76.8322935438
 20
169.8123335461
 30
0.0
 11
76.8331731035
 21
169.7402215461
 31
0.0
  0
LINE
  5
142
330
22
100
AcDbEntity
  8
0
  6
Continuous
 62
     9
100
AcDbLine
 10
76.83151796229999
 20
169.9408430097
 30
0.0
 11
76.8322935438
 21
169.8123335461
 31
0.0
  0
LINE
  5
143
330
22
100
AcDbEntity
  8
0
  6
Continuous
 62
     7
100
AcDbLine
 10
76.7570720389
 20
147.9783298108
 30
0.0
 11
76.75662030939999
 21
148.0679880657
 31
0.0
  0
LINE
  5
144
330
22
100
AcDbEntity
  8
0
  6
Continuous
 62
     7
100
AcDbLine
 10
76.8566203094
 20
148.0679880657
 30
0.0
 11
76.8570720389
 21
147.9783298108
 31
0.0
  0
LINE
  5
145
330
22
100
AcDbEntity
  8
0
  6
Continuous
 62
     7
100
AcDbLine
 10
76.8677535526
 20
168.6611699866
 30
0.0
 11
76.86820528210001
 21
168.5715117317
 31
0.0
  0
LINE
  5
146
330
22
100
AcDbEntity
  8
0
  6
Continuous
 62
     9
100
AcDbLine
 10
76.83119079259999
 20
170.1181432025
 30
0.0
 11
76.83151796229999
 21
169.9408430097
 31
0.0
  0
LINE
  5
147
330
22
100
AcDbEntity
  8
0
  6
Continuous
 62
     7
100
AcDbLine
 10
76.7495793477
 20
176.3198260526
 30
0.0
 11
76.7495793477
 21
140.3196737448
 31
0.0
  0
LINE
  5
148
330
22
100
AcDbEntity
  8
0
  6
Continuous
 62
     7
100
AcDbLine
 10
76.83119079259999
 20
140.4012851897
 30
0.0
 11
76.83119079259999
 21
146.5213565948
 31
0.0
  0
LINE
  5
149
330
22
100
AcDbEntity
  8
0
  6
Continuous
 62
     7
100
AcDbLine
 10
76.83119079259999
 20
170.1181432025
 30
0.0
 11
76.83119079259999
 21
176.2382146076
 31
0.0
  0
LINE
  5
14A
330
22
100
AcDbEntity
  8
0
  6
Continuous
 62
     9
100
AcDbLine
 10
76.8700862785
 20
169.6735949453
 30
0.0
 11
76.8700862785
 21
146.9659048521
 31
0.0
  0
LINE
  5
14B
330
22
100
AcDbEntity
  8
0
  6
Continuous
 62
     9
100
AcDbLine
 10
77.03118317720001
 20
140.4012851897
 30
0.0
 11
77.03118317720001
 21
146.5213565948
 31
0.0
  0
LINE
  5
14C
330
22
100
AcDbEntity
  8
0
  6
Continuous
 62
     9
100
AcDbLine
 10
77.03118317720001
 20
170.1181432025
 30
0.0
 11
77.03118317720001
 21
176.2382146076
 31
0.0
  0
LINE
  5
14D
330
22
100
AcDbEntity
  8
0
  6
Continuous
 62
     9
100
AcDbLine
 10
77.87004820159999
 20
169.915822054
 30
0.0
 11
77.87004820159999
 21
146.7236777434
 31
0.0
  0
LINE
  5
14E
330
22
100
AcDbEntity
  8
0
  6
Continuous
 62
     7
100
AcDbLine
 10
76.75662030939999
 20
148.0679880657
 30
0.0
 11
76.75662030939999
 21
168.5715117317
 31
0.0
  0
LINE
  5
14F
330
22
100
AcDbEntity
  8
0
  6
Continuous
 62
     7
100
AcDbLine
 10
76.8566203094
 20
168.5715117317
 30
0.0
 11
76.8566203094
 21
148.0679880657
 31
0.0
  0
LINE
  5
150
330
22
100
AcDbEntity
  8
0
  6
Continuous
 62
     7
100
AcDbLine
 10
76.86820528210001
 20
168.5715117317
 30
0.0
 11
76.86820528210001
 21
148.0679880657
 31
0.0
  0
LINE
  5
151
330
22
100
AcDbEntity
  8
0
  6
Continuous
 62
     9
100
AcDbLine
 10
76.8318727254
 20
146.7703559654
 30
0.0
 11
76.83119079259999
 21
146.5213565948
 31
0.0
  0
LWPOLYLINE
  5
152
330
22
100
AcDbEntity
  8
0
  6
Continuous
 62
     7
100
AcDbPolyline
 90
        5
 70
     0
 43
0.0
 10
76.75662030939999
 20
168.5715117317
 10
76.7570720389
 20
168.6611699866
 10
76.75743354479999
 20
168.6929560478
 10
76.7578544781
 20
168.7129350199
 10
76.7583062155
 20
168.7197498987
  0
LINE
  5
159
330
22
100
AcDbEntity
  8
0
  6
Continuous
 62
     7
100
AcDbLine
 10
76.8570720389
 20
168.6611699866
 30
0.0
 11
76.8566203094
 21
168.5715117317
 31
0.0
  0
LWPOLYLINE
  5
15A
330
22
100
AcDbEntity
  8
0
  6
Continuous
 62
     7
100
AcDbPolyline
 90
        5
 70
     0
 43
0.0
 10
76.86820528210001
 20
148.0679880657
 10
76.8677535526
 20
147.9783298108
 10
76.86739204670001
 20
147.9465437496
 10
76.86697111339999
 20
147.9265647775
 10
76.8665193761
 20
147.9197498987
  0
LWPOLYLINE
  5
161
330
22
100
AcDbEntity
  8
0
  6
Continuous
 62
     7
100
AcDbPolyline
 90
        3
 70
     0
 43
0.0
 10
76.85785447810001
 20
168.7129350199
 10
76.85743354479999
 20
168.6929560478
 10
76.8570720389
 20
168.6611699866
  0
LINE
  5
166
330
22
100
AcDbEntity
  8
0
  6
Continuous
 62
     7
100
AcDbLine
 10
76.8583062155
 20
168.7197498987
 30
0.0
 11
76.85785447810001
 21
168.7129350199
 31
0.0
  0
LWPOLYLINE
  5
167
330
22
100
AcDbEntity
  8
0
  6
Continuous
 62
     7
100
AcDbPolyline
 90
        4
 70
     0
 43
0.0
 10
93.8495793477
 20
138.3703657319
 10
93.87909846440001
 20
138.3739675027
 10
93.967054498
 20
138.3774959378
 10
94.11165661069999
 20
138.3808792124
  0
LWPOLYLINE
  5
16D
330
22
100
AcDbEntity
  8
0
  6
Continuous
 62
     7
100
AcDbPolyline
 90
        4
 70
     0
 43
0.0
 10
80.9896463541
 20
138.3483059755
 10
80.9989496729
 20
138.3487649474
 10
81.02055753470001
 20
138.3491823892
 10
81.0529291609
 20
138.3495354312
  0
LWPOLYLINE
  5
173
330
22
100
AcDbEntity
  8
0
  6
Continuous
 62
     9
100
AcDbPolyline
 90
        5
 70
     0
 43
0.0
 10
85.32910770029999
 20
138.4033436545
 10
85.3490026733
 20
138.4037569099
 10
85.3612534714
 20
138.4041400696
 10
85.36774564519999
 20
138.4044933752
 10
85.36984789199999
 20
138.4048216277
  0
LINE
  5
17A
330
22
100
AcDbEntity
  8
0
  6
Continuous
 62
     7
100
AcDbLine
 10
94.11165661069999
 20
138.3808792124
 30
0.0
 11
94.5579263724
 21
138.3869391021
 31
0.0
  0
LINE
  5
17B
330
22
100
AcDbEntity
  8
0
  6
Continuous
 62
     9
100
AcDbLine
 10
85.2569957002
 20
138.4024640948
 30
0.0
 11
85.32910770029999
 21
138.4033436545
 31
0.0
  0
LINE
  5
17C
330
22
100
AcDbEntity
  8
0
  6
Continuous
 62
     7
100
AcDbLine
 10
94.5579263724
 20
138.3869391021
 30
0.0
 11
95.18174552190002
 21
138.3916562438
 31
0.0
  0
LINE
  5
17D
330
22
100
AcDbEntity
  8
0
  6
Continuous
 62
     9
100
AcDbLine
 10
85.1284862367
 20
138.4016885134
 30
0.0
 11
85.2569957002
 21
138.4024640948
 31
0.0
  0
LINE
  5
17E
330
22
100
AcDbEntity
  8
0
  6
Continuous
 62
     7
100
AcDbLine
 10
81.0529291609
 20
138.3495354312
 30
0.0
 11
81.14027054260001
 21
138.3499669323
 31
0.0
  0
LINE
  5
17F
330
22
100
AcDbEntity
  8
0
  6
Continuous
 62
     7
100
AcDbLine
 10
95.18174552190002
 20
138.3916562438
 30
0.0
 11
95.9325715729
 21
138.3946485427
 31
0.0
  0
LINE
  5
180
330
22
100
AcDbEntity
  8
0
  6
Continuous
 62
     9
100
AcDbLine
 10
84.95118604380001
 20
138.4013613436
 30
0.0
 11
85.1284862367
 21
138.4016885134
 31
0.0
  0
LINE
  5
181
330
22
100
AcDbEntity
  8
0
  6
Continuous
 62
     7
100
AcDbLine
 10
95.9325715729
 20
138.3946485427
 30
0.0
 11
96.7495793477
 21
138.3956736485
 31
0.0
  0
LINE
  5
182
330
22
100
AcDbEntity
  8
0
  6
Continuous
 62
     7
100
AcDbLine
 10
81.17174172909999
 20
137.7197498987
 30
0.0
 11
85.3274169662
 21
137.7197498987
 31
0.0
  0
LINE
  5
183
330
22
100
AcDbEntity
  8
0
  6
Continuous
 62
     7
100
AcDbLine
 10
85.30978643430001
 20
137.7227963974
 30
0.0
 11
81.18937226099999
 21
137.7227963974
 31
0.0
  0
LINE
  5
184
330
22
100
AcDbEntity
  8
0
  6
Continuous
 62
     9
100
AcDbLine
 10
85.30978643430001
 20
137.871024973
 30
0.0
 11
81.18937226099999
 21
137.871024973
 31
0.0
  0
LINE
  5
185
330
22
100
AcDbEntity
  8
0
  6
Continuous
 62
     7
100
AcDbLine
 10
114.7496555015
 20
138.3197498987
 30
0.0
 11
103.0535427714
 21
138.3197498987
 31
0.0
  0
LINE
  5
186
330
22
100
AcDbEntity
  8
0
  6
Continuous
 62
     7
100
AcDbLine
 10
78.74950319379999
 20
138.3197498987
 30
0.0
 11
80.82438817800001
 21
138.3197498987
 31
0.0
  0
LINE
  5
187
330
22
100
AcDbEntity
  8
0
  6
Continuous
 62
     7
100
AcDbLine
 10
85.6747705173
 20
138.3197498987
 30
0.0
 11
90.4456159239
 21
138.3197498987
 31
0.0
  0
LINE
  5
188
330
22
100
AcDbEntity
  8
0
  6
Continuous
 62
     7
100
AcDbLine
 10
81.14027054260001
 20
138.3499669323
 30
0.0
 11
85.30978643430001
 21
138.3500223645
 31
0.0
  0
LINE
  5
189
330
22
100
AcDbEntity
  8
0
  6
Continuous
 62
     7
100
AcDbLine
 10
102.7495793477
 20
138.3703657319
 30
0.0
 11
99.6495793477
 21
138.3703657319
 31
0.0
  0
LINE
  5
18A
330
22
100
AcDbEntity
  8
0
  6
Continuous
 62
     7
100
AcDbLine
 10
93.8495793477
 20
138.3703657319
 30
0.0
 11
90.74957934770001
 21
138.3703657319
 31
0.0
  0
LINE
  5
18B
330
22
100
AcDbEntity
  8
0
  6
Continuous
 62
     7
100
AcDbLine
 10
114.6680440566
 20
138.4013613436
 30
0.0
 11
108.5479726515
 21
138.4013613436
 31
0.0
  0
LINE
  5
18C
330
22
100
AcDbEntity
  8
0
  6
Continuous
 62
     7
100
AcDbLine
 10
84.95118604380001
 20
138.4013613436
 30
0.0
 11
78.8311146387
 21
138.4013613436
 31
0.0
  0
LINE
  5
18D
330
22
100
AcDbEntity
  8
0
  6
Continuous
 62
     7
100
AcDbLine
 10
85.400791238
 20
138.4471773995
 30
0.0
 11
108.0983674571
 21
138.4471773995
 31
0.0
  0
LINE
  5
18E
330
22
100
AcDbEntity
  8
0
  6
Continuous
 62
     9
100
AcDbLine
 10
114.6680440566
 20
138.6013537282
 30
0.0
 11
108.5479726515
 21
138.6013537282
 31
0.0
  0
LINE
  5
18F
330
22
100
AcDbEntity
  8
0
  6
Continuous
 62
     9
100
AcDbLine
 10
84.95118604380001
 20
138.6013537282
 30
0.0
 11
78.8311146387
 21
138.6013537282
 31
0.0
  0
LINE
  5
190
330
22
100
AcDbEntity
  8
0
  6
Continuous
 62
     9
100
AcDbLine
 10
85.4007924675
 20
138.6471697841
 30
0.0
 11
108.0983662072
 21
138.6471697841
 31
0.0
  0
LINE
  5
191
330
22
100
AcDbEntity
  8
0
  6
Continuous
 62
     7
100
AcDbLine
 10
96.7495793477
 20
138.3956736485
 30
0.0
 11
97.5665871224
 21
138.3946485427
 31
0.0
  0
LWPOLYLINE
  5
192
330
22
100
AcDbEntity
  8
0
  6
Continuous
 62
     7
100
AcDbPolyline
 90
        6
 70
     0
 43
0.0
 10
85.30978643430001
 20
138.3500223645
 10
85.40547903450001
 20
138.3498015958
 10
85.44622953439999
 20
138.3495354312
 10
85.47860116069999
 20
138.3491823892
 10
85.5002090225
 20
138.3487649474
 10
85.5095123413
 20
138.3483059755
  0
LINE
  5
19A
330
22
100
AcDbEntity
  8
0
  6
Continuous
 62
     7
100
AcDbLine
 10
97.5665871224
 20
138.3946485427
 30
0.0
 11
98.3174131734
 21
138.3916562438
 31
0.0
  0
LINE
  5
19B
330
22
100
AcDbEntity
  8
0
  6
Continuous
 62
     9
100
AcDbLine
 10
108.298973281
 20
138.4020432764
 30
0.0
 11
108.5479726515
 21
138.4013613436
 31
0.0
  0
LINE
  5
19C
330
22
100
AcDbEntity
  8
0
  6
Continuous
 62
     7
100
AcDbLine
 10
98.3174131734
 20
138.3916562438
 30
0.0
 11
98.94123232290001
 21
138.3869391021
 31
0.0
  0
LWPOLYLINE
  5
19D
330
22
100
AcDbEntity
  8
0
  6
Continuous
 62
     7
100
AcDbPolyline
 90
        5
 70
     0
 43
0.0
 10
98.94123232290001
 20
138.3869391021
 10
99.3875020846
 20
138.3808792124
 10
99.5321041973
 20
138.3774959378
 10
99.62006023089999
 20
138.3739675027
 10
99.6495793477
 20
138.3703657319
  0
LWPOLYLINE
  5
1A4
330
22
100
AcDbEntity
  8
0
  6
Continuous
 62
     9
100
AcDbPolyline
 90
       12
 70
     0
 43
0.0
 10
78.8311146387
 20
138.6013537282
 10
78.57629948479999
 20
138.619480374
 10
78.3254483143
 20
138.6738399409
 10
78.0843791758
 20
138.7635534481
 10
77.8584878218
 20
138.8867601768
 10
77.65254261689999
 20
139.0408577489
 10
77.47068752539999
 20
139.2227127786
 10
77.31658863359999
 20
139.4286598574
 10
77.1933814484
 20
139.6545528382
 10
77.1036689089
 20
139.8956201887
 10
77.04931069789999
 20
140.1464639894
 10
77.03118317720001
 20
140.4012851897
  0
LINE
  5
1B2
330
22
100
AcDbEntity
  8
0
  6
Continuous
 62
     7
100
AcDbLine
 10
80.9355951496
 20
137.9107398008
 30
0.0
 11
80.85181579510001
 21
138.3244893019
 31
0.0
  0
LINE
  5
1B3
330
22
100
AcDbEntity
  8
0
  6
Continuous
 62
     9
100
AcDbLine
 10
78.8311146387
 20
178.2381384538
 30
0.0
 11
78.8311146387
 21
178.0381460691999
 31
0.0
  0
LINE
  5
1B4
330
22
100
AcDbEntity
  8
0
  6
Continuous
 62
     9
100
AcDbLine
 10
78.8311146387
 20
138.4013613436
 30
0.0
 11
78.8311146387
 21
138.6013537282
 31
0.0
  0
LWPOLYLINE
  5
1B5
330
22
100
AcDbEntity
  8
0
  6
Continuous
 62
     9
100
AcDbPolyline
 90
        7
 70
     0
 43
0.0
 10
76.8346510776
 20
146.9400184486
 10
76.8343228242
 20
146.9379161963
 10
76.8339695186
 20
146.9314240224
 10
76.83358635890001
 20
146.9191732244
 10
76.8331731035
 20
146.8992782513
 10
76.83273663299999
 20
146.8694344672
 10
76.8318727254
 20
146.7703559654
  0
LWPOLYLINE
  5
1BE
330
22
100
AcDbEntity
  8
0
  6
Continuous
 62
     9
100
AcDbPolyline
 90
        5
 70
     0
 43
0.0
 10
77.8117406004
 20
170.1071259419
 10
77.1152601288
 20
169.8942506258
 10
77.05732039729999
 20
169.8769908797
 10
77.0218493175
 20
169.866901253
 10
77.0093069284
 20
169.8641303755
  0
LINE
  5
1C5
330
22
100
AcDbEntity
  8
0
  6
Continuous
 62
     9
100
AcDbLine
 10
81.17174172909999
 20
137.7197498987
 30
0.0
 11
81.18937226099999
 21
137.7227963974
 31
0.0
  0
LINE
  5
1C6
330
22
100
AcDbEntity
  8
0
  6
Continuous
 62
     9
100
AcDbLine
 10
80.9355951496
 20
137.9107398008
 30
0.0
 11
80.9896463541
 21
137.9200796736
 31
0.0
  0
LINE
  5
1C7
330
22
100
AcDbEntity
  8
0
  6
Continuous
 62
     7
100
AcDbLine
 10
90.4456142325
 20
138.3197498995
 30
0.0
 11
90.74957934770001
 21
138.3703657319
 31
0.0
  0
LINE
  5
1C8
330
22
100
AcDbEntity
  8
0
  6
Continuous
 62
     9
100
AcDbLine
 10
116.6679679028
 20
140.4012851897
 30
0.0
 11
116.4679755181
 21
140.4012851897
 31
0.0
  0
LINE
  5
1C9
330
22
100
AcDbEntity
  8
0
  6
Continuous
 62
     9
100
AcDbLine
 10
76.83119079259999
 20
140.4012851897
 30
0.0
 11
77.03118317720001
 21
140.4012851897
 31
0.0
  0
LWPOLYLINE
  5
1CA
330
22
100
AcDbEntity
  8
0
  6
Continuous
 62
     9
100
AcDbPolyline
 90
        7
 70
     0
 43
0.0
 10
108.1293107981
 20
138.4048216285
 10
108.1314130501
 20
138.4044933752
 10
108.137905224
 20
138.4041400696
 10
108.150156022
 20
138.4037569099
 10
108.1700509951
 20
138.4033436545
 10
108.1998947792
 20
138.4029071841
 10
108.298973281
 20
138.4020432764
  0
LINE
  5
1D3
330
22
100
AcDbEntity
  8
0
  6
Continuous
 62
     7
100
AcDbLine
 10
102.7495793477
 20
138.3703657319
 30
0.0
 11
103.0535444675
 21
138.3197498987
 31
0.0
  0
LWPOLYLINE
  5
1D4
330
22
100
AcDbEntity
  8
0
  6
Continuous
 62
     9
100
AcDbPolyline
 90
        7
 70
     0
 43
0.0
 10
80.9896463541
 20
137.9200796736
 10
80.99706102109999
 20
137.8688194824
 10
81.01737202409999
 20
137.8211803709
 10
81.04921821319999
 20
137.7803542396
 10
81.09044960209999
 20
137.7490881666
 10
81.1383114688
 20
137.729463673
 10
81.18937226099999
 20
137.7227963974
  0
LINE
  5
1DD
330
22
100
AcDbEntity
  8
0
  6
Continuous
 62
     9
100
AcDbLine
 10
80.9896463541
 20
137.9200796736
 30
0.0
 11
80.9896463541
 21
138.3483059755
 31
0.0
  0
LINE
  5
1DE
330
22
100
AcDbEntity
  8
0
  6
Continuous
 62
     9
100
AcDbLine
 10
81.18937226099999
 20
137.7227963974
 30
0.0
 11
81.18937226099999
 21
138.3500223645
 31
0.0
  0
LWPOLYLINE
  5
1DF
330
22
100
AcDbEntity
  8
0
  6
Continuous
 62
     9
100
AcDbPolyline
 90
        5
 70
     0
 43
0.0
 10
115.6291104938
 20
146.7236777434
 10
116.4963525781
 20
146.9357231231
 10
116.5685679346
 20
146.9529337157
 10
116.6131265594
 20
146.9630784662
 10
116.6290724168
 20
146.9659048521
  0
LINE
  5
1E6
330
22
100
AcDbEntity
  8
0
  6
Continuous
 62
     7
100
AcDbLine
 10
80.82438817800001
 20
138.3197498987
 30
0.0
 11
80.9896463541
 21
138.3483059755
 31
0.0
  0
LWPOLYLINE
  5
1E7
330
22
100
AcDbEntity
  8
0
  6
Continuous
 62
     9
100
AcDbPolyline
 90
        4
 70
     0
 43
0.0
 10
77.0093069284
 20
146.7753694219
 10
77.0218493153
 20
146.772598545
 10
77.05732039839999
 20
146.7625089173
 10
77.1152601285
 20
146.7452491716
  0
LWPOLYLINE
  5
1ED
330
22
100
AcDbEntity
  8
0
  6
Continuous
 62
     9
100
AcDbPolyline
 90
        3
 70
     0
 43
0.0
 10
76.9305907161
 20
146.9529337257
 10
76.8860321172
 20
146.9630784714
 10
76.8700862785
 20
146.9659048521
  0
LINE
  5
1F2
330
22
100
AcDbEntity
  8
0
  6
Continuous
 62
     9
100
AcDbLine
 10
77.101019807
 20
146.9118997332
 30
0.0
 11
76.9305907161
 21
146.9529337257
 31
0.0
  0
LINE
  5
1F3
330
22
100
AcDbEntity
  8
0
  6
Continuous
 62
     9
100
AcDbLine
 10
77.87004820159999
 20
146.7236777434
 30
0.0
 11
77.101019807
 21
146.9118997332
 31
0.0
  0
LINE
  5
1F4
330
22
100
AcDbEntity
  8
0
  6
Continuous
 62
     9
100
AcDbLine
 10
77.1152601285
 20
146.7452491716
 30
0.0
 11
77.8117406004
 21
146.5323738554
 31
0.0
  0
LINE
  5
1F5
330
22
100
AcDbEntity
  8
0
  6
Continuous
 62
     9
100
AcDbLine
 10
108.0983674569
 20
138.6471697841
 30
0.0
 11
108.288907632
 21
138.5864129281
 31
0.0
  0
LINE
  5
1F6
330
22
100
AcDbEntity
  8
0
  6
Continuous
 62
     9
100
AcDbLine
 10
77.8700482017
 20
146.7236777433
 30
0.0
 11
77.8117406004
 21
146.5323738554
 31
0.0
  0
LINE
  5
1F7
330
22
100
AcDbEntity
  8
0
  6
Continuous
 62
     9
100
AcDbLine
 10
77.8700482017
 20
169.915822054
 30
0.0
 11
77.8117406004
 21
170.1071259419
 31
0.0
  0
LINE
  5
1F8
330
22
100
AcDbEntity
  8
0
  6
Continuous
 62
     9
100
AcDbLine
 10
83.7513171055
 20
178.2381384538
 30
0.0
 11
83.7513171055
 21
174.8967039744
 31
0.0
  0
LINE
  5
1F9
330
22
100
AcDbEntity
  8
0
  6
Continuous
 62
     7
100
AcDbLine
 10
83.9513094902
 20
178.0346857842
 30
0.0
 11
83.9513094902
 21
174.8967039744
 31
0.0
  0
LINE
  5
1FA
330
22
100
AcDbEntity
  8
0
  6
Continuous
 62
     7
100
AcDbLine
 10
83.99366526109998
 20
177.9923300133
 30
0.0
 11
83.99366526109998
 21
174.8967039744
 31
0.0
  0
LINE
  5
1FB
330
22
100
AcDbEntity
  8
0
  6
Continuous
 62
     9
100
AcDbLine
 10
84.19365764570001
 20
174.8967039744
 30
0.0
 11
84.19365764570001
 21
178.1923223979
 31
0.0
  0
LINE
  5
1FC
330
22
100
AcDbEntity
  8
0
  6
Continuous
 62
     9
100
AcDbLine
 10
84.9511860439
 20
138.4013613436
 30
0.0
 11
84.9511860439
 21
138.6013537282
 31
0.0
  0
LINE
  5
1FD
330
22
100
AcDbEntity
  8
0
  6
Continuous
 62
     9
100
AcDbLine
 10
85.30978643430001
 20
137.7227963974
 30
0.0
 11
85.30978643430001
 21
138.3500223645
 31
0.0
  0
LINE
  5
1FE
330
22
100
AcDbEntity
  8
0
  6
Continuous
 62
     9
100
AcDbLine
 10
85.4007912385
 20
138.6471697841
 30
0.0
 11
85.4007912385
 21
138.4471773995
 31
0.0
  0
LINE
  5
1FF
330
22
100
AcDbEntity
  8
0
  6
Continuous
 62
     9
100
AcDbLine
 10
85.5095123413
 20
138.3483059755
 30
0.0
 11
85.5095123413
 21
137.9200796736
 31
0.0
  0
LINE
  5
200
330
22
100
AcDbEntity
  8
0
  6
Continuous
 62
     9
100
AcDbLine
 10
81.04387693619999
 20
145.3880259051
 30
0.0
 11
81.1504329801
 21
145.817340432
 31
0.0
  0
LINE
  5
201
330
22
100
AcDbEntity
  8
0
  6
Continuous
 62
     9
100
AcDbLine
 10
83.81785535410001
 20
142.6140474872999
 30
0.0
 11
84.247169881
 21
142.7206035311
 31
0.0
  0
LINE
  5
202
330
22
100
AcDbEntity
  8
0
  6
Continuous
 62
     9
100
AcDbLine
 10
116.6679679028
 20
146.521356595
 30
0.0
 11
116.4679755181
 21
146.521356595
 31
0.0
  0
LINE
  5
203
330
22
100
AcDbEntity
  8
0
  6
Continuous
 62
     9
100
AcDbLine
 10
76.83119079259999
 20
146.521356595
 30
0.0
 11
77.03118317720001
 21
146.521356595
 31
0.0
  0
LINE
  5
204
330
22
100
AcDbEntity
  8
0
  6
Continuous
 62
     9
100
AcDbLine
 10
109.2519888143
 20
142.7206035311
 30
0.0
 11
109.6813033412
 21
142.6140474872999
 31
0.0
  0
LINE
  5
205
330
22
100
AcDbEntity
  8
0
  6
Continuous
 62
     9
100
AcDbLine
 10
80.98292015069999
 20
170.7803454642
 30
0.0
 11
80.8752198452
 21
171.2093743649
 31
0.0
  0
LINE
  5
206
330
22
100
AcDbEntity
  8
0
  6
Continuous
 62
     7
100
AcDbLine
 10
76.7583062155
 20
147.9197498987
 30
0.0
 11
76.8665193761
 21
147.9197498987
 31
0.0
  0
LINE
  5
207
330
22
100
AcDbEntity
  8
0
  6
Continuous
 62
     9
100
AcDbLine
 10
76.75656084189999
 20
148.1197498987
 30
0.0
 11
76.85656084189999
 21
148.1197498987
 31
0.0
  0
LWPOLYLINE
  5
208
330
22
100
AcDbEntity
  8
0
  6
Continuous
 62
     9
100
AcDbPolyline
 90
        7
 70
     0
 43
0.0
 10
85.5095123413
 20
137.9200796736
 10
85.50211005939999
 20
137.8688636798
 10
85.4818323015
 20
137.821257806
 10
85.45003660129999
 20
137.7804491192
 10
85.4088515832
 20
137.7491696356
 10
85.3610344576
 20
137.7295134206
 10
85.30978643430001
 20
137.7227963974
  0
LINE
  5
211
330
22
100
AcDbEntity
  8
0
  6
Continuous
 62
     7
100
AcDbLine
 10
85.56356354569999
 20
137.9107398008
 30
0.0
 11
85.6473429002
 21
138.3244893019
 31
0.0
  0
LWPOLYLINE
  5
212
330
22
100
AcDbEntity
  8
0
  6
Continuous
 62
     7
100
AcDbPolyline
 90
       18
 70
     0
 43
0.0
 10
85.56356354569999
 20
137.9107398008
 10
85.55770728029999
 20
137.888419085
 10
85.54996167789999
 20
137.8680120668
 10
85.5407583911
 20
137.849351484
 10
85.5304076646
 20
137.8322914495
 10
85.51913570409999
 20
137.8167046808
 10
85.50710480220001
 20
137.8024772151
 10
85.49443015760001
 20
137.7895110229
 10
85.48118522800001
 20
137.7777194441
 10
85.46740575200001
 20
137.7670276399
 10
85.4530939101
 20
137.7573760025
 10
85.4381998955
 20
137.7487127236
 10
85.4226318145
 20
137.7410116005
 10
85.4063253966
 20
137.7343093644
 10
85.38831088710001
 20
137.7284260893
 10
85.36833464510001
 20
137.7236883644
 10
85.34769299249999
 20
137.7207273276
 10
85.3274169662
 20
137.7197498987
  0
LINE
  5
226
330
22
100
AcDbEntity
  8
0
  6
Continuous
 62
     9
100
AcDbLine
 10
109.3055010496
 20
178.1923223979
 30
0.0
 11
109.3478568206
 21
178.2346781688
 31
0.0
  0
LINE
  5
227
330
22
100
AcDbEntity
  8
0
  6
Continuous
 62
     9
100
AcDbLine
 10
109.5054934343
 20
177.9923300133
 30
0.0
 11
109.5478492052
 21
178.0346857842
 31
0.0
  0
LINE
  5
228
330
22
100
AcDbEntity
  8
0
  6
Continuous
 62
     9
100
AcDbLine
 10
76.8346510776
 20
146.9400184486
 30
0.0
 11
76.8700862785
 21
146.9659048521
 31
0.0
  0
LINE
  5
229
330
22
100
AcDbEntity
  8
0
  6
Continuous
 62
     9
100
AcDbLine
 10
76.97379559409999
 20
146.7495073181
 30
0.0
 11
77.0093069284
 21
146.7753694219
 31
0.0
  0
LINE
  5
22A
330
22
100
AcDbEntity
  8
0
  6
Continuous
 62
     9
100
AcDbLine
 10
77.0093069284
 20
169.8641303755
 30
0.0
 11
76.97379559409999
 21
169.8899924793
 31
0.0
  0
LINE
  5
22B
330
22
100
AcDbEntity
  8
0
  6
Continuous
 62
     9
100
AcDbLine
 10
76.8700862785
 20
169.6735949453
 30
0.0
 11
76.8346510776
 21
169.6994813488
 31
0.0
  0
LINE
  5
22C
330
22
100
AcDbEntity
  8
0
  6
Continuous
 62
     9
100
AcDbLine
 10
108.1293107981
 20
138.4048216285
 30
0.0
 11
108.0983674571
 21
138.4471773995
 31
0.0
  0
LINE
  5
22D
330
22
100
AcDbEntity
  8
0
  6
Continuous
 62
     9
100
AcDbLine
 10
108.3198219283
 20
138.5439661452
 30
0.0
 11
108.288907632
 21
138.5864129281
 31
0.0
  0
LINE
  5
22E
330
22
100
AcDbEntity
  8
0
  6
Continuous
 62
     9
100
AcDbLine
 10
76.83119079259999
 20
140.4012851897
 30
0.0
 11
76.7495793477
 21
140.3196737448
 31
0.0
  0
LINE
  5
22F
330
22
100
AcDbEntity
  8
0
  6
Continuous
 62
     9
100
AcDbLine
 10
114.6680440566
 20
178.2381384538
 30
0.0
 11
114.7496555015
 21
178.3197498987
 31
0.0
  0
LINE
  5
230
330
22
100
AcDbEntity
  8
0
  6
Continuous
 62
     9
100
AcDbLine
 10
76.83119079259999
 20
176.2382146076
 30
0.0
 11
76.7495793477
 21
176.3198260526
 31
0.0
  0
LINE
  5
231
330
22
100
AcDbEntity
  8
0
  6
Continuous
 62
     9
100
AcDbLine
 10
114.6680440566
 20
138.4013613436
 30
0.0
 11
114.7496555015
 21
138.3197498987
 31
0.0
  0
LINE
  5
232
330
22
100
AcDbEntity
  8
0
  6
Continuous
 62
     9
100
AcDbLine
 10
85.21025106319999
 20
138.5864129283
 30
0.0
 11
85.1793367666
 21
138.5439661465
 31
0.0
  0
LINE
  5
233
330
22
100
AcDbEntity
  8
0
  6
Continuous
 62
     9
100
AcDbLine
 10
78.8311146387
 20
138.4013613436
 30
0.0
 11
78.74950319379999
 21
138.3197498987
 31
0.0
  0
LINE
  5
234
330
22
100
AcDbEntity
  8
0
  6
Continuous
 62
     9
100
AcDbLine
 10
116.6679679028
 20
176.2382146076
 30
0.0
 11
116.7495793477
 21
176.3198260526
 31
0.0
  0
LINE
  5
235
330
22
100
AcDbEntity
  8
0
  6
Continuous
 62
     9
100
AcDbLine
 10
116.5253631012
 20
169.8899924793
 30
0.0
 11
116.4898517669
 21
169.8641303755
 31
0.0
  0
LINE
  5
236
330
22
100
AcDbEntity
  8
0
  6
Continuous
 62
     9
100
AcDbLine
 10
78.8311146387
 20
178.2381384538
 30
0.0
 11
78.74950319379999
 21
178.3197498987
 31
0.0
  0
LINE
  5
237
330
22
100
AcDbEntity
  8
0
  6
Continuous
 62
     9
100
AcDbLine
 10
116.6679679028
 20
140.4012851897
 30
0.0
 11
116.7495793477
 21
140.3196737448
 31
0.0
  0
LWPOLYLINE
  5
238
330
22
100
AcDbEntity
  8
0
  6
Continuous
 62
     9
100
AcDbPolyline
 90
        7
 70
     0
 43
0.0
 10
85.5095123413
 20
137.9200796736
 10
85.5005966118
 20
137.9072780347
 10
85.4794974852
 20
137.8954001999
 10
85.44757421079999
 20
137.8852693671
 10
85.40684227339999
 20
137.8775286166
 10
85.35991419770001
 20
137.8726772391
 10
85.30978643430001
 20
137.871024973
  0
LINE
  5
241
330
22
100
AcDbEntity
  8
0
  6
Continuous
 62
     9
100
AcDbLine
 10
85.400791238
 20
138.4471773995
 30
0.0
 11
85.36984789199999
 21
138.4048216277
 31
0.0
  0
LINE
  5
242
330
22
100
AcDbEntity
  8
0
  6
Continuous
 62
     9
100
AcDbLine
 10
116.6645076178
 20
169.6994813488
 30
0.0
 11
116.6290724168
 21
169.6735949453
 31
0.0
  0
LINE
  5
243
330
22
100
AcDbEntity
  8
0
  6
Continuous
 62
     9
100
AcDbLine
 10
116.4898517669
 20
146.7753694219
 30
0.0
 11
116.5253631012
 21
146.7495073181
 31
0.0
  0
LINE
  5
244
330
22
100
AcDbEntity
  8
0
  6
Continuous
 62
     9
100
AcDbLine
 10
116.6290724168
 20
146.9659048521
 30
0.0
 11
116.6645076178
 21
146.9400184486
 31
0.0
  0
LINE
  5
245
330
22
100
AcDbEntity
  8
0
  6
Continuous
 62
     9
100
AcDbLine
 10
83.9513094902
 20
178.0346857842
 30
0.0
 11
83.99366526109998
 21
177.9923300133
 31
0.0
  0
LINE
  5
246
330
22
100
AcDbEntity
  8
0
  6
Continuous
 62
     9
100
AcDbLine
 10
84.1513018748
 20
178.2346781688
 30
0.0
 11
84.19365764570001
 21
178.1923223979
 31
0.0
  0
LINE
  5
247
330
22
100
AcDbEntity
  8
0
  6
Continuous
 62
     9
100
AcDbLine
 10
108.0983674569
 20
138.6471697841
 30
0.0
 11
108.0983674569
 21
138.4471773995
 31
0.0
  0
LINE
  5
248
330
22
100
AcDbEntity
  8
0
  6
Continuous
 62
     9
100
AcDbLine
 10
76.75656084189999
 20
168.5197498987
 30
0.0
 11
76.85656084189999
 21
168.5197498987
 31
0.0
  0
LINE
  5
249
330
22
100
AcDbEntity
  8
0
  6
Continuous
 62
     7
100
AcDbLine
 10
76.8665193761
 20
168.7197498987
 30
0.0
 11
76.7583062155
 21
168.7197498987
 31
0.0
  0
LINE
  5
24A
330
22
100
AcDbEntity
  8
0
  6
Continuous
 62
     9
100
AcDbLine
 10
108.5479726514
 20
138.4013613436
 30
0.0
 11
108.5479726514
 21
138.6013537282
 31
0.0
  0
LINE
  5
24B
330
22
100
AcDbEntity
  8
0
  6
Continuous
 62
     9
100
AcDbLine
 10
109.3055010496
 20
174.8967039744
 30
0.0
 11
109.3055010496
 21
178.1923223979
 31
0.0
  0
LINE
  5
24C
330
22
100
AcDbEntity
  8
0
  6
Continuous
 62
     7
100
AcDbLine
 10
109.5054934343
 20
174.8967039744
 30
0.0
 11
109.5054934343
 21
177.9923300133
 31
0.0
  0
LINE
  5
24D
330
22
100
AcDbEntity
  8
0
  6
Continuous
 62
     7
100
AcDbLine
 10
109.5478492052
 20
174.8967039744
 30
0.0
 11
109.5478492052
 21
178.0346857842
 31
0.0
  0
LINE
  5
24E
330
22
100
AcDbEntity
  8
0
  6
Continuous
 62
     9
100
AcDbLine
 10
109.7478415898
 20
174.8967039744
 30
0.0
 11
109.7478415898
 21
178.2381384538
 31
0.0
  0
LINE
  5
24F
330
22
100
AcDbEntity
  8
0
  6
Continuous
 62
     9
100
AcDbLine
 10
112.5162385447
 20
170.7803454642
 30
0.0
 11
112.6239388501
 21
171.2093743649
 31
0.0
  0
LINE
  5
250
330
22
100
AcDbEntity
  8
0
  6
Continuous
 62
     9
100
AcDbLine
 10
116.6679679028
 20
170.1181432024
 30
0.0
 11
116.4679755181
 21
170.1181432024
 31
0.0
  0
LINE
  5
251
330
22
100
AcDbEntity
  8
0
  6
Continuous
 62
     9
100
AcDbLine
 10
76.83119079259999
 20
170.1181432024
 30
0.0
 11
77.03118317720001
 21
170.1181432024
 31
0.0
  0
LINE
  5
252
330
22
100
AcDbEntity
  8
0
  6
Continuous
 62
     9
100
AcDbLine
 10
112.4552817591
 20
145.3880259051
 30
0.0
 11
112.3487257153
 21
145.817340432
 31
0.0
  0
LINE
  5
253
330
22
100
AcDbEntity
  8
0
  6
Continuous
 62
     9
100
AcDbLine
 10
115.6291104936
 20
169.915822054
 30
0.0
 11
115.6874180949
 21
170.1071259419
 31
0.0
  0
LINE
  5
254
330
22
100
AcDbEntity
  8
0
  6
Continuous
 62
     9
100
AcDbLine
 10
85.4007912385
 20
138.6471697841
 30
0.0
 11
85.21025106329998
 21
138.5864129281
 31
0.0
  0
LINE
  5
255
330
22
100
AcDbEntity
  8
0
  6
Continuous
 62
     7
100
AcDbLine
 10
114.4495793477
 20
178.2909081002
 30
0.0
 11
114.5267389195
 21
178.3101906473
 31
0.0
  0
LINE
  5
256
330
22
100
AcDbEntity
  8
0
  6
Continuous
 62
     7
100
AcDbLine
 10
79.0495793477
 20
178.2909081002
 30
0.0
 11
78.97241977580001
 21
178.3101906473
 31
0.0
  0
LINE
  5
257
330
22
100
AcDbEntity
  8
0
  6
Continuous
 62
     9
100
AcDbLine
 10
115.6291104936
 20
146.7236777433
 30
0.0
 11
115.6874180949
 21
146.5323738554
 31
0.0
  0
LWPOLYLINE
  5
258
330
22
100
AcDbEntity
  8
0
  6
Continuous
 62
     9
100
AcDbPolyline
 90
        5
 70
     0
 43
0.0
 10
115.6874180949
 20
146.5323738554
 10
116.3838985665
 20
146.7452491716
 10
116.441838298
 20
146.7625089177
 10
116.4773093778
 20
146.7725985444
 10
116.4898517669
 20
146.7753694219
  0
LWPOLYLINE
  5
25F
330
22
100
AcDbEntity
  8
0
  6
Continuous
 62
     9
100
AcDbPolyline
 90
        5
 70
     0
 43
0.0
 10
77.87004820159999
 20
169.915822054
 10
77.00280611720001
 20
169.7037766743
 10
76.93059076069999
 20
169.6865660817
 10
76.88603213589999
 20
169.6764213312
 10
76.8700862785
 20
169.6735949453
  0
LINE
  5
266
330
22
100
AcDbEntity
  8
0
  6
Continuous
 62
     9
100
AcDbLine
 10
83.7513171055
 20
174.8967039744
 30
0.0
 11
84.19365764570001
 21
174.8967039744
 31
0.0
  0
LINE
  5
267
330
22
100
AcDbEntity
  8
0
  6
Continuous
 62
     9
100
AcDbLine
 10
109.3055010496
 20
174.8967039744
 30
0.0
 11
109.7478415898
 21
174.8967039744
 31
0.0
  0
LWPOLYLINE
  5
268
330
22
100
AcDbEntity
  8
0
  6
Continuous
 62
     9
100
AcDbPolyline
 90
        4
 70
     0
 43
0.0
 10
116.4898517669
 20
169.8641303755
 10
116.47730938
 20
169.8669012523
 10
116.4418382969
 20
169.87699088
 10
116.3838985668
 20
169.8942506257
  0
LWPOLYLINE
  5
26E
330
22
100
AcDbEntity
  8
0
  6
Continuous
 62
     9
100
AcDbPolyline
 90
        3
 70
     0
 43
0.0
 10
116.5685679792
 20
169.6865660716
 10
116.6131265781
 20
169.676421326
 10
116.6290724168
 20
169.6735949453
  0
LINE
  5
273
330
22
100
AcDbEntity
  8
0
  6
Continuous
 62
     9
100
AcDbLine
 10
116.3981388883
 20
169.7276000642
 30
0.0
 11
116.5685679792
 21
169.6865660716
 31
0.0
  0
LINE
  5
274
330
22
100
AcDbEntity
  8
0
  6
Continuous
 62
     9
100
AcDbLine
 10
115.6291104938
 20
169.915822054
 30
0.0
 11
116.3981388883
 21
169.7276000642
 31
0.0
  0
LINE
  5
275
330
22
100
AcDbEntity
  8
0
  6
Continuous
 62
     9
100
AcDbLine
 10
116.3838985668
 20
169.8942506257
 30
0.0
 11
115.6874180949
 21
170.1071259419
 31
0.0
  0
LINE
  5
276
330
22
100
AcDbEntity
  8
0
  6
Continuous
 62
     9
100
AcDbLine
 10
114.6680440566
 20
178.2381384538
 30
0.0
 11
114.6680440566
 21
178.0381460691999
 31
0.0
  0
LINE
  5
277
330
22
100
AcDbEntity
  8
0
  6
Continuous
 62
     9
100
AcDbLine
 10
114.6680440566
 20
138.4013613436
 30
0.0
 11
114.6680440566
 21
138.6013537282
 31
0.0
  0
LINE
  5
278
330
22
100
AcDbEntity
  8
0
  6
Continuous
 62
     9
100
AcDbLine
 10
115.6291104938
 20
146.7236777434
 30
0.0
 11
115.6291104938
 21
169.915822054
 31
0.0
  0
LWPOLYLINE
  5
279
330
22
100
AcDbEntity
  8
0
  6
Continuous
 62
     9
100
AcDbPolyline
 90
        7
 70
     0
 43
0.0
 10
116.6645076178
 20
169.6994813488
 10
116.6648358711
 20
169.7015836011
 10
116.6651891767
 20
169.708075775
 10
116.6655723365
 20
169.720326573
 10
116.6659855919
 20
169.7402215461
 10
116.6664220623
 20
169.7700653302
 10
116.6672859699
 20
169.869143832
  0
LINE
  5
282
330
22
100
AcDbEntity
  8
0
  6
Continuous
 62
     9
100
AcDbLine
 10
116.6679679028
 20
176.2382146076
 30
0.0
 11
116.4679755181
 21
176.2382146076
 31
0.0
  0
LINE
  5
283
330
22
100
AcDbEntity
  8
0
  6
Continuous
 62
     9
100
AcDbLine
 10
76.83119079259999
 20
176.2382146076
 30
0.0
 11
77.03118317720001
 21
176.2382146076
 31
0.0
  0
LWPOLYLINE
  5
284
330
22
100
AcDbEntity
  8
0
  6
Continuous
 62
     7
100
AcDbPolyline
 90
        6
 70
     0
 43
0.0
 10
84.1513018748
 20
178.2346781688
 10
84.1442995561
 20
178.2352986901
 10
84.1227368826
 20
178.2359435007
 10
84.08539421529999
 20
178.2365674685
 10
84.03325633020001
 20
178.2371238961
 10
83.89727283170001
 20
178.237897765
  0
LWPOLYLINE
  5
28C
330
22
100
AcDbEntity
  8
0
  6
Continuous
 62
     9
100
AcDbPolyline
 90
        5
 70
     0
 43
0.0
 10
116.6659855919
 20
146.8992782513
 10
116.6655723365
 20
146.9191732243
 10
116.6651891767
 20
146.9314240224
 10
116.6648358711
 20
146.9379161962
 10
116.6645076178
 20
146.9400184486
  0
LINE
  5
293
330
22
100
AcDbEntity
  8
0
  6
Continuous
 62
     9
100
AcDbLine
 10
116.6668651515
 20
146.8271662512
 30
0.0
 11
116.6659855919
 21
146.8992782513
 31
0.0
  0
LINE
  5
294
330
22
100
AcDbEntity
  8
0
  6
Continuous
 62
     9
100
AcDbLine
 10
116.667640733
 20
146.6986567877
 30
0.0
 11
116.6668651515
 21
146.8271662512
 31
0.0
  0
LINE
  5
295
330
22
100
AcDbEntity
  8
0
  6
Continuous
 62
     9
100
AcDbLine
 10
116.6679679028
 20
146.5213565948
 30
0.0
 11
116.667640733
 21
146.6986567877
 31
0.0
  0
LINE
  5
296
330
22
100
AcDbEntity
  8
0
  6
Continuous
 62
     9
100
AcDbLine
 10
116.4679755181
 20
176.2382146076
 30
0.0
 11
116.4679755181
 21
170.1181432025
 31
0.0
  0
LINE
  5
297
330
22
100
AcDbEntity
  8
0
  6
Continuous
 62
     9
100
AcDbLine
 10
116.4679755181
 20
146.5213565948
 30
0.0
 11
116.4679755181
 21
140.4012851897
 31
0.0
  0
LINE
  5
298
330
22
100
AcDbEntity
  8
0
  6
Continuous
 62
     9
100
AcDbLine
 10
116.6290724168
 20
146.9659048521
 30
0.0
 11
116.6290724168
 21
169.6735949453
 31
0.0
  0
LINE
  5
299
330
22
100
AcDbEntity
  8
0
  6
Continuous
 62
     7
100
AcDbLine
 10
116.6679679028
 20
176.2382146076
 30
0.0
 11
116.6679679028
 21
170.1181432025
 31
0.0
  0
LINE
  5
29A
330
22
100
AcDbEntity
  8
0
  6
Continuous
 62
     7
100
AcDbLine
 10
116.6679679028
 20
146.5213565948
 30
0.0
 11
116.6679679028
 21
140.4012851897
 31
0.0
  0
LINE
  5
29B
330
22
100
AcDbEntity
  8
0
  6
Continuous
 62
     7
100
AcDbLine
 10
116.7495793477
 20
140.3196737448
 30
0.0
 11
116.7495793477
 21
176.3198260526
 31
0.0
  0
LINE
  5
29C
330
22
100
AcDbEntity
  8
0
  6
Continuous
 62
     9
100
AcDbLine
 10
116.6672859699
 20
169.869143832
 30
0.0
 11
116.6679679028
 21
170.1181432025
 31
0.0
  0
LWPOLYLINE
  5
29D
330
22
100
AcDbEntity
  8
0
  6
Continuous
 62
     9
100
AcDbPolyline
 90
       12
 70
     0
 43
0.0
 10
116.4679755181
 20
140.4012851897
 10
116.4498488724
 20
140.1464700359
 10
116.3954893055
 20
139.8956188653
 10
116.3057757983
 20
139.6545497268
 10
116.1825690696
 20
139.4286583728
 10
116.0284714975
 20
139.2227131679
 10
115.8466164677
 20
139.0408580764
 10
115.6406693889
 20
138.8867591846
 10
115.4147764082
 20
138.7635519994
 10
115.1737090576
 20
138.6738394599
 10
114.9228652569
 20
138.6194812489
 10
114.6680440566
 20
138.6013537282
  0
LWPOLYLINE
  5
2AB
330
22
100
AcDbEntity
  8
0
  6
Continuous
 62
     9
100
AcDbPolyline
 90
       12
 70
     0
 43
0.0
 10
116.6679679028
 20
140.4012851897
 10
116.6477854319
 20
140.117884976
 10
116.5873612115
 20
139.8392206865
 10
116.4876706416
 20
139.5714295392
 10
116.350784404
 20
139.3205018733
 10
116.1795932408
 20
139.0917316312
 10
115.9775778162
 20
138.8897188527
 10
115.7488046535
 20
138.7185302505
 10
115.4978749916
 20
138.5816473334
 10
115.2300862229
 20
138.4819614938
 10
114.9514310832
 20
138.4215419267
 10
114.6680440566
 20
138.4013613436
  0
LWPOLYLINE
  5
2B9
330
22
100
AcDbEntity
  8
0
  6
Continuous
 62
     9
100
AcDbPolyline
 90
        6
 70
     0
 43
0.0
 10
116.6645076178
 20
146.9400184486
 10
116.6581723579
 20
146.89008965
 10
116.6395733285
 20
146.8433227074
 10
116.6098883621
 20
146.8026792462
 10
116.5709973329
 20
146.7707330997
 10
116.5253631012
 20
146.7495073181
  0
LWPOLYLINE
  5
2C1
330
22
100
AcDbEntity
  8
0
  6
Continuous
 62
     9
100
AcDbPolyline
 90
        6
 70
     0
 43
0.0
 10
116.6290724168
 20
146.9659048521
 10
116.6227331577
 20
146.9159605522
 10
116.6041226395
 20
146.8691810834
 10
116.5744201591
 20
146.8285307303
 10
116.5355079066
 20
146.7965854095
 10
116.4898517669
 20
146.7753694219
  0
LWPOLYLINE
  5
2C9
330
22
100
AcDbEntity
  8
0
  6
Continuous
 62
     7
100
AcDbPolyline
 90
        4
 70
     0
 43
0.0
 10
109.41376448
 20
178.2365674685
 10
109.3764218141
 20
178.2359435007
 10
109.354859134
 20
178.2352986901
 10
109.3478568206
 20
178.2346781688
  0
LWPOLYLINE
  5
2CF
330
22
100
AcDbEntity
  8
0
  6
Continuous
 62
     9
100
AcDbPolyline
 90
        6
 70
     0
 43
0.0
 10
109.6963016237
 20
178.0380281667
 10
109.6482690578
 20
178.0376827463
 10
109.6069874961
 20
178.0371335591
 10
109.5752155099
 20
178.0364180624
 10
109.5550440328
 20
178.0355835714
 10
109.5478492052
 20
178.0346857842
  0
LINE
  5
2D7
330
22
100
AcDbEntity
  8
0
  6
Continuous
 62
     7
100
AcDbLine
 10
109.5300204966
 20
178.2375754856
 30
0.0
 11
109.41376448
 21
178.2365674685
 31
0.0
  0
LINE
  5
2D8
330
22
100
AcDbEntity
  8
0
  6
Continuous
 62
     7
100
AcDbLine
 10
109.7478415898
 20
178.2381384538
 30
0.0
 11
109.5300204966
 21
178.2375754856
 31
0.0
  0
LINE
  5
2D9
330
22
100
AcDbEntity
  8
0
  6
Continuous
 62
     9
100
AcDbLine
 10
83.99366526109998
 20
177.9923300133
 30
0.0
 11
109.5054934343
 21
177.9923300133
 31
0.0
  0
LINE
  5
2DA
330
22
100
AcDbEntity
  8
0
  6
Continuous
 62
     9
100
AcDbLine
 10
109.6963016237
 20
178.0380281667
 30
0.0
 11
114.6680440566
 21
178.0381460691999
 31
0.0
  0
LINE
  5
2DB
330
22
100
AcDbEntity
  8
0
  6
Continuous
 62
     7
100
AcDbLine
 10
109.3055010496
 20
178.1923223979
 30
0.0
 11
84.19365764570001
 21
178.1923223979
 31
0.0
  0
LINE
  5
2DC
330
22
100
AcDbEntity
  8
0
  6
Continuous
 62
     7
100
AcDbLine
 10
109.7478415898
 20
178.2381384538
 30
0.0
 11
114.6680440566
 21
178.2381384538
 31
0.0
  0
LINE
  5
2DD
330
22
100
AcDbEntity
  8
0
  6
Continuous
 62
     7
100
AcDbLine
 10
79.0495793477
 20
178.2909081002
 30
0.0
 11
83.4495793477
 21
178.2909081002
 31
0.0
  0
LINE
  5
2DE
330
22
100
AcDbEntity
  8
0
  6
Continuous
 62
     7
100
AcDbLine
 10
110.0495793477
 20
178.2909081002
 30
0.0
 11
114.4495793477
 21
178.2909081002
 31
0.0
  0
LINE
  5
2DF
330
22
100
AcDbEntity
  8
0
  6
Continuous
 62
     7
100
AcDbLine
 10
78.97241977580001
 20
178.3101906473
 30
0.0
 11
83.52673891950001
 21
178.3101906473
 31
0.0
  0
LINE
  5
2E0
330
22
100
AcDbEntity
  8
0
  6
Continuous
 62
     7
100
AcDbLine
 10
109.9724197758
 20
178.3101906473
 30
0.0
 11
114.5267389195
 21
178.3101906473
 31
0.0
  0
LINE
  5
2E1
330
22
100
AcDbEntity
  8
0
  6
Continuous
 62
     7
100
AcDbLine
 10
114.7496555015
 20
178.3197498987
 30
0.0
 11
78.74950319379999
 21
178.3197498987
 31
0.0
  0
LWPOLYLINE
  5
2E2
330
22
100
AcDbEntity
  8
0
  6
Continuous
 62
     9
100
AcDbPolyline
 90
        7
 70
     0
 43
0.0
 10
78.8311146387
 20
178.0381460691999
 10
83.80285729390001
 20
178.0380281657
 10
83.85088983899999
 20
178.0376827441999
 10
83.89217131249999
 20
178.0371335573
 10
83.92394324600001
 20
178.0364180606
 10
83.94411468279999
 20
178.0355835698
 10
83.9513094902
 20
178.0346857842
  0
LINE
  5
2EB
330
22
100
AcDbEntity
  8
0
  6
Continuous
 62
     7
100
AcDbLine
 10
83.89727283170001
 20
178.237897765
 30
0.0
 11
78.8311146387
 21
178.2381384538
 31
0.0
  0
LWPOLYLINE
  5
2EC
330
22
100
AcDbEntity
  8
0
  6
Continuous
 62
     7
100
AcDbPolyline
 90
       11
 70
     0
 43
0.0
 10
116.7495793477
 20
140.3196737448
 10
116.7249566028
 20
140.0068043208
 10
116.6516969706
 20
139.7016492779
 10
116.5316029174
 20
139.4117117141
 10
116.3676378149
 20
139.1441412782
 10
116.1638244531
 20
138.9055047932
 10
115.9251879682
 20
138.7016914315
 10
115.6576175322
 20
138.5377263289
 10
115.3676799685
 20
138.4176322758
 10
115.0625249256
 20
138.3443726436
 10
114.7496555015
 20
138.3197498987
  0
LWPOLYLINE
  5
2F9
330
22
100
AcDbEntity
  8
0
  6
Continuous
 62
     9
100
AcDbPolyline
 90
        5
 70
     0
 43
0.0
 10
116.5000249724
 20
146.6442587824
 10
116.5118029924
 20
146.6906284413999
 10
116.5199068043
 20
146.7235429104
 10
116.5243683
 20
146.7429814451
 10
116.5253631012
 20
146.7495073181
  0
LINE
  5
300
330
22
100
AcDbEntity
  8
0
  6
Continuous
 62
     9
100
AcDbLine
 10
116.4679755181
 20
146.5213565948
 30
0.0
 11
116.5000249724
 21
146.6442587824
 31
0.0
  0
LINE
  5
301
330
22
100
AcDbEntity
  8
0
  6
Continuous
 62
     7
100
AcDbLine
 10
83.4495793477
 20
178.2909081002
 30
0.0
 11
83.52673891950001
 21
178.3101906473
 31
0.0
  0
LWPOLYLINE
  5
302
330
22
100
AcDbEntity
  8
0
  6
Continuous
 62
     7
100
AcDbPolyline
 90
        7
 70
     0
 43
0.0
 10
84.19365764570001
 20
178.1923223979
 10
84.1418157246
 20
178.1854823988
 10
84.09351571180001
 20
178.1654366473
 10
84.05206231680001
 20
178.1335556169
 10
84.0203078613
 20
178.0920504893
 10
84.0003888831
 20
178.0437364925
 10
83.99366526109998
 20
177.9923300133
  0
LWPOLYLINE
  5
30B
330
22
100
AcDbEntity
  8
0
  6
Continuous
 62
     9
100
AcDbPolyline
 90
        7
 70
     0
 43
0.0
 10
84.1513018748
 20
178.2346781688
 10
84.0995424819
 20
178.2278603071
 10
84.05131006700001
 20
178.2078791866999
 10
84.00989127349999
 20
178.1760963571
 10
83.97810845489999
 20
178.1346775619
 10
83.95812734659999
 20
178.0864451577
 10
83.9513094902
 20
178.0346857842
  0
LWPOLYLINE
  5
314
330
22
100
AcDbEntity
  8
0
  6
Continuous
 62
     9
100
AcDbPolyline
 90
       12
 70
     0
 43
0.0
 10
114.6680440566
 20
178.0381460691999
 10
114.9228592105
 20
178.0200194234
 10
115.173710381
 20
177.9656598565
 10
115.4147795195
 20
177.8759463493
 10
115.6406708735
 20
177.7527396206
 10
115.8466160784
 20
177.5986420485
 10
116.0284711699
 20
177.4167870187
 10
116.1825700618
 20
177.21083994
 10
116.3057772469
 20
176.9849469592
 10
116.3954897864
 20
176.7438796087
 10
116.4498479974
 20
176.4930358079
 10
116.4679755181
 20
176.2382146076
  0
LWPOLYLINE
  5
322
330
22
100
AcDbEntity
  8
0
  6
Continuous
 62
     9
100
AcDbPolyline
 90
       12
 70
     0
 43
0.0
 10
114.6680440566
 20
178.2381384538
 10
114.9514442703
 20
178.2179559829
 10
115.2301085599
 20
178.1575317625
 10
115.4978997072
 20
178.0578411926
 10
115.748827373
 20
177.920954955
 10
115.9775976152
 20
177.7497637918
 10
116.1796103937
 20
177.5477483672
 10
116.3507989958
 20
177.3189752045
 10
116.487681913
 20
177.0680455426
 10
116.5873677525
 20
176.8002567739
 10
116.6477873196
 20
176.5216016342
 10
116.6679679028
 20
176.2382146076
  0
LWPOLYLINE
  5
330
330
22
100
AcDbEntity
  8
0
  6
Continuous
 62
     7
100
AcDbPolyline
 90
       11
 70
     0
 43
0.0
 10
114.7496555015
 20
178.3197498987
 10
115.0625249256
 20
178.2951271538
 10
115.3676799685
 20
178.2218675216
 10
115.6576175322
 20
178.1017734685
 10
115.9251879682
 20
177.9378083659
 10
116.1638244531
 20
177.7339950042
 10
116.3676378149
 20
177.4953585191999
 10
116.5316029174
 20
177.2277880833
 10
116.6516969706
 20
176.9378505195
 10
116.7249566028
 20
176.6326954766
 10
116.7495793477
 20
176.3198260526
  0
LWPOLYLINE
  5
33D
330
22
100
AcDbEntity
  8
0
  6
Continuous
 62
     9
100
AcDbPolyline
 90
        7
 70
     0
 43
0.0
 10
109.3055010496
 20
178.1923223979
 10
109.357260436
 20
178.185504538
 10
109.4054928457
 20
178.1655234225
 10
109.4469116367
 20
178.1337406003
 10
109.4786944589
 20
178.0923218093
 10
109.4986755743
 20
178.0440893996
 10
109.5054934343
 20
177.9923300133
  0
LWPOLYLINE
  5
346
330
22
100
AcDbEntity
  8
0
  6
Continuous
 62
     9
100
AcDbPolyline
 90
        7
 70
     0
 43
0.0
 10
109.3478568206
 20
178.2346781688
 10
109.3996162151
 20
178.2278603067
 10
109.4478486313
 20
178.207879185
 10
109.4892674252
 20
178.1760963536
 10
109.5210502428
 20
178.1346775578
 10
109.5410313494
 20
178.0864451549
 10
109.5478492052
 20
178.0346857842
  0
LINE
  5
34F
330
22
100
AcDbEntity
  8
0
  6
Continuous
 62
     7
100
AcDbLine
 10
110.0495793477
 20
178.2909081002
 30
0.0
 11
109.9724197758
 21
178.3101906473
 31
0.0
  0
LWPOLYLINE
  5
350
330
22
100
AcDbEntity
  8
0
  6
Continuous
 62
     9
100
AcDbPolyline
 90
        6
 70
     0
 43
0.0
 10
116.4679755181
 20
170.1181432025
 10
116.5000249814
 20
169.9952409851
 10
116.5118029986
 20
169.9488713339
 10
116.5199068062999
 20
169.9159568784
 10
116.5243683005
 20
169.89651835
 10
116.5253631012
 20
169.8899924793
  0
LWPOLYLINE
  5
358
330
22
100
AcDbEntity
  8
0
  6
Continuous
 62
     9
100
AcDbPolyline
 90
        6
 70
     0
 43
0.0
 10
116.6290724168
 20
169.6735949453
 10
116.6227331576
 20
169.7235392454
 10
116.6041226393
 20
169.7703187144
 10
116.5744201586
 20
169.8109690675
 10
116.5355079063
 20
169.8429143881
 10
116.4898517669
 20
169.8641303755
  0
LWPOLYLINE
  5
360
330
22
100
AcDbEntity
  8
0
  6
Continuous
 62
     9
100
AcDbPolyline
 90
        6
 70
     0
 43
0.0
 10
116.6645076178
 20
169.6994813488
 10
116.6581723579
 20
169.7494101473
 10
116.6395733285
 20
169.79617709
 10
116.609888362
 20
169.8368205512
 10
116.5709973329
 20
169.8687666976
 10
116.5253631012
 20
169.8899924793
  0
CIRCLE
  5
368
330
22
100
AcDbEntity
  8
0
  6
Continuous
 62
     7
100
AcDbCircle
 10
80.2495793477
 20
141.8197498987
 30
0.0
 40
2.25
  0
CIRCLE
  5
369
330
22
100
AcDbEntity
  8
0
  6
Continuous
 62
     7
100
AcDbCircle
 10
113.2495793477
 20
141.8197498987
 30
0.0
 40
2.25
  0
CIRCLE
  5
36A
330
22
100
AcDbEntity
  8
0
  6
Continuous
 62
     7
100
AcDbCircle
 10
80.2495793477
 20
174.8197498987
 30
0.0
 40
2.25
  0
CIRCLE
  5
36B
330
22
100
AcDbEntity
  8
0
  6
Continuous
 62
     7
100
AcDbCircle
 10
113.2495793477
 20
174.8197498987
 30
0.0
 40
2.25
  0
ARC
  5
36C
330
22
100
AcDbEntity
  8
0
  6
Continuous
 62
     7
100
AcDbCircle
 10
96.7495793477
 20
208.666334283
 30
0.0
 40
64.99826985750001
100
AcDbArc
 50
252.2868965306
 51
256.0608409501
  0
ARC
  5
36D
330
22
100
AcDbEntity
  8
0
  6
Continuous
 62
     7
100
AcDbCircle
 10
80.12807090369999
 20
141.6982414547
 30
0.0
 40
4.001730142499999
100
AcDbArc
 50
13.9391590499
 51
76.0608409501
  0
ARC
  5
36E
330
22
100
AcDbEntity
  8
0
  6
Continuous
 62
     7
100
AcDbCircle
 10
147.0961637319
 20
158.3197498987
 30
0.0
 40
64.99826985750001
100
AcDbArc
 50
193.9391590499
 51
197.7131034681
  0
ARC
  5
36F
330
22
100
AcDbEntity
  8
0
  6
Continuous
 62
     7
100
AcDbCircle
 10
46.4029949634
 20
158.3197498987
 30
0.0
 40
64.95591408660001
100
AcDbArc
 50
342.3142661251
 51
346.0608409501
  0
ARC
  5
370
330
22
100
AcDbEntity
  8
0
  6
Continuous
 62
     7
100
AcDbCircle
 10
113.3710877916
 20
141.6982414547
 30
0.0
 40
4.0440859134
100
AcDbArc
 50
103.9391590499
 51
166.0608409501
  0
ARC
  5
371
330
22
100
AcDbEntity
  8
0
  6
Continuous
 62
     7
100
AcDbCircle
 10
96.7495793477
 20
208.666334283
 30
0.0
 40
64.95591408660001
100
AcDbArc
 50
283.9391590499
 51
286.9507215805
  0
ARC
  5
372
330
22
100
AcDbEntity
  8
0
  6
Continuous
 62
     7
100
AcDbCircle
 10
96.7495793477
 20
107.9731655144
 30
0.0
 40
64.99826985750001
100
AcDbArc
 50
72.2868965306
 51
75.9080785006
  0
ARC
  5
373
330
22
100
AcDbEntity
  8
0
  6
Continuous
 62
     7
100
AcDbCircle
 10
113.5495793477
 20
174.8967039744
 30
0.0
 40
4.001730142499999
100
AcDbArc
 50
180.0
 51
255.9080785006
  0
ARC
  5
374
330
22
100
AcDbEntity
  8
0
  6
Continuous
 62
     7
100
AcDbCircle
 10
79.94957934770001
 20
174.8967039744
 30
0.0
 40
4.0440859134
100
AcDbArc
 50
284.0919214994
 51
0.0
  0
ARC
  5
375
330
22
100
AcDbEntity
  8
0
  6
Continuous
 62
     7
100
AcDbCircle
 10
96.7495793477
 20
107.9731655144
 30
0.0
 40
64.95591408660001
100
AcDbArc
 50
104.0919214994
 51
106.9507215805
  0
ARC
  5
376
330
22
100
AcDbEntity
  8
0
  6
Continuous
 62
     7
100
AcDbCircle
 10
96.7495793477
 20
107.9731655144
 30
0.0
 40
64.99826985750001
100
AcDbArc
 50
104.0919214994
 51
107.7131034694
  0
ARC
  5
377
330
22
100
AcDbEntity
  8
0
  6
Continuous
 62
     7
100
AcDbCircle
 10
79.94957934770001
 20
174.8967039744
 30
0.0
 40
4.001730142499999
100
AcDbArc
 50
284.0919214994
 51
0.0
  0
ARC
  5
378
330
22
100
AcDbEntity
  8
0
  6
Continuous
 62
     7
100
AcDbCircle
 10
96.7495793477
 20
107.9731655144
 30
0.0
 40
65.0
100
AcDbArc
 50
76.7227946734
 51
103.2772053266
  0
ARC
  5
379
330
22
100
AcDbEntity
  8
0
  6
Continuous
 62
     7
100
AcDbCircle
 10
113.5495793477
 20
174.8967039744
 30
0.0
 40
4.0440859134
100
AcDbArc
 50
180.0
 51
255.9080785006
  0
ARC
  5
37A
330
22
100
AcDbEntity
  8
0
  6
Continuous
 62
     7
100
AcDbCircle
 10
96.7495793477
 20
107.9731655144
 30
0.0
 40
65.5
100
AcDbArc
 50
77.7473292902
 51
102.2526707098
  0
ARC
  5
37B
330
22
100
AcDbEntity
  8
0
  6
Continuous
 62
     7
100
AcDbCircle
 10
96.7495793477
 20
107.9731655144
 30
0.0
 40
64.95591408660001
100
AcDbArc
 50
73.0492784195
 51
75.9080785006
  0
ARC
  5
37C
330
22
100
AcDbEntity
  8
0
  6
Continuous
 62
     7
100
AcDbCircle
 10
96.7495793477
 20
208.666334283
 30
0.0
 40
64.95591408660001
100
AcDbArc
 50
253.0492784195001
 51
256.0608409501
  0
ARC
  5
37D
330
22
100
AcDbEntity
  8
0
  6
Continuous
 62
     7
100
AcDbCircle
 10
96.7495793477
 20
208.666334283
 30
0.0
 40
65.5
100
AcDbArc
 50
257.9000917397
 51
282.0999082603
  0
ARC
  5
37E
330
22
100
AcDbEntity
  8
0
  6
Continuous
 62
     7
100
AcDbCircle
 10
80.12807090369999
 20
141.6982414547
 30
0.0
 40
4.0440859134
100
AcDbArc
 50
13.9391590499
 51
76.0608409501
  0
ARC
  5
37F
330
22
100
AcDbEntity
  8
0
  6
Continuous
 62
     7
100
AcDbCircle
 10
96.7495793477
 20
208.666334283
 30
0.0
 40
65.0
100
AcDbArc
 50
256.8755571229
 51
283.1244428771
  0
ARC
  5
380
330
22
100
AcDbEntity
  8
0
  6
Continuous
 62
     7
100
AcDbCircle
 10
147.0961637319
 20
158.3197498987
 30
0.0
 40
64.95591408660001
100
AcDbArc
 50
193.9391590499
 51
197.6857338747
  0
ARC
  5
381
330
22
100
AcDbEntity
  8
0
  6
Continuous
 62
     7
100
AcDbCircle
 10
46.4029949634
 20
158.3197498987
 30
0.0
 40
64.99826985750001
100
AcDbArc
 50
342.2868965307
 51
346.0608409501
  0
ARC
  5
382
330
22
100
AcDbEntity
  8
0
  6
Continuous
 62
     7
100
AcDbCircle
 10
113.3710877916
 20
141.6982414547
 30
0.0
 40
4.001730142499999
100
AcDbArc
 50
103.9391590499
 51
166.0608409501
  0
ARC
  5
383
330
22
100
AcDbEntity
  8
0
  6
Continuous
 62
     7
100
AcDbCircle
 10
96.7495793477
 20
208.666334283
 30
0.0
 40
64.99826985750001
100
AcDbArc
 50
283.9391590499
 51
287.7131034694
  0
ARC
  5
384
330
22
100
AcDbEntity
  8
0
  6
Continuous
 62
     7
100
AcDbCircle
 10
113.5495793477
 20
174.8967039744
 30
0.0
 40
4.1117907325
100
AcDbArc
 50
225.1593260826
 51
242.9183268089
  0
ARC
  5
385
330
22
100
AcDbEntity
  8
0
  6
Continuous
 62
     7
100
AcDbCircle
 10
79.94957934770001
 20
174.8967039744
 30
0.0
 40
4.1117907325
100
AcDbArc
 50
297.0816731911
 51
314.8406739174
  0
ARC
  5
386
330
22
100
AcDbEntity
  8
0
  6
Continuous
 62
     7
100
AcDbCircle
 10
113.3710877916
 20
141.6982414547
 30
0.0
 40
4.1117907325
100
AcDbArc
 50
116.9289107416
 51
134.6879114679
  0
ARC
  5
387
330
22
100
AcDbEntity
  8
0
  6
Continuous
 62
     7
100
AcDbCircle
 10
80.12807090369999
 20
141.6982414547
 30
0.0
 40
4.1117907325
100
AcDbArc
 50
45.31208853209999
 51
63.07108925840001
  0
ARC
  5
388
330
22
100
AcDbEntity
  8
0
  6
Continuous
 62
     9
100
AcDbCircle
 10
96.7495793477
 20
208.666334283
 30
0.0
 40
65.1982622421
100
AcDbArc
 50
252.3959390101
 51
256.0608409501
  0
ARC
  5
389
330
22
100
AcDbEntity
  8
0
  6
Continuous
 62
     9
100
AcDbCircle
 10
80.12807090369999
 20
141.6982414547
 30
0.0
 40
3.801737775299999
100
AcDbArc
 50
13.9391590499
 51
76.0608409501
  0
ARC
  5
38A
330
22
100
AcDbEntity
  8
0
  6
Continuous
 62
     9
100
AcDbCircle
 10
147.0961637319
 20
158.3197498987
 30
0.0
 40
65.1982622421
100
AcDbArc
 50
193.9391590499
 51
197.6040609898999
  0
ARC
  5
38B
330
22
100
AcDbEntity
  8
0
  6
Continuous
 62
     9
100
AcDbCircle
 10
46.4029949634
 20
158.3197498987
 30
0.0
 40
64.75592170199999
100
AcDbArc
 50
342.3142657892
 51
346.0608409501
  0
ARC
  5
38C
330
22
100
AcDbEntity
  8
0
  6
Continuous
 62
     9
100
AcDbCircle
 10
113.3710877916
 20
141.6982414547
 30
0.0
 40
4.244078297999999
100
AcDbArc
 50
137.3735907679
 51
166.0608409501
  0
ARC
  5
38D
330
22
100
AcDbEntity
  8
0
  6
Continuous
 62
     9
100
AcDbCircle
 10
113.3710877916
 20
141.6982414547
 30
0.0
 40
4.244078297999999
100
AcDbArc
 50
103.9391590499
 51
122.8674452171
  0
ARC
  5
38E
330
22
100
AcDbEntity
  8
0
  6
Continuous
 62
     9
100
AcDbCircle
 10
96.7495793477
 20
208.666334283
 30
0.0
 40
64.75592170199999
100
AcDbArc
 50
283.9391590499
 51
286.9507215805
  0
ARC
  5
38F
330
22
100
AcDbEntity
  8
0
  6
Continuous
 62
     9
100
AcDbCircle
 10
96.7495793477
 20
107.9731655144
 30
0.0
 40
65.1982622421
100
AcDbArc
 50
72.3959390101
 51
75.9080785006
  0
ARC
  5
390
330
22
100
AcDbEntity
  8
0
  6
Continuous
 62
     9
100
AcDbCircle
 10
113.5495793477
 20
174.8967039744
 30
0.0
 40
3.8017377524
100
AcDbArc
 50
180.0
 51
255.9080785006
  0
ARC
  5
391
330
22
100
AcDbEntity
  8
0
  6
Continuous
 62
     9
100
AcDbCircle
 10
79.94957934770001
 20
174.8967039744
 30
0.0
 40
4.244078297999999
100
AcDbArc
 50
317.5263532174
 51
0.0
  0
ARC
  5
392
330
22
100
AcDbEntity
  8
0
  6
Continuous
 62
     9
100
AcDbCircle
 10
79.94957934770001
 20
174.8967039744
 30
0.0
 40
4.244078297999999
100
AcDbArc
 50
284.0919214994
 51
303.0202076666
  0
ARC
  5
393
330
22
100
AcDbEntity
  8
0
  6
Continuous
 62
     9
100
AcDbCircle
 10
96.7495793477
 20
107.9731655144
 30
0.0
 40
64.75592170199999
100
AcDbArc
 50
104.0919214994
 51
106.9507215805
  0
ARC
  5
394
330
22
100
AcDbEntity
  8
0
  6
Continuous
 62
     9
100
AcDbCircle
 10
96.7495793477
 20
107.9731655144
 30
0.0
 40
65.1982622421
100
AcDbArc
 50
104.0919214994
 51
107.6040609899
  0
ARC
  5
395
330
22
100
AcDbEntity
  8
0
  6
Continuous
 62
     9
100
AcDbCircle
 10
79.94957934770001
 20
174.8967039744
 30
0.0
 40
3.8017377524
100
AcDbArc
 50
284.0919214994
 51
0.0
  0
CIRCLE
  5
396
330
22
100
AcDbEntity
  8
0
  6
Continuous
 62
     7
100
AcDbCircle
 10
113.2495793477
 20
174.8197498987
 30
0.0
 40
2.293634339
  0
ARC
  5
397
330
22
100
AcDbEntity
  8
0
  6
Continuous
 62
     9
100
AcDbCircle
 10
113.5495793477
 20
174.8967039744
 30
0.0
 40
4.244078297999999
100
AcDbArc
 50
236.9797923334
 51
255.9080785006
  0
ARC
  5
398
330
22
100
AcDbEntity
  8
0
  6
Continuous
 62
     9
100
AcDbCircle
 10
113.5495793477
 20
174.8967039744
 30
0.0
 40
4.244078297999999
100
AcDbArc
 50
180.0
 51
222.4736467826
  0
ARC
  5
399
330
22
100
AcDbEntity
  8
0
  6
Continuous
 62
     9
100
AcDbCircle
 10
96.7495793477
 20
107.9731655144
 30
0.0
 40
64.75592170199999
100
AcDbArc
 50
73.0492784195
 51
75.9080785006
  0
ARC
  5
39A
330
22
100
AcDbEntity
  8
0
  6
Continuous
 62
     9
100
AcDbCircle
 10
96.7495793477
 20
208.666334283
 30
0.0
 40
64.75592170199999
100
AcDbArc
 50
253.0492784195001
 51
256.0608409501
  0
ARC
  5
39B
330
22
100
AcDbEntity
  8
0
  6
Continuous
 62
     9
100
AcDbCircle
 10
80.12807090369999
 20
141.6982414547
 30
0.0
 40
4.244078297999999
100
AcDbArc
 50
13.9391590499
 51
42.6264092321
  0
ARC
  5
39C
330
22
100
AcDbEntity
  8
0
  6
Continuous
 62
     9
100
AcDbCircle
 10
80.12807090369999
 20
141.6982414547
 30
0.0
 40
4.244078297999999
100
AcDbArc
 50
57.1325547829
 51
76.0608409501
  0
ARC
  5
39D
330
22
100
AcDbEntity
  8
0
  6
Continuous
 62
     9
100
AcDbCircle
 10
147.0961637319
 20
158.3197498987
 30
0.0
 40
64.75592170199999
100
AcDbArc
 50
193.9391590499
 51
197.6857342053
  0
CIRCLE
  5
39E
330
22
100
AcDbEntity
  8
0
  6
Continuous
 62
     7
100
AcDbCircle
 10
80.2495793477
 20
141.8197498987
 30
0.0
 40
2.293634339
  0
ARC
  5
39F
330
22
100
AcDbEntity
  8
0
  6
Continuous
 62
     9
100
AcDbCircle
 10
46.4029949634
 20
158.3197498987
 30
0.0
 40
65.1982622421
100
AcDbArc
 50
342.3959390101
 51
346.0608409501
  0
ARC
  5
3A0
330
22
100
AcDbEntity
  8
0
  6
Continuous
 62
     9
100
AcDbCircle
 10
113.3710877916
 20
141.6982414547
 30
0.0
 40
3.801737775299999
100
AcDbArc
 50
103.9391590499
 51
166.0608409501
  0
CIRCLE
  5
3A1
330
22
100
AcDbEntity
  8
0
  6
Continuous
 62
     7
100
AcDbCircle
 10
113.2495793477
 20
141.8197498987
 30
0.0
 40
2.293634339
  0
ARC
  5
3A2
330
22
100
AcDbEntity
  8
0
  6
Continuous
 62
     9
100
AcDbCircle
 10
96.7495793477
 20
208.666334283
 30
0.0
 40
65.1982622421
100
AcDbArc
 50
283.9391590499
 51
287.6040609899
  0
CIRCLE
  5
3A3
330
22
100
AcDbEntity
  8
0
  6
Continuous
 62
     7
100
AcDbCircle
 10
80.2495793477
 20
174.8197498987
 30
0.0
 40
2.293634339
  0
ENDSEC
  0
SECTION
  2
OBJECTS
  0
DICTIONARY
  5
C
330
0
100
AcDbDictionary
281
     1
  3
ACAD_COLOR
350
1B
  3
ACAD_GROUP
350
D
  3
ACAD_LAYOUT
350
19
  3
ACAD_MATERIAL
350
1A
  3
ACAD_MLINESTYLE
350
16
  3
ACAD_PLOTSETTINGS
350
18
  3
ACAD_PLOTSTYLENAME
350
E
  3
ACAD_TABLESTYLE
350
1C
  3
AcDbVariableDictionary
350
3A7
  0
DICTIONARY
  5
1B
102
{ACAD_REACTORS
330
C
102
}
330
C
100
AcDbDictionary
281
     1
  0
DICTIONARY
  5
D
102
{ACAD_REACTORS
330
C
102
}
330
C
100
AcDbDictionary
281
     1
  0
DICTIONARY
  5
19
102
{ACAD_REACTORS
330
C
102
}
330
C
100
AcDbDictionary
281
     1
  3
Model
350
25
  3
Présentation1
350
21
  0
DICTIONARY
  5
1A
102
{ACAD_REACTORS
330
C
102
}
330
C
100
AcDbDictionary
281
     1
  0
DICTIONARY
  5
16
102
{ACAD_REACTORS
330
C
102
}
330
C
100
AcDbDictionary
281
     1
  3
Standard
350
17
  0
DICTIONARY
  5
18
102
{ACAD_REACTORS
330
C
102
}
330
C
100
AcDbDictionary
281
     1
  0
ACDBDICTIONARYWDFLT
  5
E
102
{ACAD_REACTORS
330
C
102
}
330
C
100
AcDbDictionary
281
     1
  3
Normal
350
F
100
AcDbDictionaryWithDefault
340
F
  0
DICTIONARY
  5
1C
102
{ACAD_REACTORS
330
C
102
}
330
C
100
AcDbDictionary
281
     1
  3
Standard
350
1D
  0
DICTIONARY
  5
3A7
102
{ACAD_REACTORS
330
C
102
}
330
C
100
AcDbDictionary
281
     1
  3
CTABLESTYLE
350
3A8
  0
LAYOUT
  5
25
102
{ACAD_REACTORS
330
19
102
}
330
19
100
AcDbPlotSettings
  1

  2
Lexmark W820 Multi-Fonctions
  4

  6

 40
0.0
 41
0.0
 42
0.0
 43
0.0
 44
0.0
 45
0.0
 46
0.0
 47
0.0
 48
0.0
 49
0.0
140
0.0
141
0.0
142
1.0
143
1.0
 70
  1712
 72
     0
 73
     0
 74
     0
  7

 75
     0
147
1.0
 76
     0
 77
     2
 78
   300
148
0.0
149
0.0
100
AcDbLayout
  1
Model
 70
     1
 71
     0
 10
0.0
 20
0.0
 11
12.0
 21
9.0
 12
0.0
 22
0.0
 32
0.0
 14
0.0
 24
0.0
 34
0.0
 15
0.0
 25
0.0
 35
0.0
146
0.0
 13
0.0
 23
0.0
 33
0.0
 16
1.0
 26
0.0
 36
0.0
 17
0.0
 27
1.0
 37
0.0
 76
     0
330
22
  0
LAYOUT
  5
21
102
{ACAD_REACTORS
330
19
102
}
330
19
100
AcDbPlotSettings
  1

  2
Lexmark W820 Multi-Fonctions
  4

  6

 40
0.0
 41
0.0
 42
0.0
 43
0.0
 44
0.0
 45
0.0
 46
0.0
 47
0.0
 48
0.0
 49
0.0
140
0.0
141
0.0
142
1.0
143
1.0
 70
   688
 72
     0
 73
     0
 74
     5
  7

 75
    16
147
1.0
 76
     0
 77
     2
 78
   300
148
0.0
149
0.0
100
AcDbLayout
  1
Présentation1
 70
     1
 71
     1
 10
0.0
 20
0.0
 11
12.0
 21
9.0
 12
0.0
 22
0.0
 32
0.0
 14
1.000000000000000E+20
 24
1.000000000000000E+20
 34
1.000000000000000E+20
 15
-1.000000000000000E+20
 25
-1.000000000000000E+20
 35
-1.000000000000000E+20
146
0.0
 13
0.0
 23
0.0
 33
0.0
 16
1.0
 26
0.0
 36
0.0
 17
0.0
 27
1.0
 37
0.0
 76
     0
330
1E
  0
MLINESTYLE
  5
17
102
{ACAD_REACTORS
330
16
102
}
330
16
100
AcDbMlineStyle
  2
STANDARD
 70
     0
  3

 62
   256
 51
90.0
 52
90.0
 71
     2
 49
0.5
 62
   256
  6
BYLAYER
 49
-0.5
 62
   256
  6
BYLAYER
  0
ACDBPLACEHOLDER
  5
F
102
{ACAD_REACTORS
330
E
102
}
330
E
  0
TABLESTYLE
  5
1D
102
{ACAD_REACTORS
330
1C
102
}
330
1C
100
AcDbTableStyle
  3
Standard
 70
     0
 71
     0
 40
0.06
 41
0.06
280
     0
281
     0
  7
Standard
140
0.18
170
     2
 62
     0
 63
     7
283
     0
274
    -2
284
     1
 64
     0
275
    -2
285
     1
 65
     0
276
    -2
286
     1
 66
     0
277
    -2
287
     1
 67
     0
278
    -2
288
     1
 68
     0
279
    -2
289
     1
 69
     0
  7
Standard
140
0.25
170
     5
 62
     0
 63
     7
283
     0
274
    -2
284
     1
 64
     0
275
    -2
285
     1
 65
     0
276
    -2
286
     1
 66
     0
277
    -2
287
     1
 67
     0
278
    -2
288
     1
 68
     0
279
    -2
289
     1
 69
     0
  7
Standard
140
0.18
170
     5
 62
     0
 63
     7
283
     0
274
    -2
284
     1
 64
     0
275
    -2
285
     1
 65
     0
276
    -2
286
     1
 66
     0
277
    -2
287
     1
 67
     0
278
    -2
288
     1
 68
     0
279
    -2
289
     1
 69
     0
  0
DICTIONARYVAR
  5
3A8
102
{ACAD_REACTORS
330
3A7
102
}
330
3A7
100
DictionaryVariables
280
     0
  1
STANDARD
  0
ENDSEC
  0
EOF
