  0
SECTION
  2
HEADER
  9
$ACADVER
  1
AC1009
  9
$INSBASE
 10
402.590624
 20
-1.041018
 30
0.0
  9
$EXTMIN
 10
-9.883174
 20
0.613737
 30
0.0
  9
$EXTMAX
 10
86.677918
 20
96.439185
 30
0.0
  9
$LIMMIN
 10
-407.970438
 20
-367.832444
  9
$LIMMAX
 10
429.804077
 20
234.370848
  9
$ORTHOMODE
 70
     1
  9
$REGENMODE
 70
     1
  9
$FILLMODE
 70
     1
  9
$QTEXTMODE
 70
     0
  9
$MIRRTEXT
 70
     1
  9
$DRAGMODE
 70
     2
  9
$LTSCALE
 40
10.0
  9
$OSMODE
 70
    35
  9
$ATTMODE
 70
     1
  9
$TEXTSIZE
 40
6.0
  9
$TRACEWID
 40
1.0
  9
$TEXTSTYLE
  7
ROMANS
  9
$CLAYER
  8
ALPHA
  9
$CELTYPE
  6
BYLAYER
  9
$CECOLOR
 62
   256
  9
$DIMSCALE
 40
1.0
  9
$DIMASZ
 40
5.0
  9
$DIMEXO
 40
2.0
  9
$DIMDLI
 40
0.38
  9
$DIMRND
 40
0.0
  9
$DIMDLE
 40
0.0
  9
$DIMEXE
 40
2.5
  9
$DIMTP
 40
0.0
  9
$DIMTM
 40
0.0
  9
$DIMTXT
 40
2.5
  9
$DIMCEN
 40
0.0
  9
$DIMTSZ
 40
0.0
  9
$DIMTOL
 70
     0
  9
$DIMLIM
 70
     0
  9
$DIMTIH
 70
     1
  9
$DIMTOH
 70
     1
  9
$DIMSE1
 70
     0
  9
$DIMSE2
 70
     0
  9
$DIMTAD
 70
     1
  9
$DIMZIN
 70
    12
  9
$DIMBLK
  1
OPEN30
  9
$DIMASO
 70
     1
  9
$DIMSHO
 70
     1
  9
$DIMPOST
  1

  9
$DIMAPOST
  1

  9
$DIMALT
 70
     0
  9
$DIMALTD
 70
     2
  9
$DIMALTF
 40
25.4
  9
$DIMLFAC
 40
1.0
  9
$DIMTOFL
 70
     0
  9
$DIMTVP
 40
0.0
  9
$DIMTIX
 70
     0
  9
$DIMSOXD
 70
     0
  9
$DIMSAH
 70
     0
  9
$DIMBLK1
  1

  9
$DIMBLK2
  1

  9
$DIMSTYLE
  2
SC_DEFAUT
  9
$DIMCLRD
 70
     0
  9
$DIMCLRE
 70
     0
  9
$DIMCLRT
 70
     0
  9
$DIMTFAC
 40
1.0
  9
$DIMGAP
 40
2.0
  9
$LUNITS
 70
     2
  9
$LUPREC
 70
     1
  9
$SKETCHINC
 40
0.1
  9
$FILLETRAD
 40
0.0
  9
$AUNITS
 70
     0
  9
$AUPREC
 70
     0
  9
$MENU
  1
acad
  9
$ELEVATION
 40
0.0
  9
$PELEVATION
 40
0.0
  9
$THICKNESS
 40
0.0
  9
$LIMCHECK
 70
     0
  9
$BLIPMODE
 70
     0
  9
$CHAMFERA
 40
0.0
  9
$CHAMFERB
 40
0.0
  9
$SKPOLY
 70
     0
  9
$TDCREATE
 40
2450373.687919
  9
$TDUPDATE
 40
2453034.402234
  9
$TDINDWG
 40
1.036532
  9
$TDUSRTIMER
 40
1.036532
  9
$USRTIMER
 70
     1
  9
$ANGBASE
 50
0.0
  9
$ANGDIR
 70
     0
  9
$PDMODE
 70
    32
  9
$PDSIZE
 40
0.0
  9
$PLINEWID
 40
0.0
  9
$COORDS
 70
     1
  9
$SPLFRAME
 70
     0
  9
$SPLINETYPE
 70
     6
  9
$SPLINESEGS
 70
     8
  9
$ATTDIA
 70
     0
  9
$ATTREQ
 70
     1
  9
$HANDLING
 70
     1
  9
$HANDSEED
  5
B64E
  9
$SURFTAB1
 70
     6
  9
$SURFTAB2
 70
     6
  9
$SURFTYPE
 70
     6
  9
$SURFU
 70
     6
  9
$SURFV
 70
     6
  9
$UCSNAME
  2

  9
$UCSORG
 10
0.0
 20
0.0
 30
0.0
  9
$UCSXDIR
 10
1.0
 20
0.0
 30
0.0
  9
$UCSYDIR
 10
0.0
 20
1.0
 30
0.0
  9
$PUCSNAME
  2

  9
$PUCSORG
 10
0.0
 20
0.0
 30
0.0
  9
$PUCSXDIR
 10
1.0
 20
0.0
 30
0.0
  9
$PUCSYDIR
 10
0.0
 20
1.0
 30
0.0
  9
$USERI1
 70
     0
  9
$USERI2
 70
     0
  9
$USERI3
 70
     0
  9
$USERI4
 70
     0
  9
$USERI5
 70
     0
  9
$USERR1
 40
0.0
  9
$USERR2
 40
0.0
  9
$USERR3
 40
0.0
  9
$USERR4
 40
0.0
  9
$USERR5
 40
0.0
  9
$WORLDVIEW
 70
     1
  9
$SHADEDGE
 70
     3
  9
$SHADEDIF
 70
    70
  9
$TILEMODE
 70
     1
  9
$MAXACTVP
 70
    16
  9
$PLIMCHECK
 70
     0
  9
$PEXTMIN
 10
-1.452248
 20
-0.437698
 30
0.0
  9
$PEXTMAX
 10
12.749749
 20
8.310198
 30
0.0
  9
$PLIMMIN
 10
0.0
 20
0.0
  9
$PLIMMAX
 10
12.0
 20
9.0
  9
$UNITMODE
 70
     0
  9
$VISRETAIN
 70
     0
  9
$PLINEGEN
 70
     0
  9
$PSLTSCALE
 70
     0
  0
ENDSEC
  0
SECTION
  2
TABLES
  0
TABLE
  2
VPORT
 70
     2
  0
VPORT
  2
*ACTIVE
 70
     0
 10
0.0
 20
0.0
 11
1.0
 21
1.0
 12
38.401184
 22
48.520894
 13
0.0
 23
0.0
 14
1.0
 24
1.0
 15
10.0
 25
10.0
 16
0.0
 26
0.0
 36
1.0
 17
0.0
 27
0.0
 37
0.0
 40
96.576754
 41
1.466346
 42
50.0
 43
0.0
 44
0.0
 50
0.0
 51
0.0
 71
     0
 72
   100
 73
     1
 74
     0
 75
     0
 76
     0
 77
     0
 78
     0
  0
ENDTAB
  0
TABLE
  2
LTYPE
 70
     2
  0
LTYPE
  2
CONTINUOUS
 70
     0
  3
Solid line
 72
    65
 73
     0
 40
0.0
  0
LTYPE
  2
AXES2
 70
     0
  3
___ _ ___ _ ___ _ ___ _ ___ _ ___ _ ___ _ ___ _
 72
    65
 73
     4
 40
1.125
 49
0.75
 49
-0.125
 49
0.125
 49
-0.125
  0
ENDTAB
  0
TABLE
  2
LAYER
 70
     5
  0
LAYER
  2
0
 70
     0
 62
   255
  6
CONTINUOUS
  0
LAYER
  2
COTATION1
 70
     0
 62
     2
  6
CONTINUOUS
  0
LAYER
  2
AXE
 70
     0
 62
    80
  6
AXES2
  0
LAYER
  2
DEFPOINTS
 70
     0
 62
     7
  6
CONTINUOUS
  0
LAYER
  2
ALPHA
 70
     0
 62
   254
  6
CONTINUOUS
  0
ENDTAB
  0
TABLE
  2
STYLE
 70
     2
  0
STYLE
  2
ROMANS
 70
     0
 40
0.0
 41
1.0
 50
0.0
 71
     0
 42
6.0
  3
romans
  4

  0
STYLE
  2
STANDARD
 70
     0
 40
0.0
 41
1.0
 50
0.0
 71
     0
 42
0.2
  3
txt
  4

  0
ENDTAB
  0
TABLE
  2
VIEW
 70
     0
  0
ENDTAB
  0
TABLE
  2
UCS
 70
     0
  0
ENDTAB
  0
TABLE
  2
APPID
 70
     1
  0
APPID
  2
ACAD
 70
     0
  0
ENDTAB
  0
TABLE
  2
DIMSTYLE
 70
     2
  0
DIMSTYLE
  2
SC_DEFAUT
 70
     0
  3

  4

  5
OPEN30
  6

  7

 40
1.0
 41
5.0
 42
2.0
 43
0.38
 44
2.5
 45
0.0
 46
0.0
 47
0.0
 48
0.0
140
2.5
141
0.0
142
0.0
143
25.4
144
1.0
145
0.0
146
1.0
147
2.0
 71
     0
 72
     0
 73
     1
 74
     1
 75
     0
 76
     0
 77
     1
 78
    12
170
     0
171
     2
172
     0
173
     0
174
     0
175
     0
176
     0
177
     0
178
     0
  0
DIMSTYLE
  2
STANDARD
 70
     0
  3

  4

  5

  6

  7

 40
1.0
 41
0.18
 42
0.0625
 43
0.38
 44
0.18
 45
0.0
 46
0.0
 47
0.0
 48
0.0
140
0.18
141
0.09
142
0.0
143
25.4
144
1.0
145
0.0
146
1.0
147
0.09
 71
     0
 72
     0
 73
     1
 74
     1
 75
     0
 76
     0
 77
     0
 78
     0
170
     0
171
     2
172
     0
173
     0
174
     0
175
     0
176
     0
177
     0
178
     0
  0
ENDTAB
  0
ENDSEC
  0
SECTION
  2
BLOCKS
  0
BLOCK
  8
0
  2
$MODEL_SPACE
 70
     0
 10
0.0
 20
0.0
 30
0.0
  3
$MODEL_SPACE
  1

  0
ENDBLK
  5
B0E8
  8
0
  0
BLOCK
 67
     1
  8
0
  2
$PAPER_SPACE
 70
     0
 10
0.0
 20
0.0
 30
0.0
  3
$PAPER_SPACE
  1

  0
ENDBLK
  5
B0E6
 67
     1
  8
0
  0
BLOCK
  8
0
  2
COTE
 70
     0
 10
0.0
 20
0.0
 30
0.0
  3
COTE
  1

  0
ENDBLK
  5
F
  8
0
  0
BLOCK
  8
0
  2
FOND
 70
     0
 10
0.0
 20
0.0
 30
0.0
  3
FOND
  1

  0
ENDBLK
  5
75
  8
0
  0
BLOCK
  8
0
  2
_OPEN30
 70
     0
 10
0.0
 20
0.0
 30
0.0
  3
_OPEN30
  1

  0
LINE
  5
4B05
  8
COTATION1
 62
     0
 10
-1.0
 20
0.267949
 30
0.0
 11
0.0
 21
0.0
 31
0.0
1001
ACAD
1000
RTLwPs
1070
   158
  0
LINE
  5
4B06
  8
COTATION1
 62
     0
 10
0.0
 20
0.0
 30
0.0
 11
-1.0
 21
-0.267949
 31
0.0
1001
ACAD
1000
RTLwPs
1070
   158
  0
LINE
  5
4B07
  8
COTATION1
 62
     0
 10
0.0
 20
0.0
 30
0.0
 11
-1.0
 21
0.0
 31
0.0
1001
ACAD
1000
RTLwPs
1070
   158
  0
ENDBLK
  5
4B09
  8
0
  0
BLOCK
  8
0
  2
*D3
 70
     1
 10
0.0
 20
0.0
 30
0.0
  3
*D3
  1

  0
LINE
  5
AB12
  8
COTATION1
 62
     0
 10
48.177918
 20
30.223883
 30
0.0
 11
48.177918
 21
0.613737
 31
0.0
1001
ACAD
1000
RTLwPs
1070
   158
  0
LINE
  5
AB13
  8
COTATION1
 62
     0
 10
64.17792
 20
30.223883
 30
0.0
 11
64.17792
 21
0.613737
 31
0.0
1001
ACAD
1000
RTLwPs
1070
   158
  0
LINE
  5
AB14
  8
COTATION1
 62
     0
 10
53.177918
 20
3.113737
 30
0.0
 11
59.17792
 21
3.113737
 31
0.0
1001
ACAD
1000
RTLwPs
1070
   158
  0
INSERT
  5
AB15
  8
COTATION1
 62
     0
  2
_OPEN30
 10
48.177918
 20
3.113737
 30
0.0
 41
5.0
 42
5.0
 43
5.0
 50
180.0
1001
ACAD
1000
RTLwPs
1070
   158
  0
INSERT
  5
AB16
  8
COTATION1
 62
     0
  2
_OPEN30
 10
64.17792
 20
3.113737
 30
0.0
 41
5.0
 42
5.0
 43
5.0
1001
ACAD
1000
RTLwPs
1070
   158
  0
TEXT
  5
AB17
  8
COTATION1
 62
     0
 10
52.785062
 20
5.113737
 30
0.0
 40
2.5
  1
%%c
1001
ACAD
1000
MTEXTBEGIN
1070
    73
1070
     1
1070
    44
1040
1.0
1070
    74
1070
     0
1000
MTEXTEND
  0
TEXT
  5
B0B8
  8
COTATION1
 62
     0
 10
55.046967
 20
5.113737
 30
0.0
 40
2.5
  1
16
1001
ACAD
1000
R13OBJECT
1002
{
1005
AB17
1002
}
  0
POINT
  5
AB18
  8
DEFPOINTS
 62
     0
 10
48.177918
 20
32.223883
 30
0.0
  0
POINT
  5
AB19
  8
DEFPOINTS
 62
     0
 10
64.17792
 20
32.223883
 30
0.0
  0
POINT
  5
AB1A
  8
DEFPOINTS
 62
     0
 10
64.17792
 20
3.113737
 30
0.0
  0
ENDBLK
  5
A0F8
  8
0
  0
BLOCK
  8
0
  2
*D4
 70
     1
 10
0.0
 20
0.0
 30
0.0
  3
*D4
  1

  0
LINE
  5
AA83
  8
COTATION1
 62
     0
 10
52.327918
 20
96.439185
 30
0.0
 11
28.695289
 21
96.439185
 31
0.0
1001
ACAD
1000
RTLwPs
1070
   158
  0
LINE
  5
AA84
  8
COTATION1
 62
     0
 10
46.177935
 20
32.223883
 30
0.0
 11
28.695289
 21
32.223883
 31
0.0
1001
ACAD
1000
RTLwPs
1070
   158
  0
LINE
  5
AA85
  8
COTATION1
 62
     0
 10
31.195289
 20
91.439185
 30
0.0
 11
31.195289
 21
67.581534
 31
0.0
1001
ACAD
1000
RTLwPs
1070
   158
  0
LINE
  5
AA86
  8
COTATION1
 62
     0
 10
31.195289
 20
37.223883
 30
0.0
 11
31.195289
 21
61.081534
 31
0.0
1001
ACAD
1000
RTLwPs
1070
   158
  0
TEXT
  5
AA87
  8
COTATION1
 62
     0
 10
26.969099
 20
63.081534
 30
0.0
 40
2.5
  1
64.2
1001
ACAD
1000
MTEXTBEGIN
1070
    73
1070
     1
1070
    44
1040
1.0
1070
    74
1070
     0
1000
MTEXTEND
  0
INSERT
  5
AA88
  8
COTATION1
 62
     0
  2
_OPEN30
 10
31.195289
 20
96.439185
 30
0.0
 41
5.0
 42
5.0
 43
5.0
 50
90.0
1001
ACAD
1000
RTLwPs
1070
   158
  0
INSERT
  5
AA89
  8
COTATION1
 62
     0
  2
_OPEN30
 10
31.195289
 20
32.223883
 30
0.0
 41
5.0
 42
5.0
 43
5.0
 50
270.0
1001
ACAD
1000
RTLwPs
1070
   158
  0
POINT
  5
AA8A
  8
DEFPOINTS
 62
     0
 10
54.327918
 20
96.439185
 30
0.0
  0
POINT
  5
AA8B
  8
DEFPOINTS
 62
     0
 10
48.177935
 20
32.223883
 30
0.0
  0
POINT
  5
AA8C
  8
DEFPOINTS
 62
     0
 10
31.195289
 20
32.223883
 30
0.0
  0
ENDBLK
  5
A105
  8
0
  0
BLOCK
  8
0
  2
*D5
 70
     1
 10
0.0
 20
0.0
 30
0.0
  3
*D5
  1

  0
LINE
  5
AA79
  8
COTATION1
 62
     0
 10
56.327918
 20
96.439185
 30
0.0
 11
86.677918
 21
96.439185
 31
0.0
1001
ACAD
1000
RTLwPs
1070
   158
  0
LINE
  5
AA7A
  8
COTATION1
 62
     0
 10
59.910673
 20
24.473878
 30
0.0
 11
86.677918
 21
24.473878
 31
0.0
1001
ACAD
1000
RTLwPs
1070
   158
  0
LINE
  5
AA7B
  8
COTATION1
 62
     0
 10
84.177918
 20
91.439185
 30
0.0
 11
84.177918
 21
63.706531
 31
0.0
1001
ACAD
1000
RTLwPs
1070
   158
  0
LINE
  5
AA7C
  8
COTATION1
 62
     0
 10
84.177918
 20
29.473878
 30
0.0
 11
84.177918
 21
57.206531
 31
0.0
1001
ACAD
1000
RTLwPs
1070
   158
  0
INSERT
  5
AA7D
  8
COTATION1
 62
     0
  2
_OPEN30
 10
84.177918
 20
96.439185
 30
0.0
 41
5.0
 42
5.0
 43
5.0
 50
90.0
1001
ACAD
1000
RTLwPs
1070
   158
  0
INSERT
  5
AA7E
  8
COTATION1
 62
     0
  2
_OPEN30
 10
84.177918
 20
24.473878
 30
0.0
 41
5.0
 42
5.0
 43
5.0
 50
270.0
1001
ACAD
1000
RTLwPs
1070
   158
  0
TEXT
  5
AA7F
  8
COTATION1
 62
     0
 10
81.796965
 20
59.206531
 30
0.0
 40
2.5
  1
72
1001
ACAD
1000
MTEXTBEGIN
1070
    73
1070
     1
1070
    44
1040
1.0
1070
    74
1070
     0
1000
MTEXTEND
  0
POINT
  5
AA80
  8
DEFPOINTS
 62
     0
 10
54.327918
 20
96.439185
 30
0.0
  0
POINT
  5
AA81
  8
DEFPOINTS
 62
     0
 10
57.910673
 20
24.473878
 30
0.0
  0
POINT
  5
AA82
  8
DEFPOINTS
 62
     0
 10
84.177918
 20
24.473878
 30
0.0
  0
ENDBLK
  5
A125
  8
0
  0
ENDSEC
  0
SECTION
  2
ENTITIES
  0
INSERT
  5
A
  8
0
  2
COTE
 10
0.0
 20
0.0
 30
0.0
  0
INSERT
  5
17
  8
0
  2
COTE
 10
284.010391
 20
6.373258
 30
0.0
  0
INSERT
  5
72
  8
0
  2
FOND
 10
0.0
 20
0.0
 30
0.0
  0
LINE
  5
9E08
  8
COTATION1
 10
3.366826
 20
34.723883
 30
0.0
 11
3.366826
 21
59.682805
 31
0.0
  0
LINE
  5
9E09
  8
AXE
 10
56.177918
 20
14.473878
 30
0.0
 11
56.177918
 21
75.795325
 31
0.0
  0
DIMENSION
  5
9E0A
  8
COTATION1
  2
*D3
 10
64.17792
 20
3.113737
 30
0.0
 11
56.177919
 21
6.363737
 31
0.0
  1
%%c<>
 13
48.177918
 23
32.223883
 33
0.0
 14
64.17792
 24
32.223883
 34
0.0
  0
LINE
  5
9E0B
  8
COTATION1
 10
-4.733526
 20
32.223883
 30
0.0
 11
47.177918
 21
32.223883
 31
0.0
  0
DIMENSION
  5
9E0C
  8
COTATION1
  2
*D4
 10
31.195289
 20
32.223883
 30
0.0
 11
31.195289
 21
64.331534
 31
0.0
 70
   128
 13
54.327918
 23
96.439185
 33
0.0
 14
48.177935
 24
32.223883
 34
0.0
 50
90.0
  0
SOLID
  5
9E0D
  8
COTATION1
 10
4.810202
 20
32.223883
 30
0.0
 11
1.923451
 21
32.223883
 31
0.0
 12
3.366826
 22
34.723883
 32
0.0
 13
3.366826
 23
34.723883
 33
0.0
  0
DIMENSION
  5
9E0E
  8
COTATION1
  2
*D5
 10
84.177918
 20
24.473878
 30
0.0
 11
84.177918
 21
60.456531
 31
0.0
 13
54.327918
 23
96.439185
 33
0.0
 14
57.910673
 24
24.473878
 34
0.0
 50
90.0
  0
LINE
  5
9E11
  8
AXE
 10
43.177918
 20
44.223875
 30
0.0
 11
74.177918
 21
44.223875
 31
0.0
  0
TEXT
  5
9E34
  8
AXE
 10
51.130299
 20
14.473878
 30
0.0
 40
5.0
  1
Y
 72
     2
 11
55.177918
 21
14.473878
 31
0.0
  0
TEXT
  5
A0E7
  8
AXE
 10
70.130299
 20
45.223875
 30
0.0
 40
5.0
  1
X
 72
     2
 11
74.177918
 21
45.223875
 31
0.0
  0
LINE
  5
A0E8
  8
COTATION1
 10
16.616826
 20
59.682805
 30
0.0
 11
-9.883174
 21
59.682805
 31
0.0
  0
LINE
  5
A0E9
  8
COTATION1
 10
-9.883174
 20
64.682805
 30
0.0
 11
16.616826
 21
64.682805
 31
0.0
  0
LINE
  5
A0EA
  8
COTATION1
 10
-9.883174
 20
59.682805
 30
0.0
 11
-9.883174
 21
64.682805
 31
0.0
  0
TEXT
  5
A0EB
  8
COTATION1
 10
-8.633174
 20
60.932805
 30
0.0
 40
2.5
  1
PLANE_TO_LINE_UP
 41
0.626087
  7
STANDARD
 72
     5
 11
15.366826
 21
60.932805
 31
0.0
  0
LINE
  5
A0EC
  8
COTATION1
 10
16.616826
 20
64.682805
 30
0.0
 11
16.616826
 21
59.682805
 31
0.0
  0
LINE
  5
A723
  8
ALPHA
 10
54.327918
 20
96.439184
 30
0.0
 11
54.327918
 21
73.223877
 31
0.0
  0
LINE
  5
A724
  8
ALPHA
 10
53.127918
 20
96.228155
 30
0.0
 11
53.127918
 21
73.223873
 31
0.0
  0
POLYLINE
  5
A725
  8
ALPHA
 66
     1
 10
0.0
 20
0.0
 30
0.0
  0
VERTEX
  5
B0EE
  8
ALPHA
 10
58.354473
 20
50.592637
 30
0.0
  0
VERTEX
  5
B0EF
  8
ALPHA
 10
58.357943
 20
50.593926
 30
0.0
  0
VERTEX
  5
B0F0
  8
ALPHA
 10
58.345976
 20
50.590725
 30
0.0
  0
VERTEX
  5
B0F1
  8
ALPHA
 10
58.289375
 20
50.577963
 30
0.0
  0
VERTEX
  5
B0F2
  8
ALPHA
 10
58.197347
 20
50.561141
 30
0.0
  0
VERTEX
  5
B0F3
  8
ALPHA
 10
58.074349
 20
50.542192
 30
0.0
  0
VERTEX
  5
B0F4
  8
ALPHA
 10
57.923282
 20
50.521996
 30
0.0
  0
VERTEX
  5
B0F5
  8
ALPHA
 10
57.746798
 20
50.500963
 30
0.0
  0
VERTEX
  5
B0F6
  8
ALPHA
 10
57.547724
 20
50.479414
 30
0.0
  0
VERTEX
  5
B0F7
  8
ALPHA
 10
57.328562
 20
50.457436
 30
0.0
  0
VERTEX
  5
B0F8
  8
ALPHA
 10
57.090934
 20
50.435028
 30
0.0
  0
VERTEX
  5
B0F9
  8
ALPHA
 10
56.836527
 20
50.412168
 30
0.0
  0
VERTEX
  5
B0FA
  8
ALPHA
 10
56.567209
 20
50.38875
 30
0.0
  0
SEQEND
  5
B0FB
  8
ALPHA
  0
POLYLINE
  5
A726
  8
ALPHA
 66
     1
 10
0.0
 20
0.0
 30
0.0
  0
VERTEX
  5
B0FC
  8
ALPHA
 10
56.601122
 20
68.764938
 30
0.0
  0
VERTEX
  5
B0FD
  8
ALPHA
 10
56.904331
 20
68.798067
 30
0.0
  0
VERTEX
  5
B0FE
  8
ALPHA
 10
57.20479
 20
68.83242
 30
0.0
  0
VERTEX
  5
B0FF
  8
ALPHA
 10
57.496677
 20
68.86802
 30
0.0
  0
VERTEX
  5
B100
  8
ALPHA
 10
57.772923
 20
68.904822
 30
0.0
  0
VERTEX
  5
B101
  8
ALPHA
 10
58.027395
 20
68.942828
 30
0.0
  0
VERTEX
  5
B102
  8
ALPHA
 10
58.255785
 20
68.982381
 30
0.0
  0
VERTEX
  5
B103
  8
ALPHA
 10
58.457201
 20
69.024555
 30
0.0
  0
VERTEX
  5
B104
  8
ALPHA
 10
58.636896
 20
69.072959
 30
0.0
  0
VERTEX
  5
B105
  8
ALPHA
 10
58.810114
 20
69.139131
 30
0.0
  0
VERTEX
  5
B106
  8
ALPHA
 10
58.986425
 20
69.248444
 30
0.0
  0
VERTEX
  5
B107
  8
ALPHA
 10
59.138975
 20
69.426205
 30
0.0
  0
VERTEX
  5
B108
  8
ALPHA
 10
59.222001
 20
69.663586
 30
0.0
  0
VERTEX
  5
B109
  8
ALPHA
 10
59.22792
 20
69.748084
 30
0.0
  0
SEQEND
  5
B10A
  8
ALPHA
  0
POLYLINE
  5
A727
  8
ALPHA
 66
     1
 10
0.0
 20
0.0
 30
0.0
  0
VERTEX
  5
B10B
  8
ALPHA
 10
58.354645
 20
53.192719
 30
0.0
  0
VERTEX
  5
B10C
  8
ALPHA
 10
58.358125
 20
53.193986
 30
0.0
  0
VERTEX
  5
B10D
  8
ALPHA
 10
58.344719
 20
53.190399
 30
0.0
  0
VERTEX
  5
B10E
  8
ALPHA
 10
58.283521
 20
53.176799
 30
0.0
  0
VERTEX
  5
B10F
  8
ALPHA
 10
58.183167
 20
53.158795
 30
0.0
  0
VERTEX
  5
B110
  8
ALPHA
 10
58.049212
 20
53.138643
 30
0.0
  0
VERTEX
  5
B111
  8
ALPHA
 10
57.885684
 20
53.117309
 30
0.0
  0
VERTEX
  5
B112
  8
ALPHA
 10
57.69501
 20
53.09518
 30
0.0
  0
VERTEX
  5
B113
  8
ALPHA
 10
57.479328
 20
53.072385
 30
0.0
  0
VERTEX
  5
B114
  8
ALPHA
 10
57.240841
 20
53.049031
 30
0.0
  0
VERTEX
  5
B115
  8
ALPHA
 10
56.982008
 20
53.025141
 30
0.0
  0
VERTEX
  5
B116
  8
ALPHA
 10
56.705644
 20
53.000713
 30
0.0
  0
SEQEND
  5
B117
  8
ALPHA
  0
POLYLINE
  5
A728
  8
ALPHA
 66
     1
 10
0.0
 20
0.0
 30
0.0
  0
VERTEX
  5
B118
  8
ALPHA
 10
58.35399
 20
51.892463
 30
0.0
  0
VERTEX
  5
B119
  8
ALPHA
 10
58.357706
 20
51.893838
 30
0.0
  0
VERTEX
  5
B11A
  8
ALPHA
 10
58.346835
 20
51.890959
 30
0.0
  0
VERTEX
  5
B11B
  8
ALPHA
 10
58.29219
 20
51.878541
 30
0.0
  0
VERTEX
  5
B11C
  8
ALPHA
 10
58.202783
 20
51.862063
 30
0.0
  0
VERTEX
  5
B11D
  8
ALPHA
 10
58.082395
 20
51.84335
 30
0.0
  0
VERTEX
  5
B11E
  8
ALPHA
 10
57.932831
 20
51.823197
 30
0.0
  0
VERTEX
  5
B11F
  8
ALPHA
 10
57.75536
 20
51.801928
 30
0.0
  0
VERTEX
  5
B120
  8
ALPHA
 10
57.551226
 20
51.779778
 30
0.0
  0
VERTEX
  5
B121
  8
ALPHA
 10
57.321633
 20
51.756768
 30
0.0
  0
VERTEX
  5
B122
  8
ALPHA
 10
57.067161
 20
51.732856
 30
0.0
  0
VERTEX
  5
B123
  8
ALPHA
 10
56.7891
 20
51.707998
 30
0.0
  0
VERTEX
  5
B124
  8
ALPHA
 10
56.491262
 20
51.68226
 30
0.0
  0
SEQEND
  5
B125
  8
ALPHA
  0
POLYLINE
  5
A729
  8
ALPHA
 66
     1
 10
0.0
 20
0.0
 30
0.0
  0
VERTEX
  5
B126
  8
ALPHA
 10
56.809295
 20
67.409488
 30
0.0
  0
VERTEX
  5
B127
  8
ALPHA
 10
57.113804
 20
67.436451
 30
0.0
  0
VERTEX
  5
B128
  8
ALPHA
 10
57.412018
 20
67.464252
 30
0.0
  0
VERTEX
  5
B129
  8
ALPHA
 10
57.698383
 20
67.492998
 30
0.0
  0
VERTEX
  5
B12A
  8
ALPHA
 10
57.96408
 20
67.522539
 30
0.0
  0
VERTEX
  5
B12B
  8
ALPHA
 10
58.198851
 20
67.552467
 30
0.0
  0
SEQEND
  5
B12C
  8
ALPHA
  0
POLYLINE
  5
A72A
  8
ALPHA
 66
     1
 10
0.0
 20
0.0
 30
0.0
  0
VERTEX
  5
B12D
  8
ALPHA
 10
58.355966
 20
55.793209
 30
0.0
  0
VERTEX
  5
B12E
  8
ALPHA
 10
58.358963
 20
55.794283
 30
0.0
  0
VERTEX
  5
B12F
  8
ALPHA
 10
58.34068
 20
55.789385
 30
0.0
  0
VERTEX
  5
B130
  8
ALPHA
 10
58.271651
 20
55.774453
 30
0.0
  0
VERTEX
  5
B131
  8
ALPHA
 10
58.161629
 20
55.755332
 30
0.0
  0
VERTEX
  5
B132
  8
ALPHA
 10
58.016653
 20
55.73417
 30
0.0
  0
VERTEX
  5
B133
  8
ALPHA
 10
57.839793
 20
55.711762
 30
0.0
  0
VERTEX
  5
B134
  8
ALPHA
 10
57.633264
 20
55.688451
 30
0.0
  0
VERTEX
  5
B135
  8
ALPHA
 10
57.399235
 20
55.664367
 30
0.0
  0
VERTEX
  5
B136
  8
ALPHA
 10
57.140069
 20
55.639574
 30
0.0
  0
VERTEX
  5
B137
  8
ALPHA
 10
56.858548
 20
55.614115
 30
0.0
  0
VERTEX
  5
B138
  8
ALPHA
 10
56.558444
 20
55.588012
 30
0.0
  0
SEQEND
  5
B139
  8
ALPHA
  0
POLYLINE
  5
A72B
  8
ALPHA
 66
     1
 10
0.0
 20
0.0
 30
0.0
  0
VERTEX
  5
B13A
  8
ALPHA
 10
55.853434
 20
64.728174
 30
0.0
  0
VERTEX
  5
B13B
  8
ALPHA
 10
56.540741
 20
64.786397
 30
0.0
  0
VERTEX
  5
B13C
  8
ALPHA
 10
56.882707
 20
64.815873
 30
0.0
  0
VERTEX
  5
B13D
  8
ALPHA
 10
57.210613
 20
64.845285
 30
0.0
  0
VERTEX
  5
B13E
  8
ALPHA
 10
57.516453
 20
64.87444
 30
0.0
  0
VERTEX
  5
B13F
  8
ALPHA
 10
57.794279
 20
64.90325
 30
0.0
  0
VERTEX
  5
B140
  8
ALPHA
 10
58.040092
 20
64.931738
 30
0.0
  0
VERTEX
  5
B141
  8
ALPHA
 10
58.252218
 20
64.960012
 30
0.0
  0
SEQEND
  5
B142
  8
ALPHA
  0
POLYLINE
  5
A72C
  8
ALPHA
 66
     1
 10
0.0
 20
0.0
 30
0.0
  0
VERTEX
  5
B143
  8
ALPHA
 10
56.845217
 20
66.112606
 30
0.0
  0
VERTEX
  5
B144
  8
ALPHA
 10
57.152981
 20
66.139998
 30
0.0
  0
VERTEX
  5
B145
  8
ALPHA
 10
57.453612
 20
66.168272
 30
0.0
  0
VERTEX
  5
B146
  8
ALPHA
 10
57.739021
 20
66.197297
 30
0.0
  0
VERTEX
  5
B147
  8
ALPHA
 10
57.998584
 20
66.226666
 30
0.0
  0
VERTEX
  5
B148
  8
ALPHA
 10
58.224761
 20
66.2561
 30
0.0
  0
SEQEND
  5
B149
  8
ALPHA
  0
POLYLINE
  5
A72D
  8
ALPHA
 66
     1
 10
0.0
 20
0.0
 30
0.0
  0
VERTEX
  5
B14A
  8
ALPHA
 10
58.355827
 20
57.093164
 30
0.0
  0
VERTEX
  5
B14B
  8
ALPHA
 10
58.358834
 20
57.094238
 30
0.0
  0
VERTEX
  5
B14C
  8
ALPHA
 10
58.342839
 20
57.08992
 30
0.0
  0
VERTEX
  5
B14D
  8
ALPHA
 10
58.281415
 20
57.076385
 30
0.0
  0
VERTEX
  5
B14E
  8
ALPHA
 10
58.1832
 20
57.058811
 30
0.0
  0
VERTEX
  5
B14F
  8
ALPHA
 10
58.052456
 20
57.03911
 30
0.0
  0
VERTEX
  5
B150
  8
ALPHA
 10
57.89214
 20
57.018119
 30
0.0
  0
VERTEX
  5
B151
  8
ALPHA
 10
57.705129
 20
56.996291
 30
0.0
  0
VERTEX
  5
B152
  8
ALPHA
 10
57.493895
 20
56.973861
 30
0.0
  0
VERTEX
  5
B153
  8
ALPHA
 10
57.260338
 20
56.950873
 30
0.0
  0
VERTEX
  5
B154
  8
ALPHA
 10
57.006543
 20
56.927348
 30
0.0
  0
VERTEX
  5
B155
  8
ALPHA
 10
56.734863
 20
56.903242
 30
0.0
  0
SEQEND
  5
B156
  8
ALPHA
  0
POLYLINE
  5
A72E
  8
ALPHA
 66
     1
 10
0.0
 20
0.0
 30
0.0
  0
VERTEX
  5
B157
  8
ALPHA
 10
58.354312
 20
58.392582
 30
0.0
  0
VERTEX
  5
B158
  8
ALPHA
 10
58.357911
 20
58.393914
 30
0.0
  0
VERTEX
  5
B159
  8
ALPHA
 10
58.346352
 20
58.39082
 30
0.0
  0
VERTEX
  5
B15A
  8
ALPHA
 10
58.291169
 20
58.378338
 30
0.0
  0
VERTEX
  5
B15B
  8
ALPHA
 10
58.2013
 20
58.361817
 30
0.0
  0
VERTEX
  5
B15C
  8
ALPHA
 10
58.0803
 20
58.343061
 30
0.0
  0
VERTEX
  5
B15D
  8
ALPHA
 10
57.929738
 20
58.322801
 30
0.0
  0
VERTEX
  5
B15E
  8
ALPHA
 10
57.750536
 20
58.301381
 30
0.0
  0
VERTEX
  5
B15F
  8
ALPHA
 10
57.543567
 20
58.278973
 30
0.0
  0
VERTEX
  5
B160
  8
ALPHA
 10
57.30899
 20
58.255533
 30
0.0
  0
VERTEX
  5
B161
  8
ALPHA
 10
57.046107
 20
58.230934
 30
0.0
  0
VERTEX
  5
B162
  8
ALPHA
 10
56.757464
 20
58.205217
 30
0.0
  0
VERTEX
  5
B163
  8
ALPHA
 10
56.448207
 20
58.178598
 30
0.0
  0
SEQEND
  5
B164
  8
ALPHA
  0
POLYLINE
  5
A72F
  8
ALPHA
 66
     1
 10
0.0
 20
0.0
 30
0.0
  0
VERTEX
  5
B165
  8
ALPHA
 10
59.22792
 20
69.747826
 30
0.0
  0
VERTEX
  5
B166
  8
ALPHA
 10
59.22444
 20
69.812537
 30
0.0
  0
VERTEX
  5
B167
  8
ALPHA
 10
59.147494
 20
70.054752
 30
0.0
  0
VERTEX
  5
B168
  8
ALPHA
 10
59.001271
 20
70.235199
 30
0.0
  0
VERTEX
  5
B169
  8
ALPHA
 10
58.839547
 20
70.343158
 30
0.0
  0
VERTEX
  5
B16A
  8
ALPHA
 10
58.68313
 20
70.409695
 30
0.0
  0
VERTEX
  5
B16B
  8
ALPHA
 10
58.512125
 20
70.461774
 30
0.0
  0
VERTEX
  5
B16C
  8
ALPHA
 10
58.309431
 20
70.509684
 30
0.0
  0
VERTEX
  5
B16D
  8
ALPHA
 10
58.071266
 20
70.556111
 30
0.0
  0
VERTEX
  5
B16E
  8
ALPHA
 10
57.795192
 20
70.602647
 30
0.0
  0
VERTEX
  5
B16F
  8
ALPHA
 10
57.481316
 20
70.650084
 30
0.0
  0
VERTEX
  5
B170
  8
ALPHA
 10
57.134311
 20
70.698596
 30
0.0
  0
VERTEX
  5
B171
  8
ALPHA
 10
56.761654
 20
70.748139
 30
0.0
  0
VERTEX
  5
B172
  8
ALPHA
 10
56.181479
 20
70.82342
 30
0.0
  0
SEQEND
  5
B173
  8
ALPHA
  0
POLYLINE
  5
A730
  8
ALPHA
 66
     1
 10
0.0
 20
0.0
 30
0.0
  0
VERTEX
  5
B174
  8
ALPHA
 10
56.760451
 20
63.50524
 30
0.0
  0
VERTEX
  5
B175
  8
ALPHA
 10
57.108916
 20
63.536006
 30
0.0
  0
VERTEX
  5
B176
  8
ALPHA
 10
57.431655
 20
63.566127
 30
0.0
  0
VERTEX
  5
B177
  8
ALPHA
 10
57.723799
 20
63.595668
 30
0.0
  0
VERTEX
  5
B178
  8
ALPHA
 10
57.98231
 20
63.624715
 30
0.0
  0
VERTEX
  5
B179
  8
ALPHA
 10
58.206166
 20
63.653483
 30
0.0
  0
SEQEND
  5
B17A
  8
ALPHA
  0
POLYLINE
  5
A731
  8
ALPHA
 66
     1
 10
0.0
 20
0.0
 30
0.0
  0
VERTEX
  5
B17B
  8
ALPHA
 10
56.777627
 20
62.206725
 30
0.0
  0
VERTEX
  5
B17C
  8
ALPHA
 10
57.081943
 20
62.23358
 30
0.0
  0
VERTEX
  5
B17D
  8
ALPHA
 10
57.380898
 20
62.261252
 30
0.0
  0
VERTEX
  5
B17E
  8
ALPHA
 10
57.669046
 20
62.289912
 30
0.0
  0
VERTEX
  5
B17F
  8
ALPHA
 10
57.938911
 20
62.319582
 30
0.0
  0
VERTEX
  5
B180
  8
ALPHA
 10
58.179429
 20
62.349811
 30
0.0
  0
SEQEND
  5
B181
  8
ALPHA
  0
POLYLINE
  5
A732
  8
ALPHA
 66
     1
 10
0.0
 20
0.0
 30
0.0
  0
VERTEX
  5
B182
  8
ALPHA
 10
58.355708
 20
60.993115
 30
0.0
  0
VERTEX
  5
B183
  8
ALPHA
 10
58.358824
 20
60.994233
 30
0.0
  0
VERTEX
  5
B184
  8
ALPHA
 10
58.34169
 20
60.989635
 30
0.0
  0
VERTEX
  5
B185
  8
ALPHA
 10
58.275303
 20
60.975176
 30
0.0
  0
VERTEX
  5
B186
  8
ALPHA
 10
58.16743
 20
60.956248
 30
0.0
  0
VERTEX
  5
B187
  8
ALPHA
 10
58.023205
 20
60.935065
 30
0.0
  0
VERTEX
  5
B188
  8
ALPHA
 10
57.845379
 20
60.912442
 30
0.0
  0
VERTEX
  5
B189
  8
ALPHA
 10
57.635627
 20
60.888701
 30
0.0
  0
VERTEX
  5
B18A
  8
ALPHA
 10
57.395572
 20
60.863994
 30
0.0
  0
VERTEX
  5
B18B
  8
ALPHA
 10
57.127189
 20
60.838385
 30
0.0
  0
VERTEX
  5
B18C
  8
ALPHA
 10
56.833164
 20
60.811873
 30
0.0
  0
VERTEX
  5
B18D
  8
ALPHA
 10
56.518289
 20
60.784567
 30
0.0
  0
SEQEND
  5
B18E
  8
ALPHA
  0
POLYLINE
  5
A733
  8
ALPHA
 66
     1
 10
0.0
 20
0.0
 30
0.0
  0
VERTEX
  5
B18F
  8
ALPHA
 10
58.350874
 20
59.691248
 30
0.0
  0
VERTEX
  5
B190
  8
ALPHA
 10
58.358179
 20
59.693998
 30
0.0
  0
VERTEX
  5
B191
  8
ALPHA
 10
58.345245
 20
59.690539
 30
0.0
  0
VERTEX
  5
B192
  8
ALPHA
 10
58.287839
 20
59.67767
 30
0.0
  0
VERTEX
  5
B193
  8
ALPHA
 10
58.195113
 20
59.660783
 30
0.0
  0
VERTEX
  5
B194
  8
ALPHA
 10
58.071051
 20
59.641727
 30
0.0
  0
VERTEX
  5
B195
  8
ALPHA
 10
57.917857
 20
59.621317
 30
0.0
  0
VERTEX
  5
B196
  8
ALPHA
 10
57.73727
 20
59.599897
 30
0.0
  0
VERTEX
  5
B197
  8
ALPHA
 10
57.531213
 20
59.577703
 30
0.0
  0
VERTEX
  5
B198
  8
ALPHA
 10
57.302276
 20
59.554887
 30
0.0
  0
VERTEX
  5
B199
  8
ALPHA
 10
57.053347
 20
59.531598
 30
0.0
  0
VERTEX
  5
B19A
  8
ALPHA
 10
56.787736
 20
59.507879
 30
0.0
  0
SEQEND
  5
B19B
  8
ALPHA
  0
POLYLINE
  5
A734
  8
ALPHA
 66
     1
 10
0.0
 20
0.0
 30
0.0
  0
VERTEX
  5
B19C
  8
ALPHA
 10
55.894523
 20
60.831682
 30
0.0
  0
VERTEX
  5
B19D
  8
ALPHA
 10
56.541374
 20
60.886445
 30
0.0
  0
VERTEX
  5
B19E
  8
ALPHA
 10
56.871149
 20
60.914869
 30
0.0
  0
VERTEX
  5
B19F
  8
ALPHA
 10
57.193919
 20
60.943744
 30
0.0
  0
VERTEX
  5
B1A0
  8
ALPHA
 10
57.499986
 20
60.972813
 30
0.0
  0
VERTEX
  5
B1A1
  8
ALPHA
 10
57.781012
 20
61.001817
 30
0.0
  0
VERTEX
  5
B1A2
  8
ALPHA
 10
58.030768
 20
61.030584
 30
0.0
  0
VERTEX
  5
B1A3
  8
ALPHA
 10
58.246396
 20
61.05918
 30
0.0
  0
SEQEND
  5
B1A4
  8
ALPHA
  0
POLYLINE
  5
A735
  8
ALPHA
 66
     1
 10
0.0
 20
0.0
 30
0.0
  0
VERTEX
  5
B1A5
  8
ALPHA
 10
56.747764
 20
59.604151
 30
0.0
  0
VERTEX
  5
B1A6
  8
ALPHA
 10
57.05962
 20
59.631565
 30
0.0
  0
VERTEX
  5
B1A7
  8
ALPHA
 10
57.366084
 20
59.659838
 30
0.0
  0
VERTEX
  5
B1A8
  8
ALPHA
 10
57.660324
 20
59.689014
 30
0.0
  0
VERTEX
  5
B1A9
  8
ALPHA
 10
57.931994
 20
59.71877
 30
0.0
  0
VERTEX
  5
B1AA
  8
ALPHA
 10
58.17249
 20
59.748848
 30
0.0
  0
SEQEND
  5
B1AB
  8
ALPHA
  0
POLYLINE
  5
A736
  8
ALPHA
 66
     1
 10
0.0
 20
0.0
 30
0.0
  0
VERTEX
  5
B1AC
  8
ALPHA
 10
58.356428
 20
63.593369
 30
0.0
  0
VERTEX
  5
B1AD
  8
ALPHA
 10
58.359264
 20
63.594379
 30
0.0
  0
VERTEX
  5
B1AE
  8
ALPHA
 10
58.340143
 20
63.589244
 30
0.0
  0
VERTEX
  5
B1AF
  8
ALPHA
 10
58.272757
 20
63.574678
 30
0.0
  0
VERTEX
  5
B1B0
  8
ALPHA
 10
58.1641
 20
63.555729
 30
0.0
  0
VERTEX
  5
B1B1
  8
ALPHA
 10
58.017501
 20
63.534287
 30
0.0
  0
VERTEX
  5
B1B2
  8
ALPHA
 10
57.835142
 20
63.511213
 30
0.0
  0
VERTEX
  5
B1B3
  8
ALPHA
 10
57.619546
 20
63.486979
 30
0.0
  0
VERTEX
  5
B1B4
  8
ALPHA
 10
57.373636
 20
63.461842
 30
0.0
  0
VERTEX
  5
B1B5
  8
ALPHA
 10
57.099528
 20
63.435824
 30
0.0
  0
VERTEX
  5
B1B6
  8
ALPHA
 10
56.799316
 20
63.408883
 30
0.0
  0
VERTEX
  5
B1B7
  8
ALPHA
 10
56.475793
 20
63.380932
 30
0.0
  0
VERTEX
  5
B1B8
  8
ALPHA
 10
55.775252
 20
63.321592
 30
0.0
  0
SEQEND
  5
B1B9
  8
ALPHA
  0
POLYLINE
  5
A737
  8
ALPHA
 66
     1
 10
0.0
 20
0.0
 30
0.0
  0
VERTEX
  5
B1BA
  8
ALPHA
 10
58.354419
 20
62.292619
 30
0.0
  0
VERTEX
  5
B1BB
  8
ALPHA
 10
58.357975
 20
62.29393
 30
0.0
  0
VERTEX
  5
B1BC
  8
ALPHA
 10
58.345213
 20
62.290535
 30
0.0
  0
VERTEX
  5
B1BD
  8
ALPHA
 10
58.284939
 20
62.277086
 30
0.0
  0
VERTEX
  5
B1BE
  8
ALPHA
 10
58.185703
 20
62.259211
 30
0.0
  0
VERTEX
  5
B1BF
  8
ALPHA
 10
58.052779
 20
62.239145
 30
0.0
  0
VERTEX
  5
B1C0
  8
ALPHA
 10
57.890067
 20
62.217854
 30
0.0
  0
VERTEX
  5
B1C1
  8
ALPHA
 10
57.699833
 20
62.195703
 30
0.0
  0
VERTEX
  5
B1C2
  8
ALPHA
 10
57.483958
 20
62.172844
 30
0.0
  0
VERTEX
  5
B1C3
  8
ALPHA
 10
57.244386
 20
62.149361
 30
0.0
  0
VERTEX
  5
B1C4
  8
ALPHA
 10
56.983329
 20
62.125256
 30
0.0
  0
VERTEX
  5
B1C5
  8
ALPHA
 10
56.703388
 20
62.100506
 30
0.0
  0
SEQEND
  5
B1C6
  8
ALPHA
  0
POLYLINE
  5
A738
  8
ALPHA
 66
     1
 10
0.0
 20
0.0
 30
0.0
  0
VERTEX
  5
B1C7
  8
ALPHA
 10
56.633639
 20
58.294334
 30
0.0
  0
VERTEX
  5
B1C8
  8
ALPHA
 10
57.021228
 20
58.328129
 30
0.0
  0
VERTEX
  5
B1C9
  8
ALPHA
 10
57.376322
 20
58.360828
 30
0.0
  0
VERTEX
  5
B1CA
  8
ALPHA
 10
57.693431
 20
58.392475
 30
0.0
  0
VERTEX
  5
B1CB
  8
ALPHA
 10
57.969742
 20
58.423219
 30
0.0
  0
VERTEX
  5
B1CC
  8
ALPHA
 10
58.204974
 20
58.453319
 30
0.0
  0
SEQEND
  5
B1CD
  8
ALPHA
  0
POLYLINE
  5
A739
  8
ALPHA
 66
     1
 10
0.0
 20
0.0
 30
0.0
  0
VERTEX
  5
B1CE
  8
ALPHA
 10
56.834797
 20
57.011695
 30
0.0
  0
VERTEX
  5
B1CF
  8
ALPHA
 10
57.145085
 20
57.039281
 30
0.0
  0
VERTEX
  5
B1D0
  8
ALPHA
 10
57.448434
 20
57.06777
 30
0.0
  0
VERTEX
  5
B1D1
  8
ALPHA
 10
57.735637
 20
57.096924
 30
0.0
  0
VERTEX
  5
B1D2
  8
ALPHA
 10
57.996135
 20
57.126379
 30
0.0
  0
VERTEX
  5
B1D3
  8
ALPHA
 10
58.222709
 20
57.155791
 30
0.0
  0
SEQEND
  5
B1D4
  8
ALPHA
  0
POLYLINE
  5
A73A
  8
ALPHA
 66
     1
 10
0.0
 20
0.0
 30
0.0
  0
VERTEX
  5
B1D5
  8
ALPHA
 10
58.354419
 20
64.892615
 30
0.0
  0
VERTEX
  5
B1D6
  8
ALPHA
 10
58.358523
 20
64.894119
 30
0.0
  0
VERTEX
  5
B1D7
  8
ALPHA
 10
58.344461
 20
64.890338
 30
0.0
  0
VERTEX
  5
B1D8
  8
ALPHA
 10
58.286604
 20
64.877404
 30
0.0
  0
VERTEX
  5
B1D9
  8
ALPHA
 10
58.193727
 20
64.860539
 30
0.0
  0
VERTEX
  5
B1DA
  8
ALPHA
 10
58.069354
 20
64.841483
 30
0.0
  0
VERTEX
  5
B1DB
  8
ALPHA
 10
57.915139
 20
64.820965
 30
0.0
  0
VERTEX
  5
B1DC
  8
ALPHA
 10
57.732146
 20
64.799309
 30
0.0
  0
VERTEX
  5
B1DD
  8
ALPHA
 10
57.521567
 20
64.776707
 30
0.0
  0
VERTEX
  5
B1DE
  8
ALPHA
 10
57.284766
 20
64.753203
 30
0.0
  0
VERTEX
  5
B1DF
  8
ALPHA
 10
57.023054
 20
64.72884
 30
0.0
  0
VERTEX
  5
B1E0
  8
ALPHA
 10
56.738644
 20
64.703574
 30
0.0
  0
SEQEND
  5
B1E1
  8
ALPHA
  0
POLYLINE
  5
A73B
  8
ALPHA
 66
     1
 10
0.0
 20
0.0
 30
0.0
  0
VERTEX
  5
B1E2
  8
ALPHA
 10
58.354419
 20
66.192635
 30
0.0
  0
VERTEX
  5
B1E3
  8
ALPHA
 10
58.357975
 20
66.193945
 30
0.0
  0
VERTEX
  5
B1E4
  8
ALPHA
 10
58.345031
 20
66.190486
 30
0.0
  0
VERTEX
  5
B1E5
  8
ALPHA
 10
58.283875
 20
66.176865
 30
0.0
  0
VERTEX
  5
B1E6
  8
ALPHA
 10
58.183232
 20
66.158819
 30
0.0
  0
VERTEX
  5
B1E7
  8
ALPHA
 10
58.049008
 20
66.138623
 30
0.0
  0
VERTEX
  5
B1E8
  8
ALPHA
 10
57.885072
 20
66.117246
 30
0.0
  0
VERTEX
  5
B1E9
  8
ALPHA
 10
57.693828
 20
66.095053
 30
0.0
  0
VERTEX
  5
B1EA
  8
ALPHA
 10
57.477406
 20
66.072194
 30
0.0
  0
VERTEX
  5
B1EB
  8
ALPHA
 10
57.238027
 20
66.048754
 30
0.0
  0
VERTEX
  5
B1EC
  8
ALPHA
 10
56.978184
 20
66.024778
 30
0.0
  0
VERTEX
  5
B1ED
  8
ALPHA
 10
56.700713
 20
66.000285
 30
0.0
  0
SEQEND
  5
B1EE
  8
ALPHA
  0
POLYLINE
  5
A73C
  8
ALPHA
 66
     1
 10
0.0
 20
0.0
 30
0.0
  0
VERTEX
  5
B1EF
  8
ALPHA
 10
56.572237
 20
55.689074
 30
0.0
  0
VERTEX
  5
B1F0
  8
ALPHA
 10
56.86321
 20
55.714168
 30
0.0
  0
VERTEX
  5
B1F1
  8
ALPHA
 10
57.152369
 20
55.739949
 30
0.0
  0
VERTEX
  5
B1F2
  8
ALPHA
 10
57.435457
 20
55.766504
 30
0.0
  0
VERTEX
  5
B1F3
  8
ALPHA
 10
57.707793
 20
55.793983
 30
0.0
  0
VERTEX
  5
B1F4
  8
ALPHA
 10
57.964349
 20
55.822578
 30
0.0
  0
VERTEX
  5
B1F5
  8
ALPHA
 10
58.197487
 20
55.85227
 30
0.0
  0
SEQEND
  5
B1F6
  8
ALPHA
  0
POLYLINE
  5
A73D
  8
ALPHA
 66
     1
 10
0.0
 20
0.0
 30
0.0
  0
VERTEX
  5
B1F7
  8
ALPHA
 10
56.811497
 20
54.40968
 30
0.0
  0
VERTEX
  5
B1F8
  8
ALPHA
 10
57.132259
 20
54.438125
 30
0.0
  0
VERTEX
  5
B1F9
  8
ALPHA
 10
57.442171
 20
54.467151
 30
0.0
  0
VERTEX
  5
B1FA
  8
ALPHA
 10
57.731308
 20
54.496477
 30
0.0
  0
VERTEX
  5
B1FB
  8
ALPHA
 10
57.991613
 20
54.525824
 30
0.0
  0
VERTEX
  5
B1FC
  8
ALPHA
 10
58.217951
 20
54.555129
 30
0.0
  0
SEQEND
  5
B1FD
  8
ALPHA
  0
POLYLINE
  5
A73E
  8
ALPHA
 66
     1
 10
0.0
 20
0.0
 30
0.0
  0
VERTEX
  5
B1FE
  8
ALPHA
 10
58.359382
 20
54.494436
 30
0.0
  0
VERTEX
  5
B1FF
  8
ALPHA
 10
58.32331
 20
54.48524
 30
0.0
  0
VERTEX
  5
B200
  8
ALPHA
 10
58.246783
 20
54.469793
 30
0.0
  0
VERTEX
  5
B201
  8
ALPHA
 10
58.13617
 20
54.45136
 30
0.0
  0
VERTEX
  5
B202
  8
ALPHA
 10
57.995158
 20
54.431293
 30
0.0
  0
VERTEX
  5
B203
  8
ALPHA
 10
57.826602
 20
54.410195
 30
0.0
  0
VERTEX
  5
B204
  8
ALPHA
 10
57.633339
 20
54.388453
 30
0.0
  0
VERTEX
  5
B205
  8
ALPHA
 10
57.418302
 20
54.36626
 30
0.0
  0
VERTEX
  5
B206
  8
ALPHA
 10
57.18351
 20
54.343615
 30
0.0
  0
VERTEX
  5
B207
  8
ALPHA
 10
56.930746
 20
54.32052
 30
0.0
  0
VERTEX
  5
B208
  8
ALPHA
 10
56.661945
 20
54.29693
 30
0.0
  0
SEQEND
  5
B209
  8
ALPHA
  0
POLYLINE
  5
A73F
  8
ALPHA
 66
     1
 10
0.0
 20
0.0
 30
0.0
  0
VERTEX
  5
B20A
  8
ALPHA
 10
58.354269
 20
67.492569
 30
0.0
  0
VERTEX
  5
B20B
  8
ALPHA
 10
58.357814
 20
67.493879
 30
0.0
  0
VERTEX
  5
B20C
  8
ALPHA
 10
58.346223
 20
67.490785
 30
0.0
  0
VERTEX
  5
B20D
  8
ALPHA
 10
58.289816
 20
67.478067
 30
0.0
  0
VERTEX
  5
B20E
  8
ALPHA
 10
58.197949
 20
67.461244
 30
0.0
  0
VERTEX
  5
B20F
  8
ALPHA
 10
58.07509
 20
67.442317
 30
0.0
  0
VERTEX
  5
B210
  8
ALPHA
 10
57.924162
 20
67.4221
 30
0.0
  0
VERTEX
  5
B211
  8
ALPHA
 10
57.747808
 20
67.401088
 30
0.0
  0
VERTEX
  5
B212
  8
ALPHA
 10
57.548873
 20
67.379518
 30
0.0
  0
VERTEX
  5
B213
  8
ALPHA
 10
57.329819
 20
67.357561
 30
0.0
  0
VERTEX
  5
B214
  8
ALPHA
 10
57.09232
 20
67.335174
 30
0.0
  0
VERTEX
  5
B215
  8
ALPHA
 10
56.838063
 20
67.312293
 30
0.0
  0
VERTEX
  5
B216
  8
ALPHA
 10
56.568917
 20
67.288918
 30
0.0
  0
SEQEND
  5
B217
  8
ALPHA
  0
POLYLINE
  5
A740
  8
ALPHA
 66
     1
 10
0.0
 20
0.0
 30
0.0
  0
VERTEX
  5
B218
  8
ALPHA
 10
58.353925
 20
68.792438
 30
0.0
  0
VERTEX
  5
B219
  8
ALPHA
 10
58.357663
 20
68.793834
 30
0.0
  0
VERTEX
  5
B21A
  8
ALPHA
 10
58.346943
 20
68.790977
 30
0.0
  0
VERTEX
  5
B21B
  8
ALPHA
 10
58.292437
 20
68.778602
 30
0.0
  0
VERTEX
  5
B21C
  8
ALPHA
 10
58.20318
 20
68.762123
 30
0.0
  0
VERTEX
  5
B21D
  8
ALPHA
 10
58.082964
 20
68.743432
 30
0.0
  0
VERTEX
  5
B21E
  8
ALPHA
 10
57.933616
 20
68.723301
 30
0.0
  0
VERTEX
  5
B21F
  8
ALPHA
 10
57.756412
 20
68.702053
 30
0.0
  0
VERTEX
  5
B220
  8
ALPHA
 10
57.552633
 20
68.679924
 30
0.0
  0
VERTEX
  5
B221
  8
ALPHA
 10
57.323513
 20
68.656957
 30
0.0
  0
VERTEX
  5
B222
  8
ALPHA
 10
57.06974
 20
68.633088
 30
0.0
  0
VERTEX
  5
B223
  8
ALPHA
 10
56.79258
 20
68.608295
 30
0.0
  0
VERTEX
  5
B224
  8
ALPHA
 10
56.495677
 20
68.582643
 30
0.0
  0
SEQEND
  5
B225
  8
ALPHA
  0
POLYLINE
  5
A741
  8
ALPHA
 66
     1
 10
0.0
 20
0.0
 30
0.0
  0
VERTEX
  5
B226
  8
ALPHA
 10
56.641169
 20
51.794967
 30
0.0
  0
VERTEX
  5
B227
  8
ALPHA
 10
56.94252
 20
51.821135
 30
0.0
  0
VERTEX
  5
B228
  8
ALPHA
 10
57.237124
 20
51.847733
 30
0.0
  0
VERTEX
  5
B229
  8
ALPHA
 10
57.519311
 20
51.874717
 30
0.0
  0
VERTEX
  5
B22A
  8
ALPHA
 10
57.785395
 20
51.902281
 30
0.0
  0
VERTEX
  5
B22B
  8
ALPHA
 10
58.030123
 20
51.930512
 30
0.0
  0
VERTEX
  5
B22C
  8
ALPHA
 10
58.245461
 20
51.959043
 30
0.0
  0
SEQEND
  5
B22D
  8
ALPHA
  0
POLYLINE
  5
A742
  8
ALPHA
 66
     1
 10
0.0
 20
0.0
 30
0.0
  0
VERTEX
  5
B22E
  8
ALPHA
 10
56.863103
 20
53.114172
 30
0.0
  0
VERTEX
  5
B22F
  8
ALPHA
 10
57.15427
 20
53.140125
 30
0.0
  0
VERTEX
  5
B230
  8
ALPHA
 10
57.441129
 20
53.167045
 30
0.0
  0
VERTEX
  5
B231
  8
ALPHA
 10
57.718954
 20
53.195168
 30
0.0
  0
VERTEX
  5
B232
  8
ALPHA
 10
57.981526
 20
53.224623
 30
0.0
  0
VERTEX
  5
B233
  8
ALPHA
 10
58.217263
 20
53.255024
 30
0.0
  0
SEQEND
  5
B234
  8
ALPHA
  0
POLYLINE
  5
A743
  8
ALPHA
 66
     1
 10
0.0
 20
0.0
 30
0.0
  0
VERTEX
  5
B235
  8
ALPHA
 10
58.301578
 20
70.217153
 30
0.0
  0
VERTEX
  5
B236
  8
ALPHA
 10
58.300096
 20
70.216594
 30
0.0
  0
VERTEX
  5
B237
  8
ALPHA
 10
58.251928
 20
70.201748
 30
0.0
  0
VERTEX
  5
B238
  8
ALPHA
 10
58.149566
 20
70.176977
 30
0.0
  0
VERTEX
  5
B239
  8
ALPHA
 10
58.001324
 20
70.147694
 30
0.0
  0
VERTEX
  5
B23A
  8
ALPHA
 10
57.813443
 20
70.11624
 30
0.0
  0
VERTEX
  5
B23B
  8
ALPHA
 10
57.589189
 20
70.083391
 30
0.0
  0
VERTEX
  5
B23C
  8
ALPHA
 10
57.330624
 20
70.04936
 30
0.0
  0
VERTEX
  5
B23D
  8
ALPHA
 10
57.039747
 20
70.014254
 30
0.0
  0
VERTEX
  5
B23E
  8
ALPHA
 10
56.719093
 20
69.978031
 30
0.0
  0
VERTEX
  5
B23F
  8
ALPHA
 10
56.374484
 20
69.940863
 30
0.0
  0
SEQEND
  5
B240
  8
ALPHA
  0
LINE
  5
A744
  8
ALPHA
 10
56.971889
 20
49.223867
 30
0.0
 11
58.427917
 21
49.223867
 31
0.0
  0
POLYLINE
  5
A745
  8
ALPHA
 66
     1
 10
0.0
 20
0.0
 30
0.0
  0
VERTEX
  5
B241
  8
ALPHA
 10
56.751202
 20
50.504444
 30
0.0
  0
VERTEX
  5
B242
  8
ALPHA
 10
57.062274
 20
50.531793
 30
0.0
  0
VERTEX
  5
B243
  8
ALPHA
 10
57.366976
 20
50.559916
 30
0.0
  0
VERTEX
  5
B244
  8
ALPHA
 10
57.659518
 20
50.58892
 30
0.0
  0
VERTEX
  5
B245
  8
ALPHA
 10
57.930296
 20
50.618569
 30
0.0
  0
VERTEX
  5
B246
  8
ALPHA
 10
58.170406
 20
50.648582
 30
0.0
  0
SEQEND
  5
B247
  8
ALPHA
  0
POLYLINE
  5
A746
  8
ALPHA
 66
     1
 10
0.0
 20
0.0
 30
0.0
  0
VERTEX
  5
B248
  8
ALPHA
 10
57.08958
 20
49.234266
 30
0.0
  0
VERTEX
  5
B249
  8
ALPHA
 10
57.398966
 20
49.26299
 30
0.0
  0
VERTEX
  5
B24A
  8
ALPHA
 10
57.691744
 20
49.292295
 30
0.0
  0
VERTEX
  5
B24B
  8
ALPHA
 10
57.958527
 20
49.321879
 30
0.0
  0
VERTEX
  5
B24C
  8
ALPHA
 10
58.192674
 20
49.351613
 30
0.0
  0
VERTEX
  5
B24D
  8
ALPHA
 10
58.391619
 20
49.381692
 30
0.0
  0
VERTEX
  5
B24E
  8
ALPHA
 10
58.558242
 20
49.413209
 30
0.0
  0
VERTEX
  5
B24F
  8
ALPHA
 10
58.704249
 20
49.450377
 30
0.0
  0
VERTEX
  5
B250
  8
ALPHA
 10
58.847905
 20
49.50499
 30
0.0
  0
VERTEX
  5
B251
  8
ALPHA
 10
59.006513
 20
49.606289
 30
0.0
  0
VERTEX
  5
B252
  8
ALPHA
 10
59.146956
 20
49.776682
 30
0.0
  0
VERTEX
  5
B253
  8
ALPHA
 10
59.222678
 20
50.002246
 30
0.0
  0
VERTEX
  5
B254
  8
ALPHA
 10
59.22792
 20
50.080772
 30
0.0
  0
SEQEND
  5
B255
  8
ALPHA
  0
LINE
  5
A747
  8
ALPHA
 10
59.118823
 20
48.30266
 30
0.0
 11
53.237013
 21
48.30266
 31
0.0
  0
LINE
  5
A748
  8
ALPHA
 10
59.274026
 20
48.222717
 30
0.0
 11
53.08181
 21
48.222717
 31
0.0
  0
LINE
  5
A749
  8
ALPHA
 10
60.92322
 20
40.624725
 30
0.0
 11
51.432616
 21
40.624725
 31
0.0
  0
LINE
  5
A74A
  8
ALPHA
 10
49.777921
 20
39.123869
 30
0.0
 11
62.577914
 21
39.123869
 31
0.0
  0
LINE
  5
A74B
  8
ALPHA
 10
48.677921
 20
38.023869
 30
0.0
 11
63.677914
 21
38.023869
 31
0.0
  0
LINE
  5
A74C
  8
ALPHA
 10
63.677914
 20
35.823869
 30
0.0
 11
48.677921
 21
35.823869
 31
0.0
  0
LINE
  5
A74D
  8
ALPHA
 10
63.477916
 20
35.623871
 30
0.0
 11
48.877919
 21
35.623871
 31
0.0
  0
LINE
  5
A74E
  8
ALPHA
 10
62.927382
 20
35.373875
 30
0.0
 11
56.472349
 21
35.373875
 31
0.0
  0
LINE
  5
A74F
  8
ALPHA
 10
62.927382
 20
34.673875
 30
0.0
 11
56.472349
 21
34.673875
 31
0.0
  0
LINE
  5
A750
  8
ALPHA
 10
48.877918
 20
34.423875
 30
0.0
 11
63.477918
 21
34.423875
 31
0.0
  0
LINE
  5
A751
  8
ALPHA
 10
48.677921
 20
34.223885
 30
0.0
 11
63.677914
 21
34.223885
 31
0.0
  0
LINE
  5
A752
  8
ALPHA
 10
63.677914
 20
33.923877
 30
0.0
 11
48.677921
 21
33.923877
 31
0.0
  0
LINE
  5
A753
  8
ALPHA
 10
48.677921
 20
33.723879
 30
0.0
 11
63.677914
 21
33.723879
 31
0.0
  0
LINE
  5
A754
  8
ALPHA
 10
48.177915
 20
33.223873
 30
0.0
 11
64.17792
 21
33.223873
 31
0.0
  0
LINE
  5
A755
  8
ALPHA
 10
48.177915
 20
32.223883
 30
0.0
 11
64.17792
 21
32.223883
 31
0.0
  0
LINE
  5
A756
  8
ALPHA
 10
62.877847
 20
30.073877
 30
0.0
 11
49.477989
 21
30.073877
 31
0.0
  0
LINE
  5
A757
  8
ALPHA
 10
62.52792
 20
28.773879
 30
0.0
 11
49.827915
 21
28.773879
 31
0.0
  0
LINE
  5
A758
  8
ALPHA
 10
62.52792
 20
27.623885
 30
0.0
 11
49.827915
 21
27.623885
 31
0.0
  0
LINE
  5
A759
  8
ALPHA
 10
62.177918
 20
27.523875
 30
0.0
 11
50.177918
 21
27.523875
 31
0.0
  0
LINE
  5
A75A
  8
ALPHA
 10
62.177918
 20
26.523875
 30
0.0
 11
50.177918
 21
26.523875
 31
0.0
  0
LINE
  5
A75B
  8
ALPHA
 10
62.52792
 20
26.423875
 30
0.0
 11
49.827915
 21
26.423875
 31
0.0
  0
LINE
  5
A75C
  8
ALPHA
 10
62.52792
 20
25.623872
 30
0.0
 11
49.827915
 21
25.623872
 31
0.0
  0
LINE
  5
A75D
  8
ALPHA
 10
62.227923
 20
24.623871
 30
0.0
 11
50.127923
 21
24.623871
 31
0.0
  0
LINE
  5
A75E
  8
ALPHA
 10
57.927922
 20
24.473878
 30
0.0
 11
54.427913
 21
24.473878
 31
0.0
  0
ARC
  5
A75F
  8
ALPHA
 10
53.177918
 20
44.223875
 30
0.0
 40
4.0
 50
91.376722
 51
244.130268
  0
ARC
  5
A760
  8
ALPHA
 10
49.177918
 20
35.023875
 30
0.0
 40
0.6
 50
270.0
 51
323.964466
  0
ARC
  5
A761
  8
ALPHA
 10
49.177918
 20
35.023875
 30
0.0
 40
0.6
 50
36.035534
 51
90.0
  0
ARC
  5
A762
  8
ALPHA
 10
49.777918
 20
38.023875
 30
0.0
 40
1.1
 50
90.0
 51
180.0
  0
ARC
  5
A763
  8
ALPHA
 10
49.427918
 20
35.023875
 30
0.0
 40
0.35
 50
90.0
 51
270.0
  0
LINE
  5
A764
  8
ALPHA
 10
48.677921
 20
35.823869
 30
0.0
 11
48.677921
 21
38.023869
 31
0.0
  0
ARC
  5
A765
  8
ALPHA
 10
48.877918
 20
33.923875
 30
0.0
 40
0.2
 50
180.0
 51
270.0
  0
ARC
  5
A766
  8
ALPHA
 10
48.877918
 20
34.223875
 30
0.0
 40
0.2
 50
90.0
 51
180.0
  0
ARC
  5
A767
  8
ALPHA
 10
48.877918
 20
35.823875
 30
0.0
 40
0.2
 50
180.0
 51
270.0
  0
LINE
  5
A768
  8
ALPHA
 10
48.177915
 20
33.223873
 30
0.0
 11
48.677921
 21
33.723879
 31
0.0
  0
LINE
  5
A769
  8
ALPHA
 10
48.677921
 20
33.923877
 30
0.0
 11
48.677921
 21
34.223885
 31
0.0
  0
LINE
  5
A76A
  8
ALPHA
 10
48.177915
 20
32.223883
 30
0.0
 11
48.177915
 21
33.223873
 31
0.0
  0
LINE
  5
A76B
  8
ALPHA
 10
57.575901
 20
32.223883
 30
0.0
 11
57.575901
 21
30.073877
 31
0.0
  0
LINE
  5
A76C
  8
ALPHA
 10
57.408742
 20
30.073877
 30
0.0
 11
57.408742
 21
32.223883
 31
0.0
  0
LINE
  5
A76D
  8
ALPHA
 10
57.246889
 20
30.073877
 30
0.0
 11
57.246889
 21
32.223883
 31
0.0
  0
LINE
  5
A76E
  8
ALPHA
 10
57.040542
 20
30.073877
 30
0.0
 11
57.040542
 21
32.223883
 31
0.0
  0
LINE
  5
A76F
  8
ALPHA
 10
56.848547
 20
30.073877
 30
0.0
 11
56.848547
 21
32.223883
 31
0.0
  0
LINE
  5
A770
  8
ALPHA
 10
56.549871
 20
30.073877
 30
0.0
 11
56.549871
 21
32.223883
 31
0.0
  0
LINE
  5
A771
  8
ALPHA
 10
56.3753
 20
30.073877
 30
0.0
 11
56.3753
 21
32.223883
 31
0.0
  0
LINE
  5
A772
  8
ALPHA
 10
55.980536
 20
32.223883
 30
0.0
 11
55.980536
 21
30.073877
 31
0.0
  0
LINE
  5
A773
  8
ALPHA
 10
55.805964
 20
32.223883
 30
0.0
 11
55.805964
 21
30.073877
 31
0.0
  0
LINE
  5
A774
  8
ALPHA
 10
55.507288
 20
30.073877
 30
0.0
 11
55.507288
 21
32.223883
 31
0.0
  0
LINE
  5
A775
  8
ALPHA
 10
55.315293
 20
30.073877
 30
0.0
 11
55.315293
 21
32.223883
 31
0.0
  0
LINE
  5
A776
  8
ALPHA
 10
55.108947
 20
30.073877
 30
0.0
 11
55.108947
 21
32.223883
 31
0.0
  0
LINE
  5
A777
  8
ALPHA
 10
54.947094
 20
30.073877
 30
0.0
 11
54.947094
 21
32.223883
 31
0.0
  0
LINE
  5
A778
  8
ALPHA
 10
54.779935
 20
30.073877
 30
0.0
 11
54.779935
 21
32.223883
 31
0.0
  0
LINE
  5
A779
  8
ALPHA
 10
54.635248
 20
30.073877
 30
0.0
 11
54.635248
 21
32.223883
 31
0.0
  0
LINE
  5
A77A
  8
ALPHA
 10
54.253922
 20
32.223883
 30
0.0
 11
54.253922
 21
30.073877
 31
0.0
  0
LINE
  5
A77B
  8
ALPHA
 10
54.061369
 20
32.223883
 30
0.0
 11
54.061369
 21
30.073877
 31
0.0
  0
LINE
  5
A77C
  8
ALPHA
 10
53.651533
 20
30.073877
 30
0.0
 11
53.651533
 21
32.223883
 31
0.0
  0
LINE
  5
A77D
  8
ALPHA
 10
53.442479
 20
30.073877
 30
0.0
 11
53.442479
 21
32.223883
 31
0.0
  0
LINE
  5
A77E
  8
ALPHA
 10
53.250194
 20
30.073877
 30
0.0
 11
53.250194
 21
32.223883
 31
0.0
  0
LINE
  5
A77F
  8
ALPHA
 10
53.129516
 20
30.073877
 30
0.0
 11
53.129516
 21
32.223883
 31
0.0
  0
LINE
  5
A780
  8
ALPHA
 10
53.105271
 20
30.073877
 30
0.0
 11
53.105271
 21
32.223883
 31
0.0
  0
LINE
  5
A781
  8
ALPHA
 10
53.000309
 20
30.073877
 30
0.0
 11
53.000309
 21
32.223883
 31
0.0
  0
LINE
  5
A782
  8
ALPHA
 10
49.477913
 20
32.223883
 30
0.0
 11
49.477913
 21
30.073877
 31
0.0
  0
LINE
  5
A783
  8
ALPHA
 10
49.827915
 20
25.623872
 30
0.0
 11
50.127923
 21
24.623871
 31
0.0
  0
ARC
  5
A784
  8
ALPHA
 10
50.177918
 20
27.023875
 30
0.0
 40
0.5
 50
90.0
 51
270.0
  0
LINE
  5
A785
  8
ALPHA
 10
50.677923
 20
30.073877
 30
0.0
 11
50.677923
 21
28.773879
 31
0.0
  0
LINE
  5
A786
  8
ALPHA
 10
50.577918
 20
26.523875
 30
0.0
 11
50.577918
 21
26.423875
 31
0.0
  0
LINE
  5
A787
  8
ALPHA
 10
50.577918
 20
27.623875
 30
0.0
 11
50.577918
 21
27.523875
 31
0.0
  0
LINE
  5
A788
  8
ALPHA
 10
49.827915
 20
26.423875
 30
0.0
 11
49.827915
 21
25.623872
 31
0.0
  0
LINE
  5
A789
  8
ALPHA
 10
49.827915
 20
28.773879
 30
0.0
 11
49.827915
 21
27.623885
 31
0.0
  0
LINE
  5
A78A
  8
ALPHA
 10
54.427918
 20
24.473875
 30
0.0
 11
54.427918
 21
24.623875
 31
0.0
  0
LINE
  5
A78B
  8
ALPHA
 10
55.883487
 20
35.373875
 30
0.0
 11
49.428455
 21
35.373875
 31
0.0
  0
LINE
  5
A78C
  8
ALPHA
 10
55.883487
 20
34.673875
 30
0.0
 11
49.428455
 21
34.673875
 31
0.0
  0
ARC
  5
A78D
  8
ALPHA
 10
51.087911
 20
39.913882
 30
0.0
 40
0.790007
 50
270.0
 51
64.130268
  0
POLYLINE
  5
A78E
  8
ALPHA
 66
     1
 10
0.0
 20
0.0
 30
0.0
  0
VERTEX
  5
B256
  8
ALPHA
 10
56.472345
 20
34.673897
 30
0.0
  0
VERTEX
  5
B257
  8
ALPHA
 10
56.474193
 20
34.676432
 30
0.0
  0
VERTEX
  5
B258
  8
ALPHA
 10
56.477759
 20
34.696627
 30
0.0
  0
VERTEX
  5
B259
  8
ALPHA
 10
56.481025
 20
34.735836
 30
0.0
  0
VERTEX
  5
B25A
  8
ALPHA
 10
56.483775
 20
34.791781
 30
0.0
  0
VERTEX
  5
B25B
  8
ALPHA
 10
56.485869
 20
34.861219
 30
0.0
  0
VERTEX
  5
B25C
  8
ALPHA
 10
56.487169
 20
34.94011
 30
0.0
  0
VERTEX
  5
B25D
  8
ALPHA
 10
56.48762
 20
35.023877
 30
0.0
  0
SEQEND
  5
B25E
  8
ALPHA
  0
POLYLINE
  5
A78F
  8
ALPHA
 66
     1
 10
0.0
 20
0.0
 30
0.0
  0
VERTEX
  5
B25F
  8
ALPHA
 10
56.472345
 20
35.373858
 30
0.0
  0
VERTEX
  5
B260
  8
ALPHA
 10
56.470508
 20
35.371322
 30
0.0
  0
VERTEX
  5
B261
  8
ALPHA
 10
56.466931
 20
35.351127
 30
0.0
  0
VERTEX
  5
B262
  8
ALPHA
 10
56.463676
 20
35.311918
 30
0.0
  0
VERTEX
  5
B263
  8
ALPHA
 10
56.460926
 20
35.255973
 30
0.0
  0
VERTEX
  5
B264
  8
ALPHA
 10
56.458831
 20
35.186535
 30
0.0
  0
VERTEX
  5
B265
  8
ALPHA
 10
56.457521
 20
35.107645
 30
0.0
  0
VERTEX
  5
B266
  8
ALPHA
 10
56.45708
 20
35.023877
 30
0.0
  0
SEQEND
  5
B267
  8
ALPHA
  0
POLYLINE
  5
A790
  8
ALPHA
 66
     1
 10
0.0
 20
0.0
 30
0.0
  0
VERTEX
  5
B268
  8
ALPHA
 10
55.868215
 20
35.023877
 30
0.0
  0
VERTEX
  5
B269
  8
ALPHA
 10
55.868666
 20
35.107645
 30
0.0
  0
VERTEX
  5
B26A
  8
ALPHA
 10
55.869966
 20
35.186535
 30
0.0
  0
VERTEX
  5
B26B
  8
ALPHA
 10
55.872061
 20
35.255973
 30
0.0
  0
VERTEX
  5
B26C
  8
ALPHA
 10
55.874811
 20
35.311918
 30
0.0
  0
VERTEX
  5
B26D
  8
ALPHA
 10
55.878077
 20
35.351127
 30
0.0
  0
VERTEX
  5
B26E
  8
ALPHA
 10
55.881643
 20
35.371322
 30
0.0
  0
VERTEX
  5
B26F
  8
ALPHA
 10
55.883491
 20
35.373858
 30
0.0
  0
SEQEND
  5
B270
  8
ALPHA
  0
POLYLINE
  5
A791
  8
ALPHA
 66
     1
 10
0.0
 20
0.0
 30
0.0
  0
VERTEX
  5
B271
  8
ALPHA
 10
55.898755
 20
35.023877
 30
0.0
  0
VERTEX
  5
B272
  8
ALPHA
 10
55.898315
 20
34.94011
 30
0.0
  0
VERTEX
  5
B273
  8
ALPHA
 10
55.897004
 20
34.861219
 30
0.0
  0
VERTEX
  5
B274
  8
ALPHA
 10
55.89491
 20
34.791781
 30
0.0
  0
VERTEX
  5
B275
  8
ALPHA
 10
55.89216
 20
34.735836
 30
0.0
  0
VERTEX
  5
B276
  8
ALPHA
 10
55.888905
 20
34.696627
 30
0.0
  0
VERTEX
  5
B277
  8
ALPHA
 10
55.885328
 20
34.676432
 30
0.0
  0
VERTEX
  5
B278
  8
ALPHA
 10
55.883491
 20
34.673897
 30
0.0
  0
SEQEND
  5
B279
  8
ALPHA
  0
POLYLINE
  5
A792
  8
ALPHA
 66
     1
 10
0.0
 20
0.0
 30
0.0
  0
VERTEX
  5
B27A
  8
ALPHA
 10
56.45708
 20
35.023877
 30
0.0
  0
VERTEX
  5
B27B
  8
ALPHA
 10
56.457521
 20
34.94011
 30
0.0
  0
VERTEX
  5
B27C
  8
ALPHA
 10
56.458831
 20
34.861219
 30
0.0
  0
VERTEX
  5
B27D
  8
ALPHA
 10
56.460926
 20
34.791781
 30
0.0
  0
VERTEX
  5
B27E
  8
ALPHA
 10
56.463676
 20
34.735836
 30
0.0
  0
VERTEX
  5
B27F
  8
ALPHA
 10
56.466931
 20
34.696627
 30
0.0
  0
VERTEX
  5
B280
  8
ALPHA
 10
56.470508
 20
34.676432
 30
0.0
  0
VERTEX
  5
B281
  8
ALPHA
 10
56.472345
 20
34.673897
 30
0.0
  0
SEQEND
  5
B282
  8
ALPHA
  0
POLYLINE
  5
A793
  8
ALPHA
 66
     1
 10
0.0
 20
0.0
 30
0.0
  0
VERTEX
  5
B283
  8
ALPHA
 10
56.48762
 20
35.023877
 30
0.0
  0
VERTEX
  5
B284
  8
ALPHA
 10
56.487169
 20
35.107645
 30
0.0
  0
VERTEX
  5
B285
  8
ALPHA
 10
56.485869
 20
35.186535
 30
0.0
  0
VERTEX
  5
B286
  8
ALPHA
 10
56.483775
 20
35.255973
 30
0.0
  0
VERTEX
  5
B287
  8
ALPHA
 10
56.481025
 20
35.311918
 30
0.0
  0
VERTEX
  5
B288
  8
ALPHA
 10
56.477759
 20
35.351127
 30
0.0
  0
VERTEX
  5
B289
  8
ALPHA
 10
56.474193
 20
35.371322
 30
0.0
  0
VERTEX
  5
B28A
  8
ALPHA
 10
56.472345
 20
35.373858
 30
0.0
  0
SEQEND
  5
B28B
  8
ALPHA
  0
POLYLINE
  5
A794
  8
ALPHA
 66
     1
 10
0.0
 20
0.0
 30
0.0
  0
VERTEX
  5
B28C
  8
ALPHA
 10
55.883491
 20
35.373858
 30
0.0
  0
VERTEX
  5
B28D
  8
ALPHA
 10
55.885328
 20
35.371322
 30
0.0
  0
VERTEX
  5
B28E
  8
ALPHA
 10
55.888905
 20
35.351127
 30
0.0
  0
VERTEX
  5
B28F
  8
ALPHA
 10
55.89216
 20
35.311918
 30
0.0
  0
VERTEX
  5
B290
  8
ALPHA
 10
55.89491
 20
35.255973
 30
0.0
  0
VERTEX
  5
B291
  8
ALPHA
 10
55.897004
 20
35.186535
 30
0.0
  0
VERTEX
  5
B292
  8
ALPHA
 10
55.898315
 20
35.107645
 30
0.0
  0
VERTEX
  5
B293
  8
ALPHA
 10
55.898755
 20
35.023877
 30
0.0
  0
SEQEND
  5
B294
  8
ALPHA
  0
POLYLINE
  5
A795
  8
ALPHA
 66
     1
 10
0.0
 20
0.0
 30
0.0
  0
VERTEX
  5
B295
  8
ALPHA
 10
55.883491
 20
34.673897
 30
0.0
  0
VERTEX
  5
B296
  8
ALPHA
 10
55.881643
 20
34.676432
 30
0.0
  0
VERTEX
  5
B297
  8
ALPHA
 10
55.878077
 20
34.696627
 30
0.0
  0
VERTEX
  5
B298
  8
ALPHA
 10
55.874811
 20
34.735836
 30
0.0
  0
VERTEX
  5
B299
  8
ALPHA
 10
55.872061
 20
34.791781
 30
0.0
  0
VERTEX
  5
B29A
  8
ALPHA
 10
55.869966
 20
34.861219
 30
0.0
  0
VERTEX
  5
B29B
  8
ALPHA
 10
55.868666
 20
34.94011
 30
0.0
  0
VERTEX
  5
B29C
  8
ALPHA
 10
55.868215
 20
35.023877
 30
0.0
  0
SEQEND
  5
B29D
  8
ALPHA
  0
POLYLINE
  5
A796
  8
ALPHA
 66
     1
 10
0.0
 20
0.0
 30
0.0
  0
VERTEX
  5
B29E
  8
ALPHA
 10
54.132256
 20
65.755471
 30
0.0
  0
VERTEX
  5
B29F
  8
ALPHA
 10
53.93808
 20
65.725242
 30
0.0
  0
VERTEX
  5
B2A0
  8
ALPHA
 10
53.775734
 20
65.693338
 30
0.0
  0
VERTEX
  5
B2A1
  8
ALPHA
 10
53.633518
 20
65.655375
 30
0.0
  0
VERTEX
  5
B2A2
  8
ALPHA
 10
53.492065
 20
65.598656
 30
0.0
  0
VERTEX
  5
B2A3
  8
ALPHA
 10
53.335487
 20
65.493018
 30
0.0
  0
VERTEX
  5
B2A4
  8
ALPHA
 10
53.199953
 20
65.318264
 30
0.0
  0
VERTEX
  5
B2A5
  8
ALPHA
 10
53.131052
 20
65.091281
 30
0.0
  0
VERTEX
  5
B2A6
  8
ALPHA
 10
53.127915
 20
65.030653
 30
0.0
  0
SEQEND
  5
B2A7
  8
ALPHA
  0
POLYLINE
  5
A797
  8
ALPHA
 66
     1
 10
0.0
 20
0.0
 30
0.0
  0
VERTEX
  5
B2A8
  8
ALPHA
 10
54.138143
 20
54.056283
 30
0.0
  0
VERTEX
  5
B2A9
  8
ALPHA
 10
53.949456
 20
54.027215
 30
0.0
  0
VERTEX
  5
B2AA
  8
ALPHA
 10
53.786766
 20
53.995805
 30
0.0
  0
VERTEX
  5
B2AB
  8
ALPHA
 10
53.644153
 20
53.958723
 30
0.0
  0
VERTEX
  5
B2AC
  8
ALPHA
 10
53.503194
 20
53.904131
 30
0.0
  0
VERTEX
  5
B2AD
  8
ALPHA
 10
53.344413
 20
53.800899
 30
0.0
  0
VERTEX
  5
B2AE
  8
ALPHA
 10
53.204142
 20
53.626123
 30
0.0
  0
VERTEX
  5
B2AF
  8
ALPHA
 10
53.131546
 20
53.396004
 30
0.0
  0
VERTEX
  5
B2B0
  8
ALPHA
 10
53.127915
 20
53.330627
 30
0.0
  0
SEQEND
  5
B2B1
  8
ALPHA
  0
POLYLINE
  5
A798
  8
ALPHA
 66
     1
 10
0.0
 20
0.0
 30
0.0
  0
VERTEX
  5
B2B2
  8
ALPHA
 10
53.127915
 20
49.43074
 30
0.0
  0
VERTEX
  5
B2B3
  8
ALPHA
 10
53.132137
 20
49.360272
 30
0.0
  0
VERTEX
  5
B2B4
  8
ALPHA
 10
53.201564
 20
49.140057
 30
0.0
  0
VERTEX
  5
B2B5
  8
ALPHA
 10
53.33394
 20
48.969772
 30
0.0
  0
VERTEX
  5
B2B6
  8
ALPHA
 10
53.487703
 20
48.864949
 30
0.0
  0
VERTEX
  5
B2B7
  8
ALPHA
 10
53.6266
 20
48.808252
 30
0.0
  0
VERTEX
  5
B2B8
  8
ALPHA
 10
53.763402
 20
48.770848
 30
0.0
  0
VERTEX
  5
B2B9
  8
ALPHA
 10
53.915006
 20
48.74019
 30
0.0
  0
VERTEX
  5
B2BA
  8
ALPHA
 10
54.090491
 20
48.711938
 30
0.0
  0
VERTEX
  5
B2BB
  8
ALPHA
 10
54.177921
 20
48.700143
 30
0.0
  0
SEQEND
  5
B2BC
  8
ALPHA
  0
POLYLINE
  5
A799
  8
ALPHA
 66
     1
 10
0.0
 20
0.0
 30
0.0
  0
VERTEX
  5
B2BD
  8
ALPHA
 10
53.127915
 20
53.330756
 30
0.0
  0
VERTEX
  5
B2BE
  8
ALPHA
 10
53.132674
 20
53.255926
 30
0.0
  0
VERTEX
  5
B2BF
  8
ALPHA
 10
53.209502
 20
53.02557
 30
0.0
  0
VERTEX
  5
B2C0
  8
ALPHA
 10
53.34987
 20
52.855801
 30
0.0
  0
VERTEX
  5
B2C1
  8
ALPHA
 10
53.502119
 20
52.757789
 30
0.0
  0
VERTEX
  5
B2C2
  8
ALPHA
 10
53.647504
 20
52.701629
 30
0.0
  0
VERTEX
  5
B2C3
  8
ALPHA
 10
53.728801
 20
52.680768
 30
0.0
  0
SEQEND
  5
B2C4
  8
ALPHA
  0
POLYLINE
  5
A79A
  8
ALPHA
 66
     1
 10
0.0
 20
0.0
 30
0.0
  0
VERTEX
  5
B2C5
  8
ALPHA
 10
53.127915
 20
52.030758
 30
0.0
  0
VERTEX
  5
B2C6
  8
ALPHA
 10
53.133265
 20
51.951395
 30
0.0
  0
VERTEX
  5
B2C7
  8
ALPHA
 10
53.208203
 20
51.727893
 30
0.0
  0
VERTEX
  5
B2C8
  8
ALPHA
 10
53.348205
 20
51.557242
 30
0.0
  0
VERTEX
  5
B2C9
  8
ALPHA
 10
53.511454
 20
51.453322
 30
0.0
  0
VERTEX
  5
B2CA
  8
ALPHA
 10
53.661179
 20
51.397506
 30
0.0
  0
VERTEX
  5
B2CB
  8
ALPHA
 10
53.728833
 20
51.380748
 30
0.0
  0
SEQEND
  5
B2CC
  8
ALPHA
  0
POLYLINE
  5
A79B
  8
ALPHA
 66
     1
 10
0.0
 20
0.0
 30
0.0
  0
VERTEX
  5
B2CD
  8
ALPHA
 10
53.127915
 20
50.73076
 30
0.0
  0
VERTEX
  5
B2CE
  8
ALPHA
 10
53.133716
 20
50.64811
 30
0.0
  0
VERTEX
  5
B2CF
  8
ALPHA
 10
53.212736
 20
50.419924
 30
0.0
  0
VERTEX
  5
B2D0
  8
ALPHA
 10
53.357283
 20
50.249617
 30
0.0
  0
VERTEX
  5
B2D1
  8
ALPHA
 10
53.518716
 20
50.149951
 30
0.0
  0
VERTEX
  5
B2D2
  8
ALPHA
 10
53.666754
 20
50.095875
 30
0.0
  0
VERTEX
  5
B2D3
  8
ALPHA
 10
53.728243
 20
50.080879
 30
0.0
  0
SEQEND
  5
B2D4
  8
ALPHA
  0
POLYLINE
  5
A79C
  8
ALPHA
 66
     1
 10
0.0
 20
0.0
 30
0.0
  0
VERTEX
  5
B2D5
  8
ALPHA
 10
54.139411
 20
51.456481
 30
0.0
  0
VERTEX
  5
B2D6
  8
ALPHA
 10
53.946556
 20
51.426703
 30
0.0
  0
VERTEX
  5
B2D7
  8
ALPHA
 10
53.785047
 20
51.395422
 30
0.0
  0
VERTEX
  5
B2D8
  8
ALPHA
 10
53.642262
 20
51.358125
 30
0.0
  0
VERTEX
  5
B2D9
  8
ALPHA
 10
53.494181
 20
51.299709
 30
0.0
  0
VERTEX
  5
B2DA
  8
ALPHA
 10
53.332629
 20
51.190418
 30
0.0
  0
VERTEX
  5
B2DB
  8
ALPHA
 10
53.198492
 20
51.015471
 30
0.0
  0
VERTEX
  5
B2DC
  8
ALPHA
 10
53.131074
 20
50.791539
 30
0.0
  0
VERTEX
  5
B2DD
  8
ALPHA
 10
53.127915
 20
50.730653
 30
0.0
  0
SEQEND
  5
B2DE
  8
ALPHA
  0
POLYLINE
  5
A79D
  8
ALPHA
 66
     1
 10
0.0
 20
0.0
 30
0.0
  0
VERTEX
  5
B2DF
  8
ALPHA
 10
54.138744
 20
52.756371
 30
0.0
  0
VERTEX
  5
B2E0
  8
ALPHA
 10
53.942571
 20
52.726035
 30
0.0
  0
VERTEX
  5
B2E1
  8
ALPHA
 10
53.778785
 20
52.694045
 30
0.0
  0
VERTEX
  5
B2E2
  8
ALPHA
 10
53.635516
 20
52.656018
 30
0.0
  0
VERTEX
  5
B2E3
  8
ALPHA
 10
53.493343
 20
52.599278
 30
0.0
  0
VERTEX
  5
B2E4
  8
ALPHA
 10
53.336303
 20
52.493746
 30
0.0
  0
VERTEX
  5
B2E5
  8
ALPHA
 10
53.200328
 20
52.318992
 30
0.0
  0
VERTEX
  5
B2E6
  8
ALPHA
 10
53.131095
 20
52.091774
 30
0.0
  0
VERTEX
  5
B2E7
  8
ALPHA
 10
53.127915
 20
52.030651
 30
0.0
  0
SEQEND
  5
B2E8
  8
ALPHA
  0
POLYLINE
  5
A79E
  8
ALPHA
 66
     1
 10
0.0
 20
0.0
 30
0.0
  0
VERTEX
  5
B2E9
  8
ALPHA
 10
54.101276
 20
50.151026
 30
0.0
  0
VERTEX
  5
B2EA
  8
ALPHA
 10
53.921376
 20
50.122322
 30
0.0
  0
VERTEX
  5
B2EB
  8
ALPHA
 10
53.765604
 20
50.091041
 30
0.0
  0
VERTEX
  5
B2EC
  8
ALPHA
 10
53.628813
 20
50.053852
 30
0.0
  0
VERTEX
  5
B2ED
  8
ALPHA
 10
53.490786
 20
49.997992
 30
0.0
  0
VERTEX
  5
B2EE
  8
ALPHA
 10
53.335046
 20
49.892611
 30
0.0
  0
VERTEX
  5
B2EF
  8
ALPHA
 10
53.199748
 20
49.717901
 30
0.0
  0
VERTEX
  5
B2F0
  8
ALPHA
 10
53.131009
 20
49.490983
 30
0.0
  0
VERTEX
  5
B2F1
  8
ALPHA
 10
53.127915
 20
49.430654
 30
0.0
  0
SEQEND
  5
B2F2
  8
ALPHA
  0
ARC
  5
A79F
  8
ALPHA
 10
53.077009
 20
48.422662
 30
0.0
 40
0.2
 50
271.376722
 51
323.130102
  0
POLYLINE
  5
A7A0
  8
ALPHA
 66
     1
 10
0.0
 20
0.0
 30
0.0
  0
VERTEX
  5
B2F3
  8
ALPHA
 10
54.002899
 20
48.919326
 30
0.0
  0
VERTEX
  5
B2F4
  8
ALPHA
 10
53.998935
 20
48.917844
 30
0.0
  0
VERTEX
  5
B2F5
  8
ALPHA
 10
54.006798
 20
48.919863
 30
0.0
  0
VERTEX
  5
B2F6
  8
ALPHA
 10
54.058651
 20
48.931809
 30
0.0
  0
VERTEX
  5
B2F7
  8
ALPHA
 10
54.146586
 20
48.948223
 30
0.0
  0
VERTEX
  5
B2F8
  8
ALPHA
 10
54.266834
 20
48.967065
 30
0.0
  0
VERTEX
  5
B2F9
  8
ALPHA
 10
54.416849
 20
48.98741
 30
0.0
  0
VERTEX
  5
B2FA
  8
ALPHA
 10
54.594417
 20
49.008766
 30
0.0
  0
VERTEX
  5
B2FB
  8
ALPHA
 10
54.798089
 20
49.030938
 30
0.0
  0
VERTEX
  5
B2FC
  8
ALPHA
 10
55.026382
 20
49.053861
 30
0.0
  0
VERTEX
  5
B2FD
  8
ALPHA
 10
55.277567
 20
49.077516
 30
0.0
  0
VERTEX
  5
B2FE
  8
ALPHA
 10
55.549366
 20
49.101858
 30
0.0
  0
VERTEX
  5
B2FF
  8
ALPHA
 10
55.838792
 20
49.12693
 30
0.0
  0
SEQEND
  5
B300
  8
ALPHA
  0
POLYLINE
  5
A7A1
  8
ALPHA
 66
     1
 10
0.0
 20
0.0
 30
0.0
  0
VERTEX
  5
B301
  8
ALPHA
 10
54.002308
 20
50.21911
 30
0.0
  0
VERTEX
  5
B302
  8
ALPHA
 10
53.998537
 20
50.217692
 30
0.0
  0
VERTEX
  5
B303
  8
ALPHA
 10
54.007711
 20
50.220098
 30
0.0
  0
VERTEX
  5
B304
  8
ALPHA
 10
54.061111
 20
50.232322
 30
0.0
  0
VERTEX
  5
B305
  8
ALPHA
 10
54.150776
 20
50.24893
 30
0.0
  0
VERTEX
  5
B306
  8
ALPHA
 10
54.272753
 20
50.267922
 30
0.0
  0
VERTEX
  5
B307
  8
ALPHA
 10
54.424132
 20
50.288332
 30
0.0
  0
VERTEX
  5
B308
  8
ALPHA
 10
54.602367
 20
50.309666
 30
0.0
  0
VERTEX
  5
B309
  8
ALPHA
 10
54.805802
 20
50.331731
 30
0.0
  0
VERTEX
  5
B30A
  8
ALPHA
 10
55.032795
 20
50.354483
 30
0.0
  0
VERTEX
  5
B30B
  8
ALPHA
 10
55.281466
 20
50.377858
 30
0.0
  0
VERTEX
  5
B30C
  8
ALPHA
 10
55.54958
 20
50.401877
 30
0.0
  0
VERTEX
  5
B30D
  8
ALPHA
 10
55.834345
 20
50.426541
 30
0.0
  0
SEQEND
  5
B30E
  8
ALPHA
  0
POLYLINE
  5
A7A2
  8
ALPHA
 66
     1
 10
0.0
 20
0.0
 30
0.0
  0
VERTEX
  5
B30F
  8
ALPHA
 10
54.004994
 20
52.820137
 30
0.0
  0
VERTEX
  5
B310
  8
ALPHA
 10
54.000203
 20
52.818311
 30
0.0
  0
VERTEX
  5
B311
  8
ALPHA
 10
54.004628
 20
52.819278
 30
0.0
  0
VERTEX
  5
B312
  8
ALPHA
 10
54.053043
 20
52.830643
 30
0.0
  0
VERTEX
  5
B313
  8
ALPHA
 10
54.137176
 20
52.846606
 30
0.0
  0
VERTEX
  5
B314
  8
ALPHA
 10
54.252816
 20
52.865018
 30
0.0
  0
VERTEX
  5
B315
  8
ALPHA
 10
54.396911
 20
52.884848
 30
0.0
  0
VERTEX
  5
B316
  8
ALPHA
 10
54.566638
 20
52.905559
 30
0.0
  0
VERTEX
  5
B317
  8
ALPHA
 10
54.75989
 20
52.926914
 30
0.0
  0
VERTEX
  5
B318
  8
ALPHA
 10
54.974648
 20
52.948807
 30
0.0
  0
VERTEX
  5
B319
  8
ALPHA
 10
55.208666
 20
52.971151
 30
0.0
  0
VERTEX
  5
B31A
  8
ALPHA
 10
55.459421
 20
52.993924
 30
0.0
  0
VERTEX
  5
B31B
  8
ALPHA
 10
55.724109
 20
53.017084
 30
0.0
  0
SEQEND
  5
B31C
  8
ALPHA
  0
LINE
  5
A7A3
  8
ALPHA
 10
56.491262
 20
51.68226
 30
0.0
 11
55.535959
 21
51.600985
 31
0.0
  0
POLYLINE
  5
A7A4
  8
ALPHA
 66
     1
 10
0.0
 20
0.0
 30
0.0
  0
VERTEX
  5
B31D
  8
ALPHA
 10
55.80663
 20
52.924272
 30
0.0
  0
VERTEX
  5
B31E
  8
ALPHA
 10
55.498695
 20
52.897738
 30
0.0
  0
VERTEX
  5
B31F
  8
ALPHA
 10
55.195346
 20
52.87069
 30
0.0
  0
VERTEX
  5
B320
  8
ALPHA
 10
54.902181
 20
52.843104
 30
0.0
  0
VERTEX
  5
B321
  8
ALPHA
 10
54.624743
 20
52.814938
 30
0.0
  0
VERTEX
  5
B322
  8
ALPHA
 10
54.368251
 20
52.786041
 30
0.0
  0
VERTEX
  5
B323
  8
ALPHA
 10
54.138744
 20
52.756371
 30
0.0
  0
SEQEND
  5
B324
  8
ALPHA
  0
POLYLINE
  5
A7A5
  8
ALPHA
 66
     1
 10
0.0
 20
0.0
 30
0.0
  0
VERTEX
  5
B325
  8
ALPHA
 10
53.999859
 20
51.518184
 30
0.0
  0
VERTEX
  5
B326
  8
ALPHA
 10
54.054655
 20
51.530967
 30
0.0
  0
VERTEX
  5
B327
  8
ALPHA
 10
54.139948
 20
51.54708
 30
0.0
  0
VERTEX
  5
B328
  8
ALPHA
 10
54.256801
 20
51.5656
 30
0.0
  0
VERTEX
  5
B329
  8
ALPHA
 10
54.402025
 20
51.585516
 30
0.0
  0
VERTEX
  5
B32A
  8
ALPHA
 10
54.572707
 20
51.60627
 30
0.0
  0
VERTEX
  5
B32B
  8
ALPHA
 10
54.767141
 20
51.62769
 30
0.0
  0
VERTEX
  5
B32C
  8
ALPHA
 10
54.983929
 20
51.649711
 30
0.0
  0
VERTEX
  5
B32D
  8
ALPHA
 10
55.221632
 20
51.672356
 30
0.0
  0
VERTEX
  5
B32E
  8
ALPHA
 10
55.478564
 20
51.695623
 30
0.0
  0
VERTEX
  5
B32F
  8
ALPHA
 10
55.752661
 20
51.719535
 30
0.0
  0
SEQEND
  5
B330
  8
ALPHA
  0
POLYLINE
  5
A7A6
  8
ALPHA
 66
     1
 10
0.0
 20
0.0
 30
0.0
  0
VERTEX
  5
B331
  8
ALPHA
 10
55.693998
 20
50.314629
 30
0.0
  0
VERTEX
  5
B332
  8
ALPHA
 10
55.392465
 20
50.288397
 30
0.0
  0
VERTEX
  5
B333
  8
ALPHA
 10
55.095884
 20
50.261541
 30
0.0
  0
VERTEX
  5
B334
  8
ALPHA
 10
54.812151
 20
50.234235
 30
0.0
  0
VERTEX
  5
B335
  8
ALPHA
 10
54.548376
 20
50.206692
 30
0.0
  0
VERTEX
  5
B336
  8
ALPHA
 10
54.310254
 20
50.178977
 30
0.0
  0
VERTEX
  5
B337
  8
ALPHA
 10
54.101276
 20
50.151026
 30
0.0
  0
SEQEND
  5
B338
  8
ALPHA
  0
LINE
  5
A7A7
  8
ALPHA
 10
54.004048
 20
51.519774
 30
0.0
 11
53.999859
 21
51.518184
 31
0.0
  0
LINE
  5
A7A8
  8
ALPHA
 10
54.177918
 20
50.253163
 30
0.0
 11
54.177918
 21
50.161274
 31
0.0
  0
LINE
  5
A7A9
  8
ALPHA
 10
54.177918
 20
51.553104
 30
0.0
 11
54.177918
 21
51.461449
 31
0.0
  0
LINE
  5
A7AA
  8
ALPHA
 10
54.177918
 20
52.853094
 30
0.0
 11
54.177918
 21
52.761442
 31
0.0
  0
POLYLINE
  5
A7AB
  8
ALPHA
 66
     1
 10
0.0
 20
0.0
 30
0.0
  0
VERTEX
  5
B339
  8
ALPHA
 10
55.535959
 20
51.600985
 30
0.0
  0
VERTEX
  5
B33A
  8
ALPHA
 10
55.219247
 20
51.572861
 30
0.0
  0
VERTEX
  5
B33B
  8
ALPHA
 10
54.914857
 20
51.544352
 30
0.0
  0
VERTEX
  5
B33C
  8
ALPHA
 10
54.62803
 20
51.515283
 30
0.0
  0
VERTEX
  5
B33D
  8
ALPHA
 10
54.367338
 20
51.485936
 30
0.0
  0
VERTEX
  5
B33E
  8
ALPHA
 10
54.139411
 20
51.456481
 30
0.0
  0
SEQEND
  5
B33F
  8
ALPHA
  0
LINE
  5
A7AC
  8
ALPHA
 10
55.724109
 20
53.017084
 30
0.0
 11
56.863103
 21
53.114172
 31
0.0
  0
LINE
  5
A7AD
  8
ALPHA
 10
55.752661
 20
51.719535
 30
0.0
 11
56.641169
 21
51.794967
 31
0.0
  0
LINE
  5
A7AE
  8
ALPHA
 10
56.705644
 20
53.000713
 30
0.0
 11
55.80663
 21
52.924272
 31
0.0
  0
LINE
  5
A7AF
  8
ALPHA
 10
55.834345
 20
50.426541
 30
0.0
 11
56.751202
 21
50.504444
 31
0.0
  0
LINE
  5
A7B0
  8
ALPHA
 10
56.567209
 20
50.38875
 30
0.0
 11
55.693998
 21
50.314629
 31
0.0
  0
LINE
  5
A7B1
  8
ALPHA
 10
55.838792
 20
49.12693
 30
0.0
 11
56.772901
 21
49.206315
 31
0.0
  0
LINE
  5
A7B2
  8
ALPHA
 10
56.772901
 20
49.206315
 30
0.0
 11
57.08958
 21
49.234266
 31
0.0
  0
POLYLINE
  5
A7B3
  8
ALPHA
 66
     1
 10
0.0
 20
0.0
 30
0.0
  0
VERTEX
  5
B340
  8
ALPHA
 10
53.73342
 20
64.383371
 30
0.0
  0
VERTEX
  5
B341
  8
ALPHA
 10
53.688453
 20
64.371641
 30
0.0
  0
VERTEX
  5
B342
  8
ALPHA
 10
53.563286
 20
64.330412
 30
0.0
  0
VERTEX
  5
B343
  8
ALPHA
 10
53.431371
 20
64.264735
 30
0.0
  0
VERTEX
  5
B344
  8
ALPHA
 10
53.292163
 20
64.150008
 30
0.0
  0
VERTEX
  5
B345
  8
ALPHA
 10
53.180359
 20
63.977488
 30
0.0
  0
VERTEX
  5
B346
  8
ALPHA
 10
53.129022
 20
63.766641
 30
0.0
  0
VERTEX
  5
B347
  8
ALPHA
 10
53.127915
 20
63.730676
 30
0.0
  0
SEQEND
  5
B348
  8
ALPHA
  0
POLYLINE
  5
A7B4
  8
ALPHA
 66
     1
 10
0.0
 20
0.0
 30
0.0
  0
VERTEX
  5
B349
  8
ALPHA
 10
53.52253
 20
64.448233
 30
0.0
  0
VERTEX
  5
B34A
  8
ALPHA
 10
53.672244
 20
64.394285
 30
0.0
  0
VERTEX
  5
B34B
  8
ALPHA
 10
53.72575
 20
64.381373
 30
0.0
  0
SEQEND
  5
B34C
  8
ALPHA
  0
POLYLINE
  5
A7B5
  8
ALPHA
 66
     1
 10
0.0
 20
0.0
 30
0.0
  0
VERTEX
  5
B34D
  8
ALPHA
 10
54.111116
 20
61.852447
 30
0.0
  0
VERTEX
  5
B34E
  8
ALPHA
 10
53.924642
 20
61.822906
 30
0.0
  0
VERTEX
  5
B34F
  8
ALPHA
 10
53.766442
 20
61.791238
 30
0.0
  0
VERTEX
  5
B350
  8
ALPHA
 10
53.628824
 20
61.753856
 30
0.0
  0
VERTEX
  5
B351
  8
ALPHA
 10
53.490872
 20
61.698039
 30
0.0
  0
VERTEX
  5
B352
  8
ALPHA
 10
53.335626
 20
61.593131
 30
0.0
  0
VERTEX
  5
B353
  8
ALPHA
 10
53.200049
 20
61.418442
 30
0.0
  0
VERTEX
  5
B354
  8
ALPHA
 10
53.13102
 20
61.191008
 30
0.0
  0
VERTEX
  5
B355
  8
ALPHA
 10
53.127915
 20
61.130637
 30
0.0
  0
SEQEND
  5
B356
  8
ALPHA
  0
POLYLINE
  5
A7B6
  8
ALPHA
 66
     1
 10
0.0
 20
0.0
 30
0.0
  0
VERTEX
  5
B357
  8
ALPHA
 10
53.973046
 20
63.131176
 30
0.0
  0
VERTEX
  5
B358
  8
ALPHA
 10
53.801375
 20
63.098992
 30
0.0
  0
VERTEX
  5
B359
  8
ALPHA
 10
53.652628
 20
63.061309
 30
0.0
  0
VERTEX
  5
B35A
  8
ALPHA
 10
53.506083
 20
63.005514
 30
0.0
  0
VERTEX
  5
B35B
  8
ALPHA
 10
53.344897
 20
62.901315
 30
0.0
  0
VERTEX
  5
B35C
  8
ALPHA
 10
53.204292
 20
62.72641
 30
0.0
  0
VERTEX
  5
B35D
  8
ALPHA
 10
53.131632
 20
62.496721
 30
0.0
  0
VERTEX
  5
B35E
  8
ALPHA
 10
53.127915
 20
62.430635
 30
0.0
  0
SEQEND
  5
B35F
  8
ALPHA
  0
POLYLINE
  5
A7B7
  8
ALPHA
 66
     1
 10
0.0
 20
0.0
 30
0.0
  0
VERTEX
  5
B360
  8
ALPHA
 10
54.120526
 20
60.553803
 30
0.0
  0
VERTEX
  5
B361
  8
ALPHA
 10
53.933483
 20
60.524455
 30
0.0
  0
VERTEX
  5
B362
  8
ALPHA
 10
53.773725
 20
60.492895
 30
0.0
  0
VERTEX
  5
B363
  8
ALPHA
 10
53.635441
 20
60.455985
 30
0.0
  0
VERTEX
  5
B364
  8
ALPHA
 10
53.497586
 20
60.401393
 30
0.0
  0
VERTEX
  5
B365
  8
ALPHA
 10
53.341051
 20
60.297967
 30
0.0
  0
VERTEX
  5
B366
  8
ALPHA
 10
53.202606
 20
60.123278
 30
0.0
  0
VERTEX
  5
B367
  8
ALPHA
 10
53.131321
 20
59.893846
 30
0.0
  0
VERTEX
  5
B368
  8
ALPHA
 10
53.127915
 20
59.830639
 30
0.0
  0
SEQEND
  5
B369
  8
ALPHA
  0
POLYLINE
  5
A7B8
  8
ALPHA
 66
     1
 10
0.0
 20
0.0
 30
0.0
  0
VERTEX
  5
B36A
  8
ALPHA
 10
54.083025
 20
59.248348
 30
0.0
  0
VERTEX
  5
B36B
  8
ALPHA
 10
53.905972
 20
59.219559
 30
0.0
  0
VERTEX
  5
B36C
  8
ALPHA
 10
53.756559
 20
59.188944
 30
0.0
  0
VERTEX
  5
B36D
  8
ALPHA
 10
53.620552
 20
59.151153
 30
0.0
  0
VERTEX
  5
B36E
  8
ALPHA
 10
53.475071
 20
59.089879
 30
0.0
  0
VERTEX
  5
B36F
  8
ALPHA
 10
53.31875
 20
58.977387
 30
0.0
  0
VERTEX
  5
B370
  8
ALPHA
 10
53.192261
 20
58.803127
 30
0.0
  0
VERTEX
  5
B371
  8
ALPHA
 10
53.130375
 20
58.58433
 30
0.0
  0
VERTEX
  5
B372
  8
ALPHA
 10
53.127915
 20
58.530662
 30
0.0
  0
SEQEND
  5
B373
  8
ALPHA
  0
POLYLINE
  5
A7B9
  8
ALPHA
 66
     1
 10
0.0
 20
0.0
 30
0.0
  0
VERTEX
  5
B374
  8
ALPHA
 10
54.151603
 20
56.65817
 30
0.0
  0
VERTEX
  5
B375
  8
ALPHA
 10
53.952303
 20
56.627684
 30
0.0
  0
VERTEX
  5
B376
  8
ALPHA
 10
53.786111
 20
56.595672
 30
0.0
  0
VERTEX
  5
B377
  8
ALPHA
 10
53.64151
 20
56.557903
 30
0.0
  0
VERTEX
  5
B378
  8
ALPHA
 10
53.499198
 20
56.502172
 30
0.0
  0
VERTEX
  5
B379
  8
ALPHA
 10
53.341137
 20
56.398037
 30
0.0
  0
VERTEX
  5
B37A
  8
ALPHA
 10
53.202606
 20
56.223283
 30
0.0
  0
VERTEX
  5
B37B
  8
ALPHA
 10
53.131353
 20
55.994217
 30
0.0
  0
VERTEX
  5
B37C
  8
ALPHA
 10
53.127915
 20
55.930645
 30
0.0
  0
SEQEND
  5
B37D
  8
ALPHA
  0
POLYLINE
  5
A7BA
  8
ALPHA
 66
     1
 10
0.0
 20
0.0
 30
0.0
  0
VERTEX
  5
B37E
  8
ALPHA
 10
54.101394
 20
57.951057
 30
0.0
  0
VERTEX
  5
B37F
  8
ALPHA
 10
53.919239
 20
57.921945
 30
0.0
  0
VERTEX
  5
B380
  8
ALPHA
 10
53.763284
 20
57.890514
 30
0.0
  0
VERTEX
  5
B381
  8
ALPHA
 10
53.627191
 20
57.853346
 30
0.0
  0
VERTEX
  5
B382
  8
ALPHA
 10
53.489949
 20
57.797572
 30
0.0
  0
VERTEX
  5
B383
  8
ALPHA
 10
53.334864
 20
57.692449
 30
0.0
  0
VERTEX
  5
B384
  8
ALPHA
 10
53.199684
 20
57.51776
 30
0.0
  0
VERTEX
  5
B385
  8
ALPHA
 10
53.130977
 20
57.290649
 30
0.0
  0
VERTEX
  5
B386
  8
ALPHA
 10
53.127915
 20
57.230643
 30
0.0
  0
SEQEND
  5
B387
  8
ALPHA
  0
POLYLINE
  5
A7BB
  8
ALPHA
 66
     1
 10
0.0
 20
0.0
 30
0.0
  0
VERTEX
  5
B388
  8
ALPHA
 10
53.127915
 20
61.130766
 30
0.0
  0
VERTEX
  5
B389
  8
ALPHA
 10
53.132792
 20
61.055012
 30
0.0
  0
VERTEX
  5
B38A
  8
ALPHA
 10
53.20701
 20
60.830028
 30
0.0
  0
VERTEX
  5
B38B
  8
ALPHA
 10
53.345316
 20
60.659699
 30
0.0
  0
VERTEX
  5
B38C
  8
ALPHA
 10
53.500476
 20
60.558572
 30
0.0
  0
VERTEX
  5
B38D
  8
ALPHA
 10
53.638094
 20
60.504561
 30
0.0
  0
VERTEX
  5
B38E
  8
ALPHA
 10
53.728071
 20
60.480713
 30
0.0
  0
SEQEND
  5
B38F
  8
ALPHA
  0
POLYLINE
  5
A7BC
  8
ALPHA
 66
     1
 10
0.0
 20
0.0
 30
0.0
  0
VERTEX
  5
B390
  8
ALPHA
 10
53.127915
 20
62.430764
 30
0.0
  0
VERTEX
  5
B391
  8
ALPHA
 10
53.132943
 20
62.353871
 30
0.0
  0
VERTEX
  5
B392
  8
ALPHA
 10
53.207827
 20
62.128586
 30
0.0
  0
VERTEX
  5
B393
  8
ALPHA
 10
53.347035
 20
61.958236
 30
0.0
  0
VERTEX
  5
B394
  8
ALPHA
 10
53.503677
 20
61.857024
 30
0.0
  0
VERTEX
  5
B395
  8
ALPHA
 10
53.644744
 20
61.802475
 30
0.0
  0
VERTEX
  5
B396
  8
ALPHA
 10
53.728178
 20
61.78084
 30
0.0
  0
SEQEND
  5
B397
  8
ALPHA
  0
POLYLINE
  5
A7BD
  8
ALPHA
 66
     1
 10
0.0
 20
0.0
 30
0.0
  0
VERTEX
  5
B398
  8
ALPHA
 10
53.127915
 20
59.830768
 30
0.0
  0
VERTEX
  5
B399
  8
ALPHA
 10
53.133168
 20
59.752156
 30
0.0
  0
VERTEX
  5
B39A
  8
ALPHA
 10
53.208009
 20
59.528246
 30
0.0
  0
VERTEX
  5
B39B
  8
ALPHA
 10
53.347679
 20
59.357682
 30
0.0
  0
VERTEX
  5
B39C
  8
ALPHA
 10
53.509392
 20
59.254299
 30
0.0
  0
VERTEX
  5
B39D
  8
ALPHA
 10
53.655335
 20
59.199256
 30
0.0
  0
VERTEX
  5
B39E
  8
ALPHA
 10
53.727824
 20
59.180951
 30
0.0
  0
SEQEND
  5
B39F
  8
ALPHA
  0
POLYLINE
  5
A7BE
  8
ALPHA
 66
     1
 10
0.0
 20
0.0
 30
0.0
  0
VERTEX
  5
B3A0
  8
ALPHA
 10
53.127915
 20
55.930774
 30
0.0
  0
VERTEX
  5
B3A1
  8
ALPHA
 10
53.133297
 20
55.851174
 30
0.0
  0
VERTEX
  5
B3A2
  8
ALPHA
 10
53.209739
 20
55.625158
 30
0.0
  0
VERTEX
  5
B3A3
  8
ALPHA
 10
53.351127
 20
55.454744
 30
0.0
  0
VERTEX
  5
B3A4
  8
ALPHA
 10
53.510799
 20
55.353639
 30
0.0
  0
VERTEX
  5
B3A5
  8
ALPHA
 10
53.656087
 20
55.299026
 30
0.0
  0
VERTEX
  5
B3A6
  8
ALPHA
 10
53.729027
 20
55.280699
 30
0.0
  0
SEQEND
  5
B3A7
  8
ALPHA
  0
POLYLINE
  5
A7BF
  8
ALPHA
 66
     1
 10
0.0
 20
0.0
 30
0.0
  0
VERTEX
  5
B3A8
  8
ALPHA
 10
53.127915
 20
63.730762
 30
0.0
  0
VERTEX
  5
B3A9
  8
ALPHA
 10
53.13334
 20
63.650861
 30
0.0
  0
VERTEX
  5
B3AA
  8
ALPHA
 10
53.211275
 20
63.422483
 30
0.0
  0
VERTEX
  5
B3AB
  8
ALPHA
 10
53.353985
 20
63.252369
 30
0.0
  0
VERTEX
  5
B3AC
  8
ALPHA
 10
53.510101
 20
63.153971
 30
0.0
  0
VERTEX
  5
B3AD
  8
ALPHA
 10
53.646849
 20
63.101828
 30
0.0
  0
VERTEX
  5
B3AE
  8
ALPHA
 10
53.728758
 20
63.080602
 30
0.0
  0
SEQEND
  5
B3AF
  8
ALPHA
  0
POLYLINE
  5
A7C0
  8
ALPHA
 66
     1
 10
0.0
 20
0.0
 30
0.0
  0
VERTEX
  5
B3B0
  8
ALPHA
 10
53.127915
 20
57.230772
 30
0.0
  0
VERTEX
  5
B3B1
  8
ALPHA
 10
53.13363
 20
57.148766
 30
0.0
  0
VERTEX
  5
B3B2
  8
ALPHA
 10
53.213079
 20
56.919334
 30
0.0
  0
VERTEX
  5
B3B3
  8
ALPHA
 10
53.357702
 20
56.749285
 30
0.0
  0
VERTEX
  5
B3B4
  8
ALPHA
 10
53.51544
 20
56.651467
 30
0.0
  0
VERTEX
  5
B3B5
  8
ALPHA
 10
53.655131
 20
56.599324
 30
0.0
  0
VERTEX
  5
B3B6
  8
ALPHA
 10
53.72878
 20
56.580697
 30
0.0
  0
SEQEND
  5
B3B7
  8
ALPHA
  0
POLYLINE
  5
A7C1
  8
ALPHA
 66
     1
 10
0.0
 20
0.0
 30
0.0
  0
VERTEX
  5
B3B8
  8
ALPHA
 10
53.127915
 20
58.53077
 30
0.0
  0
VERTEX
  5
B3B9
  8
ALPHA
 10
53.133662
 20
58.448485
 30
0.0
  0
VERTEX
  5
B3BA
  8
ALPHA
 10
53.211404
 20
58.222233
 30
0.0
  0
VERTEX
  5
B3BB
  8
ALPHA
 10
53.354823
 20
58.051668
 30
0.0
  0
VERTEX
  5
B3BC
  8
ALPHA
 10
53.518834
 20
57.949897
 30
0.0
  0
VERTEX
  5
B3BD
  8
ALPHA
 10
53.669032
 20
57.895219
 30
0.0
  0
VERTEX
  5
B3BE
  8
ALPHA
 10
53.72806
 20
57.880889
 30
0.0
  0
SEQEND
  5
B3BF
  8
ALPHA
  0
POLYLINE
  5
A7C2
  8
ALPHA
 66
     1
 10
0.0
 20
0.0
 30
0.0
  0
VERTEX
  5
B3C0
  8
ALPHA
 10
53.127915
 20
54.630776
 30
0.0
  0
VERTEX
  5
B3C1
  8
ALPHA
 10
53.133738
 20
54.547953
 30
0.0
  0
VERTEX
  5
B3C2
  8
ALPHA
 10
53.212811
 20
54.319811
 30
0.0
  0
VERTEX
  5
B3C3
  8
ALPHA
 10
53.357465
 20
54.149483
 30
0.0
  0
VERTEX
  5
B3C4
  8
ALPHA
 10
53.518727
 20
54.049945
 30
0.0
  0
VERTEX
  5
B3C5
  8
ALPHA
 10
53.665046
 20
53.996385
 30
0.0
  0
VERTEX
  5
B3C6
  8
ALPHA
 10
53.728747
 20
53.980723
 30
0.0
  0
SEQEND
  5
B3C7
  8
ALPHA
  0
POLYLINE
  5
A7C3
  8
ALPHA
 66
     1
 10
0.0
 20
0.0
 30
0.0
  0
VERTEX
  5
B3C8
  8
ALPHA
 10
54.163269
 20
55.359783
 30
0.0
  0
VERTEX
  5
B3C9
  8
ALPHA
 10
53.963335
 20
55.329555
 30
0.0
  0
VERTEX
  5
B3CA
  8
ALPHA
 10
53.795865
 20
55.297801
 30
0.0
  0
VERTEX
  5
B3CB
  8
ALPHA
 10
53.64875
 20
55.260139
 30
0.0
  0
VERTEX
  5
B3CC
  8
ALPHA
 10
53.502839
 20
55.203957
 30
0.0
  0
VERTEX
  5
B3CD
  8
ALPHA
 10
53.342276
 20
55.099028
 30
0.0
  0
VERTEX
  5
B3CE
  8
ALPHA
 10
53.203057
 20
54.924123
 30
0.0
  0
VERTEX
  5
B3CF
  8
ALPHA
 10
53.131482
 20
54.695422
 30
0.0
  0
VERTEX
  5
B3D0
  8
ALPHA
 10
53.127915
 20
54.630647
 30
0.0
  0
SEQEND
  5
B3D1
  8
ALPHA
  0
POLYLINE
  5
A7C4
  8
ALPHA
 66
     1
 10
0.0
 20
0.0
 30
0.0
  0
VERTEX
  5
B3D2
  8
ALPHA
 10
53.127915
 20
65.03076
 30
0.0
  0
VERTEX
  5
B3D3
  8
ALPHA
 10
53.133867
 20
64.947035
 30
0.0
  0
VERTEX
  5
B3D4
  8
ALPHA
 10
53.21251
 20
64.720332
 30
0.0
  0
VERTEX
  5
B3D5
  8
ALPHA
 10
53.357207
 20
64.549682
 30
0.0
  0
VERTEX
  5
B3D6
  8
ALPHA
 10
53.52253
 20
64.448233
 30
0.0
  0
SEQEND
  5
B3D7
  8
ALPHA
  0
LINE
  5
A7C5
  8
ALPHA
 10
55.832766
 20
59.526399
 30
0.0
 11
56.747764
 21
59.604151
 31
0.0
  0
POLYLINE
  5
A7C6
  8
ALPHA
 66
     1
 10
0.0
 20
0.0
 30
0.0
  0
VERTEX
  5
B3D8
  8
ALPHA
 10
54.002619
 20
54.119211
 30
0.0
  0
VERTEX
  5
B3D9
  8
ALPHA
 10
53.998742
 20
54.117772
 30
0.0
  0
VERTEX
  5
B3DA
  8
ALPHA
 10
54.007196
 20
54.119963
 30
0.0
  0
VERTEX
  5
B3DB
  8
ALPHA
 10
54.05965
 20
54.132016
 30
0.0
  0
VERTEX
  5
B3DC
  8
ALPHA
 10
54.148251
 20
54.148516
 30
0.0
  0
VERTEX
  5
B3DD
  8
ALPHA
 10
54.269305
 20
54.167422
 30
0.0
  0
VERTEX
  5
B3DE
  8
ALPHA
 10
54.420308
 20
54.187854
 30
0.0
  0
VERTEX
  5
B3DF
  8
ALPHA
 10
54.599176
 20
54.209295
 30
0.0
  0
VERTEX
  5
B3E0
  8
ALPHA
 10
54.804653
 20
54.231617
 30
0.0
  0
VERTEX
  5
B3E1
  8
ALPHA
 10
55.035502
 20
54.254756
 30
0.0
  0
VERTEX
  5
B3E2
  8
ALPHA
 10
55.290221
 20
54.278668
 30
0.0
  0
VERTEX
  5
B3E3
  8
ALPHA
 10
55.566489
 20
54.303375
 30
0.0
  0
VERTEX
  5
B3E4
  8
ALPHA
 10
55.861104
 20
54.328834
 30
0.0
  0
SEQEND
  5
B3E5
  8
ALPHA
  0
POLYLINE
  5
A7C7
  8
ALPHA
 66
     1
 10
0.0
 20
0.0
 30
0.0
  0
VERTEX
  5
B3E6
  8
ALPHA
 10
54.002383
 20
56.719121
 30
0.0
  0
VERTEX
  5
B3E7
  8
ALPHA
 10
53.99858
 20
56.717703
 30
0.0
  0
VERTEX
  5
B3E8
  8
ALPHA
 10
54.008721
 20
56.720367
 30
0.0
  0
VERTEX
  5
B3E9
  8
ALPHA
 10
54.067244
 20
56.73358
 30
0.0
  0
VERTEX
  5
B3EA
  8
ALPHA
 10
54.165117
 20
56.751348
 30
0.0
  0
VERTEX
  5
B3EB
  8
ALPHA
 10
54.295956
 20
56.771242
 30
0.0
  0
VERTEX
  5
B3EC
  8
ALPHA
 10
54.456488
 20
56.792383
 30
0.0
  0
VERTEX
  5
B3ED
  8
ALPHA
 10
54.64439
 20
56.814383
 30
0.0
  0
VERTEX
  5
B3EE
  8
ALPHA
 10
54.857579
 20
56.83707
 30
0.0
  0
VERTEX
  5
B3EF
  8
ALPHA
 10
55.093865
 20
56.86036
 30
0.0
  0
VERTEX
  5
B3F0
  8
ALPHA
 10
55.350775
 20
56.884186
 30
0.0
  0
VERTEX
  5
B3F1
  8
ALPHA
 10
55.62542
 20
56.908528
 30
0.0
  0
SEQEND
  5
B3F2
  8
ALPHA
  0
POLYLINE
  5
A7C8
  8
ALPHA
 66
     1
 10
0.0
 20
0.0
 30
0.0
  0
VERTEX
  5
B3F3
  8
ALPHA
 10
54.002942
 20
55.419338
 30
0.0
  0
VERTEX
  5
B3F4
  8
ALPHA
 10
53.999064
 20
55.417877
 30
0.0
  0
VERTEX
  5
B3F5
  8
ALPHA
 10
54.006411
 20
55.419746
 30
0.0
  0
VERTEX
  5
B3F6
  8
ALPHA
 10
54.056975
 20
55.431455
 30
0.0
  0
VERTEX
  5
B3F7
  8
ALPHA
 10
54.142322
 20
55.447504
 30
0.0
  0
VERTEX
  5
B3F8
  8
ALPHA
 10
54.258391
 20
55.46583
 30
0.0
  0
VERTEX
  5
B3F9
  8
ALPHA
 10
54.40253
 20
55.485574
 30
0.0
  0
VERTEX
  5
B3FA
  8
ALPHA
 10
54.572203
 20
55.506199
 30
0.0
  0
VERTEX
  5
B3FB
  8
ALPHA
 10
54.764821
 20
55.527447
 30
0.0
  0
VERTEX
  5
B3FC
  8
ALPHA
 10
54.978397
 20
55.549168
 30
0.0
  0
VERTEX
  5
B3FD
  8
ALPHA
 10
55.210944
 20
55.571361
 30
0.0
  0
VERTEX
  5
B3FE
  8
ALPHA
 10
55.460313
 20
55.594006
 30
0.0
  0
VERTEX
  5
B3FF
  8
ALPHA
 10
55.724034
 20
55.617059
 30
0.0
  0
SEQEND
  5
B400
  8
ALPHA
  0
POLYLINE
  5
A7C9
  8
ALPHA
 66
     1
 10
0.0
 20
0.0
 30
0.0
  0
VERTEX
  5
B401
  8
ALPHA
 10
53.996958
 20
58.0171
 30
0.0
  0
VERTEX
  5
B402
  8
ALPHA
 10
54.001782
 20
58.018496
 30
0.0
  0
VERTEX
  5
B403
  8
ALPHA
 10
54.045277
 20
58.028981
 30
0.0
  0
VERTEX
  5
B404
  8
ALPHA
 10
54.125091
 20
58.044492
 30
0.0
  0
VERTEX
  5
B405
  8
ALPHA
 10
54.235972
 20
58.062518
 30
0.0
  0
VERTEX
  5
B406
  8
ALPHA
 10
54.373859
 20
58.081854
 30
0.0
  0
VERTEX
  5
B407
  8
ALPHA
 10
54.536957
 20
58.102092
 30
0.0
  0
VERTEX
  5
B408
  8
ALPHA
 10
54.724022
 20
58.123104
 30
0.0
  0
VERTEX
  5
B409
  8
ALPHA
 10
54.933978
 20
58.144781
 30
0.0
  0
VERTEX
  5
B40A
  8
ALPHA
 10
55.165644
 20
58.167147
 30
0.0
  0
VERTEX
  5
B40B
  8
ALPHA
 10
55.417602
 20
58.190178
 30
0.0
  0
VERTEX
  5
B40C
  8
ALPHA
 10
55.687811
 20
58.21394
 30
0.0
  0
SEQEND
  5
B40D
  8
ALPHA
  0
POLYLINE
  5
A7CA
  8
ALPHA
 66
     1
 10
0.0
 20
0.0
 30
0.0
  0
VERTEX
  5
B40E
  8
ALPHA
 10
54.002168
 20
59.319053
 30
0.0
  0
VERTEX
  5
B40F
  8
ALPHA
 10
53.998441
 20
59.317656
 30
0.0
  0
VERTEX
  5
B410
  8
ALPHA
 10
54.007948
 20
59.32017
 30
0.0
  0
VERTEX
  5
B411
  8
ALPHA
 10
54.061744
 20
59.332438
 30
0.0
  0
VERTEX
  5
B412
  8
ALPHA
 10
54.15185
 20
59.349131
 30
0.0
  0
VERTEX
  5
B413
  8
ALPHA
 10
54.274257
 20
59.368145
 30
0.0
  0
VERTEX
  5
B414
  8
ALPHA
 10
54.425948
 20
59.388555
 30
0.0
  0
VERTEX
  5
B415
  8
ALPHA
 10
54.604289
 20
59.409889
 30
0.0
  0
VERTEX
  5
B416
  8
ALPHA
 10
54.807585
 20
59.431932
 30
0.0
  0
VERTEX
  5
B417
  8
ALPHA
 10
55.034138
 20
59.454619
 30
0.0
  0
VERTEX
  5
B418
  8
ALPHA
 10
55.282078
 20
59.47793
 30
0.0
  0
VERTEX
  5
B419
  8
ALPHA
 10
55.549194
 20
59.501842
 30
0.0
  0
VERTEX
  5
B41A
  8
ALPHA
 10
55.832766
 20
59.526399
 30
0.0
  0
SEQEND
  5
B41B
  8
ALPHA
  0
POLYLINE
  5
A7CB
  8
ALPHA
 66
     1
 10
0.0
 20
0.0
 30
0.0
  0
VERTEX
  5
B41C
  8
ALPHA
 10
55.825032
 20
59.42583
 30
0.0
  0
VERTEX
  5
B41D
  8
ALPHA
 10
55.466361
 20
59.394914
 30
0.0
  0
VERTEX
  5
B41E
  8
ALPHA
 10
55.129421
 20
59.364643
 30
0.0
  0
VERTEX
  5
B41F
  8
ALPHA
 10
54.819917
 20
59.335016
 30
0.0
  0
VERTEX
  5
B420
  8
ALPHA
 10
54.540535
 20
59.305819
 30
0.0
  0
VERTEX
  5
B421
  8
ALPHA
 10
54.294077
 20
59.276944
 30
0.0
  0
VERTEX
  5
B422
  8
ALPHA
 10
54.083025
 20
59.248348
 30
0.0
  0
SEQEND
  5
B423
  8
ALPHA
  0
POLYLINE
  5
A7CC
  8
ALPHA
 66
     1
 10
0.0
 20
0.0
 30
0.0
  0
VERTEX
  5
B424
  8
ALPHA
 10
56.448207
 20
58.178598
 30
0.0
  0
VERTEX
  5
B425
  8
ALPHA
 10
55.794384
 20
58.123211
 30
0.0
  0
VERTEX
  5
B426
  8
ALPHA
 10
55.465039
 20
58.094787
 30
0.0
  0
VERTEX
  5
B427
  8
ALPHA
 10
55.144697
 20
58.066041
 30
0.0
  0
VERTEX
  5
B428
  8
ALPHA
 10
54.841713
 20
58.037188
 30
0.0
  0
VERTEX
  5
B429
  8
ALPHA
 10
54.563555
 20
58.008356
 30
0.0
  0
VERTEX
  5
B42A
  8
ALPHA
 10
54.315808
 20
57.979653
 30
0.0
  0
VERTEX
  5
B42B
  8
ALPHA
 10
54.101394
 20
57.951057
 30
0.0
  0
SEQEND
  5
B42C
  8
ALPHA
  0
LINE
  5
A7CD
  8
ALPHA
 10
56.734863
 20
56.903242
 30
0.0
 11
55.53322
 21
56.80074
 31
0.0
  0
POLYLINE
  5
A7CE
  8
ALPHA
 66
     1
 10
0.0
 20
0.0
 30
0.0
  0
VERTEX
  5
B42D
  8
ALPHA
 10
55.783953
 20
54.222336
 30
0.0
  0
VERTEX
  5
B42E
  8
ALPHA
 10
55.478199
 20
54.195953
 30
0.0
  0
VERTEX
  5
B42F
  8
ALPHA
 10
55.174592
 20
54.168797
 30
0.0
  0
VERTEX
  5
B430
  8
ALPHA
 10
54.881588
 20
54.141104
 30
0.0
  0
VERTEX
  5
B431
  8
ALPHA
 10
54.607136
 20
54.113067
 30
0.0
  0
VERTEX
  5
B432
  8
ALPHA
 10
54.357842
 20
54.084793
 30
0.0
  0
VERTEX
  5
B433
  8
ALPHA
 10
54.138143
 20
54.056283
 30
0.0
  0
SEQEND
  5
B434
  8
ALPHA
  0
POLYLINE
  5
A7CF
  8
ALPHA
 66
     1
 10
0.0
 20
0.0
 30
0.0
  0
VERTEX
  5
B435
  8
ALPHA
 10
55.59633
 20
55.506221
 30
0.0
  0
VERTEX
  5
B436
  8
ALPHA
 10
55.274258
 20
55.47784
 30
0.0
  0
VERTEX
  5
B437
  8
ALPHA
 10
54.962015
 20
55.448901
 30
0.0
  0
VERTEX
  5
B438
  8
ALPHA
 10
54.667142
 20
55.419424
 30
0.0
  0
VERTEX
  5
B439
  8
ALPHA
 10
54.398705
 20
55.389668
 30
0.0
  0
VERTEX
  5
B43A
  8
ALPHA
 10
54.163269
 20
55.359783
 30
0.0
  0
SEQEND
  5
B43B
  8
ALPHA
  0
LINE
  5
A7D0
  8
ALPHA
 10
54.353566
 20
54.084238
 30
0.0
 11
54.389773
 21
54.183718
 31
0.0
  0
LINE
  5
A7D1
  8
ALPHA
 10
54.84604
 20
55.437298
 30
0.0
 11
54.883235
 21
55.539494
 31
0.0
  0
POLYLINE
  5
A7D2
  8
ALPHA
 66
     1
 10
0.0
 20
0.0
 30
0.0
  0
VERTEX
  5
B43C
  8
ALPHA
 10
55.53322
 20
56.80074
 30
0.0
  0
VERTEX
  5
B43D
  8
ALPHA
 10
55.226788
 20
56.773563
 30
0.0
  0
VERTEX
  5
B43E
  8
ALPHA
 10
54.929348
 20
56.74574
 30
0.0
  0
VERTEX
  5
B43F
  8
ALPHA
 10
54.646925
 20
56.717295
 30
0.0
  0
VERTEX
  5
B440
  8
ALPHA
 10
54.385288
 20
56.688076
 30
0.0
  0
VERTEX
  5
B441
  8
ALPHA
 10
54.151603
 20
56.65817
 30
0.0
  0
SEQEND
  5
B442
  8
ALPHA
  0
LINE
  5
A7D3
  8
ALPHA
 10
57.426146
 20
55.667128
 30
0.0
 11
57.391477
 21
55.762379
 31
0.0
  0
LINE
  5
A7D4
  8
ALPHA
 10
56.392563
 20
59.473869
 30
0.0
 11
55.825032
 21
59.42583
 31
0.0
  0
LINE
  5
A7D5
  8
ALPHA
 10
56.787736
 20
59.507879
 30
0.0
 11
56.392574
 21
59.473869
 31
0.0
  0
LINE
  5
A7D6
  8
ALPHA
 10
55.687811
 20
58.21394
 30
0.0
 11
56.633639
 21
58.294334
 31
0.0
  0
LINE
  5
A7D7
  8
ALPHA
 10
55.62542
 20
56.908528
 30
0.0
 11
56.834797
 21
57.011695
 31
0.0
  0
LINE
  5
A7D8
  8
ALPHA
 10
55.724034
 20
55.617059
 30
0.0
 11
56.572237
 21
55.689074
 31
0.0
  0
LINE
  5
A7D9
  8
ALPHA
 10
56.558444
 20
55.588012
 30
0.0
 11
55.59633
 21
55.506221
 31
0.0
  0
LINE
  5
A7DA
  8
ALPHA
 10
55.861104
 20
54.328834
 30
0.0
 11
56.811497
 21
54.40968
 31
0.0
  0
LINE
  5
A7DB
  8
ALPHA
 10
56.661945
 20
54.29693
 30
0.0
 11
55.783953
 21
54.222336
 31
0.0
  0
POLYLINE
  5
A7DC
  8
ALPHA
 66
     1
 10
0.0
 20
0.0
 30
0.0
  0
VERTEX
  5
B443
  8
ALPHA
 10
55.791613
 20
64.622986
 30
0.0
  0
VERTEX
  5
B444
  8
ALPHA
 10
55.463235
 20
64.594627
 30
0.0
  0
VERTEX
  5
B445
  8
ALPHA
 10
55.139508
 20
64.56558
 30
0.0
  0
VERTEX
  5
B446
  8
ALPHA
 10
54.826631
 20
64.535674
 30
0.0
  0
VERTEX
  5
B447
  8
ALPHA
 10
54.53149
 20
64.504822
 30
0.0
  0
VERTEX
  5
B448
  8
ALPHA
 10
54.263021
 20
64.473026
 30
0.0
  0
SEQEND
  5
B449
  8
ALPHA
  0
POLYLINE
  5
A7DD
  8
ALPHA
 66
     1
 10
0.0
 20
0.0
 30
0.0
  0
VERTEX
  5
B44A
  8
ALPHA
 10
54.065203
 20
64.53316
 30
0.0
  0
VERTEX
  5
B44B
  8
ALPHA
 10
54.169897
 20
64.552131
 30
0.0
  0
VERTEX
  5
B44C
  8
ALPHA
 10
54.313874
 20
64.573744
 30
0.0
  0
VERTEX
  5
B44D
  8
ALPHA
 10
54.493172
 20
64.596861
 30
0.0
  0
VERTEX
  5
B44E
  8
ALPHA
 10
54.705911
 20
64.621139
 30
0.0
  0
VERTEX
  5
B44F
  8
ALPHA
 10
54.950521
 20
64.646426
 30
0.0
  0
VERTEX
  5
B450
  8
ALPHA
 10
55.22522
 20
64.67268
 30
0.0
  0
VERTEX
  5
B451
  8
ALPHA
 10
55.527656
 20
64.699965
 30
0.0
  0
VERTEX
  5
B452
  8
ALPHA
 10
55.853434
 20
64.728174
 30
0.0
  0
SEQEND
  5
B453
  8
ALPHA
  0
POLYLINE
  5
A7DE
  8
ALPHA
 66
     1
 10
0.0
 20
0.0
 30
0.0
  0
VERTEX
  5
B454
  8
ALPHA
 10
54.004789
 20
63.219348
 30
0.0
  0
VERTEX
  5
B455
  8
ALPHA
 10
54.040969
 20
63.228028
 30
0.0
  0
VERTEX
  5
B456
  8
ALPHA
 10
54.200824
 20
63.257096
 30
0.0
  0
VERTEX
  5
B457
  8
ALPHA
 10
54.458668
 20
63.292653
 30
0.0
  0
VERTEX
  5
B458
  8
ALPHA
 10
54.795017
 20
63.330615
 30
0.0
  0
VERTEX
  5
B459
  8
ALPHA
 10
55.18411
 20
63.368858
 30
0.0
  0
VERTEX
  5
B45A
  8
ALPHA
 10
55.594569
 20
63.405832
 30
0.0
  0
VERTEX
  5
B45B
  8
ALPHA
 10
55.999957
 20
63.440637
 30
0.0
  0
VERTEX
  5
B45C
  8
ALPHA
 10
56.760451
 20
63.50524
 30
0.0
  0
SEQEND
  5
B45D
  8
ALPHA
  0
POLYLINE
  5
A7DF
  8
ALPHA
 66
     1
 10
0.0
 20
0.0
 30
0.0
  0
VERTEX
  5
B45E
  8
ALPHA
 10
55.787165
 20
62.022604
 30
0.0
  0
VERTEX
  5
B45F
  8
ALPHA
 10
55.472956
 20
61.99549
 30
0.0
  0
VERTEX
  5
B460
  8
ALPHA
 10
55.163925
 20
61.967819
 30
0.0
  0
VERTEX
  5
B461
  8
ALPHA
 10
54.866184
 20
61.939588
 30
0.0
  0
VERTEX
  5
B462
  8
ALPHA
 10
54.586146
 20
61.910799
 30
0.0
  0
VERTEX
  5
B463
  8
ALPHA
 10
54.332254
 20
61.881688
 30
0.0
  0
VERTEX
  5
B464
  8
ALPHA
 10
54.111116
 20
61.852447
 30
0.0
  0
SEQEND
  5
B465
  8
ALPHA
  0
POLYLINE
  5
A7E0
  8
ALPHA
 66
     1
 10
0.0
 20
0.0
 30
0.0
  0
VERTEX
  5
B466
  8
ALPHA
 10
55.775252
 20
63.321592
 30
0.0
  0
VERTEX
  5
B467
  8
ALPHA
 10
55.412478
 20
63.29016
 30
0.0
  0
VERTEX
  5
B468
  8
ALPHA
 10
55.059071
 20
63.258084
 30
0.0
  0
VERTEX
  5
B469
  8
ALPHA
 10
54.729253
 20
63.225858
 30
0.0
  0
VERTEX
  5
B46A
  8
ALPHA
 10
54.434531
 20
63.193846
 30
0.0
  0
VERTEX
  5
B46B
  8
ALPHA
 10
54.182143
 20
63.162371
 30
0.0
  0
SEQEND
  5
B46C
  8
ALPHA
  0
LINE
  5
A7E1
  8
ALPHA
 10
56.518289
 20
60.784567
 30
0.0
 11
55.516935
 21
60.699338
 31
0.0
  0
POLYLINE
  5
A7E2
  8
ALPHA
 66
     1
 10
0.0
 20
0.0
 30
0.0
  0
VERTEX
  5
B46D
  8
ALPHA
 10
54.000654
 20
61.918469
 30
0.0
  0
VERTEX
  5
B46E
  8
ALPHA
 10
53.997463
 20
61.917309
 30
0.0
  0
VERTEX
  5
B46F
  8
ALPHA
 10
54.010902
 20
61.92094
 30
0.0
  0
VERTEX
  5
B470
  8
ALPHA
 10
54.069672
 20
61.934067
 30
0.0
  0
VERTEX
  5
B471
  8
ALPHA
 10
54.165879
 20
61.951469
 30
0.0
  0
VERTEX
  5
B472
  8
ALPHA
 10
54.294947
 20
61.971106
 30
0.0
  0
VERTEX
  5
B473
  8
ALPHA
 10
54.453039
 20
61.991945
 30
0.0
  0
VERTEX
  5
B474
  8
ALPHA
 10
54.63744
 20
62.013623
 30
0.0
  0
VERTEX
  5
B475
  8
ALPHA
 10
54.846139
 20
62.035903
 30
0.0
  0
VERTEX
  5
B476
  8
ALPHA
 10
55.077042
 20
62.05874
 30
0.0
  0
VERTEX
  5
B477
  8
ALPHA
 10
55.327851
 20
62.082094
 30
0.0
  0
VERTEX
  5
B478
  8
ALPHA
 10
55.595976
 20
62.105963
 30
0.0
  0
SEQEND
  5
B479
  8
ALPHA
  0
POLYLINE
  5
A7E3
  8
ALPHA
 66
     1
 10
0.0
 20
0.0
 30
0.0
  0
VERTEX
  5
B47A
  8
ALPHA
 10
54.002974
 20
60.619352
 30
0.0
  0
VERTEX
  5
B47B
  8
ALPHA
 10
53.998999
 20
60.617869
 30
0.0
  0
VERTEX
  5
B47C
  8
ALPHA
 10
54.006594
 20
60.619803
 30
0.0
  0
VERTEX
  5
B47D
  8
ALPHA
 10
54.057888
 20
60.631641
 30
0.0
  0
VERTEX
  5
B47E
  8
ALPHA
 10
54.145168
 20
60.64799
 30
0.0
  0
VERTEX
  5
B47F
  8
ALPHA
 10
54.265137
 20
60.666832
 30
0.0
  0
VERTEX
  5
B480
  8
ALPHA
 10
54.415882
 20
60.687285
 30
0.0
  0
VERTEX
  5
B481
  8
ALPHA
 10
54.595943
 20
60.70892
 30
0.0
  0
VERTEX
  5
B482
  8
ALPHA
 10
54.804653
 20
60.731629
 30
0.0
  0
VERTEX
  5
B483
  8
ALPHA
 10
55.041271
 20
60.755305
 30
0.0
  0
VERTEX
  5
B484
  8
ALPHA
 10
55.30396
 20
60.779926
 30
0.0
  0
VERTEX
  5
B485
  8
ALPHA
 10
55.589692
 20
60.805406
 30
0.0
  0
VERTEX
  5
B486
  8
ALPHA
 10
55.894523
 20
60.831682
 30
0.0
  0
SEQEND
  5
B487
  8
ALPHA
  0
POLYLINE
  5
A7E4
  8
ALPHA
 66
     1
 10
0.0
 20
0.0
 30
0.0
  0
VERTEX
  5
B488
  8
ALPHA
 10
54.263021
 20
64.473026
 30
0.0
  0
VERTEX
  5
B489
  8
ALPHA
 10
54.027724
 20
64.439961
 30
0.0
  0
VERTEX
  5
B48A
  8
ALPHA
 10
53.826458
 20
64.404254
 30
0.0
  0
VERTEX
  5
B48B
  8
ALPHA
 10
53.73067
 20
64.382684
 30
0.0
  0
SEQEND
  5
B48C
  8
ALPHA
  0
LINE
  5
A7E5
  8
ALPHA
 10
54.182143
 20
63.162371
 30
0.0
 11
53.973046
 21
63.131176
 31
0.0
  0
POLYLINE
  5
A7E6
  8
ALPHA
 66
     1
 10
0.0
 20
0.0
 30
0.0
  0
VERTEX
  5
B48D
  8
ALPHA
 10
55.516935
 20
60.699338
 30
0.0
  0
VERTEX
  5
B48E
  8
ALPHA
 10
55.189889
 20
60.670205
 30
0.0
  0
VERTEX
  5
B48F
  8
ALPHA
 10
54.879966
 20
60.640944
 30
0.0
  0
VERTEX
  5
B490
  8
ALPHA
 10
54.594965
 20
60.611746
 30
0.0
  0
VERTEX
  5
B491
  8
ALPHA
 10
54.34073
 20
60.582721
 30
0.0
  0
VERTEX
  5
B492
  8
ALPHA
 10
54.120526
 20
60.553803
 30
0.0
  0
SEQEND
  5
B493
  8
ALPHA
  0
POLYLINE
  5
A7E7
  8
ALPHA
 66
     1
 10
0.0
 20
0.0
 30
0.0
  0
VERTEX
  5
B494
  8
ALPHA
 10
54.005305
 20
64.52027
 30
0.0
  0
VERTEX
  5
B495
  8
ALPHA
 10
54.0006
 20
64.518444
 30
0.0
  0
VERTEX
  5
B496
  8
ALPHA
 10
54.065203
 20
64.53316
 30
0.0
  0
SEQEND
  5
B497
  8
ALPHA
  0
POLYLINE
  5
A7E8
  8
ALPHA
 66
     1
 10
0.0
 20
0.0
 30
0.0
  0
VERTEX
  5
B498
  8
ALPHA
 10
54.001062
 20
63.218617
 30
0.0
  0
VERTEX
  5
B499
  8
ALPHA
 10
53.997861
 20
63.217371
 30
0.0
  0
VERTEX
  5
B49A
  8
ALPHA
 10
54.001631
 20
63.218467
 30
0.0
  0
SEQEND
  5
B49B
  8
ALPHA
  0
LINE
  5
A7E9
  8
ALPHA
 10
56.738644
 20
64.703574
 30
0.0
 11
55.791613
 21
64.622986
 31
0.0
  0
LINE
  5
A7EA
  8
ALPHA
 10
55.595976
 20
62.105963
 30
0.0
 11
56.777627
 21
62.206725
 31
0.0
  0
LINE
  5
A7EB
  8
ALPHA
 10
56.703388
 20
62.100506
 30
0.0
 11
55.787165
 21
62.022604
 31
0.0
  0
LINE
  5
A7EC
  8
ALPHA
 10
54.327914
 20
73.223869
 30
0.0
 11
53.127926
 21
73.223869
 31
0.0
  0
POLYLINE
  5
A7ED
  8
ALPHA
 66
     1
 10
0.0
 20
0.0
 30
0.0
  0
VERTEX
  5
B49C
  8
ALPHA
 10
56.374484
 20
69.940863
 30
0.0
  0
VERTEX
  5
B49D
  8
ALPHA
 10
55.653522
 20
69.865281
 30
0.0
  0
VERTEX
  5
B49E
  8
ALPHA
 10
55.299298
 20
69.827598
 30
0.0
  0
VERTEX
  5
B49F
  8
ALPHA
 10
54.963551
 20
69.790365
 30
0.0
  0
VERTEX
  5
B4A0
  8
ALPHA
 10
54.655315
 20
69.753842
 30
0.0
  0
VERTEX
  5
B4A1
  8
ALPHA
 10
54.381196
 20
69.718135
 30
0.0
  0
VERTEX
  5
B4A2
  8
ALPHA
 10
54.144771
 20
69.68318
 30
0.0
  0
VERTEX
  5
B4A3
  8
ALPHA
 10
53.945911
 20
69.648504
 30
0.0
  0
VERTEX
  5
B4A4
  8
ALPHA
 10
53.778494
 20
69.612324
 30
0.0
  0
VERTEX
  5
B4A5
  8
ALPHA
 10
53.632046
 20
69.570258
 30
0.0
  0
VERTEX
  5
B4A6
  8
ALPHA
 10
53.48881
 20
69.510037
 30
0.0
  0
VERTEX
  5
B4A7
  8
ALPHA
 10
53.333059
 20
69.40225
 30
0.0
  0
VERTEX
  5
B4A8
  8
ALPHA
 10
53.19804
 20
69.22509
 30
0.0
  0
VERTEX
  5
B4A9
  8
ALPHA
 10
53.130494
 20
68.995529
 30
0.0
  0
VERTEX
  5
B4AA
  8
ALPHA
 10
53.127915
 20
68.940379
 30
0.0
  0
SEQEND
  5
B4AB
  8
ALPHA
  0
POLYLINE
  5
A7EE
  8
ALPHA
 66
     1
 10
0.0
 20
0.0
 30
0.0
  0
VERTEX
  5
B4AC
  8
ALPHA
 10
54.142193
 20
68.356863
 30
0.0
  0
VERTEX
  5
B4AD
  8
ALPHA
 10
53.948232
 20
68.327
 30
0.0
  0
VERTEX
  5
B4AE
  8
ALPHA
 10
53.786014
 20
68.295654
 30
0.0
  0
VERTEX
  5
B4AF
  8
ALPHA
 10
53.642842
 20
68.258315
 30
0.0
  0
VERTEX
  5
B4B0
  8
ALPHA
 10
53.494288
 20
68.19977
 30
0.0
  0
VERTEX
  5
B4B1
  8
ALPHA
 10
53.332286
 20
68.090113
 30
0.0
  0
VERTEX
  5
B4B2
  8
ALPHA
 10
53.19832
 20
67.915145
 30
0.0
  0
VERTEX
  5
B4B3
  8
ALPHA
 10
53.131074
 20
67.691557
 30
0.0
  0
VERTEX
  5
B4B4
  8
ALPHA
 10
53.127915
 20
67.630649
 30
0.0
  0
SEQEND
  5
B4B5
  8
ALPHA
  0
POLYLINE
  5
A7EF
  8
ALPHA
 66
     1
 10
0.0
 20
0.0
 30
0.0
  0
VERTEX
  5
B4B6
  8
ALPHA
 10
54.102758
 20
67.051236
 30
0.0
  0
VERTEX
  5
B4B7
  8
ALPHA
 10
53.922612
 20
67.022533
 30
0.0
  0
VERTEX
  5
B4B8
  8
ALPHA
 10
53.766538
 20
66.991252
 30
0.0
  0
VERTEX
  5
B4B9
  8
ALPHA
 10
53.629371
 20
66.954041
 30
0.0
  0
VERTEX
  5
B4BA
  8
ALPHA
 10
53.491066
 20
66.898139
 30
0.0
  0
VERTEX
  5
B4BB
  8
ALPHA
 10
53.335186
 20
66.792736
 30
0.0
  0
VERTEX
  5
B4BC
  8
ALPHA
 10
53.199813
 20
66.618004
 30
0.0
  0
VERTEX
  5
B4BD
  8
ALPHA
 10
53.13102
 20
66.391086
 30
0.0
  0
VERTEX
  5
B4BE
  8
ALPHA
 10
53.127915
 20
66.330651
 30
0.0
  0
SEQEND
  5
B4BF
  8
ALPHA
  0
POLYLINE
  5
A7F0
  8
ALPHA
 66
     1
 10
0.0
 20
0.0
 30
0.0
  0
VERTEX
  5
B4C0
  8
ALPHA
 10
53.371258
 20
71.46851
 30
0.0
  0
VERTEX
  5
B4C1
  8
ALPHA
 10
53.422402
 20
71.34158
 30
0.0
  0
VERTEX
  5
B4C2
  8
ALPHA
 10
53.727491
 20
70.815084
 30
0.0
  0
VERTEX
  5
B4C3
  8
ALPHA
 10
54.147048
 20
70.376352
 30
0.0
  0
VERTEX
  5
B4C4
  8
ALPHA
 10
54.657839
 20
70.031871
 30
0.0
  0
VERTEX
  5
B4C5
  8
ALPHA
 10
55.163238
 20
69.812494
 30
0.0
  0
SEQEND
  5
B4C6
  8
ALPHA
  0
POLYLINE
  5
A7F1
  8
ALPHA
 66
     1
 10
0.0
 20
0.0
 30
0.0
  0
VERTEX
  5
B4C7
  8
ALPHA
 10
53.127915
 20
68.940508
 30
0.0
  0
VERTEX
  5
B4C8
  8
ALPHA
 10
53.132706
 20
68.86527
 30
0.0
  0
VERTEX
  5
B4C9
  8
ALPHA
 10
53.204776
 20
68.643078
 30
0.0
  0
VERTEX
  5
B4CA
  8
ALPHA
 10
53.339869
 20
68.472621
 30
0.0
  0
VERTEX
  5
B4CB
  8
ALPHA
 10
53.4972
 20
68.367069
 30
0.0
  0
VERTEX
  5
B4CC
  8
ALPHA
 10
53.64122
 20
68.308932
 30
0.0
  0
VERTEX
  5
B4CD
  8
ALPHA
 10
53.737169
 20
68.282914
 30
0.0
  0
SEQEND
  5
B4CE
  8
ALPHA
  0
POLYLINE
  5
A7F2
  8
ALPHA
 66
     1
 10
0.0
 20
0.0
 30
0.0
  0
VERTEX
  5
B4CF
  8
ALPHA
 10
53.127915
 20
66.330758
 30
0.0
  0
VERTEX
  5
B4D0
  8
ALPHA
 10
53.133029
 20
66.253178
 30
0.0
  0
VERTEX
  5
B4D1
  8
ALPHA
 10
53.20918
 20
66.026153
 30
0.0
  0
VERTEX
  5
B4D2
  8
ALPHA
 10
53.349699
 20
65.855953
 30
0.0
  0
VERTEX
  5
B4D3
  8
ALPHA
 10
53.504569
 20
65.756588
 30
0.0
  0
VERTEX
  5
B4D4
  8
ALPHA
 10
53.639867
 20
65.704016
 30
0.0
  0
VERTEX
  5
B4D5
  8
ALPHA
 10
53.728157
 20
65.680641
 30
0.0
  0
SEQEND
  5
B4D6
  8
ALPHA
  0
POLYLINE
  5
A7F3
  8
ALPHA
 66
     1
 10
0.0
 20
0.0
 30
0.0
  0
VERTEX
  5
B4D7
  8
ALPHA
 10
53.127915
 20
67.630756
 30
0.0
  0
VERTEX
  5
B4D8
  8
ALPHA
 10
53.133168
 20
67.552102
 30
0.0
  0
VERTEX
  5
B4D9
  8
ALPHA
 10
53.210093
 20
67.324539
 30
0.0
  0
VERTEX
  5
B4DA
  8
ALPHA
 10
53.351578
 20
67.154361
 30
0.0
  0
VERTEX
  5
B4DB
  8
ALPHA
 10
53.507276
 20
67.055297
 30
0.0
  0
VERTEX
  5
B4DC
  8
ALPHA
 10
53.644346
 20
67.002617
 30
0.0
  0
VERTEX
  5
B4DD
  8
ALPHA
 10
53.727995
 20
66.980789
 30
0.0
  0
SEQEND
  5
B4DE
  8
ALPHA
  0
POLYLINE
  5
A7F4
  8
ALPHA
 66
     1
 10
0.0
 20
0.0
 30
0.0
  0
VERTEX
  5
B4DF
  8
ALPHA
 10
53.128291
 20
73.223955
 30
0.0
  0
VERTEX
  5
B4E0
  8
ALPHA
 10
53.133598
 20
72.875221
 30
0.0
  0
VERTEX
  5
B4E1
  8
ALPHA
 10
53.168972
 20
72.360778
 30
0.0
  0
VERTEX
  5
B4E2
  8
ALPHA
 10
53.251171
 20
71.869537
 30
0.0
  0
VERTEX
  5
B4E3
  8
ALPHA
 10
53.372171
 20
71.466061
 30
0.0
  0
SEQEND
  5
B4E4
  8
ALPHA
  0
POLYLINE
  5
A7F5
  8
ALPHA
 66
     1
 10
0.0
 20
0.0
 30
0.0
  0
VERTEX
  5
B4E5
  8
ALPHA
 10
56.181436
 20
70.82342
 30
0.0
  0
VERTEX
  5
B4E6
  8
ALPHA
 10
55.933184
 20
70.842863
 30
0.0
  0
VERTEX
  5
B4E7
  8
ALPHA
 10
55.582656
 20
70.929897
 30
0.0
  0
VERTEX
  5
B4E8
  8
ALPHA
 10
55.257984
 20
71.070211
 30
0.0
  0
VERTEX
  5
B4E9
  8
ALPHA
 10
54.978128
 20
71.246662
 30
0.0
  0
VERTEX
  5
B4EA
  8
ALPHA
 10
54.765744
 20
71.439076
 30
0.0
  0
VERTEX
  5
B4EB
  8
ALPHA
 10
54.607587
 20
71.653361
 30
0.0
  0
VERTEX
  5
B4EC
  8
ALPHA
 10
54.494762
 20
71.89042
 30
0.0
  0
SEQEND
  5
B4ED
  8
ALPHA
  0
LINE
  5
A7F6
  8
ALPHA
 10
56.495677
 20
68.582643
 30
0.0
 11
55.542383
 21
68.501539
 31
0.0
  0
POLYLINE
  5
A7F7
  8
ALPHA
 66
     1
 10
0.0
 20
0.0
 30
0.0
  0
VERTEX
  5
B4EE
  8
ALPHA
 10
55.696458
 20
67.21484
 30
0.0
  0
VERTEX
  5
B4EF
  8
ALPHA
 10
55.395151
 20
67.188629
 30
0.0
  0
VERTEX
  5
B4F0
  8
ALPHA
 10
55.09858
 20
67.161774
 30
0.0
  0
VERTEX
  5
B4F1
  8
ALPHA
 10
54.814686
 20
67.134488
 30
0.0
  0
VERTEX
  5
B4F2
  8
ALPHA
 10
54.550632
 20
67.106924
 30
0.0
  0
VERTEX
  5
B4F3
  8
ALPHA
 10
54.312134
 20
67.079209
 30
0.0
  0
VERTEX
  5
B4F4
  8
ALPHA
 10
54.102758
 20
67.051236
 30
0.0
  0
SEQEND
  5
B4F5
  8
ALPHA
  0
POLYLINE
  5
A7F8
  8
ALPHA
 66
     1
 10
0.0
 20
0.0
 30
0.0
  0
VERTEX
  5
B4F6
  8
ALPHA
 10
55.798703
 20
65.923586
 30
0.0
  0
VERTEX
  5
B4F7
  8
ALPHA
 10
55.490198
 20
65.896988
 30
0.0
  0
VERTEX
  5
B4F8
  8
ALPHA
 10
55.186537
 20
65.869897
 30
0.0
  0
VERTEX
  5
B4F9
  8
ALPHA
 10
54.893329
 20
65.842246
 30
0.0
  0
VERTEX
  5
B4FA
  8
ALPHA
 10
54.616138
 20
65.814016
 30
0.0
  0
VERTEX
  5
B4FB
  8
ALPHA
 10
54.360205
 20
65.785076
 30
0.0
  0
VERTEX
  5
B4FC
  8
ALPHA
 10
54.132256
 20
65.755471
 30
0.0
  0
SEQEND
  5
B4FD
  8
ALPHA
  0
POLYLINE
  5
A7F9
  8
ALPHA
 66
     1
 10
0.0
 20
0.0
 30
0.0
  0
VERTEX
  5
B4FE
  8
ALPHA
 10
54.001685
 20
67.118869
 30
0.0
  0
VERTEX
  5
B4FF
  8
ALPHA
 10
53.998119
 20
67.117537
 30
0.0
  0
VERTEX
  5
B500
  8
ALPHA
 10
54.009666
 20
67.12061
 30
0.0
  0
VERTEX
  5
B501
  8
ALPHA
 10
54.06891
 20
67.133908
 30
0.0
  0
VERTEX
  5
B502
  8
ALPHA
 10
54.167286
 20
67.151697
 30
0.0
  0
VERTEX
  5
B503
  8
ALPHA
 10
54.298492
 20
67.171592
 30
0.0
  0
VERTEX
  5
B504
  8
ALPHA
 10
54.459012
 20
67.19269
 30
0.0
  0
VERTEX
  5
B505
  8
ALPHA
 10
54.646453
 20
67.214625
 30
0.0
  0
VERTEX
  5
B506
  8
ALPHA
 10
54.858632
 20
67.237184
 30
0.0
  0
VERTEX
  5
B507
  8
ALPHA
 10
55.093285
 20
67.260301
 30
0.0
  0
VERTEX
  5
B508
  8
ALPHA
 10
55.347853
 20
67.283912
 30
0.0
  0
VERTEX
  5
B509
  8
ALPHA
 10
55.619501
 20
67.307996
 30
0.0
  0
SEQEND
  5
B50A
  8
ALPHA
  0
POLYLINE
  5
A7FA
  8
ALPHA
 66
     1
 10
0.0
 20
0.0
 30
0.0
  0
VERTEX
  5
B50B
  8
ALPHA
 10
54.002834
 20
65.819301
 30
0.0
  0
VERTEX
  5
B50C
  8
ALPHA
 10
53.998881
 20
65.817819
 30
0.0
  0
VERTEX
  5
B50D
  8
ALPHA
 10
54.008614
 20
65.820332
 30
0.0
  0
VERTEX
  5
B50E
  8
ALPHA
 10
54.068329
 20
65.833781
 30
0.0
  0
VERTEX
  5
B50F
  8
ALPHA
 10
54.167544
 20
65.851742
 30
0.0
  0
VERTEX
  5
B510
  8
ALPHA
 10
54.300028
 20
65.871809
 30
0.0
  0
VERTEX
  5
B511
  8
ALPHA
 10
54.46245
 20
65.893121
 30
0.0
  0
VERTEX
  5
B512
  8
ALPHA
 10
54.652414
 20
65.915272
 30
0.0
  0
VERTEX
  5
B513
  8
ALPHA
 10
54.867666
 20
65.93811
 30
0.0
  0
VERTEX
  5
B514
  8
ALPHA
 10
55.105831
 20
65.961485
 30
0.0
  0
VERTEX
  5
B515
  8
ALPHA
 10
55.364235
 20
65.985397
 30
0.0
  0
VERTEX
  5
B516
  8
ALPHA
 10
55.639772
 20
66.00976
 30
0.0
  0
SEQEND
  5
B517
  8
ALPHA
  0
POLYLINE
  5
A7FB
  8
ALPHA
 66
     1
 10
0.0
 20
0.0
 30
0.0
  0
VERTEX
  5
B518
  8
ALPHA
 10
54.019345
 20
68.441061
 30
0.0
  0
VERTEX
  5
B519
  8
ALPHA
 10
54.016831
 20
68.440094
 30
0.0
  0
VERTEX
  5
B51A
  8
ALPHA
 10
54.037575
 20
68.446238
 30
0.0
  0
VERTEX
  5
B51B
  8
ALPHA
 10
54.105272
 20
68.462524
 30
0.0
  0
VERTEX
  5
B51C
  8
ALPHA
 10
54.210986
 20
68.483385
 30
0.0
  0
VERTEX
  5
B51D
  8
ALPHA
 10
54.350129
 20
68.506803
 30
0.0
  0
VERTEX
  5
B51E
  8
ALPHA
 10
54.519448
 20
68.531854
 30
0.0
  0
VERTEX
  5
B51F
  8
ALPHA
 10
54.715804
 20
68.558086
 30
0.0
  0
VERTEX
  5
B520
  8
ALPHA
 10
54.935987
 20
68.585199
 30
0.0
  0
VERTEX
  5
B521
  8
ALPHA
 10
55.177407
 20
68.613129
 30
0.0
  0
VERTEX
  5
B522
  8
ALPHA
 10
55.437432
 20
68.641811
 30
0.0
  0
VERTEX
  5
B523
  8
ALPHA
 10
55.713184
 20
68.671309
 30
0.0
  0
SEQEND
  5
B524
  8
ALPHA
  0
POLYLINE
  5
A7FC
  8
ALPHA
 66
     1
 10
0.0
 20
0.0
 30
0.0
  0
VERTEX
  5
B525
  8
ALPHA
 10
55.542383
 20
68.501539
 30
0.0
  0
VERTEX
  5
B526
  8
ALPHA
 10
55.225736
 20
68.473459
 30
0.0
  0
VERTEX
  5
B527
  8
ALPHA
 10
54.921066
 20
68.444949
 30
0.0
  0
VERTEX
  5
B528
  8
ALPHA
 10
54.633422
 20
68.41586
 30
0.0
  0
VERTEX
  5
B529
  8
ALPHA
 10
54.371463
 20
68.386426
 30
0.0
  0
VERTEX
  5
B52A
  8
ALPHA
 10
54.142193
 20
68.356863
 30
0.0
  0
SEQEND
  5
B52B
  8
ALPHA
  0
POLYLINE
  5
A7FD
  8
ALPHA
 66
     1
 10
0.0
 20
0.0
 30
0.0
  0
VERTEX
  5
B52C
  8
ALPHA
 10
55.168845
 20
68.612141
 30
0.0
  0
VERTEX
  5
B52D
  8
ALPHA
 10
55.164312
 20
68.555164
 30
0.0
  0
VERTEX
  5
B52E
  8
ALPHA
 10
55.14228
 20
68.46566
 30
0.0
  0
SEQEND
  5
B52F
  8
ALPHA
  0
LINE
  5
A7FE
  8
ALPHA
 10
56.17802
 20
70.823871
 30
0.0
 11
56.177977
 21
70.823871
 31
0.0
  0
LINE
  5
A7FF
  8
ALPHA
 10
55.713184
 20
68.671309
 30
0.0
 11
56.601122
 21
68.764938
 31
0.0
  0
LINE
  5
A800
  8
ALPHA
 10
55.619501
 20
67.307996
 30
0.0
 11
56.809295
 21
67.409488
 31
0.0
  0
LINE
  5
A801
  8
ALPHA
 10
56.568917
 20
67.288918
 30
0.0
 11
55.696458
 21
67.21484
 31
0.0
  0
LINE
  5
A802
  8
ALPHA
 10
56.700713
 20
66.000285
 30
0.0
 11
55.798703
 21
65.923586
 31
0.0
  0
POLYLINE
  5
A803
  8
ALPHA
 66
     1
 10
0.0
 20
0.0
 30
0.0
  0
VERTEX
  5
B530
  8
ALPHA
 10
55.639772
 20
66.00976
 30
0.0
  0
VERTEX
  5
B531
  8
ALPHA
 10
56.228841
 20
66.05999
 30
0.0
  0
VERTEX
  5
B532
  8
ALPHA
 10
56.845217
 20
66.112606
 30
0.0
  0
SEQEND
  5
B533
  8
ALPHA
  0
POLYLINE
  5
A804
  8
ALPHA
 66
     1
 10
0.0
 20
0.0
 30
0.0
  0
VERTEX
  5
B534
  8
ALPHA
 10
56.177923
 20
70.223877
 30
0.0
  0
VERTEX
  5
B535
  8
ALPHA
 10
56.168653
 20
70.421641
 30
0.0
  0
VERTEX
  5
B536
  8
ALPHA
 10
56.182972
 20
70.600434
 30
0.0
  0
SEQEND
  5
B537
  8
ALPHA
  0
LINE
  5
A805
  8
ALPHA
 10
56.182972
 20
70.600434
 30
0.0
 11
56.174163
 21
70.733701
 31
0.0
  0
POLYLINE
  5
A806
  8
ALPHA
 66
     1
 10
0.0
 20
0.0
 30
0.0
  0
VERTEX
  5
B538
  8
ALPHA
 10
56.174163
 20
70.733701
 30
0.0
  0
VERTEX
  5
B539
  8
ALPHA
 10
56.179889
 20
70.810551
 30
0.0
  0
VERTEX
  5
B53A
  8
ALPHA
 10
56.17802
 20
70.823871
 30
0.0
  0
SEQEND
  5
B53B
  8
ALPHA
  0
POLYLINE
  5
A807
  8
ALPHA
 66
     1
 10
0.0
 20
0.0
 30
0.0
  0
VERTEX
  5
B53C
  8
ALPHA
 10
56.179244
 20
69.920346
 30
0.0
  0
VERTEX
  5
B53D
  8
ALPHA
 10
56.182349
 20
70.018723
 30
0.0
  0
VERTEX
  5
B53E
  8
ALPHA
 10
56.177923
 20
70.223877
 30
0.0
  0
SEQEND
  5
B53F
  8
ALPHA
  0
POLYLINE
  5
A808
  8
ALPHA
 66
     1
 10
0.0
 20
0.0
 30
0.0
  0
VERTEX
  5
B540
  8
ALPHA
 10
54.494418
 20
71.891344
 30
0.0
  0
VERTEX
  5
B541
  8
ALPHA
 10
54.410629
 20
72.182156
 30
0.0
  0
VERTEX
  5
B542
  8
ALPHA
 10
54.355189
 20
72.549195
 30
0.0
  0
VERTEX
  5
B543
  8
ALPHA
 10
54.330815
 20
72.962319
 30
0.0
  0
VERTEX
  5
B544
  8
ALPHA
 10
54.327549
 20
73.223826
 30
0.0
  0
SEQEND
  5
B545
  8
ALPHA
  0
ARC
  5
A809
  8
ALPHA
 10
59.177918
 20
44.223875
 30
0.0
 40
4.0
 50
295.869732
 51
88.623278
  0
LINE
  5
A80A
  8
ALPHA
 10
62.877922
 20
32.223883
 30
0.0
 11
62.877922
 21
30.073877
 31
0.0
  0
LINE
  5
A80B
  8
ALPHA
 10
59.355527
 20
32.223883
 30
0.0
 11
59.355527
 21
30.073877
 31
0.0
  0
LINE
  5
A80C
  8
ALPHA
 10
59.250565
 20
32.223883
 30
0.0
 11
59.250565
 21
30.073877
 31
0.0
  0
LINE
  5
A80D
  8
ALPHA
 10
59.22632
 20
30.073877
 30
0.0
 11
59.22632
 21
32.223883
 31
0.0
  0
LINE
  5
A80E
  8
ALPHA
 10
59.105642
 20
30.073877
 30
0.0
 11
59.105642
 21
32.223883
 31
0.0
  0
LINE
  5
A80F
  8
ALPHA
 10
58.913357
 20
30.073877
 30
0.0
 11
58.913357
 21
32.223883
 31
0.0
  0
LINE
  5
A810
  8
ALPHA
 10
58.704303
 20
30.073877
 30
0.0
 11
58.704303
 21
32.223883
 31
0.0
  0
LINE
  5
A811
  8
ALPHA
 10
58.294467
 20
30.073877
 30
0.0
 11
58.294467
 21
32.223883
 31
0.0
  0
LINE
  5
A812
  8
ALPHA
 10
58.101913
 20
30.073877
 30
0.0
 11
58.101913
 21
32.223883
 31
0.0
  0
LINE
  5
A813
  8
ALPHA
 10
57.720598
 20
32.223883
 30
0.0
 11
57.720598
 21
30.073877
 31
0.0
  0
LINE
  5
A814
  8
ALPHA
 10
57.927918
 20
24.473875
 30
0.0
 11
57.927918
 21
24.623875
 31
0.0
  0
LINE
  5
A815
  8
ALPHA
 10
61.677923
 20
30.073877
 30
0.0
 11
61.677923
 21
28.773879
 31
0.0
  0
LINE
  5
A816
  8
ALPHA
 10
62.52792
 20
25.623872
 30
0.0
 11
62.227923
 21
24.623871
 31
0.0
  0
ARC
  5
A817
  8
ALPHA
 10
62.177918
 20
27.023875
 30
0.0
 40
0.5
 50
270.0
 51
90.0
  0
LINE
  5
A818
  8
ALPHA
 10
62.52792
 20
26.423875
 30
0.0
 11
62.52792
 21
25.623872
 31
0.0
  0
LINE
  5
A819
  8
ALPHA
 10
62.52792
 20
28.773879
 30
0.0
 11
62.52792
 21
27.623885
 31
0.0
  0
LINE
  5
A81A
  8
ALPHA
 10
61.777918
 20
26.523875
 30
0.0
 11
61.777918
 21
26.423875
 31
0.0
  0
LINE
  5
A81B
  8
ALPHA
 10
61.777918
 20
27.623875
 30
0.0
 11
61.777918
 21
27.523875
 31
0.0
  0
ARC
  5
A81C
  8
ALPHA
 10
61.267925
 20
39.913882
 30
0.0
 40
0.790007
 50
115.869732
 51
270.0
  0
LINE
  5
A81D
  8
ALPHA
 10
63.677914
 20
35.823869
 30
0.0
 11
63.677914
 21
38.023869
 31
0.0
  0
LINE
  5
A81E
  8
ALPHA
 10
64.17792
 20
33.223873
 30
0.0
 11
63.677914
 21
33.723879
 31
0.0
  0
ARC
  5
A81F
  8
ALPHA
 10
63.177918
 20
35.023875
 30
0.0
 40
0.6
 50
216.035534
 51
270.0
  0
ARC
  5
A820
  8
ALPHA
 10
63.177918
 20
35.023875
 30
0.0
 40
0.6
 50
90.0
 51
143.964466
  0
ARC
  5
A821
  8
ALPHA
 10
63.477918
 20
33.923875
 30
0.0
 40
0.2
 50
270.0
 51
0.0
  0
ARC
  5
A822
  8
ALPHA
 10
63.477918
 20
34.223875
 30
0.0
 40
0.2
 50
0.0
 51
90.0
  0
ARC
  5
A823
  8
ALPHA
 10
63.477918
 20
35.823875
 30
0.0
 40
0.2
 50
270.0
 51
0.0
  0
ARC
  5
A824
  8
ALPHA
 10
62.927918
 20
35.023875
 30
0.0
 40
0.35
 50
270.0
 51
90.0
  0
LINE
  5
A825
  8
ALPHA
 10
63.677914
 20
33.923877
 30
0.0
 11
63.677914
 21
34.223885
 31
0.0
  0
LINE
  5
A826
  8
ALPHA
 10
64.17792
 20
32.223883
 30
0.0
 11
64.17792
 21
33.223873
 31
0.0
  0
ARC
  5
A827
  8
ALPHA
 10
62.577918
 20
38.023875
 30
0.0
 40
1.1
 50
0.0
 51
90.0
  0
POLYLINE
  5
A828
  8
ALPHA
 66
     1
 10
0.0
 20
0.0
 30
0.0
  0
VERTEX
  5
B546
  8
ALPHA
 10
58.252218
 20
64.960012
 30
0.0
  0
VERTEX
  5
B547
  8
ALPHA
 10
58.434427
 20
64.989059
 30
0.0
  0
VERTEX
  5
B548
  8
ALPHA
 10
58.588825
 20
65.020018
 30
0.0
  0
VERTEX
  5
B549
  8
ALPHA
 10
58.722414
 20
65.056047
 30
0.0
  0
VERTEX
  5
B54A
  8
ALPHA
 10
58.856649
 20
65.109199
 30
0.0
  0
VERTEX
  5
B54B
  8
ALPHA
 10
59.010563
 20
65.209746
 30
0.0
  0
VERTEX
  5
B54C
  8
ALPHA
 10
59.148826
 20
65.380031
 30
0.0
  0
VERTEX
  5
B54D
  8
ALPHA
 10
59.223097
 20
65.605424
 30
0.0
  0
VERTEX
  5
B54E
  8
ALPHA
 10
59.22792
 20
65.680748
 30
0.0
  0
SEQEND
  5
B54F
  8
ALPHA
  0
POLYLINE
  5
A829
  8
ALPHA
 66
     1
 10
0.0
 20
0.0
 30
0.0
  0
VERTEX
  5
B550
  8
ALPHA
 10
58.861655
 20
53.411688
 30
0.0
  0
VERTEX
  5
B551
  8
ALPHA
 10
58.900015
 20
53.432119
 30
0.0
  0
VERTEX
  5
B552
  8
ALPHA
 10
59.047108
 20
53.543924
 30
0.0
  0
VERTEX
  5
B553
  8
ALPHA
 10
59.165798
 20
53.712834
 30
0.0
  0
VERTEX
  5
B554
  8
ALPHA
 10
59.225052
 20
53.922715
 30
0.0
  0
VERTEX
  5
B555
  8
ALPHA
 10
59.22792
 20
53.980723
 30
0.0
  0
SEQEND
  5
B556
  8
ALPHA
  0
ARC
  5
A82A
  8
ALPHA
 10
59.278827
 20
48.422662
 30
0.0
 40
0.2
 50
216.869898
 51
268.623278
  0
LINE
  5
A82B
  8
ALPHA
 10
58.177918
 20
49.349739
 30
0.0
 11
58.177918
 21
49.223875
 31
0.0
  0
LINE
  5
A82C
  8
ALPHA
 10
58.177918
 20
50.649689
 30
0.0
 11
58.177918
 21
50.558155
 31
0.0
  0
LINE
  5
A82D
  8
ALPHA
 10
58.177918
 20
51.950092
 30
0.0
 11
58.177918
 21
51.858198
 31
0.0
  0
LINE
  5
A82E
  8
ALPHA
 10
58.177918
 20
53.249956
 30
0.0
 11
58.177918
 21
53.158012
 31
0.0
  0
POLYLINE
  5
A82F
  8
ALPHA
 66
     1
 10
0.0
 20
0.0
 30
0.0
  0
VERTEX
  5
B557
  8
ALPHA
 10
59.22792
 20
51.380641
 30
0.0
  0
VERTEX
  5
B558
  8
ALPHA
 10
59.224569
 20
51.443375
 30
0.0
  0
VERTEX
  5
B559
  8
ALPHA
 10
59.153703
 20
51.672399
 30
0.0
  0
VERTEX
  5
B55A
  8
ALPHA
 10
59.015773
 20
51.847088
 30
0.0
  0
VERTEX
  5
B55B
  8
ALPHA
 10
58.859259
 20
51.950901
 30
0.0
  0
VERTEX
  5
B55C
  8
ALPHA
 10
58.720642
 20
52.005901
 30
0.0
  0
VERTEX
  5
B55D
  8
ALPHA
 10
58.627872
 20
52.030651
 30
0.0
  0
SEQEND
  5
B55E
  8
ALPHA
  0
POLYLINE
  5
A830
  8
ALPHA
 66
     1
 10
0.0
 20
0.0
 30
0.0
  0
VERTEX
  5
B55F
  8
ALPHA
 10
59.22792
 20
52.680639
 30
0.0
  0
VERTEX
  5
B560
  8
ALPHA
 10
59.2243
 20
52.745887
 30
0.0
  0
VERTEX
  5
B561
  8
ALPHA
 10
59.151307
 20
52.976822
 30
0.0
  0
VERTEX
  5
B562
  8
ALPHA
 10
59.010756
 20
53.151469
 30
0.0
  0
VERTEX
  5
B563
  8
ALPHA
 10
58.853426
 20
53.253756
 30
0.0
  0
SEQEND
  5
B564
  8
ALPHA
  0
POLYLINE
  5
A831
  8
ALPHA
 66
     1
 10
0.0
 20
0.0
 30
0.0
  0
VERTEX
  5
B565
  8
ALPHA
 10
59.22792
 20
50.080643
 30
0.0
  0
VERTEX
  5
B566
  8
ALPHA
 10
59.224021
 20
50.148383
 30
0.0
  0
VERTEX
  5
B567
  8
ALPHA
 10
59.151253
 20
50.376934
 30
0.0
  0
VERTEX
  5
B568
  8
ALPHA
 10
59.009908
 20
50.552203
 30
0.0
  0
VERTEX
  5
B569
  8
ALPHA
 10
58.843586
 20
50.658422
 30
0.0
  0
VERTEX
  5
B56A
  8
ALPHA
 10
58.692036
 20
50.714647
 30
0.0
  0
VERTEX
  5
B56B
  8
ALPHA
 10
58.626852
 20
50.730674
 30
0.0
  0
SEQEND
  5
B56C
  8
ALPHA
  0
LINE
  5
A832
  8
ALPHA
 10
59.118823
 20
48.30266
 30
0.0
 11
58.427917
 21
49.223867
 31
0.0
  0
LINE
  5
A833
  8
ALPHA
 10
58.853426
 20
53.253756
 30
0.0
 11
58.715013
 21
53.307682
 31
0.0
  0
LINE
  5
A834
  8
ALPHA
 10
58.715013
 20
53.307682
 30
0.0
 11
58.627529
 21
53.33067
 31
0.0
  0
POLYLINE
  5
A835
  8
ALPHA
 66
     1
 10
0.0
 20
0.0
 30
0.0
  0
VERTEX
  5
B56D
  8
ALPHA
 10
58.217263
 20
53.255024
 30
0.0
  0
VERTEX
  5
B56E
  8
ALPHA
 10
58.417336
 20
53.286069
 30
0.0
  0
VERTEX
  5
B56F
  8
ALPHA
 10
58.584012
 20
53.318918
 30
0.0
  0
VERTEX
  5
B570
  8
ALPHA
 10
58.727689
 20
53.35774
 30
0.0
  0
VERTEX
  5
B571
  8
ALPHA
 10
58.861193
 20
53.411451
 30
0.0
  0
SEQEND
  5
B572
  8
ALPHA
  0
POLYLINE
  5
A836
  8
ALPHA
 66
     1
 10
0.0
 20
0.0
 30
0.0
  0
VERTEX
  5
B573
  8
ALPHA
 10
58.245461
 20
51.959043
 30
0.0
  0
VERTEX
  5
B574
  8
ALPHA
 10
58.427907
 20
51.987918
 30
0.0
  0
VERTEX
  5
B575
  8
ALPHA
 10
58.580338
 20
52.018082
 30
0.0
  0
VERTEX
  5
B576
  8
ALPHA
 10
58.714573
 20
52.053574
 30
0.0
  0
VERTEX
  5
B577
  8
ALPHA
 10
58.853942
 20
52.107887
 30
0.0
  0
VERTEX
  5
B578
  8
ALPHA
 10
59.010412
 20
52.209615
 30
0.0
  0
VERTEX
  5
B579
  8
ALPHA
 10
59.148772
 20
52.379922
 30
0.0
  0
VERTEX
  5
B57A
  8
ALPHA
 10
59.223054
 20
52.605057
 30
0.0
  0
VERTEX
  5
B57B
  8
ALPHA
 10
59.22792
 20
52.680768
 30
0.0
  0
SEQEND
  5
B57C
  8
ALPHA
  0
POLYLINE
  5
A837
  8
ALPHA
 66
     1
 10
0.0
 20
0.0
 30
0.0
  0
VERTEX
  5
B57D
  8
ALPHA
 10
58.170406
 20
50.648582
 30
0.0
  0
VERTEX
  5
B57E
  8
ALPHA
 10
58.375291
 20
50.678961
 30
0.0
  0
VERTEX
  5
B57F
  8
ALPHA
 10
58.546619
 20
50.710715
 30
0.0
  0
VERTEX
  5
B580
  8
ALPHA
 10
58.695076
 20
50.747647
 30
0.0
  0
VERTEX
  5
B581
  8
ALPHA
 10
58.842942
 20
50.802647
 30
0.0
  0
VERTEX
  5
B582
  8
ALPHA
 10
59.004762
 20
50.904783
 30
0.0
  0
VERTEX
  5
B583
  8
ALPHA
 10
59.146183
 20
51.075326
 30
0.0
  0
VERTEX
  5
B584
  8
ALPHA
 10
59.222463
 20
51.300633
 30
0.0
  0
VERTEX
  5
B585
  8
ALPHA
 10
59.22792
 20
51.38077
 30
0.0
  0
SEQEND
  5
B586
  8
ALPHA
  0
POLYLINE
  5
A838
  8
ALPHA
 66
     1
 10
0.0
 20
0.0
 30
0.0
  0
VERTEX
  5
B587
  8
ALPHA
 10
59.22792
 20
59.180629
 30
0.0
  0
VERTEX
  5
B588
  8
ALPHA
 10
59.224257
 20
59.246285
 30
0.0
  0
VERTEX
  5
B589
  8
ALPHA
 10
59.153101
 20
59.473526
 30
0.0
  0
VERTEX
  5
B58A
  8
ALPHA
 10
59.013925
 20
59.648709
 30
0.0
  0
VERTEX
  5
B58B
  8
ALPHA
 10
58.849065
 20
59.755852
 30
0.0
  0
VERTEX
  5
B58C
  8
ALPHA
 10
58.697922
 20
59.812893
 30
0.0
  0
VERTEX
  5
B58D
  8
ALPHA
 10
58.626723
 20
59.83066
 30
0.0
  0
SEQEND
  5
B58E
  8
ALPHA
  0
POLYLINE
  5
A839
  8
ALPHA
 66
     1
 10
0.0
 20
0.0
 30
0.0
  0
VERTEX
  5
B58F
  8
ALPHA
 10
59.22792
 20
57.880653
 30
0.0
  0
VERTEX
  5
B590
  8
ALPHA
 10
59.22459
 20
57.943215
 30
0.0
  0
VERTEX
  5
B591
  8
ALPHA
 10
59.154744
 20
58.170434
 30
0.0
  0
VERTEX
  5
B592
  8
ALPHA
 10
59.017771
 20
58.345317
 30
0.0
  0
VERTEX
  5
B593
  8
ALPHA
 10
58.858636
 20
58.451192
 30
0.0
  0
VERTEX
  5
B594
  8
ALPHA
 10
58.714003
 20
58.507996
 30
0.0
  0
VERTEX
  5
B595
  8
ALPHA
 10
58.627045
 20
58.530684
 30
0.0
  0
SEQEND
  5
B596
  8
ALPHA
  0
POLYLINE
  5
A83A
  8
ALPHA
 66
     1
 10
0.0
 20
0.0
 30
0.0
  0
VERTEX
  5
B597
  8
ALPHA
 10
59.22792
 20
56.580633
 30
0.0
  0
VERTEX
  5
B598
  8
ALPHA
 10
59.224504
 20
56.644012
 30
0.0
  0
VERTEX
  5
B599
  8
ALPHA
 10
59.154089
 20
56.87166
 30
0.0
  0
VERTEX
  5
B59A
  8
ALPHA
 10
59.016364
 20
57.046565
 30
0.0
  0
VERTEX
  5
B59B
  8
ALPHA
 10
58.85638
 20
57.152311
 30
0.0
  0
VERTEX
  5
B59C
  8
ALPHA
 10
58.710448
 20
57.209094
 30
0.0
  0
VERTEX
  5
B59D
  8
ALPHA
 10
58.627249
 20
57.230578
 30
0.0
  0
SEQEND
  5
B59E
  8
ALPHA
  0
POLYLINE
  5
A83B
  8
ALPHA
 66
     1
 10
0.0
 20
0.0
 30
0.0
  0
VERTEX
  5
B59F
  8
ALPHA
 10
59.22792
 20
55.280635
 30
0.0
  0
VERTEX
  5
B5A0
  8
ALPHA
 10
59.224139
 20
55.347322
 30
0.0
  0
VERTEX
  5
B5A1
  8
ALPHA
 10
59.150104
 20
55.579031
 30
0.0
  0
VERTEX
  5
B5A2
  8
ALPHA
 10
59.0082
 20
55.753656
 30
0.0
  0
VERTEX
  5
B5A3
  8
ALPHA
 10
58.849688
 20
55.855535
 30
0.0
  0
VERTEX
  5
B5A4
  8
ALPHA
 10
58.709148
 20
55.909504
 30
0.0
  0
VERTEX
  5
B5A5
  8
ALPHA
 10
58.627045
 20
55.930688
 30
0.0
  0
SEQEND
  5
B5A6
  8
ALPHA
  0
POLYLINE
  5
A83C
  8
ALPHA
 66
     1
 10
0.0
 20
0.0
 30
0.0
  0
VERTEX
  5
B5A7
  8
ALPHA
 10
59.22792
 20
53.980637
 30
0.0
  0
VERTEX
  5
B5A8
  8
ALPHA
 10
59.224085
 20
54.047776
 30
0.0
  0
VERTEX
  5
B5A9
  8
ALPHA
 10
59.152059
 20
54.275445
 30
0.0
  0
VERTEX
  5
B5AA
  8
ALPHA
 10
59.011573
 20
54.450758
 30
0.0
  0
VERTEX
  5
B5AB
  8
ALPHA
 10
58.845251
 20
54.557643
 30
0.0
  0
VERTEX
  5
B5AC
  8
ALPHA
 10
58.695119
 20
54.613738
 30
0.0
  0
VERTEX
  5
B5AD
  8
ALPHA
 10
58.627174
 20
54.630625
 30
0.0
  0
SEQEND
  5
B5AE
  8
ALPHA
  0
LINE
  5
A83D
  8
ALPHA
 10
57.881146
 20
54.417025
 30
0.0
 11
57.847463
 21
54.509569
 31
0.0
  0
POLYLINE
  5
A83E
  8
ALPHA
 66
     1
 10
0.0
 20
0.0
 30
0.0
  0
VERTEX
  5
B5AF
  8
ALPHA
 10
58.204974
 20
58.453319
 30
0.0
  0
VERTEX
  5
B5B0
  8
ALPHA
 10
58.401234
 20
58.483311
 30
0.0
  0
VERTEX
  5
B5B1
  8
ALPHA
 10
58.565224
 20
58.514721
 30
0.0
  0
VERTEX
  5
B5B2
  8
ALPHA
 10
58.709191
 20
58.551889
 30
0.0
  0
VERTEX
  5
B5B3
  8
ALPHA
 10
58.850408
 20
58.60618
 30
0.0
  0
VERTEX
  5
B5B4
  8
ALPHA
 10
59.006524
 20
58.706297
 30
0.0
  0
VERTEX
  5
B5B5
  8
ALPHA
 10
59.144862
 20
58.872994
 30
0.0
  0
VERTEX
  5
B5B6
  8
ALPHA
 10
59.221915
 20
59.096647
 30
0.0
  0
VERTEX
  5
B5B7
  8
ALPHA
 10
59.22792
 20
59.180758
 30
0.0
  0
SEQEND
  5
B5B8
  8
ALPHA
  0
POLYLINE
  5
A83F
  8
ALPHA
 66
     1
 10
0.0
 20
0.0
 30
0.0
  0
VERTEX
  5
B5B9
  8
ALPHA
 10
58.222709
 20
57.155791
 30
0.0
  0
VERTEX
  5
B5BA
  8
ALPHA
 10
58.414017
 20
57.185483
 30
0.0
  0
VERTEX
  5
B5BB
  8
ALPHA
 10
58.575182
 20
57.216936
 30
0.0
  0
VERTEX
  5
B5BC
  8
ALPHA
 10
58.712918
 20
57.253051
 30
0.0
  0
VERTEX
  5
B5BD
  8
ALPHA
 10
58.848635
 20
57.305344
 30
0.0
  0
VERTEX
  5
B5BE
  8
ALPHA
 10
59.003892
 20
57.404065
 30
0.0
  0
VERTEX
  5
B5BF
  8
ALPHA
 10
59.145549
 20
57.574199
 30
0.0
  0
VERTEX
  5
B5C0
  8
ALPHA
 10
59.222657
 20
57.802063
 30
0.0
  0
VERTEX
  5
B5C1
  8
ALPHA
 10
59.22792
 20
57.88076
 30
0.0
  0
SEQEND
  5
B5C2
  8
ALPHA
  0
POLYLINE
  5
A840
  8
ALPHA
 66
     1
 10
0.0
 20
0.0
 30
0.0
  0
VERTEX
  5
B5C3
  8
ALPHA
 10
58.197487
 20
55.85227
 30
0.0
  0
VERTEX
  5
B5C4
  8
ALPHA
 10
58.398086
 20
55.882778
 30
0.0
  0
VERTEX
  5
B5C5
  8
ALPHA
 10
58.56516
 20
55.914725
 30
0.0
  0
VERTEX
  5
B5C6
  8
ALPHA
 10
58.709459
 20
55.951979
 30
0.0
  0
VERTEX
  5
B5C7
  8
ALPHA
 10
58.850203
 20
56.006098
 30
0.0
  0
VERTEX
  5
B5C8
  8
ALPHA
 10
59.006835
 20
56.106559
 30
0.0
  0
VERTEX
  5
B5C9
  8
ALPHA
 10
59.147053
 20
56.276844
 30
0.0
  0
VERTEX
  5
B5CA
  8
ALPHA
 10
59.222786
 20
56.503031
 30
0.0
  0
VERTEX
  5
B5CB
  8
ALPHA
 10
59.22792
 20
56.580762
 30
0.0
  0
SEQEND
  5
B5CC
  8
ALPHA
  0
POLYLINE
  5
A841
  8
ALPHA
 66
     1
 10
0.0
 20
0.0
 30
0.0
  0
VERTEX
  5
B5CD
  8
ALPHA
 10
58.217951
 20
54.555129
 30
0.0
  0
VERTEX
  5
B5CE
  8
ALPHA
 10
58.409172
 20
54.584649
 30
0.0
  0
VERTEX
  5
B5CF
  8
ALPHA
 10
58.571476
 20
54.616102
 30
0.0
  0
VERTEX
  5
B5D0
  8
ALPHA
 10
58.711447
 20
54.652604
 30
0.0
  0
VERTEX
  5
B5D1
  8
ALPHA
 10
58.849076
 20
54.705541
 30
0.0
  0
VERTEX
  5
B5D2
  8
ALPHA
 10
59.005074
 20
54.805057
 30
0.0
  0
VERTEX
  5
B5D3
  8
ALPHA
 10
59.146161
 20
54.975278
 30
0.0
  0
VERTEX
  5
B5D4
  8
ALPHA
 10
59.2227
 20
55.202367
 30
0.0
  0
VERTEX
  5
B5D5
  8
ALPHA
 10
59.22792
 20
55.280764
 30
0.0
  0
SEQEND
  5
B5D6
  8
ALPHA
  0
POLYLINE
  5
A842
  8
ALPHA
 66
     1
 10
0.0
 20
0.0
 30
0.0
  0
VERTEX
  5
B5D7
  8
ALPHA
 10
59.22792
 20
61.780647
 30
0.0
  0
VERTEX
  5
B5D8
  8
ALPHA
 10
59.224891
 20
61.840244
 30
0.0
  0
VERTEX
  5
B5D9
  8
ALPHA
 10
59.156807
 20
62.066518
 30
0.0
  0
VERTEX
  5
B5DA
  8
ALPHA
 10
59.022326
 20
62.241229
 30
0.0
  0
VERTEX
  5
B5DB
  8
ALPHA
 10
58.866403
 20
62.347319
 30
0.0
  0
VERTEX
  5
B5DC
  8
ALPHA
 10
58.725809
 20
62.404252
 30
0.0
  0
VERTEX
  5
B5DD
  8
ALPHA
 10
58.627443
 20
62.430807
 30
0.0
  0
SEQEND
  5
B5DE
  8
ALPHA
  0
POLYLINE
  5
A843
  8
ALPHA
 66
     1
 10
0.0
 20
0.0
 30
0.0
  0
VERTEX
  5
B5DF
  8
ALPHA
 10
59.22792
 20
64.380643
 30
0.0
  0
VERTEX
  5
B5E0
  8
ALPHA
 10
59.22459
 20
64.443184
 30
0.0
  0
VERTEX
  5
B5E1
  8
ALPHA
 10
59.153745
 20
64.672315
 30
0.0
  0
VERTEX
  5
B5E2
  8
ALPHA
 10
59.015891
 20
64.846983
 30
0.0
  0
VERTEX
  5
B5E3
  8
ALPHA
 10
58.859828
 20
64.950602
 30
0.0
  0
VERTEX
  5
B5E4
  8
ALPHA
 10
58.722264
 20
65.005387
 30
0.0
  0
VERTEX
  5
B5E5
  8
ALPHA
 10
58.628173
 20
65.030631
 30
0.0
  0
SEQEND
  5
B5E6
  8
ALPHA
  0
POLYLINE
  5
A844
  8
ALPHA
 66
     1
 10
0.0
 20
0.0
 30
0.0
  0
VERTEX
  5
B5E7
  8
ALPHA
 10
59.22792
 20
63.080645
 30
0.0
  0
VERTEX
  5
B5E8
  8
ALPHA
 10
59.224472
 20
63.144303
 30
0.0
  0
VERTEX
  5
B5E9
  8
ALPHA
 10
59.1528
 20
63.374078
 30
0.0
  0
VERTEX
  5
B5EA
  8
ALPHA
 10
59.013871
 20
63.548768
 30
0.0
  0
VERTEX
  5
B5EB
  8
ALPHA
 10
58.857207
 20
63.651914
 30
0.0
  0
VERTEX
  5
B5EC
  8
ALPHA
 10
58.719503
 20
63.70627
 30
0.0
  0
VERTEX
  5
B5ED
  8
ALPHA
 10
58.627464
 20
63.730783
 30
0.0
  0
SEQEND
  5
B5EE
  8
ALPHA
  0
POLYLINE
  5
A845
  8
ALPHA
 66
     1
 10
0.0
 20
0.0
 30
0.0
  0
VERTEX
  5
B5EF
  8
ALPHA
 10
59.22792
 20
60.480627
 30
0.0
  0
VERTEX
  5
B5F0
  8
ALPHA
 10
59.224064
 20
60.547959
 30
0.0
  0
VERTEX
  5
B5F1
  8
ALPHA
 10
59.151694
 20
60.776123
 30
0.0
  0
VERTEX
  5
B5F2
  8
ALPHA
 10
59.010842
 20
60.951393
 30
0.0
  0
VERTEX
  5
B5F3
  8
ALPHA
 10
58.844703
 20
61.057912
 30
0.0
  0
VERTEX
  5
B5F4
  8
ALPHA
 10
58.693625
 20
61.11418
 30
0.0
  0
VERTEX
  5
B5F5
  8
ALPHA
 10
58.627625
 20
61.130508
 30
0.0
  0
SEQEND
  5
B5F6
  8
ALPHA
  0
POLYLINE
  5
A846
  8
ALPHA
 66
     1
 10
0.0
 20
0.0
 30
0.0
  0
VERTEX
  5
B5F7
  8
ALPHA
 10
58.179429
 20
62.349811
 30
0.0
  0
VERTEX
  5
B5F8
  8
ALPHA
 10
58.383703
 20
62.380361
 30
0.0
  0
VERTEX
  5
B5F9
  8
ALPHA
 10
58.553934
 20
62.412287
 30
0.0
  0
VERTEX
  5
B5FA
  8
ALPHA
 10
58.699415
 20
62.44894
 30
0.0
  0
VERTEX
  5
B5FB
  8
ALPHA
 10
58.839429
 20
62.501018
 30
0.0
  0
VERTEX
  5
B5FC
  8
ALPHA
 10
58.997253
 20
62.598557
 30
0.0
  0
VERTEX
  5
B5FD
  8
ALPHA
 10
59.142316
 20
62.768584
 30
0.0
  0
VERTEX
  5
B5FE
  8
ALPHA
 10
59.222152
 20
62.99836
 30
0.0
  0
VERTEX
  5
B5FF
  8
ALPHA
 10
59.22792
 20
63.080774
 30
0.0
  0
SEQEND
  5
B600
  8
ALPHA
  0
POLYLINE
  5
A847
  8
ALPHA
 66
     1
 10
0.0
 20
0.0
 30
0.0
  0
VERTEX
  5
B601
  8
ALPHA
 10
58.206166
 20
63.653483
 30
0.0
  0
VERTEX
  5
B602
  8
ALPHA
 10
58.396776
 20
63.682551
 30
0.0
  0
VERTEX
  5
B603
  8
ALPHA
 10
58.560261
 20
63.713639
 30
0.0
  0
VERTEX
  5
B604
  8
ALPHA
 10
58.703648
 20
63.750205
 30
0.0
  0
VERTEX
  5
B605
  8
ALPHA
 10
58.84407
 20
63.803186
 30
0.0
  0
VERTEX
  5
B606
  8
ALPHA
 10
59.002184
 20
63.902637
 30
0.0
  0
VERTEX
  5
B607
  8
ALPHA
 10
59.144808
 20
64.072901
 30
0.0
  0
VERTEX
  5
B608
  8
ALPHA
 10
59.222431
 20
64.300399
 30
0.0
  0
VERTEX
  5
B609
  8
ALPHA
 10
59.22792
 20
64.380772
 30
0.0
  0
SEQEND
  5
B60A
  8
ALPHA
  0
POLYLINE
  5
A848
  8
ALPHA
 66
     1
 10
0.0
 20
0.0
 30
0.0
  0
VERTEX
  5
B60B
  8
ALPHA
 10
58.17249
 20
59.748848
 30
0.0
  0
VERTEX
  5
B60C
  8
ALPHA
 10
58.377536
 20
59.779334
 30
0.0
  0
VERTEX
  5
B60D
  8
ALPHA
 10
58.548917
 20
59.811217
 30
0.0
  0
VERTEX
  5
B60E
  8
ALPHA
 10
58.697568
 20
59.848385
 30
0.0
  0
VERTEX
  5
B60F
  8
ALPHA
 10
58.843661
 20
59.902998
 30
0.0
  0
VERTEX
  5
B610
  8
ALPHA
 10
59.003999
 20
60.004147
 30
0.0
  0
VERTEX
  5
B611
  8
ALPHA
 10
59.145775
 20
60.174604
 30
0.0
  0
VERTEX
  5
B612
  8
ALPHA
 10
59.222474
 20
60.400684
 30
0.0
  0
VERTEX
  5
B613
  8
ALPHA
 10
59.22792
 20
60.480756
 30
0.0
  0
SEQEND
  5
B614
  8
ALPHA
  0
POLYLINE
  5
A849
  8
ALPHA
 66
     1
 10
0.0
 20
0.0
 30
0.0
  0
VERTEX
  5
B615
  8
ALPHA
 10
58.246396
 20
61.05918
 30
0.0
  0
VERTEX
  5
B616
  8
ALPHA
 10
58.431677
 20
61.08857
 30
0.0
  0
VERTEX
  5
B617
  8
ALPHA
 10
58.5863
 20
61.119444
 30
0.0
  0
VERTEX
  5
B618
  8
ALPHA
 10
58.71902
 20
61.154957
 30
0.0
  0
VERTEX
  5
B619
  8
ALPHA
 10
58.852019
 20
61.206949
 30
0.0
  0
VERTEX
  5
B61A
  8
ALPHA
 10
59.006105
 20
61.305928
 30
0.0
  0
VERTEX
  5
B61B
  8
ALPHA
 10
59.146623
 20
61.476084
 30
0.0
  0
VERTEX
  5
B61C
  8
ALPHA
 10
59.222839
 20
61.703389
 30
0.0
  0
VERTEX
  5
B61D
  8
ALPHA
 10
59.22792
 20
61.780754
 30
0.0
  0
SEQEND
  5
B61E
  8
ALPHA
  0
POLYLINE
  5
A84A
  8
ALPHA
 66
     1
 10
0.0
 20
0.0
 30
0.0
  0
VERTEX
  5
B61F
  8
ALPHA
 10
58.198851
 20
67.552467
 30
0.0
  0
VERTEX
  5
B620
  8
ALPHA
 10
58.397377
 20
67.582653
 30
0.0
  0
VERTEX
  5
B621
  8
ALPHA
 10
58.56372
 20
67.614406
 30
0.0
  0
VERTEX
  5
B622
  8
ALPHA
 10
58.706215
 20
67.650994
 30
0.0
  0
VERTEX
  5
B623
  8
ALPHA
 10
58.844768
 20
67.703502
 30
0.0
  0
VERTEX
  5
B624
  8
ALPHA
 10
59.001443
 20
67.802008
 30
0.0
  0
VERTEX
  5
B625
  8
ALPHA
 10
59.144368
 20
67.972143
 30
0.0
  0
VERTEX
  5
B626
  8
ALPHA
 10
59.222453
 20
68.200565
 30
0.0
  0
VERTEX
  5
B627
  8
ALPHA
 10
59.22792
 20
68.280766
 30
0.0
  0
SEQEND
  5
B628
  8
ALPHA
  0
POLYLINE
  5
A84B
  8
ALPHA
 66
     1
 10
0.0
 20
0.0
 30
0.0
  0
VERTEX
  5
B629
  8
ALPHA
 10
58.224761
 20
66.2561
 30
0.0
  0
VERTEX
  5
B62A
  8
ALPHA
 10
58.415553
 20
66.285748
 30
0.0
  0
VERTEX
  5
B62B
  8
ALPHA
 10
58.57646
 20
66.317223
 30
0.0
  0
VERTEX
  5
B62C
  8
ALPHA
 10
58.714304
 20
66.353488
 30
0.0
  0
VERTEX
  5
B62D
  8
ALPHA
 10
58.8503
 20
66.406125
 30
0.0
  0
VERTEX
  5
B62E
  8
ALPHA
 10
59.005407
 20
66.50534
 30
0.0
  0
VERTEX
  5
B62F
  8
ALPHA
 10
59.146301
 20
66.675539
 30
0.0
  0
VERTEX
  5
B630
  8
ALPHA
 10
59.222753
 20
66.902801
 30
0.0
  0
VERTEX
  5
B631
  8
ALPHA
 10
59.22792
 20
66.980768
 30
0.0
  0
SEQEND
  5
B632
  8
ALPHA
  0
POLYLINE
  5
A84C
  8
ALPHA
 66
     1
 10
0.0
 20
0.0
 30
0.0
  0
VERTEX
  5
B633
  8
ALPHA
 10
59.22792
 20
68.280637
 30
0.0
  0
VERTEX
  5
B634
  8
ALPHA
 10
59.224805
 20
68.341137
 30
0.0
  0
VERTEX
  5
B635
  8
ALPHA
 10
59.156087
 20
68.567883
 30
0.0
  0
VERTEX
  5
B636
  8
ALPHA
 10
59.020768
 20
68.742637
 30
0.0
  0
VERTEX
  5
B637
  8
ALPHA
 10
58.864523
 20
68.848276
 30
0.0
  0
VERTEX
  5
B638
  8
ALPHA
 10
58.725454
 20
68.904371
 30
0.0
  0
VERTEX
  5
B639
  8
ALPHA
 10
58.587471
 20
68.941668
 30
0.0
  0
VERTEX
  5
B63A
  8
ALPHA
 10
58.431194
 20
68.972906
 30
0.0
  0
VERTEX
  5
B63B
  8
ALPHA
 10
58.305768
 20
68.992844
 30
0.0
  0
SEQEND
  5
B63C
  8
ALPHA
  0
POLYLINE
  5
A84D
  8
ALPHA
 66
     1
 10
0.0
 20
0.0
 30
0.0
  0
VERTEX
  5
B63D
  8
ALPHA
 10
59.22792
 20
65.680641
 30
0.0
  0
VERTEX
  5
B63E
  8
ALPHA
 10
59.224365
 20
65.74533
 30
0.0
  0
VERTEX
  5
B63F
  8
ALPHA
 10
59.154207
 20
65.971453
 30
0.0
  0
VERTEX
  5
B640
  8
ALPHA
 10
59.016278
 20
66.146637
 30
0.0
  0
VERTEX
  5
B641
  8
ALPHA
 10
58.851632
 20
66.254617
 30
0.0
  0
VERTEX
  5
B642
  8
ALPHA
 10
58.702026
 20
66.31168
 30
0.0
  0
VERTEX
  5
B643
  8
ALPHA
 10
58.627314
 20
66.330608
 30
0.0
  0
SEQEND
  5
B644
  8
ALPHA
  0
POLYLINE
  5
A84E
  8
ALPHA
 66
     1
 10
0.0
 20
0.0
 30
0.0
  0
VERTEX
  5
B645
  8
ALPHA
 10
59.22792
 20
66.980639
 30
0.0
  0
VERTEX
  5
B646
  8
ALPHA
 10
59.22415
 20
67.047262
 30
0.0
  0
VERTEX
  5
B647
  8
ALPHA
 10
59.152306
 20
67.274996
 30
0.0
  0
VERTEX
  5
B648
  8
ALPHA
 10
59.012174
 20
67.450244
 30
0.0
  0
VERTEX
  5
B649
  8
ALPHA
 10
58.84653
 20
67.557043
 30
0.0
  0
VERTEX
  5
B64A
  8
ALPHA
 10
58.695473
 20
67.613633
 30
0.0
  0
VERTEX
  5
B64B
  8
ALPHA
 10
58.626949
 20
67.630627
 30
0.0
  0
SEQEND
  5
B64C
  8
ALPHA
  0
LINE
  5
A84F
  8
ALPHA
 10
53.127918
 20
96.228155
 30
0.0
 11
53.636724
 21
96.355515
 31
0.0
  0
LINE
  5
A850
  8
ALPHA
 10
53.636724
 20
96.355515
 30
0.0
 11
54.327918
 21
96.439185
 31
0.0
  0
VIEWPORT
  5
494D
 67
     1
  8
0
 10
4.995325
 20
6.556512
 30
0.0
 40
22.70986
 41
13.988421
 68
    -1
 69
     1
1001
ACAD
1000
MVIEW
1002
{
1070
    16
1010
0.0
1020
0.0
1030
0.0
1010
0.0
1020
0.0
1030
1.0
1040
0.0
1040
13.988421
1040
4.995325
1040
6.556512
1040
50.0
1040
0.0
1040
0.0
1070
     0
1070
   100
1070
     1
1070
     1
1070
     0
1070
     0
1070
     0
1070
     0
1040
0.0
1040
0.0
1040
0.0
1040
10.0
1040
10.0
1040
10.0
1040
10.0
1070
     0
1002
{
1002
}
1002
}
  0
ENDSEC
  0
EOF
