  0
SECTION
  2
HEADER
  9
$ACADVER
  1
AC1009
  9
$INSBASE
 10
402.590624
 20
-1.041018
 30
0.0
  9
$EXTMIN
 10
100.455195
 20
1.896444
 30
0.0
  9
$EXTMAX
 10
158.490909
 20
169.189336
 30
0.0
  9
$LIMMIN
 10
-407.970438
 20
-367.832444
  9
$LIMMAX
 10
429.804077
 20
234.370848
  9
$ORTHOMODE
 70
     0
  9
$REGENMODE
 70
     1
  9
$FILLMODE
 70
     1
  9
$QTEXTMODE
 70
     0
  9
$MIRRTEXT
 70
     1
  9
$DRAGMODE
 70
     2
  9
$LTSCALE
 40
10.0
  9
$OSMODE
 70
    35
  9
$ATTMODE
 70
     1
  9
$TEXTSIZE
 40
6.0
  9
$TRACEWID
 40
1.0
  9
$TEXTSTYLE
  7
ROMANS
  9
$CLAYER
  8
ALPHA
  9
$CELTYPE
  6
BYLAYER
  9
$CECOLOR
 62
   256
  9
$DIMSCALE
 40
1.0
  9
$DIMASZ
 40
5.0
  9
$DIMEXO
 40
2.0
  9
$DIMDLI
 40
0.38
  9
$DIMRND
 40
0.0
  9
$DIMDLE
 40
0.0
  9
$DIMEXE
 40
2.5
  9
$DIMTP
 40
0.0
  9
$DIMTM
 40
0.0
  9
$DIMTXT
 40
2.5
  9
$DIMCEN
 40
0.0
  9
$DIMTSZ
 40
0.0
  9
$DIMTOL
 70
     0
  9
$DIMLIM
 70
     0
  9
$DIMTIH
 70
     1
  9
$DIMTOH
 70
     1
  9
$DIMSE1
 70
     0
  9
$DIMSE2
 70
     0
  9
$DIMTAD
 70
     1
  9
$DIMZIN
 70
    12
  9
$DIMBLK
  1
OPEN30
  9
$DIMASO
 70
     1
  9
$DIMSHO
 70
     1
  9
$DIMPOST
  1

  9
$DIMAPOST
  1

  9
$DIMALT
 70
     0
  9
$DIMALTD
 70
     2
  9
$DIMALTF
 40
25.4
  9
$DIMLFAC
 40
1.0
  9
$DIMTOFL
 70
     0
  9
$DIMTVP
 40
0.0
  9
$DIMTIX
 70
     0
  9
$DIMSOXD
 70
     0
  9
$DIMSAH
 70
     0
  9
$DIMBLK1
  1

  9
$DIMBLK2
  1

  9
$DIMSTYLE
  2
SC_DEFAUT
  9
$DIMCLRD
 70
     0
  9
$DIMCLRE
 70
     0
  9
$DIMCLRT
 70
     0
  9
$DIMTFAC
 40
1.0
  9
$DIMGAP
 40
2.0
  9
$LUNITS
 70
     2
  9
$LUPREC
 70
     1
  9
$SKETCHINC
 40
0.1
  9
$FILLETRAD
 40
0.0
  9
$AUNITS
 70
     0
  9
$AUPREC
 70
     0
  9
$MENU
  1
acad
  9
$ELEVATION
 40
0.0
  9
$PELEVATION
 40
0.0
  9
$THICKNESS
 40
0.0
  9
$LIMCHECK
 70
     0
  9
$BLIPMODE
 70
     0
  9
$CHAMFERA
 40
0.0
  9
$CHAMFERB
 40
0.0
  9
$SKPOLY
 70
     0
  9
$TDCREATE
 40
2450373.687919
  9
$TDUPDATE
 40
2453032.661295
  9
$TDINDWG
 40
1.11455
  9
$TDUSRTIMER
 40
1.11455
  9
$USRTIMER
 70
     1
  9
$ANGBASE
 50
0.0
  9
$ANGDIR
 70
     0
  9
$PDMODE
 70
    32
  9
$PDSIZE
 40
0.0
  9
$PLINEWID
 40
0.0
  9
$COORDS
 70
     1
  9
$SPLFRAME
 70
     0
  9
$SPLINETYPE
 70
     6
  9
$SPLINESEGS
 70
     8
  9
$ATTDIA
 70
     0
  9
$ATTREQ
 70
     1
  9
$HANDLING
 70
     1
  9
$HANDSEED
  5
D38C
  9
$SURFTAB1
 70
     6
  9
$SURFTAB2
 70
     6
  9
$SURFTYPE
 70
     6
  9
$SURFU
 70
     6
  9
$SURFV
 70
     6
  9
$UCSNAME
  2

  9
$UCSORG
 10
0.0
 20
0.0
 30
0.0
  9
$UCSXDIR
 10
1.0
 20
0.0
 30
0.0
  9
$UCSYDIR
 10
0.0
 20
1.0
 30
0.0
  9
$PUCSNAME
  2

  9
$PUCSORG
 10
0.0
 20
0.0
 30
0.0
  9
$PUCSXDIR
 10
1.0
 20
0.0
 30
0.0
  9
$PUCSYDIR
 10
0.0
 20
1.0
 30
0.0
  9
$USERI1
 70
     0
  9
$USERI2
 70
     0
  9
$USERI3
 70
     0
  9
$USERI4
 70
     0
  9
$USERI5
 70
     0
  9
$USERR1
 40
0.0
  9
$USERR2
 40
0.0
  9
$USERR3
 40
0.0
  9
$USERR4
 40
0.0
  9
$USERR5
 40
0.0
  9
$WORLDVIEW
 70
     1
  9
$SHADEDGE
 70
     3
  9
$SHADEDIF
 70
    70
  9
$TILEMODE
 70
     1
  9
$MAXACTVP
 70
    16
  9
$PLIMCHECK
 70
     0
  9
$PEXTMIN
 10
-1.452248
 20
-0.437698
 30
0.0
  9
$PEXTMAX
 10
12.749749
 20
8.310198
 30
0.0
  9
$PLIMMIN
 10
0.0
 20
0.0
  9
$PLIMMAX
 10
12.0
 20
9.0
  9
$UNITMODE
 70
     0
  9
$VISRETAIN
 70
     0
  9
$PLINEGEN
 70
     0
  9
$PSLTSCALE
 70
     0
  0
ENDSEC
  0
SECTION
  2
TABLES
  0
TABLE
  2
VPORT
 70
     2
  0
VPORT
  2
*ACTIVE
 70
     0
 10
0.0
 20
0.0
 11
1.0
 21
1.0
 12
129.451126
 22
85.529161
 13
0.0
 23
0.0
 14
1.0
 24
1.0
 15
10.0
 25
10.0
 16
0.0
 26
0.0
 36
1.0
 17
0.0
 27
0.0
 37
0.0
 40
168.534997
 41
1.466346
 42
50.0
 43
0.0
 44
0.0
 50
0.0
 51
0.0
 71
     0
 72
   100
 73
     1
 74
     0
 75
     0
 76
     0
 77
     0
 78
     0
  0
ENDTAB
  0
TABLE
  2
LTYPE
 70
     2
  0
LTYPE
  2
CONTINUOUS
 70
     0
  3
Solid line
 72
    65
 73
     0
 40
0.0
  0
LTYPE
  2
AXES2
 70
     0
  3
___ _ ___ _ ___ _ ___ _ ___ _ ___ _ ___ _ ___ _
 72
    65
 73
     4
 40
1.125
 49
0.75
 49
-0.125
 49
0.125
 49
-0.125
  0
ENDTAB
  0
TABLE
  2
LAYER
 70
     5
  0
LAYER
  2
0
 70
     0
 62
   255
  6
CONTINUOUS
  0
LAYER
  2
COTATION1
 70
     0
 62
     2
  6
CONTINUOUS
  0
LAYER
  2
AXE
 70
     0
 62
    80
  6
AXES2
  0
LAYER
  2
DEFPOINTS
 70
     0
 62
     7
  6
CONTINUOUS
  0
LAYER
  2
ALPHA
 70
     0
 62
   254
  6
CONTINUOUS
  0
ENDTAB
  0
TABLE
  2
STYLE
 70
     2
  0
STYLE
  2
ROMANS
 70
     0
 40
0.0
 41
1.0
 50
0.0
 71
     0
 42
6.0
  3
romans
  4

  0
STYLE
  2
STANDARD
 70
     0
 40
0.0
 41
1.0
 50
0.0
 71
     0
 42
0.2
  3
txt
  4

  0
ENDTAB
  0
TABLE
  2
VIEW
 70
     0
  0
ENDTAB
  0
TABLE
  2
UCS
 70
     0
  0
ENDTAB
  0
TABLE
  2
APPID
 70
     1
  0
APPID
  2
ACAD
 70
     0
  0
ENDTAB
  0
TABLE
  2
DIMSTYLE
 70
     2
  0
DIMSTYLE
  2
SC_DEFAUT
 70
     0
  3

  4

  5
OPEN30
  6

  7

 40
1.0
 41
5.0
 42
2.0
 43
0.38
 44
2.5
 45
0.0
 46
0.0
 47
0.0
 48
0.0
140
2.5
141
0.0
142
0.0
143
25.4
144
1.0
145
0.0
146
1.0
147
2.0
 71
     0
 72
     0
 73
     1
 74
     1
 75
     0
 76
     0
 77
     1
 78
    12
170
     0
171
     2
172
     0
173
     0
174
     0
175
     0
176
     0
177
     0
178
     0
  0
DIMSTYLE
  2
STANDARD
 70
     0
  3

  4

  5

  6

  7

 40
1.0
 41
0.18
 42
0.0625
 43
0.38
 44
0.18
 45
0.0
 46
0.0
 47
0.0
 48
0.0
140
0.18
141
0.09
142
0.0
143
25.4
144
1.0
145
0.0
146
1.0
147
0.09
 71
     0
 72
     0
 73
     1
 74
     1
 75
     0
 76
     0
 77
     0
 78
     0
170
     0
171
     2
172
     0
173
     0
174
     0
175
     0
176
     0
177
     0
178
     0
  0
ENDTAB
  0
ENDSEC
  0
SECTION
  2
BLOCKS
  0
BLOCK
  8
0
  2
$MODEL_SPACE
 70
     0
 10
0.0
 20
0.0
 30
0.0
  3
$MODEL_SPACE
  1

  0
ENDBLK
  5
D385
  8
0
  0
BLOCK
 67
     1
  8
0
  2
$PAPER_SPACE
 70
     0
 10
0.0
 20
0.0
 30
0.0
  3
$PAPER_SPACE
  1

  0
ENDBLK
  5
D383
 67
     1
  8
0
  0
BLOCK
  8
0
  2
COTE
 70
     0
 10
0.0
 20
0.0
 30
0.0
  3
COTE
  1

  0
ENDBLK
  5
F
  8
0
  0
BLOCK
  8
0
  2
FOND
 70
     0
 10
0.0
 20
0.0
 30
0.0
  3
FOND
  1

  0
ENDBLK
  5
75
  8
0
  0
BLOCK
  8
0
  2
_OPEN30
 70
     0
 10
0.0
 20
0.0
 30
0.0
  3
_OPEN30
  1

  0
LINE
  5
4B05
  8
COTATION1
 62
     0
 10
-1.0
 20
0.267949
 30
0.0
 11
0.0
 21
0.0
 31
0.0
1001
ACAD
1000
RTLwPs
1070
   158
  0
LINE
  5
4B06
  8
COTATION1
 62
     0
 10
0.0
 20
0.0
 30
0.0
 11
-1.0
 21
-0.267949
 31
0.0
1001
ACAD
1000
RTLwPs
1070
   158
  0
LINE
  5
4B07
  8
COTATION1
 62
     0
 10
0.0
 20
0.0
 30
0.0
 11
-1.0
 21
0.0
 31
0.0
1001
ACAD
1000
RTLwPs
1070
   158
  0
ENDBLK
  5
4B09
  8
0
  0
BLOCK
  8
0
  2
*D3
 70
     1
 10
0.0
 20
0.0
 30
0.0
  3
*D3
  1

  0
LINE
  5
D27C
  8
COTATION1
 62
     0
 10
105.455195
 20
51.182597
 30
0.0
 11
105.455195
 21
1.896444
 31
0.0
1001
ACAD
1000
RTLwPs
1070
   158
  0
LINE
  5
D27D
  8
COTATION1
 62
     0
 10
125.455195
 20
44.682597
 30
0.0
 11
125.455195
 21
1.896444
 31
0.0
1001
ACAD
1000
RTLwPs
1070
   158
  0
LINE
  5
D27E
  8
COTATION1
 62
     0
 10
110.455195
 20
4.396444
 30
0.0
 11
120.455195
 21
4.396444
 31
0.0
1001
ACAD
1000
RTLwPs
1070
   158
  0
INSERT
  5
D27F
  8
COTATION1
 62
     0
  2
_OPEN30
 10
105.455195
 20
4.396444
 30
0.0
 41
5.0
 42
5.0
 43
5.0
 50
180.0
1001
ACAD
1000
RTLwPs
1070
   158
  0
INSERT
  5
D280
  8
COTATION1
 62
     0
  2
_OPEN30
 10
125.455195
 20
4.396444
 30
0.0
 41
5.0
 42
5.0
 43
5.0
1001
ACAD
1000
RTLwPs
1070
   158
  0
TEXT
  5
D281
  8
COTATION1
 62
     0
 10
113.074242
 20
6.396444
 30
0.0
 40
2.5
  1
20
1001
ACAD
1000
MTEXTBEGIN
1070
    73
1070
     1
1070
    44
1040
1.0
1070
    74
1070
     0
1000
MTEXTEND
  0
POINT
  5
D282
  8
DEFPOINTS
 62
     0
 10
105.455195
 20
53.182597
 30
0.0
  0
POINT
  5
D283
  8
DEFPOINTS
 62
     0
 10
125.455195
 20
46.682597
 30
0.0
  0
POINT
  5
D284
  8
DEFPOINTS
 62
     0
 10
125.455195
 20
4.396444
 30
0.0
  0
ENDBLK
  5
C478
  8
0
  0
BLOCK
  8
0
  2
*D4
 70
     1
 10
0.0
 20
0.0
 30
0.0
  3
*D4
  1

  0
LINE
  5
D268
  8
COTATION1
 62
     0
 10
125.955195
 20
150.182597
 30
0.0
 11
157.955195
 21
150.182597
 31
0.0
1001
ACAD
1000
RTLwPs
1070
   158
  0
LINE
  5
D269
  8
COTATION1
 62
     0
 10
125.955195
 20
25.182597
 30
0.0
 11
157.955195
 21
25.182597
 31
0.0
1001
ACAD
1000
RTLwPs
1070
   158
  0
LINE
  5
D26A
  8
COTATION1
 62
     0
 10
155.455195
 20
145.182597
 30
0.0
 11
155.455195
 21
90.932597
 31
0.0
1001
ACAD
1000
RTLwPs
1070
   158
  0
LINE
  5
D26B
  8
COTATION1
 62
     0
 10
155.455195
 20
30.182597
 30
0.0
 11
155.455195
 21
84.432597
 31
0.0
1001
ACAD
1000
RTLwPs
1070
   158
  0
INSERT
  5
D26C
  8
COTATION1
 62
     0
  2
_OPEN30
 10
155.455195
 20
150.182597
 30
0.0
 41
5.0
 42
5.0
 43
5.0
 50
90.0
1001
ACAD
1000
RTLwPs
1070
   158
  0
INSERT
  5
D26D
  8
COTATION1
 62
     0
  2
_OPEN30
 10
155.455195
 20
25.182597
 30
0.0
 41
5.0
 42
5.0
 43
5.0
 50
270.0
1001
ACAD
1000
RTLwPs
1070
   158
  0
TEXT
  5
D26E
  8
COTATION1
 62
     0
 10
151.705195
 20
86.432597
 30
0.0
 40
2.5
  1
125
1001
ACAD
1000
MTEXTBEGIN
1070
    73
1070
     1
1070
    44
1040
1.0
1070
    74
1070
     0
1000
MTEXTEND
  0
POINT
  5
D26F
  8
DEFPOINTS
 62
     0
 10
123.955195
 20
150.182597
 30
0.0
  0
POINT
  5
D270
  8
DEFPOINTS
 62
     0
 10
123.955195
 20
25.182597
 30
0.0
  0
POINT
  5
D271
  8
DEFPOINTS
 62
     0
 10
155.455195
 20
25.182597
 30
0.0
  0
ENDBLK
  5
C485
  8
0
  0
BLOCK
  8
0
  2
*D5
 70
     1
 10
0.0
 20
0.0
 30
0.0
  3
*D5
  1

  0
LINE
  5
D272
  8
COTATION1
 62
     0
 10
125.955195
 20
61.182597
 30
0.0
 11
147.955195
 21
61.182597
 31
0.0
1001
ACAD
1000
RTLwPs
1070
   158
  0
LINE
  5
D273
  8
COTATION1
 62
     0
 10
125.955195
 20
45.182597
 30
0.0
 11
147.955195
 21
45.182597
 31
0.0
1001
ACAD
1000
RTLwPs
1070
   158
  0
LINE
  5
D274
  8
COTATION1
 62
     0
 10
145.455195
 20
66.182597
 30
0.0
 11
145.455195
 21
71.182597
 31
0.0
1001
ACAD
1000
RTLwPs
1070
   158
  0
LINE
  5
D275
  8
COTATION1
 62
     0
 10
145.455195
 20
40.182597
 30
0.0
 11
145.455195
 21
35.182597
 31
0.0
1001
ACAD
1000
RTLwPs
1070
   158
  0
TEXT
  5
D276
  8
COTATION1
 62
     0
 10
142.895671
 20
51.932597
 30
0.0
 40
2.5
  1
16
1001
ACAD
1000
MTEXTBEGIN
1070
    73
1070
     1
1070
    44
1040
1.0
1070
    74
1070
     0
1000
MTEXTEND
  0
INSERT
  5
D277
  8
COTATION1
 62
     0
  2
_OPEN30
 10
145.455195
 20
61.182597
 30
0.0
 41
5.0
 42
5.0
 43
5.0
 50
270.0
1001
ACAD
1000
RTLwPs
1070
   158
  0
INSERT
  5
D278
  8
COTATION1
 62
     0
  2
_OPEN30
 10
145.455195
 20
45.182597
 30
0.0
 41
5.0
 42
5.0
 43
5.0
 50
90.0
1001
ACAD
1000
RTLwPs
1070
   158
  0
POINT
  5
D279
  8
DEFPOINTS
 62
     0
 10
123.955195
 20
61.182597
 30
0.0
  0
POINT
  5
D27A
  8
DEFPOINTS
 62
     0
 10
123.955195
 20
45.182597
 30
0.0
  0
POINT
  5
D27B
  8
DEFPOINTS
 62
     0
 10
145.455195
 20
45.182597
 30
0.0
  0
ENDBLK
  5
C546
  8
0
  0
BLOCK
  8
0
  2
*D6
 70
     1
 10
0.0
 20
0.0
 30
0.0
  3
*D6
  1

  0
LINE
  5
D299
  8
COTATION1
 62
     0
 10
120.955195
 20
152.182597
 30
0.0
 11
120.955195
 21
167.682597
 31
0.0
1001
ACAD
1000
RTLwPs
1070
   158
  0
LINE
  5
D29A
  8
COTATION1
 62
     0
 10
123.955195
 20
152.182597
 30
0.0
 11
123.955195
 21
167.682597
 31
0.0
1001
ACAD
1000
RTLwPs
1070
   158
  0
LINE
  5
D29B
  8
COTATION1
 62
     0
 10
115.955195
 20
165.182597
 30
0.0
 11
110.955195
 21
165.182597
 31
0.0
1001
ACAD
1000
RTLwPs
1070
   158
  0
LINE
  5
D29C
  8
COTATION1
 62
     0
 10
128.955195
 20
165.182597
 30
0.0
 11
133.955195
 21
165.182597
 31
0.0
1001
ACAD
1000
RTLwPs
1070
   158
  0
TEXT
  5
D29D
  8
COTATION1
 62
     0
 10
131.19203
 20
166.689336
 30
0.0
 40
2.5
  1
3
1001
ACAD
1000
MTEXTBEGIN
1070
    73
1070
     1
1070
    44
1040
1.0
1070
    74
1070
     0
1000
MTEXTEND
  0
INSERT
  5
D29E
  8
COTATION1
 62
     0
  2
_OPEN30
 10
120.955195
 20
165.182597
 30
0.0
 41
5.0
 42
5.0
 43
5.0
1001
ACAD
1000
RTLwPs
1070
   158
  0
INSERT
  5
D29F
  8
COTATION1
 62
     0
  2
_OPEN30
 10
123.955195
 20
165.182597
 30
0.0
 41
5.0
 42
5.0
 43
5.0
 50
180.0
1001
ACAD
1000
RTLwPs
1070
   158
  0
POINT
  5
D2A0
  8
DEFPOINTS
 62
     0
 10
120.955195
 20
150.182597
 30
0.0
  0
POINT
  5
D2A1
  8
DEFPOINTS
 62
     0
 10
123.955195
 20
150.182597
 30
0.0
  0
POINT
  5
D2A2
  8
DEFPOINTS
 62
     0
 10
123.955195
 20
165.182597
 30
0.0
  0
ENDBLK
  5
C5C3
  8
0
  0
ENDSEC
  0
SECTION
  2
ENTITIES
  0
INSERT
  5
A
  8
0
  2
COTE
 10
0.0
 20
0.0
 30
0.0
  0
INSERT
  5
17
  8
0
  2
COTE
 10
284.010391
 20
6.373258
 30
0.0
  0
INSERT
  5
72
  8
0
  2
FOND
 10
0.0
 20
0.0
 30
0.0
  0
LINE
  5
C05B
  8
ALPHA
 10
123.955195
 20
61.182597
 30
0.0
 11
123.955195
 21
150.182597
 31
0.0
  0
LINE
  5
C05C
  8
ALPHA
 10
120.955195
 20
61.182597
 30
0.0
 11
120.955195
 21
150.182597
 31
0.0
  0
LINE
  5
C079
  8
ALPHA
 10
109.612834
 20
50.964213
 30
0.0
 11
109.260349
 21
50.854016
 31
0.0
  0
LINE
  5
C07A
  8
ALPHA
 10
109.612838
 20
55.400987
 30
0.0
 11
109.341161
 21
55.65115
 31
0.0
  0
LINE
  5
C07B
  8
ALPHA
 10
109.341161
 20
50.714045
 30
0.0
 11
109.612834
 21
50.964213
 31
0.0
  0
LINE
  5
C07C
  8
ALPHA
 10
109.260349
 20
55.511179
 30
0.0
 11
109.612838
 21
55.400987
 31
0.0
  0
ARC
  5
C07D
  8
ALPHA
 10
109.582512
 20
50.019952
 30
0.0
 40
0.399997
 50
219.236966
 51
302.0
  0
ARC
  5
C07E
  8
ALPHA
 10
109.582512
 20
56.345243
 30
0.0
 40
0.399997
 50
58.0
 51
140.763034
  0
ARC
  5
C07F
  8
ALPHA
 10
109.582512
 20
56.345243
 30
0.0
 40
0.2
 50
58.0
 51
140.763034
  0
ARC
  5
C080
  8
ALPHA
 10
113.455195
 20
53.182597
 30
0.0
 40
8.0
 50
90.0
 51
270.0
  0
ARC
  5
C081
  8
ALPHA
 10
109.582512
 20
50.019952
 30
0.0
 40
0.2
 50
219.236966
 51
302.0
  0
LINE
  5
C082
  8
ALPHA
 10
109.585119
 20
51.131612
 30
0.0
 11
108.954392
 21
50.938779
 31
0.0
  0
LINE
  5
C083
  8
ALPHA
 10
109.26159
 20
50.406697
 30
0.0
 11
109.743951
 21
50.856506
 31
0.0
  0
LINE
  5
C084
  8
ALPHA
 10
109.743951
 20
55.508689
 30
0.0
 11
109.26159
 21
55.958498
 31
0.0
  0
LINE
  5
C085
  8
ALPHA
 10
108.954392
 20
55.426416
 30
0.0
 11
109.585119
 21
55.233583
 31
0.0
  0
ARC
  5
C086
  8
ALPHA
 10
109.397989
 20
50.260426
 30
0.0
 40
0.399997
 50
133.0
 51
215.763034
  0
LINE
  5
C087
  8
ALPHA
 10
109.12519
 20
50.552968
 30
0.0
 11
109.26159
 21
50.406697
 31
0.0
  0
ARC
  5
C088
  8
ALPHA
 10
113.455195
 20
53.182597
 30
0.0
 40
5.399995
 50
215.763034
 51
219.236966
  0
ARC
  5
C089
  8
ALPHA
 10
113.455195
 20
53.182597
 30
0.0
 40
5.2
 50
215.763034
 51
219.236966
  0
ARC
  5
C08A
  8
ALPHA
 10
109.397989
 20
50.260426
 30
0.0
 40
0.2
 50
133.0
 51
215.763034
  0
LINE
  5
C08B
  8
ALPHA
 10
109.073413
 20
50.026652
 30
0.0
 11
109.235701
 21
50.143539
 31
0.0
  0
LINE
  5
C08C
  8
ALPHA
 10
109.272697
 20
49.76694
 30
0.0
 11
109.427604
 21
49.893446
 31
0.0
  0
ARC
  5
C08D
  8
ALPHA
 10
109.397989
 20
56.104769
 30
0.0
 40
0.399997
 50
144.236966
 51
227.0
  0
ARC
  5
C08E
  8
ALPHA
 10
113.455195
 20
53.182597
 30
0.0
 40
5.2
 50
140.763034
 51
144.236966
  0
LINE
  5
C08F
  8
ALPHA
 10
109.073413
 20
56.338543
 30
0.0
 11
109.235701
 21
56.221656
 31
0.0
  0
LINE
  5
C090
  8
ALPHA
 10
109.097044
 20
53.327881
 30
0.0
 11
109.058876
 21
53.345872
 31
0.0
  0
LINE
  5
C091
  8
ALPHA
 10
109.127774
 20
53.29407
 30
0.0
 11
109.097044
 21
53.327881
 31
0.0
  0
LINE
  5
C092
  8
ALPHA
 10
109.148319
 20
53.247461
 30
0.0
 11
109.127774
 21
53.29407
 31
0.0
  0
LINE
  5
C093
  8
ALPHA
 10
109.11059
 20
53.182597
 30
0.0
 11
109.148319
 21
53.247462
 31
0.0
  0
LINE
  5
C094
  8
ALPHA
 10
109.018436
 20
53.182597
 30
0.0
 11
109.11059
 21
53.182597
 31
0.0
  0
LINE
  5
C095
  8
ALPHA
 10
108.658061
 20
53.26341
 30
0.0
 11
108.655467
 21
53.233746
 31
0.0
  0
LINE
  5
C096
  8
ALPHA
 10
109.260349
 20
55.511179
 30
0.0
 11
109.272935
 21
55.538166
 31
0.0
  0
LINE
  5
C097
  8
ALPHA
 10
108.800603
 20
54.346128
 30
0.0
 11
108.805776
 21
54.375453
 31
0.0
  0
LINE
  5
C098
  8
ALPHA
 10
108.658061
 20
53.101785
 30
0.0
 11
108.655467
 21
53.131449
 31
0.0
  0
LINE
  5
C099
  8
ALPHA
 10
108.842435
 20
51.862949
 30
0.0
 11
108.832252
 21
51.890931
 31
0.0
  0
LINE
  5
C09A
  8
ALPHA
 10
109.341161
 20
50.714045
 30
0.0
 11
109.324083
 21
50.738438
 31
0.0
  0
LINE
  5
C09B
  8
ALPHA
 10
108.800603
 20
54.346128
 30
0.0
 11
108.714064
 21
54.178534
 31
0.0
  0
LINE
  5
C09C
  8
ALPHA
 10
108.800604
 20
54.346128
 30
0.0
 11
109.169601
 21
54.330922
 31
0.0
  0
LINE
  5
C09D
  8
ALPHA
 10
109.207943
 20
54.170232
 30
0.0
 11
109.166418
 21
54.162731
 31
0.0
  0
LINE
  5
C09E
  8
ALPHA
 10
109.246377
 20
54.194939
 30
0.0
 11
109.207943
 21
54.170232
 31
0.0
  0
LINE
  5
C09F
  8
ALPHA
 10
109.278284
 20
54.234641
 30
0.0
 11
109.246377
 21
54.194939
 31
0.0
  0
LINE
  5
C0A0
  8
ALPHA
 10
109.151029
 20
53.255852
 30
0.0
 11
109.153341
 21
53.265233
 31
0.0
  0
LINE
  5
C0A1
  8
ALPHA
 10
109.148319
 20
53.247462
 30
0.0
 11
109.151029
 21
53.255852
 31
0.0
  0
LINE
  5
C0A2
  8
ALPHA
 10
109.151004
 20
53.109431
 30
0.0
 11
109.153341
 21
53.099962
 31
0.0
  0
LINE
  5
C0A3
  8
ALPHA
 10
109.14832
 20
53.117731
 30
0.0
 11
109.151004
 21
53.109431
 31
0.0
  0
LINE
  5
C0A4
  8
ALPHA
 10
109.11059
 20
53.182597
 30
0.0
 11
109.14832
 21
53.117731
 31
0.0
  0
LINE
  5
C0A5
  8
ALPHA
 10
109.1696
 20
52.034279
 30
0.0
 11
108.800604
 21
52.019067
 31
0.0
  0
LINE
  5
C0A6
  8
ALPHA
 10
108.800603
 20
52.019067
 30
0.0
 11
108.714064
 21
52.186661
 31
0.0
  0
LINE
  5
C0A7
  8
ALPHA
 10
109.207942
 20
52.194958
 30
0.0
 11
109.166418
 21
52.202458
 31
0.0
  0
LINE
  5
C0A8
  8
ALPHA
 10
109.246376
 20
52.170253
 30
0.0
 11
109.207942
 21
52.194958
 31
0.0
  0
LINE
  5
C0A9
  8
ALPHA
 10
109.278284
 20
52.130549
 30
0.0
 11
109.246376
 21
52.170253
 31
0.0
  0
LINE
  5
C0AA
  8
ALPHA
 10
109.271835
 20
52.096976
 30
0.0
 11
109.278284
 21
52.130551
 31
0.0
  0
LINE
  5
C0AB
  8
ALPHA
 10
109.258629
 20
52.058131
 30
0.0
 11
109.271835
 21
52.096976
 31
0.0
  0
LINE
  5
C0AC
  8
ALPHA
 10
109.169615
 20
52.03428
 30
0.0
 11
109.258629
 21
52.058131
 31
0.0
  0
LINE
  5
C0AD
  8
ALPHA
 10
108.800603
 20
52.019067
 30
0.0
 11
108.805776
 21
51.989742
 31
0.0
  0
LINE
  5
C0AE
  8
ALPHA
 10
108.658061
 20
53.101785
 30
0.0
 11
108.617847
 21
52.917503
 31
0.0
  0
LINE
  5
C0AF
  8
ALPHA
 10
108.658061
 20
53.101785
 30
0.0
 11
109.018421
 21
53.182601
 31
0.0
  0
LINE
  5
C0B0
  8
ALPHA
 10
109.097046
 20
53.03731
 30
0.0
 11
109.058877
 21
53.019317
 31
0.0
  0
LINE
  5
C0B1
  8
ALPHA
 10
109.127776
 20
53.071122
 30
0.0
 11
109.097046
 21
53.03731
 31
0.0
  0
LINE
  5
C0B2
  8
ALPHA
 10
109.14832
 20
53.11773
 30
0.0
 11
109.127776
 21
53.071122
 31
0.0
  0
LINE
  5
C0B3
  8
ALPHA
 10
109.27873
 20
52.139356
 30
0.0
 11
109.278535
 21
52.149016
 31
0.0
  0
LINE
  5
C0B4
  8
ALPHA
 10
109.278284
 20
52.130551
 30
0.0
 11
109.27873
 21
52.139356
 31
0.0
  0
LINE
  5
C0B5
  8
ALPHA
 10
109.316603
 20
51.997918
 30
0.0
 11
109.321311
 21
51.989376
 31
0.0
  0
LINE
  5
C0B6
  8
ALPHA
 10
109.311861
 20
52.00524
 30
0.0
 11
109.316603
 21
51.997918
 31
0.0
  0
LINE
  5
C0B7
  8
ALPHA
 10
109.258629
 20
52.058131
 30
0.0
 11
109.311861
 21
52.00524
 31
0.0
  0
LINE
  5
C0B8
  8
ALPHA
 10
109.260349
 20
50.854016
 30
0.0
 11
109.133382
 21
50.993502
 31
0.0
  0
LINE
  5
C0B9
  8
ALPHA
 10
109.260349
 20
50.854016
 30
0.0
 11
109.272935
 21
50.827029
 31
0.0
  0
LINE
  5
C0BA
  8
ALPHA
 10
108.842435
 20
51.862949
 30
0.0
 11
108.851287
 21
51.674538
 31
0.0
  0
LINE
  5
C0BB
  8
ALPHA
 10
108.842435
 20
51.862949
 30
0.0
 11
109.1696
 21
52.034279
 31
0.0
  0
LINE
  5
C0BC
  8
ALPHA
 10
109.283149
 20
51.914288
 30
0.0
 11
109.250938
 21
51.88703
 31
0.0
  0
LINE
  5
C0BD
  8
ALPHA
 10
109.304081
 20
51.954902
 30
0.0
 11
109.283149
 21
51.914288
 31
0.0
  0
LINE
  5
C0BE
  8
ALPHA
 10
109.311862
 20
52.005239
 30
0.0
 11
109.304081
 21
51.954902
 31
0.0
  0
LINE
  5
C0BF
  8
ALPHA
 10
109.341161
 20
55.65115
 30
0.0
 11
109.398476
 21
55.83085
 31
0.0
  0
LINE
  5
C0C0
  8
ALPHA
 10
109.341161
 20
55.65115
 30
0.0
 11
109.324083
 21
55.626757
 31
0.0
  0
LINE
  5
C0C1
  8
ALPHA
 10
109.341161
 20
50.714045
 30
0.0
 11
109.398476
 21
50.534345
 31
0.0
  0
LINE
  5
C0C2
  8
ALPHA
 10
109.169601
 20
54.330922
 30
0.0
 11
108.842435
 21
54.502246
 31
0.0
  0
LINE
  5
C0C3
  8
ALPHA
 10
108.842435
 20
54.502246
 30
0.0
 11
108.851287
 21
54.690657
 31
0.0
  0
LINE
  5
C0C4
  8
ALPHA
 10
109.283146
 20
54.450903
 30
0.0
 11
109.250935
 21
54.47816
 31
0.0
  0
LINE
  5
C0C5
  8
ALPHA
 10
109.304079
 20
54.41029
 30
0.0
 11
109.283146
 21
54.450903
 31
0.0
  0
LINE
  5
C0C6
  8
ALPHA
 10
109.31186
 20
54.359952
 30
0.0
 11
109.304079
 21
54.41029
 31
0.0
  0
LINE
  5
C0C7
  8
ALPHA
 10
109.258629
 20
54.307064
 30
0.0
 11
109.31186
 21
54.359954
 31
0.0
  0
LINE
  5
C0C8
  8
ALPHA
 10
109.169615
 20
54.330915
 30
0.0
 11
109.258629
 21
54.307064
 31
0.0
  0
LINE
  5
C0C9
  8
ALPHA
 10
108.842435
 20
54.502246
 30
0.0
 11
108.832252
 21
54.474264
 31
0.0
  0
LINE
  5
C0CA
  8
ALPHA
 10
109.260349
 20
55.511179
 30
0.0
 11
109.133382
 21
55.371693
 31
0.0
  0
LINE
  5
C0CB
  8
ALPHA
 10
109.316649
 20
54.367356
 30
0.0
 11
109.321311
 21
54.375819
 31
0.0
  0
LINE
  5
C0CC
  8
ALPHA
 10
109.31186
 20
54.359954
 30
0.0
 11
109.316649
 21
54.367356
 31
0.0
  0
LINE
  5
C0CD
  8
ALPHA
 10
109.278729
 20
54.225931
 30
0.0
 11
109.278535
 21
54.216179
 31
0.0
  0
LINE
  5
C0CE
  8
ALPHA
 10
109.278284
 20
54.234643
 30
0.0
 11
109.278729
 21
54.225931
 31
0.0
  0
LINE
  5
C0CF
  8
ALPHA
 10
109.271893
 20
54.268005
 30
0.0
 11
109.278284
 21
54.234643
 31
0.0
  0
LINE
  5
C0D0
  8
ALPHA
 10
109.258629
 20
54.307064
 30
0.0
 11
109.271893
 21
54.268005
 31
0.0
  0
LINE
  5
C0D1
  8
ALPHA
 10
109.018421
 20
53.182601
 30
0.0
 11
108.658061
 21
53.26341
 31
0.0
  0
LINE
  5
C0D2
  8
ALPHA
 10
108.658061
 20
53.26341
 30
0.0
 11
108.617847
 21
53.447692
 31
0.0
  0
ARC
  5
C0D3
  8
ALPHA
 10
108.480466
 20
53.684669
 30
0.0
 40
0.399997
 50
174.236966
 51
257.0
  0
ARC
  5
C0D4
  8
ALPHA
 10
113.455195
 20
53.182597
 30
0.0
 40
5.399994
 50
170.763034
 51
174.236966
  0
ARC
  5
C0D5
  8
ALPHA
 10
108.52003
 20
53.985188
 30
0.0
 40
0.399997
 50
88.0
 51
170.763034
  0
ARC
  5
C0D6
  8
ALPHA
 10
113.455195
 20
53.182597
 30
0.0
 40
4.8
 50
149.389452
 51
150.610548
  0
ARC
  5
C0D7
  8
ALPHA
 10
113.455195
 20
53.182597
 30
0.0
 40
4.8
 50
164.389452
 51
165.610548
  0
ARC
  5
C0D8
  8
ALPHA
 10
113.455195
 20
53.182597
 30
0.0
 40
4.8
 50
179.389452
 51
180.610548
  0
ARC
  5
C0D9
  8
ALPHA
 10
113.455195
 20
53.182597
 30
0.0
 40
4.8
 50
194.389452
 51
195.610548
  0
ARC
  5
C0DA
  8
ALPHA
 10
113.455195
 20
53.182597
 30
0.0
 40
4.8
 50
209.389452
 51
210.610548
  0
ARC
  5
C0DB
  8
ALPHA
 10
108.52003
 20
52.380007
 30
0.0
 40
0.399997
 50
189.236966
 51
272.0
  0
ARC
  5
C0DC
  8
ALPHA
 10
113.455195
 20
53.182597
 30
0.0
 40
5.399993
 50
185.763034
 51
189.236966
  0
ARC
  5
C0DD
  8
ALPHA
 10
108.480466
 20
52.680525
 30
0.0
 40
0.399997
 50
103.0
 51
185.763034
  0
ARC
  5
C0DE
  8
ALPHA
 10
108.895917
 20
51.13004
 30
0.0
 40
0.399997
 50
204.236966
 51
287.0
  0
ARC
  5
C0DF
  8
ALPHA
 10
113.455195
 20
53.182597
 30
0.0
 40
5.4
 50
200.763034
 51
204.236966
  0
ARC
  5
C0E0
  8
ALPHA
 10
108.779922
 20
51.410079
 30
0.0
 40
0.399997
 50
118.0
 51
200.763034
  0
ARC
  5
C0E1
  8
ALPHA
 10
108.779922
 20
54.955116
 30
0.0
 40
0.399997
 50
159.236966
 51
242.0
  0
ARC
  5
C0E2
  8
ALPHA
 10
113.455195
 20
53.182597
 30
0.0
 40
5.4
 50
155.763034
 51
159.236966
  0
ARC
  5
C0E3
  8
ALPHA
 10
108.895917
 20
55.235155
 30
0.0
 40
0.399997
 50
73.0
 51
155.763034
  0
ARC
  5
C0E4
  8
ALPHA
 10
109.397989
 20
56.104769
 30
0.0
 40
0.2
 50
144.236966
 51
227.0
  0
ARC
  5
C0E5
  8
ALPHA
 10
108.779922
 20
54.955116
 30
0.0
 40
0.2
 50
159.236966
 51
242.0
  0
ARC
  5
C0E6
  8
ALPHA
 10
113.455195
 20
53.182597
 30
0.0
 40
5.2
 50
155.763034
 51
159.236966
  0
ARC
  5
C0E7
  8
ALPHA
 10
108.895917
 20
55.235155
 30
0.0
 40
0.2
 50
73.0
 51
155.763034
  0
ARC
  5
C0E8
  8
ALPHA
 10
109.221425
 20
54.380594
 30
0.0
 40
0.1
 50
344.200498
 51
62.0
  0
ARC
  5
C0E9
  8
ALPHA
 10
113.455195
 20
53.182597
 30
0.0
 40
4.3
 50
164.200498
 51
165.799502
  0
ARC
  5
C0EA
  8
ALPHA
 10
109.189644
 20
54.261987
 30
0.0
 40
0.1
 50
268.0
 51
345.799502
  0
ARC
  5
C0EB
  8
ALPHA
 10
108.480466
 20
53.684669
 30
0.0
 40
0.2
 50
174.236966
 51
257.0
  0
ARC
  5
C0EC
  8
ALPHA
 10
113.455195
 20
53.182597
 30
0.0
 40
5.2
 50
170.763034
 51
174.236966
  0
ARC
  5
C0ED
  8
ALPHA
 10
108.52003
 20
53.985188
 30
0.0
 40
0.2
 50
88.0
 51
170.763034
  0
ARC
  5
C0EE
  8
ALPHA
 10
109.055623
 20
53.243993
 30
0.0
 40
0.1
 50
359.200498
 51
77.0
  0
ARC
  5
C0EF
  8
ALPHA
 10
113.455195
 20
53.182597
 30
0.0
 40
4.3
 50
179.200498
 51
180.799502
  0
ARC
  5
C0F0
  8
ALPHA
 10
109.055623
 20
53.121202
 30
0.0
 40
0.1
 50
283.0
 51
0.799502
  0
ARC
  5
C0F1
  8
ALPHA
 10
108.52003
 20
52.380007
 30
0.0
 40
0.2
 50
189.236966
 51
272.0
  0
ARC
  5
C0F2
  8
ALPHA
 10
113.455195
 20
53.182597
 30
0.0
 40
5.2
 50
185.763034
 51
189.236966
  0
ARC
  5
C0F3
  8
ALPHA
 10
108.480466
 20
52.680525
 30
0.0
 40
0.2
 50
103.0
 51
185.763034
  0
ARC
  5
C0F4
  8
ALPHA
 10
109.189644
 20
52.103208
 30
0.0
 40
0.1
 50
14.200498
 51
92.0
  0
ARC
  5
C0F5
  8
ALPHA
 10
109.221425
 20
51.984601
 30
0.0
 40
0.1
 50
298.0
 51
15.799502
  0
ARC
  5
C0F6
  8
ALPHA
 10
113.455195
 20
53.182597
 30
0.0
 40
4.3
 50
194.200498
 51
195.799502
  0
ARC
  5
C0F7
  8
ALPHA
 10
108.895917
 20
51.13004
 30
0.0
 40
0.2
 50
204.236966
 51
287.0
  0
ARC
  5
C0F8
  8
ALPHA
 10
113.455195
 20
53.182597
 30
0.0
 40
5.2
 50
200.763034
 51
204.236966
  0
ARC
  5
C0F9
  8
ALPHA
 10
108.779922
 20
51.410079
 30
0.0
 40
0.2
 50
118.0
 51
200.763034
  0
LINE
  5
C0FA
  8
ALPHA
 10
109.272935
 20
50.827029
 30
0.0
 11
109.012866
 21
50.747518
 31
0.0
  0
LINE
  5
C0FB
  8
ALPHA
 10
108.4059
 20
51.268277
 30
0.0
 11
108.592911
 21
51.339178
 31
0.0
  0
LINE
  5
C0FC
  8
ALPHA
 10
108.531175
 20
50.965836
 30
0.0
 11
108.713546
 21
51.047938
 31
0.0
  0
LINE
  5
C0FD
  8
ALPHA
 10
108.686027
 20
51.586668
 30
0.0
 11
109.268372
 21
51.896306
 31
0.0
  0
LINE
  5
C0FE
  8
ALPHA
 10
108.592133
 20
51.763258
 30
0.0
 11
108.832252
 21
51.890931
 31
0.0
  0
LINE
  5
C0FF
  8
ALPHA
 10
109.12519
 20
50.552968
 30
0.0
 11
109.324083
 21
50.738438
 31
0.0
  0
LINE
  5
C100
  8
ALPHA
 10
109.12519
 20
55.812227
 30
0.0
 11
109.26159
 21
55.958498
 31
0.0
  0
LINE
  5
C101
  8
ALPHA
 10
108.592133
 20
54.601937
 30
0.0
 11
108.686027
 21
54.778527
 31
0.0
  0
LINE
  5
C102
  8
ALPHA
 10
109.012866
 20
55.617676
 30
0.0
 11
108.954392
 21
55.426416
 31
0.0
  0
LINE
  5
C103
  8
ALPHA
 10
108.390486
 20
53.294921
 30
0.0
 11
108.435476
 21
53.489795
 31
0.0
  0
LINE
  5
C104
  8
ALPHA
 10
108.53399
 20
54.384944
 30
0.0
 11
108.52701
 21
54.185066
 31
0.0
  0
LINE
  5
C105
  8
ALPHA
 10
108.53399
 20
51.980251
 30
0.0
 11
108.52701
 21
52.180129
 31
0.0
  0
LINE
  5
C106
  8
ALPHA
 10
108.390486
 20
53.070273
 30
0.0
 11
108.435476
 21
52.875399
 31
0.0
  0
LINE
  5
C107
  8
ALPHA
 10
109.012866
 20
50.747518
 30
0.0
 11
108.954392
 21
50.938779
 31
0.0
  0
LINE
  5
C108
  8
ALPHA
 10
108.592133
 20
51.763258
 30
0.0
 11
108.686027
 21
51.586668
 31
0.0
  0
LINE
  5
C109
  8
ALPHA
 10
109.324083
 20
55.626757
 30
0.0
 11
109.12519
 21
55.812227
 31
0.0
  0
LINE
  5
C10A
  8
ALPHA
 10
109.268372
 20
54.468888
 30
0.0
 11
108.686027
 21
54.778527
 31
0.0
  0
LINE
  5
C10B
  8
ALPHA
 10
108.832252
 20
54.474264
 30
0.0
 11
108.592133
 21
54.601937
 31
0.0
  0
LINE
  5
C10C
  8
ALPHA
 10
108.531175
 20
55.399359
 30
0.0
 11
108.713546
 21
55.317257
 31
0.0
  0
LINE
  5
C10D
  8
ALPHA
 10
108.4059
 20
55.096918
 30
0.0
 11
108.592911
 21
55.026017
 31
0.0
  0
LINE
  5
C10E
  8
ALPHA
 10
109.012866
 20
55.617676
 30
0.0
 11
109.272935
 21
55.538166
 31
0.0
  0
LINE
  5
C10F
  8
ALPHA
 10
108.390486
 20
53.070273
 30
0.0
 11
108.655467
 21
53.131449
 31
0.0
  0
LINE
  5
C110
  8
ALPHA
 10
108.435476
 20
52.875399
 30
0.0
 11
109.078118
 21
53.023765
 31
0.0
  0
LINE
  5
C111
  8
ALPHA
 10
109.078118
 20
53.34143
 30
0.0
 11
108.435476
 21
53.489795
 31
0.0
  0
LINE
  5
C112
  8
ALPHA
 10
108.655467
 20
53.233746
 30
0.0
 11
108.390486
 21
53.294921
 31
0.0
  0
LINE
  5
C113
  8
ALPHA
 10
108.125217
 20
54.049395
 30
0.0
 11
108.322623
 21
54.017291
 31
0.0
  0
LINE
  5
C114
  8
ALPHA
 10
108.082488
 20
53.724835
 30
0.0
 11
108.281477
 21
53.704752
 31
0.0
  0
LINE
  5
C115
  8
ALPHA
 10
108.53399
 20
54.384944
 30
0.0
 11
108.805776
 21
54.375453
 31
0.0
  0
LINE
  5
C116
  8
ALPHA
 10
108.52701
 20
54.185066
 30
0.0
 11
109.186154
 21
54.162048
 31
0.0
  0
LINE
  5
C117
  8
ALPHA
 10
109.186154
 20
52.203147
 30
0.0
 11
108.52701
 21
52.180129
 31
0.0
  0
LINE
  5
C118
  8
ALPHA
 10
108.805776
 20
51.989742
 30
0.0
 11
108.53399
 21
51.980251
 31
0.0
  0
LINE
  5
C119
  8
ALPHA
 10
108.082488
 20
52.64036
 30
0.0
 11
108.281477
 21
52.660443
 31
0.0
  0
LINE
  5
C11A
  8
ALPHA
 10
108.125217
 20
52.3158
 30
0.0
 11
108.322623
 21
52.347904
 31
0.0
  0
ARC
  5
C11B
  8
ALPHA
 10
113.455195
 20
53.182597
 30
0.0
 40
5.399993
 50
140.763034
 51
144.236966
  0
LINE
  5
C11C
  8
ALPHA
 10
109.272697
 20
56.598255
 30
0.0
 11
109.427604
 21
56.471749
 31
0.0
  0
LINE
  5
C11D
  8
ALPHA
 10
123.955195
 20
25.182597
 30
0.0
 11
123.955195
 21
45.182597
 31
0.0
  0
LINE
  5
C11E
  8
ALPHA
 10
120.955195
 20
25.182597
 30
0.0
 11
120.955195
 21
45.182597
 31
0.0
  0
LINE
  5
C11F
  8
ALPHA
 10
120.955195
 20
25.182597
 30
0.0
 11
123.955195
 21
25.182597
 31
0.0
  0
LINE
  5
C120
  8
ALPHA
 10
117.65004
 20
55.511179
 30
0.0
 11
117.777008
 21
55.371693
 31
0.0
  0
LINE
  5
C121
  8
ALPHA
 10
117.740775
 20
54.330915
 30
0.0
 11
117.65176
 21
54.307064
 31
0.0
  0
LINE
  5
C122
  8
ALPHA
 10
117.702447
 20
54.170237
 30
0.0
 11
117.743971
 21
54.162737
 31
0.0
  0
LINE
  5
C123
  8
ALPHA
 10
117.702446
 20
52.194963
 30
0.0
 11
117.743971
 21
52.202464
 31
0.0
  0
LINE
  5
C124
  8
ALPHA
 10
117.65004
 20
50.854016
 30
0.0
 11
117.777008
 21
50.993502
 31
0.0
  0
LINE
  5
C125
  8
ALPHA
 10
117.740775
 20
52.03428
 30
0.0
 11
117.65176
 21
52.058131
 31
0.0
  0
ARC
  5
C126
  8
ALPHA
 10
113.455195
 20
53.182597
 30
0.0
 40
5.399993
 50
35.763034
 51
39.236966
  0
ARC
  5
C127
  8
ALPHA
 10
113.455195
 20
53.182597
 30
0.0
 40
5.399995
 50
320.763034
 51
324.236966
  0
ARC
  5
C128
  8
ALPHA
 10
117.854766
 20
53.243993
 30
0.0
 40
0.1
 50
103.0
 51
180.799502
  0
ARC
  5
C129
  8
ALPHA
 10
117.854766
 20
53.121202
 30
0.0
 40
0.1
 50
179.200498
 51
257.0
  0
LINE
  5
C12A
  8
ALPHA
 10
117.32527
 20
55.233583
 30
0.0
 11
117.955998
 21
55.426416
 31
0.0
  0
LINE
  5
C12B
  8
ALPHA
 10
117.637455
 20
55.538166
 30
0.0
 11
117.897523
 21
55.617676
 31
0.0
  0
LINE
  5
C12C
  8
ALPHA
 10
118.224362
 20
54.778527
 30
0.0
 11
117.642017
 21
54.468888
 31
0.0
  0
LINE
  5
C12D
  8
ALPHA
 10
117.836976
 20
56.338543
 30
0.0
 11
117.674688
 21
56.221656
 31
0.0
  0
LINE
  5
C12E
  8
ALPHA
 10
117.785199
 20
55.812227
 30
0.0
 11
117.586306
 21
55.626757
 31
0.0
  0
LINE
  5
C12F
  8
ALPHA
 10
117.785199
 20
50.552968
 30
0.0
 11
117.6488
 21
50.406697
 31
0.0
  0
LINE
  5
C130
  8
ALPHA
 10
117.785199
 20
55.812227
 30
0.0
 11
117.6488
 21
55.958498
 31
0.0
  0
LINE
  5
C131
  8
ALPHA
 10
117.586306
 20
50.738438
 30
0.0
 11
117.785199
 21
50.552968
 31
0.0
  0
LINE
  5
C132
  8
ALPHA
 10
117.836976
 20
50.026652
 30
0.0
 11
117.674688
 21
50.143539
 31
0.0
  0
LINE
  5
C133
  8
ALPHA
 10
113.455195
 20
61.182597
 30
0.0
 11
123.955195
 21
61.182597
 31
0.0
  0
LINE
  5
C134
  8
ALPHA
 10
117.642017
 20
51.896306
 30
0.0
 11
118.224362
 21
51.586668
 31
0.0
  0
LINE
  5
C135
  8
ALPHA
 10
117.955998
 20
50.938779
 30
0.0
 11
117.32527
 21
51.131612
 31
0.0
  0
LINE
  5
C136
  8
ALPHA
 10
117.897523
 20
50.747518
 30
0.0
 11
117.637455
 21
50.827029
 31
0.0
  0
LINE
  5
C137
  8
ALPHA
 10
118.383379
 20
52.180129
 30
0.0
 11
117.724235
 21
52.203147
 31
0.0
  0
LINE
  5
C138
  8
ALPHA
 10
117.724235
 20
54.162048
 30
0.0
 11
118.383379
 21
54.185066
 31
0.0
  0
LINE
  5
C139
  8
ALPHA
 10
113.455195
 20
45.182597
 30
0.0
 11
123.955195
 21
45.182597
 31
0.0
  0
LINE
  5
C13A
  8
ALPHA
 10
117.166438
 20
50.856506
 30
0.0
 11
117.6488
 21
50.406697
 31
0.0
  0
LINE
  5
C13B
  8
ALPHA
 10
113.536007
 20
48.385464
 30
0.0
 11
113.720289
 21
48.34525
 31
0.0
  0
ARC
  5
C13C
  8
ALPHA
 10
113.957267
 20
48.207869
 30
0.0
 40
0.399997
 50
193.0
 51
275.763034
  0
LINE
  5
C13D
  8
ALPHA
 10
113.762393
 20
48.162879
 30
0.0
 11
113.614027
 21
48.805521
 31
0.0
  0
LINE
  5
C13E
  8
ALPHA
 10
113.567519
 20
48.117889
 30
0.0
 11
113.762393
 21
48.162879
 31
0.0
  0
ARC
  5
C13F
  8
ALPHA
 10
111.682676
 20
48.507325
 30
0.0
 40
0.399997
 50
249.236966
 51
332.0
  0
ARC
  5
C140
  8
ALPHA
 10
113.455195
 20
53.182597
 30
0.0
 40
5.2
 50
245.763034
 51
249.236966
  0
LINE
  5
C141
  8
ALPHA
 10
111.540874
 20
48.133303
 30
0.0
 11
111.611775
 21
48.320314
 31
0.0
  0
LINE
  5
C142
  8
ALPHA
 10
111.1503
 20
49.48097
 30
0.0
 11
111.115635
 21
49.456911
 31
0.0
  0
LINE
  5
C143
  8
ALPHA
 10
111.194947
 20
49.490678
 30
0.0
 11
111.1503
 21
49.48097
 31
0.0
  0
LINE
  5
C144
  8
ALPHA
 10
111.23178
 20
49.488115
 30
0.0
 11
111.194947
 21
49.490678
 31
0.0
  0
LINE
  5
C145
  8
ALPHA
 10
111.245583
 20
49.485165
 30
0.0
 11
111.23178
 21
49.488115
 31
0.0
  0
LINE
  5
C146
  8
ALPHA
 10
111.282892
 20
49.42006
 30
0.0
 11
111.245582
 21
49.485166
 31
0.0
  0
LINE
  5
C147
  8
ALPHA
 10
111.236815
 20
49.340251
 30
0.0
 11
111.282892
 21
49.42006
 31
0.0
  0
LINE
  5
C148
  8
ALPHA
 10
110.120252
 20
49.733369
 30
0.0
 11
110.097442
 21
49.75251
 31
0.0
  0
LINE
  5
C149
  8
ALPHA
 10
111.126613
 20
48.987752
 30
0.0
 11
111.099626
 21
49.000337
 31
0.0
  0
LINE
  5
C14A
  8
ALPHA
 10
110.986642
 20
49.068564
 30
0.0
 11
111.011035
 21
49.051486
 31
0.0
  0
LINE
  5
C14B
  8
ALPHA
 10
110.120252
 20
49.733369
 30
0.0
 11
110.222123
 21
49.574626
 31
0.0
  0
LINE
  5
C14C
  8
ALPHA
 10
110.120252
 20
49.733369
 30
0.0
 11
110.31792
 21
50.045327
 31
0.0
  0
LINE
  5
C14D
  8
ALPHA
 10
110.474072
 20
50.043826
 30
0.0
 11
110.461986
 21
49.958475
 31
0.0
  0
LINE
  5
C14E
  8
ALPHA
 10
110.462063
 20
50.078742
 30
0.0
 11
110.474072
 21
50.043826
 31
0.0
  0
LINE
  5
C14F
  8
ALPHA
 10
110.455643
 20
50.091308
 30
0.0
 11
110.462063
 21
50.078742
 31
0.0
  0
LINE
  5
C150
  8
ALPHA
 10
111.239672
 20
49.491708
 30
0.0
 11
111.232703
 21
49.498401
 31
0.0
  0
LINE
  5
C151
  8
ALPHA
 10
111.245582
 20
49.485166
 30
0.0
 11
111.239672
 21
49.491708
 31
0.0
  0
LINE
  5
C152
  8
ALPHA
 10
111.366463
 20
49.418476
 30
0.0
 11
111.375833
 21
49.415765
 31
0.0
  0
LINE
  5
C153
  8
ALPHA
 10
111.357933
 20
49.420301
 30
0.0
 11
111.366463
 21
49.418476
 31
0.0
  0
LINE
  5
C154
  8
ALPHA
 10
111.324053
 20
49.422762
 30
0.0
 11
111.357933
 21
49.420301
 31
0.0
  0
LINE
  5
C155
  8
ALPHA
 10
111.282892
 20
49.42006
 30
0.0
 11
111.324053
 21
49.422762
 31
0.0
  0
LINE
  5
C156
  8
ALPHA
 10
110.31792
 20
50.045327
 30
0.0
 11
110.005966
 21
49.847655
 31
0.0
  0
LINE
  5
C157
  8
ALPHA
 10
110.005966
 20
49.847655
 30
0.0
 11
109.847223
 21
49.949526
 31
0.0
  0
LINE
  5
C158
  8
ALPHA
 10
110.316424
 20
50.201472
 30
0.0
 11
110.231075
 21
50.189383
 31
0.0
  0
LINE
  5
C159
  8
ALPHA
 10
110.351339
 20
50.189463
 30
0.0
 11
110.316424
 21
50.201472
 31
0.0
  0
LINE
  5
C15A
  8
ALPHA
 10
110.363908
 20
50.183042
 30
0.0
 11
110.351339
 21
50.189463
 31
0.0
  0
LINE
  5
C15B
  8
ALPHA
 10
110.37511
 20
50.150742
 30
0.0
 11
110.363907
 21
50.183043
 31
0.0
  0
LINE
  5
C15C
  8
ALPHA
 10
110.383095
 20
50.110498
 30
0.0
 11
110.37511
 21
50.150742
 31
0.0
  0
LINE
  5
C15D
  8
ALPHA
 10
110.317932
 20
50.045335
 30
0.0
 11
110.383095
 21
50.110498
 31
0.0
  0
LINE
  5
C15E
  8
ALPHA
 10
110.005966
 20
49.847655
 30
0.0
 11
110.025107
 21
49.824845
 31
0.0
  0
LINE
  5
C15F
  8
ALPHA
 10
111.126613
 20
48.987752
 30
0.0
 11
111.266099
 21
48.860784
 31
0.0
  0
LINE
  5
C160
  8
ALPHA
 10
111.126613
 20
48.987752
 30
0.0
 11
111.236805
 21
49.34024
 31
0.0
  0
LINE
  5
C161
  8
ALPHA
 10
111.401943
 20
49.335686
 30
0.0
 11
111.398441
 21
49.293635
 31
0.0
  0
LINE
  5
C162
  8
ALPHA
 10
111.388026
 20
49.379205
 30
0.0
 11
111.401943
 21
49.335686
 31
0.0
  0
LINE
  5
C163
  8
ALPHA
 10
111.367388
 20
49.409824
 30
0.0
 11
111.388026
 21
49.379205
 31
0.0
  0
LINE
  5
C164
  8
ALPHA
 10
111.357934
 20
49.4203
 30
0.0
 11
111.367388
 21
49.409824
 31
0.0
  0
LINE
  5
C165
  8
ALPHA
 10
110.359891
 20
50.190891
 30
0.0
 11
110.354892
 21
50.19916
 31
0.0
  0
LINE
  5
C166
  8
ALPHA
 10
110.363907
 20
50.183043
 30
0.0
 11
110.359891
 21
50.190891
 31
0.0
  0
LINE
  5
C167
  8
ALPHA
 10
110.463409
 20
50.087339
 30
0.0
 11
110.471757
 21
50.082295
 31
0.0
  0
LINE
  5
C168
  8
ALPHA
 10
110.455642
 20
50.091309
 30
0.0
 11
110.463409
 21
50.087339
 31
0.0
  0
LINE
  5
C169
  8
ALPHA
 10
110.423553
 20
50.102456
 30
0.0
 11
110.455642
 21
50.091309
 31
0.0
  0
LINE
  5
C16A
  8
ALPHA
 10
110.383095
 20
50.110498
 30
0.0
 11
110.423553
 21
50.102456
 31
0.0
  0
LINE
  5
C16B
  8
ALPHA
 10
111.236805
 20
49.34024
 30
0.0
 11
110.986642
 21
49.068564
 31
0.0
  0
LINE
  5
C16C
  8
ALPHA
 10
110.986642
 20
49.068564
 30
0.0
 11
110.806942
 21
49.125879
 31
0.0
  0
ARC
  5
C16D
  8
ALPHA
 10
113.455195
 20
53.182597
 30
0.0
 40
4.8
 50
224.389452
 51
225.610548
  0
ARC
  5
C16E
  8
ALPHA
 10
113.455195
 20
53.182597
 30
0.0
 40
4.8
 50
239.389452
 51
240.610548
  0
ARC
  5
C16F
  8
ALPHA
 10
110.533023
 20
49.125392
 30
0.0
 40
0.399997
 50
234.236966
 51
317.0
  0
ARC
  5
C170
  8
ALPHA
 10
113.455195
 20
53.182597
 30
0.0
 40
5.399993
 50
230.763034
 51
234.236966
  0
ARC
  5
C171
  8
ALPHA
 10
110.292549
 20
49.309915
 30
0.0
 40
0.399997
 50
148.0
 51
230.763034
  0
ARC
  5
C172
  8
ALPHA
 10
113.455195
 20
53.182597
 30
0.0
 40
5.400001
 50
245.763034
 51
249.236966
  0
ARC
  5
C173
  8
ALPHA
 10
111.402637
 20
48.62332
 30
0.0
 40
0.399997
 50
163.0
 51
245.763034
  0
ARC
  5
C174
  8
ALPHA
 10
111.202239
 20
49.403154
 30
0.0
 40
0.1
 50
59.200498
 51
137.0
  0
ARC
  5
C175
  8
ALPHA
 10
111.308579
 20
49.341759
 30
0.0
 40
0.1
 50
343.0
 51
60.799502
  0
ARC
  5
C176
  8
ALPHA
 10
110.300815
 20
50.115044
 30
0.0
 40
0.1
 50
44.200498
 51
122.0
  0
ARC
  5
C177
  8
ALPHA
 10
110.387641
 20
50.028217
 30
0.0
 40
0.1
 50
328.0
 51
45.799502
  0
ARC
  5
C178
  8
ALPHA
 10
113.455195
 20
53.182597
 30
0.0
 40
4.3
 50
224.200498
 51
225.799502
  0
ARC
  5
C179
  8
ALPHA
 10
110.533023
 20
49.125392
 30
0.0
 40
0.2
 50
234.236966
 51
317.0
  0
ARC
  5
C17A
  8
ALPHA
 10
113.455195
 20
53.182597
 30
0.0
 40
5.2
 50
230.763034
 51
234.236966
  0
ARC
  5
C17B
  8
ALPHA
 10
110.292549
 20
49.309915
 30
0.0
 40
0.2
 50
148.0
 51
230.763034
  0
ARC
  5
C17C
  8
ALPHA
 10
113.455195
 20
53.182597
 30
0.0
 40
4.3
 50
239.200498
 51
240.799502
  0
ARC
  5
C17D
  8
ALPHA
 10
111.402637
 20
48.62332
 30
0.0
 40
0.2
 50
163.0
 51
245.763034
  0
LINE
  5
C17E
  8
ALPHA
 10
110.025107
 20
49.824845
 30
0.0
 11
109.79448
 21
49.680732
 31
0.0
  0
LINE
  5
C17F
  8
ALPHA
 10
110.247823
 20
50.199848
 30
0.0
 11
109.688496
 21
49.850342
 31
0.0
  0
LINE
  5
C180
  8
ALPHA
 10
111.011035
 20
49.051486
 30
0.0
 11
110.825565
 21
48.852593
 31
0.0
  0
LINE
  5
C181
  8
ALPHA
 10
111.129103
 20
49.471354
 30
0.0
 11
110.679294
 21
48.988993
 31
0.0
  0
LINE
  5
C182
  8
ALPHA
 10
110.039537
 20
49.0001
 30
0.0
 11
110.166043
 21
49.155007
 31
0.0
  0
LINE
  5
C183
  8
ALPHA
 10
110.29925
 20
48.800816
 30
0.0
 11
110.416136
 21
48.963104
 31
0.0
  0
LINE
  5
C184
  8
ALPHA
 10
110.122939
 20
49.415899
 30
0.0
 11
110.472446
 21
49.975226
 31
0.0
  0
LINE
  5
C185
  8
ALPHA
 10
109.95333
 20
49.521882
 30
0.0
 11
110.097442
 21
49.75251
 31
0.0
  0
LINE
  5
C186
  8
ALPHA
 10
111.238433
 20
48.258578
 30
0.0
 11
111.320535
 21
48.440949
 31
0.0
  0
LINE
  5
C187
  8
ALPHA
 10
111.211376
 20
48.681795
 30
0.0
 11
111.404209
 21
49.312522
 31
0.0
  0
LINE
  5
C188
  8
ALPHA
 10
111.020116
 20
48.740269
 30
0.0
 11
111.099626
 21
49.000337
 31
0.0
  0
LINE
  5
C189
  8
ALPHA
 10
109.79448
 20
49.680732
 30
0.0
 11
109.688496
 21
49.850342
 31
0.0
  0
LINE
  5
C18A
  8
ALPHA
 10
110.825565
 20
48.852593
 30
0.0
 11
110.679294
 21
48.988993
 31
0.0
  0
LINE
  5
C18B
  8
ALPHA
 10
109.95333
 20
49.521882
 30
0.0
 11
110.122939
 21
49.415899
 31
0.0
  0
LINE
  5
C18C
  8
ALPHA
 10
111.020116
 20
48.740269
 30
0.0
 11
111.211376
 21
48.681795
 31
0.0
  0
LINE
  5
C18D
  8
ALPHA
 10
113.455191
 20
48.745824
 30
0.0
 11
113.374382
 21
48.385464
 31
0.0
  0
LINE
  5
C18E
  8
ALPHA
 10
113.536007
 20
48.385464
 30
0.0
 11
113.455191
 21
48.745824
 31
0.0
  0
LINE
  5
C18F
  8
ALPHA
 10
113.374382
 20
48.385464
 30
0.0
 11
113.1901
 21
48.34525
 31
0.0
  0
LINE
  5
C190
  8
ALPHA
 10
112.291664
 20
48.528006
 30
0.0
 11
112.262339
 21
48.533179
 31
0.0
  0
LINE
  5
C191
  8
ALPHA
 10
113.600482
 20
48.824449
 30
0.0
 11
113.618475
 21
48.78628
 31
0.0
  0
LINE
  5
C192
  8
ALPHA
 10
113.56667
 20
48.855179
 30
0.0
 11
113.600482
 21
48.824449
 31
0.0
  0
LINE
  5
C193
  8
ALPHA
 10
113.520062
 20
48.875722
 30
0.0
 11
113.56667
 21
48.855179
 31
0.0
  0
LINE
  5
C194
  8
ALPHA
 10
113.309911
 20
48.824447
 30
0.0
 11
113.29192
 21
48.786279
 31
0.0
  0
LINE
  5
C195
  8
ALPHA
 10
113.343722
 20
48.855177
 30
0.0
 11
113.309911
 21
48.824447
 31
0.0
  0
LINE
  5
C196
  8
ALPHA
 10
113.390331
 20
48.875722
 30
0.0
 11
113.343722
 21
48.855177
 31
0.0
  0
LINE
  5
C197
  8
ALPHA
 10
113.455195
 20
48.837993
 30
0.0
 11
113.39033
 21
48.875722
 31
0.0
  0
LINE
  5
C198
  8
ALPHA
 10
113.455195
 20
48.745838
 30
0.0
 11
113.455195
 21
48.837993
 31
0.0
  0
LINE
  5
C199
  8
ALPHA
 10
113.374382
 20
48.385464
 30
0.0
 11
113.404046
 21
48.38287
 31
0.0
  0
LINE
  5
C19A
  8
ALPHA
 10
113.536007
 20
48.385464
 30
0.0
 11
113.506343
 21
48.38287
 31
0.0
  0
LINE
  5
C19B
  8
ALPHA
 10
112.30687
 20
48.897004
 30
0.0
 11
112.135546
 21
48.569838
 31
0.0
  0
LINE
  5
C19C
  8
ALPHA
 10
112.135546
 20
48.569838
 30
0.0
 11
111.947135
 21
48.57869
 31
0.0
  0
LINE
  5
C19D
  8
ALPHA
 10
112.186889
 20
49.010549
 30
0.0
 11
112.159632
 21
48.978338
 31
0.0
  0
LINE
  5
C19E
  8
ALPHA
 10
112.227502
 20
49.031482
 30
0.0
 11
112.186889
 21
49.010549
 31
0.0
  0
LINE
  5
C19F
  8
ALPHA
 10
112.27784
 20
49.039263
 30
0.0
 11
112.227502
 21
49.031482
 31
0.0
  0
LINE
  5
C1A0
  8
ALPHA
 10
112.330728
 20
48.986032
 30
0.0
 11
112.277838
 21
49.039263
 31
0.0
  0
LINE
  5
C1A1
  8
ALPHA
 10
112.306877
 20
48.897017
 30
0.0
 11
112.330728
 21
48.986032
 31
0.0
  0
LINE
  5
C1A2
  8
ALPHA
 10
112.135546
 20
48.569838
 30
0.0
 11
112.163528
 21
48.559655
 31
0.0
  0
LINE
  5
C1A3
  8
ALPHA
 10
112.291664
 20
48.528006
 30
0.0
 11
112.459258
 21
48.441467
 31
0.0
  0
LINE
  5
C1A4
  8
ALPHA
 10
112.291664
 20
48.528006
 30
0.0
 11
112.30687
 21
48.897004
 31
0.0
  0
LINE
  5
C1A5
  8
ALPHA
 10
112.46756
 20
48.935346
 30
0.0
 11
112.475061
 21
48.893821
 31
0.0
  0
LINE
  5
C1A6
  8
ALPHA
 10
112.442853
 20
48.97378
 30
0.0
 11
112.46756
 21
48.935346
 31
0.0
  0
LINE
  5
C1A7
  8
ALPHA
 10
112.403151
 20
49.005687
 30
0.0
 11
112.442853
 21
48.97378
 31
0.0
  0
LINE
  5
C1A8
  8
ALPHA
 10
113.38194
 20
48.878432
 30
0.0
 11
113.372559
 21
48.880744
 31
0.0
  0
LINE
  5
C1A9
  8
ALPHA
 10
113.39033
 20
48.875722
 30
0.0
 11
113.38194
 21
48.878432
 31
0.0
  0
LINE
  5
C1AA
  8
ALPHA
 10
113.528361
 20
48.878407
 30
0.0
 11
113.53783
 21
48.880744
 31
0.0
  0
LINE
  5
C1AB
  8
ALPHA
 10
113.520061
 20
48.875722
 30
0.0
 11
113.528361
 21
48.878407
 31
0.0
  0
LINE
  5
C1AC
  8
ALPHA
 10
112.270436
 20
49.044052
 30
0.0
 11
112.261973
 21
49.048714
 31
0.0
  0
LINE
  5
C1AD
  8
ALPHA
 10
112.277838
 20
49.039263
 30
0.0
 11
112.270436
 21
49.044052
 31
0.0
  0
LINE
  5
C1AE
  8
ALPHA
 10
113.455195
 20
48.837993
 30
0.0
 11
113.520061
 21
48.875722
 31
0.0
  0
LINE
  5
C1AF
  8
ALPHA
 10
112.411861
 20
49.006132
 30
0.0
 11
112.421613
 21
49.005938
 31
0.0
  0
LINE
  5
C1B0
  8
ALPHA
 10
112.403149
 20
49.005687
 30
0.0
 11
112.411861
 21
49.006132
 31
0.0
  0
LINE
  5
C1B1
  8
ALPHA
 10
112.369787
 20
48.999296
 30
0.0
 11
112.403149
 21
49.005687
 31
0.0
  0
LINE
  5
C1B2
  8
ALPHA
 10
112.330728
 20
48.986032
 30
0.0
 11
112.369787
 21
48.999296
 31
0.0
  0
ARC
  5
C1B3
  8
ALPHA
 10
113.455195
 20
53.182597
 30
0.0
 40
4.8
 50
254.389452
 51
255.610548
  0
ARC
  5
C1B4
  8
ALPHA
 10
113.455195
 20
53.182597
 30
0.0
 40
4.8
 50
269.389452
 51
270.610548
  0
ARC
  5
C1B5
  8
ALPHA
 10
112.953123
 20
48.207869
 30
0.0
 40
0.399997
 50
264.236966
 51
347.0
  0
ARC
  5
C1B6
  8
ALPHA
 10
113.455195
 20
53.182597
 30
0.0
 40
5.399987
 50
260.763034
 51
264.236966
  0
ARC
  5
C1B7
  8
ALPHA
 10
112.652604
 20
48.247433
 30
0.0
 40
0.399997
 50
178.0
 51
260.763034
  0
ARC
  5
C1B8
  8
ALPHA
 10
112.257198
 20
48.948828
 30
0.0
 40
0.1
 50
74.200498
 51
152.0
  0
ARC
  5
C1B9
  8
ALPHA
 10
112.375805
 20
48.917047
 30
0.0
 40
0.1
 50
358.0
 51
75.799502
  0
ARC
  5
C1BA
  8
ALPHA
 10
111.682676
 20
48.507325
 30
0.0
 40
0.2
 50
249.236966
 51
332.0
  0
ARC
  5
C1BB
  8
ALPHA
 10
113.455195
 20
53.182597
 30
0.0
 40
4.3
 50
254.200498
 51
255.799502
  0
ARC
  5
C1BC
  8
ALPHA
 10
113.393799
 20
48.783026
 30
0.0
 40
0.1
 50
89.200498
 51
167.0
  0
ARC
  5
C1BD
  8
ALPHA
 10
113.51659
 20
48.783026
 30
0.0
 40
0.1
 50
13.0
 51
90.799502
  0
ARC
  5
C1BE
  8
ALPHA
 10
112.953123
 20
48.207869
 30
0.0
 40
0.2
 50
264.236966
 51
347.0
  0
ARC
  5
C1BF
  8
ALPHA
 10
113.455195
 20
53.182597
 30
0.0
 40
5.2
 50
260.763034
 51
264.236966
  0
ARC
  5
C1C0
  8
ALPHA
 10
112.652604
 20
48.247433
 30
0.0
 40
0.2
 50
178.0
 51
260.763034
  0
ARC
  5
C1C1
  8
ALPHA
 10
113.455195
 20
53.182597
 30
0.0
 40
4.3
 50
269.200498
 51
270.799502
  0
LINE
  5
C1C2
  8
ALPHA
 10
112.163528
 20
48.559655
 30
0.0
 11
112.035855
 21
48.319536
 31
0.0
  0
LINE
  5
C1C3
  8
ALPHA
 10
112.168904
 20
48.995775
 30
0.0
 11
111.859265
 21
48.41343
 31
0.0
  0
LINE
  5
C1C4
  8
ALPHA
 10
113.404046
 20
48.38287
 30
0.0
 11
113.342871
 21
48.117889
 31
0.0
  0
LINE
  5
C1C5
  8
ALPHA
 10
113.296362
 20
48.805521
 30
0.0
 11
113.147997
 21
48.162879
 31
0.0
  0
LINE
  5
C1C6
  8
ALPHA
 10
112.588397
 20
47.85262
 30
0.0
 11
112.620501
 21
48.050026
 31
0.0
  0
LINE
  5
C1C7
  8
ALPHA
 10
112.912957
 20
47.809891
 30
0.0
 11
112.93304
 21
48.00888
 31
0.0
  0
LINE
  5
C1C8
  8
ALPHA
 10
112.452726
 20
48.254413
 30
0.0
 11
112.475744
 21
48.913557
 31
0.0
  0
LINE
  5
C1C9
  8
ALPHA
 10
112.252848
 20
48.261393
 30
0.0
 11
112.262339
 21
48.533179
 31
0.0
  0
LINE
  5
C1CA
  8
ALPHA
 10
113.567519
 20
48.117889
 30
0.0
 11
113.506343
 21
48.38287
 31
0.0
  0
LINE
  5
C1CB
  8
ALPHA
 10
112.035855
 20
48.319536
 30
0.0
 11
111.859265
 21
48.41343
 31
0.0
  0
LINE
  5
C1CC
  8
ALPHA
 10
113.342871
 20
48.117889
 30
0.0
 11
113.147997
 21
48.162879
 31
0.0
  0
LINE
  5
C1CD
  8
ALPHA
 10
112.252848
 20
48.261393
 30
0.0
 11
112.452726
 21
48.254413
 31
0.0
  0
LINE
  5
C1CE
  8
ALPHA
 10
115.678609
 20
49.488117
 30
0.0
 11
115.715444
 21
49.490681
 31
0.0
  0
LINE
  5
C1CF
  8
ALPHA
 10
115.923747
 20
49.068564
 30
0.0
 11
115.673579
 21
49.340237
 31
0.0
  0
LINE
  5
C1D0
  8
ALPHA
 10
115.783776
 20
48.987752
 30
0.0
 11
115.64429
 21
48.860784
 31
0.0
  0
LINE
  5
C1D1
  8
ALPHA
 10
115.673579
 20
49.340237
 30
0.0
 11
115.783776
 21
48.987752
 31
0.0
  0
ARC
  5
C1D2
  8
ALPHA
 10
115.507752
 20
48.62332
 30
0.0
 40
0.399997
 50
294.236966
 51
17.0
  0
ARC
  5
C1D3
  8
ALPHA
 10
115.70815
 20
49.403154
 30
0.0
 40
0.1
 50
43.0
 51
120.799502
  0
ARC
  5
C1D4
  8
ALPHA
 10
115.507752
 20
48.62332
 30
0.0
 40
0.2
 50
294.236966
 51
17.0
  0
LINE
  5
C1D5
  8
ALPHA
 10
115.50618
 20
49.312522
 30
0.0
 11
115.699013
 21
48.681795
 31
0.0
  0
LINE
  5
C1D6
  8
ALPHA
 10
114.774843
 20
48.569838
 30
0.0
 11
114.746861
 21
48.559655
 31
0.0
  0
LINE
  5
C1D7
  8
ALPHA
 10
114.442834
 20
48.935345
 30
0.0
 11
114.435334
 21
48.893821
 31
0.0
  0
LINE
  5
C1D8
  8
ALPHA
 10
114.467539
 20
48.973779
 30
0.0
 11
114.442834
 21
48.935345
 31
0.0
  0
LINE
  5
C1D9
  8
ALPHA
 10
114.507243
 20
49.005687
 30
0.0
 11
114.467539
 21
48.973779
 31
0.0
  0
LINE
  5
C1DA
  8
ALPHA
 10
114.618725
 20
48.528006
 30
0.0
 11
114.64805
 21
48.533179
 31
0.0
  0
LINE
  5
C1DB
  8
ALPHA
 10
115.664809
 20
49.485168
 30
0.0
 11
115.678609
 21
49.488117
 31
0.0
  0
LINE
  5
C1DC
  8
ALPHA
 10
115.627497
 20
49.42006
 30
0.0
 11
115.664808
 21
49.485167
 31
0.0
  0
LINE
  5
C1DD
  8
ALPHA
 10
115.670653
 20
49.491642
 30
0.0
 11
115.677686
 21
49.498401
 31
0.0
  0
LINE
  5
C1DE
  8
ALPHA
 10
115.664808
 20
49.485167
 30
0.0
 11
115.670653
 21
49.491642
 31
0.0
  0
LINE
  5
C1DF
  8
ALPHA
 10
115.543837
 20
49.418453
 30
0.0
 11
115.534557
 21
49.415765
 31
0.0
  0
LINE
  5
C1E0
  8
ALPHA
 10
115.552458
 20
49.420301
 30
0.0
 11
115.543837
 21
49.418453
 31
0.0
  0
LINE
  5
C1E1
  8
ALPHA
 10
114.723504
 20
49.010552
 30
0.0
 11
114.750762
 21
48.978341
 31
0.0
  0
LINE
  5
C1E2
  8
ALPHA
 10
114.68289
 20
49.031484
 30
0.0
 11
114.723504
 21
49.010552
 31
0.0
  0
LINE
  5
C1E3
  8
ALPHA
 10
114.632553
 20
49.039265
 30
0.0
 11
114.68289
 21
49.031484
 31
0.0
  0
LINE
  5
C1E4
  8
ALPHA
 10
114.579661
 20
48.986032
 30
0.0
 11
114.603512
 21
48.897017
 31
0.0
  0
LINE
  5
C1E5
  8
ALPHA
 10
114.774843
 20
48.569838
 30
0.0
 11
114.603512
 21
48.897017
 31
0.0
  0
LINE
  5
C1E6
  8
ALPHA
 10
114.774843
 20
48.569838
 30
0.0
 11
114.963254
 21
48.57869
 31
0.0
  0
LINE
  5
C1E7
  8
ALPHA
 10
115.673574
 20
49.340251
 30
0.0
 11
115.627497
 21
49.42006
 31
0.0
  0
LINE
  5
C1E8
  8
ALPHA
 10
115.586558
 20
49.422762
 30
0.0
 11
115.552458
 21
49.420301
 31
0.0
  0
LINE
  5
C1E9
  8
ALPHA
 10
115.627497
 20
49.42006
 30
0.0
 11
115.586558
 21
49.422762
 31
0.0
  0
LINE
  5
C1EA
  8
ALPHA
 10
115.508451
 20
49.335686
 30
0.0
 11
115.511954
 21
49.293636
 31
0.0
  0
LINE
  5
C1EB
  8
ALPHA
 10
115.522367
 20
49.379205
 30
0.0
 11
115.508451
 21
49.335686
 31
0.0
  0
LINE
  5
C1EC
  8
ALPHA
 10
115.543003
 20
49.409823
 30
0.0
 11
115.522367
 21
49.379205
 31
0.0
  0
LINE
  5
C1ED
  8
ALPHA
 10
115.552459
 20
49.420302
 30
0.0
 11
115.543003
 21
49.409823
 31
0.0
  0
LINE
  5
C1EE
  8
ALPHA
 10
114.488776
 20
49.005938
 30
0.0
 11
114.507241
 21
49.005687
 31
0.0
  0
LINE
  5
C1EF
  8
ALPHA
 10
114.540754
 20
48.999255
 30
0.0
 11
114.579661
 21
48.986032
 31
0.0
  0
LINE
  5
C1F0
  8
ALPHA
 10
114.507241
 20
49.005687
 30
0.0
 11
114.540754
 21
48.999255
 31
0.0
  0
LINE
  5
C1F1
  8
ALPHA
 10
114.579661
 20
48.986032
 30
0.0
 11
114.632552
 21
49.039264
 31
0.0
  0
LINE
  5
C1F2
  8
ALPHA
 10
114.639874
 20
49.044006
 30
0.0
 11
114.648416
 21
49.048714
 31
0.0
  0
LINE
  5
C1F3
  8
ALPHA
 10
114.632552
 20
49.039264
 30
0.0
 11
114.639874
 21
49.044006
 31
0.0
  0
LINE
  5
C1F4
  8
ALPHA
 10
114.603512
 20
48.897017
 30
0.0
 11
114.618725
 21
48.528006
 31
0.0
  0
LINE
  5
C1F5
  8
ALPHA
 10
114.618725
 20
48.528006
 30
0.0
 11
114.451131
 21
48.441467
 31
0.0
  0
ARC
  5
C1F6
  8
ALPHA
 10
113.455195
 20
53.182597
 30
0.0
 40
4.8
 50
284.389452
 51
285.610548
  0
ARC
  5
C1F7
  8
ALPHA
 10
115.227713
 20
48.507325
 30
0.0
 40
0.399997
 50
208.0
 51
290.763034
  0
ARC
  5
C1F8
  8
ALPHA
 10
113.455195
 20
53.182597
 30
0.0
 40
5.400001
 50
290.763034
 51
294.236966
  0
ARC
  5
C1F9
  8
ALPHA
 10
113.455195
 20
53.182597
 30
0.0
 40
5.399988
 50
275.763034
 51
279.236966
  0
ARC
  5
C1FA
  8
ALPHA
 10
114.257785
 20
48.247433
 30
0.0
 40
0.399997
 50
279.236966
 51
2.0
  0
ARC
  5
C1FB
  8
ALPHA
 10
113.455195
 20
53.182597
 30
0.0
 40
4.3
 50
299.200498
 51
300.799502
  0
ARC
  5
C1FC
  8
ALPHA
 10
115.60181
 20
49.341759
 30
0.0
 40
0.1
 50
119.200498
 51
197.0
  0
ARC
  5
C1FD
  8
ALPHA
 10
115.227713
 20
48.507325
 30
0.0
 40
0.2
 50
208.0
 51
290.763034
  0
ARC
  5
C1FE
  8
ALPHA
 10
113.455195
 20
53.182597
 30
0.0
 40
5.2
 50
290.763034
 51
294.236966
  0
ARC
  5
C1FF
  8
ALPHA
 10
114.653191
 20
48.948828
 30
0.0
 40
0.1
 50
28.0
 51
105.799502
  0
ARC
  5
C200
  8
ALPHA
 10
113.455195
 20
53.182597
 30
0.0
 40
4.3
 50
284.200498
 51
285.799502
  0
ARC
  5
C201
  8
ALPHA
 10
114.534584
 20
48.917047
 30
0.0
 40
0.1
 50
104.200498
 51
182.0
  0
ARC
  5
C202
  8
ALPHA
 10
113.957267
 20
48.207869
 30
0.0
 40
0.2
 50
193.0
 51
275.763034
  0
ARC
  5
C203
  8
ALPHA
 10
113.455195
 20
53.182597
 30
0.0
 40
5.2
 50
275.763034
 51
279.236966
  0
ARC
  5
C204
  8
ALPHA
 10
114.257785
 20
48.247433
 30
0.0
 40
0.2
 50
279.236966
 51
2.0
  0
LINE
  5
C205
  8
ALPHA
 10
114.874534
 20
48.319536
 30
0.0
 11
115.051124
 21
48.41343
 31
0.0
  0
LINE
  5
C206
  8
ALPHA
 10
114.64805
 20
48.533179
 30
0.0
 11
114.657541
 21
48.261393
 31
0.0
  0
LINE
  5
C207
  8
ALPHA
 10
114.434645
 20
48.913557
 30
0.0
 11
114.457663
 21
48.254413
 31
0.0
  0
LINE
  5
C208
  8
ALPHA
 10
113.997432
 20
47.809891
 30
0.0
 11
113.977349
 21
48.00888
 31
0.0
  0
LINE
  5
C209
  8
ALPHA
 10
114.321992
 20
47.85262
 30
0.0
 11
114.289888
 21
48.050026
 31
0.0
  0
LINE
  5
C20A
  8
ALPHA
 10
115.369515
 20
48.133303
 30
0.0
 11
115.298614
 21
48.320314
 31
0.0
  0
LINE
  5
C20B
  8
ALPHA
 10
115.671956
 20
48.258578
 30
0.0
 11
115.589854
 21
48.440949
 31
0.0
  0
LINE
  5
C20C
  8
ALPHA
 10
115.051124
 20
48.41343
 30
0.0
 11
114.741486
 21
48.995775
 31
0.0
  0
LINE
  5
C20D
  8
ALPHA
 10
114.874534
 20
48.319536
 30
0.0
 11
114.746861
 21
48.559655
 31
0.0
  0
LINE
  5
C20E
  8
ALPHA
 10
114.657541
 20
48.261393
 30
0.0
 11
114.457663
 21
48.254413
 31
0.0
  0
LINE
  5
C20F
  8
ALPHA
 10
115.923747
 20
49.068564
 30
0.0
 11
115.899354
 21
49.051486
 31
0.0
  0
LINE
  5
C210
  8
ALPHA
 10
116.904423
 20
49.847655
 30
0.0
 11
116.885282
 21
49.824845
 31
0.0
  0
LINE
  5
C211
  8
ALPHA
 10
116.593966
 20
50.201475
 30
0.0
 11
116.679317
 21
50.189389
 31
0.0
  0
LINE
  5
C212
  8
ALPHA
 10
116.55905
 20
50.189466
 30
0.0
 11
116.593966
 21
50.201475
 31
0.0
  0
LINE
  5
C213
  8
ALPHA
 10
116.546484
 20
50.183045
 30
0.0
 11
116.55905
 21
50.189466
 31
0.0
  0
LINE
  5
C214
  8
ALPHA
 10
116.904423
 20
49.847655
 30
0.0
 11
116.592465
 21
50.045323
 31
0.0
  0
LINE
  5
C215
  8
ALPHA
 10
116.904423
 20
49.847655
 30
0.0
 11
117.063166
 21
49.949526
 31
0.0
  0
LINE
  5
C216
  8
ALPHA
 10
116.535336
 20
50.150956
 30
0.0
 11
116.546483
 21
50.183044
 31
0.0
  0
LINE
  5
C217
  8
ALPHA
 10
116.527294
 20
50.110498
 30
0.0
 11
116.535336
 21
50.150956
 31
0.0
  0
LINE
  5
C218
  8
ALPHA
 10
116.550453
 20
50.190811
 30
0.0
 11
116.555497
 21
50.19916
 31
0.0
  0
LINE
  5
C219
  8
ALPHA
 10
116.546483
 20
50.183044
 30
0.0
 11
116.550453
 21
50.190811
 31
0.0
  0
LINE
  5
C21A
  8
ALPHA
 10
116.446901
 20
50.087294
 30
0.0
 11
116.438632
 21
50.082295
 31
0.0
  0
LINE
  5
C21B
  8
ALPHA
 10
116.454749
 20
50.09131
 30
0.0
 11
116.446901
 21
50.087294
 31
0.0
  0
LINE
  5
C21C
  8
ALPHA
 10
115.760092
 20
49.480974
 30
0.0
 11
115.794759
 21
49.456915
 31
0.0
  0
LINE
  5
C21D
  8
ALPHA
 10
115.715444
 20
49.490681
 30
0.0
 11
115.760092
 21
49.480974
 31
0.0
  0
LINE
  5
C21E
  8
ALPHA
 10
115.923747
 20
49.068564
 30
0.0
 11
116.103447
 21
49.125879
 31
0.0
  0
LINE
  5
C21F
  8
ALPHA
 10
116.790137
 20
49.733369
 30
0.0
 11
116.812947
 21
49.75251
 31
0.0
  0
LINE
  5
C220
  8
ALPHA
 10
116.592457
 20
50.045335
 30
0.0
 11
116.527294
 21
50.110498
 31
0.0
  0
LINE
  5
C221
  8
ALPHA
 10
116.48705
 20
50.102513
 30
0.0
 11
116.454749
 21
50.09131
 31
0.0
  0
LINE
  5
C222
  8
ALPHA
 10
116.527294
 20
50.110498
 30
0.0
 11
116.48705
 21
50.102513
 31
0.0
  0
LINE
  5
C223
  8
ALPHA
 10
116.43632
 20
50.043826
 30
0.0
 11
116.448409
 21
49.958478
 31
0.0
  0
LINE
  5
C224
  8
ALPHA
 10
116.448329
 20
50.078742
 30
0.0
 11
116.43632
 21
50.043826
 31
0.0
  0
LINE
  5
C225
  8
ALPHA
 10
116.45475
 20
50.091311
 30
0.0
 11
116.448329
 21
50.078742
 31
0.0
  0
LINE
  5
C226
  8
ALPHA
 10
116.790137
 20
49.733369
 30
0.0
 11
116.688266
 21
49.574626
 31
0.0
  0
LINE
  5
C227
  8
ALPHA
 10
116.592465
 20
50.045323
 30
0.0
 11
116.790137
 21
49.733369
 31
0.0
  0
LINE
  5
C228
  8
ALPHA
 10
115.783776
 20
48.987752
 30
0.0
 11
115.810763
 21
49.000337
 31
0.0
  0
ARC
  5
C229
  8
ALPHA
 10
113.455195
 20
53.182597
 30
0.0
 40
4.8
 50
299.389452
 51
300.610548
  0
ARC
  5
C22A
  8
ALPHA
 10
113.455195
 20
53.182597
 30
0.0
 40
4.8
 50
314.389452
 51
315.610548
  0
ARC
  5
C22B
  8
ALPHA
 10
117.327877
 20
50.019952
 30
0.0
 40
0.399997
 50
238.0
 51
320.763034
  0
ARC
  5
C22C
  8
ALPHA
 10
116.377366
 20
49.125392
 30
0.0
 40
0.399997
 50
223.0
 51
305.763034
  0
ARC
  5
C22D
  8
ALPHA
 10
113.455195
 20
53.182597
 30
0.0
 40
5.399993
 50
305.763034
 51
309.236966
  0
ARC
  5
C22E
  8
ALPHA
 10
116.61784
 20
49.309915
 30
0.0
 40
0.399997
 50
309.236966
 51
32.0
  0
ARC
  5
C22F
  8
ALPHA
 10
117.327877
 20
50.019952
 30
0.0
 40
0.2
 50
238.0
 51
320.763034
  0
ARC
  5
C230
  8
ALPHA
 10
113.455195
 20
53.182597
 30
0.0
 40
5.2
 50
320.763034
 51
324.236966
  0
ARC
  5
C231
  8
ALPHA
 10
117.5124
 20
50.260426
 30
0.0
 40
0.2
 50
324.236966
 51
47.0
  0
ARC
  5
C232
  8
ALPHA
 10
116.609575
 20
50.115044
 30
0.0
 40
0.1
 50
58.0
 51
135.799502
  0
ARC
  5
C233
  8
ALPHA
 10
113.455195
 20
53.182597
 30
0.0
 40
4.3
 50
314.200498
 51
315.799502
  0
ARC
  5
C234
  8
ALPHA
 10
116.522748
 20
50.028217
 30
0.0
 40
0.1
 50
134.200498
 51
212.0
  0
ARC
  5
C235
  8
ALPHA
 10
116.377366
 20
49.125392
 30
0.0
 40
0.2
 50
223.0
 51
305.763034
  0
ARC
  5
C236
  8
ALPHA
 10
113.455195
 20
53.182597
 30
0.0
 40
5.2
 50
305.763034
 51
309.236966
  0
ARC
  5
C237
  8
ALPHA
 10
116.61784
 20
49.309915
 30
0.0
 40
0.2
 50
309.236966
 51
32.0
  0
LINE
  5
C238
  8
ALPHA
 10
115.890274
 20
48.740269
 30
0.0
 11
115.699013
 21
48.681795
 31
0.0
  0
LINE
  5
C239
  8
ALPHA
 10
116.95706
 20
49.521882
 30
0.0
 11
116.78745
 21
49.415899
 31
0.0
  0
LINE
  5
C23A
  8
ALPHA
 10
116.084824
 20
48.852593
 30
0.0
 11
116.231095
 21
48.988993
 31
0.0
  0
LINE
  5
C23B
  8
ALPHA
 10
117.11591
 20
49.680732
 30
0.0
 11
117.221894
 21
49.850342
 31
0.0
  0
LINE
  5
C23C
  8
ALPHA
 10
115.810763
 20
49.000337
 30
0.0
 11
115.890274
 21
48.740269
 31
0.0
  0
LINE
  5
C23D
  8
ALPHA
 10
116.812947
 20
49.75251
 30
0.0
 11
116.95706
 21
49.521882
 31
0.0
  0
LINE
  5
C23E
  8
ALPHA
 10
116.437944
 20
49.975226
 30
0.0
 11
116.78745
 21
49.415899
 31
0.0
  0
LINE
  5
C23F
  8
ALPHA
 10
116.61114
 20
48.800816
 30
0.0
 11
116.494253
 21
48.963104
 31
0.0
  0
LINE
  5
C240
  8
ALPHA
 10
116.870852
 20
49.0001
 30
0.0
 11
116.744346
 21
49.155007
 31
0.0
  0
LINE
  5
C241
  8
ALPHA
 10
116.231095
 20
48.988993
 30
0.0
 11
115.781286
 21
49.471354
 31
0.0
  0
LINE
  5
C242
  8
ALPHA
 10
116.084824
 20
48.852593
 30
0.0
 11
115.899354
 21
49.051486
 31
0.0
  0
LINE
  5
C243
  8
ALPHA
 10
117.637692
 20
49.76694
 30
0.0
 11
117.482785
 21
49.893446
 31
0.0
  0
LINE
  5
C244
  8
ALPHA
 10
117.221894
 20
49.850342
 30
0.0
 11
116.662567
 21
50.199848
 31
0.0
  0
LINE
  5
C245
  8
ALPHA
 10
117.11591
 20
49.680732
 30
0.0
 11
116.885282
 21
49.824845
 31
0.0
  0
LINE
  5
C246
  8
ALPHA
 10
113.536007
 20
57.979731
 30
0.0
 11
113.720289
 21
58.019945
 31
0.0
  0
ARC
  5
C247
  8
ALPHA
 10
113.957267
 20
58.157326
 30
0.0
 40
0.399997
 50
84.236966
 51
167.0
  0
CIRCLE
  5
C248
  8
ALPHA
 10
113.455195
 20
53.182597
 30
0.0
 40
2.15
  0
LINE
  5
C249
  8
ALPHA
 10
113.614027
 20
57.559674
 30
0.0
 11
113.762393
 21
58.202316
 31
0.0
  0
LINE
  5
C24A
  8
ALPHA
 10
113.567519
 20
58.247306
 30
0.0
 11
113.762393
 21
58.202316
 31
0.0
  0
LINE
  5
C24B
  8
ALPHA
 10
110.383095
 20
56.254697
 30
0.0
 11
110.375053
 21
56.214239
 31
0.0
  0
ARC
  5
C24C
  8
ALPHA
 10
113.455195
 20
53.182597
 30
0.0
 40
4.3
 50
134.200498
 51
135.799502
  0
LINE
  5
C24D
  8
ALPHA
 10
109.688496
 20
56.514853
 30
0.0
 11
110.247823
 21
56.165347
 31
0.0
  0
LINE
  5
C24E
  8
ALPHA
 10
109.608284
 20
51.129342
 30
0.0
 11
109.566233
 21
51.125838
 31
0.0
  0
LINE
  5
C24F
  8
ALPHA
 10
109.651803
 20
51.115425
 30
0.0
 11
109.608284
 21
51.129342
 31
0.0
  0
LINE
  5
C250
  8
ALPHA
 10
109.68242
 20
51.094789
 30
0.0
 11
109.651803
 21
51.115425
 31
0.0
  0
LINE
  5
C251
  8
ALPHA
 10
109.692899
 20
51.085333
 30
0.0
 11
109.68242
 21
51.094789
 31
0.0
  0
LINE
  5
C252
  8
ALPHA
 10
109.695359
 20
51.051234
 30
0.0
 11
109.692898
 21
51.085334
 31
0.0
  0
LINE
  5
C253
  8
ALPHA
 10
109.692657
 20
51.010295
 30
0.0
 11
109.695359
 21
51.051234
 31
0.0
  0
LINE
  5
C254
  8
ALPHA
 10
109.612849
 20
50.964218
 30
0.0
 11
109.692657
 21
51.010295
 31
0.0
  0
LINE
  5
C255
  8
ALPHA
 10
109.691051
 20
51.093955
 30
0.0
 11
109.688362
 21
51.103236
 31
0.0
  0
LINE
  5
C256
  8
ALPHA
 10
109.692898
 20
51.085334
 30
0.0
 11
109.691051
 21
51.093955
 31
0.0
  0
LINE
  5
C257
  8
ALPHA
 10
109.764239
 20
50.967139
 30
0.0
 11
109.770998
 21
50.960106
 31
0.0
  0
LINE
  5
C258
  8
ALPHA
 10
109.757765
 20
50.972984
 30
0.0
 11
109.764239
 21
50.967139
 31
0.0
  0
LINE
  5
C259
  8
ALPHA
 10
109.692657
 20
51.010295
 30
0.0
 11
109.757765
 21
50.972984
 31
0.0
  0
LINE
  5
C25A
  8
ALPHA
 10
110.359936
 20
56.174383
 30
0.0
 11
110.354892
 21
56.166035
 31
0.0
  0
LINE
  5
C25B
  8
ALPHA
 10
110.363907
 20
56.182151
 30
0.0
 11
110.359936
 21
56.174383
 31
0.0
  0
LINE
  5
C25C
  8
ALPHA
 10
110.375053
 20
56.214239
 30
0.0
 11
110.363907
 21
56.182151
 31
0.0
  0
LINE
  5
C25D
  8
ALPHA
 10
109.753567
 20
55.487492
 30
0.0
 11
109.729508
 21
55.522157
 31
0.0
  0
LINE
  5
C25E
  8
ALPHA
 10
109.763275
 20
55.442845
 30
0.0
 11
109.753567
 21
55.487492
 31
0.0
  0
LINE
  5
C25F
  8
ALPHA
 10
109.760712
 20
55.406012
 30
0.0
 11
109.763275
 21
55.442845
 31
0.0
  0
LINE
  5
C260
  8
ALPHA
 10
109.757763
 20
55.392209
 30
0.0
 11
109.760712
 21
55.406012
 31
0.0
  0
LINE
  5
C261
  8
ALPHA
 10
109.692657
 20
55.3549
 30
0.0
 11
109.757763
 21
55.39221
 31
0.0
  0
LINE
  5
C262
  8
ALPHA
 10
109.612849
 20
55.400977
 30
0.0
 11
109.692657
 21
55.3549
 31
0.0
  0
LINE
  5
C263
  8
ALPHA
 10
110.316423
 20
56.16372
 30
0.0
 11
110.231072
 21
56.175806
 31
0.0
  0
LINE
  5
C264
  8
ALPHA
 10
110.351339
 20
56.175729
 30
0.0
 11
110.316423
 21
56.16372
 31
0.0
  0
LINE
  5
C265
  8
ALPHA
 10
110.363906
 20
56.182149
 30
0.0
 11
110.351339
 21
56.175729
 31
0.0
  0
LINE
  5
C266
  8
ALPHA
 10
109.764305
 20
55.39812
 30
0.0
 11
109.770998
 21
55.405089
 31
0.0
  0
LINE
  5
C267
  8
ALPHA
 10
109.757763
 20
55.39221
 30
0.0
 11
109.764305
 21
55.39812
 31
0.0
  0
LINE
  5
C268
  8
ALPHA
 10
109.753571
 20
50.8777
 30
0.0
 11
109.729513
 21
50.843033
 31
0.0
  0
LINE
  5
C269
  8
ALPHA
 10
109.763278
 20
50.922348
 30
0.0
 11
109.753571
 21
50.8777
 31
0.0
  0
LINE
  5
C26A
  8
ALPHA
 10
109.760714
 20
50.959183
 30
0.0
 11
109.763278
 21
50.922348
 31
0.0
  0
LINE
  5
C26B
  8
ALPHA
 10
109.757765
 20
50.972983
 30
0.0
 11
109.760714
 21
50.959183
 31
0.0
  0
LINE
  5
C26C
  8
ALPHA
 10
109.691073
 20
55.271329
 30
0.0
 11
109.688362
 21
55.261959
 31
0.0
  0
LINE
  5
C26D
  8
ALPHA
 10
109.692898
 20
55.279859
 30
0.0
 11
109.691073
 21
55.271329
 31
0.0
  0
LINE
  5
C26E
  8
ALPHA
 10
109.69536
 20
55.313739
 30
0.0
 11
109.692898
 21
55.279859
 31
0.0
  0
LINE
  5
C26F
  8
ALPHA
 10
109.692657
 20
55.3549
 30
0.0
 11
109.69536
 21
55.313739
 31
0.0
  0
LINE
  5
C270
  8
ALPHA
 10
109.608283
 20
55.235849
 30
0.0
 11
109.566232
 21
55.239351
 31
0.0
  0
LINE
  5
C271
  8
ALPHA
 10
109.651803
 20
55.249766
 30
0.0
 11
109.608283
 21
55.235849
 31
0.0
  0
LINE
  5
C272
  8
ALPHA
 10
109.682421
 20
55.270404
 30
0.0
 11
109.651803
 21
55.249766
 31
0.0
  0
LINE
  5
C273
  8
ALPHA
 10
109.692898
 20
55.279858
 30
0.0
 11
109.682421
 21
55.270404
 31
0.0
  0
ARC
  5
C274
  8
ALPHA
 10
110.300815
 20
56.250151
 30
0.0
 40
0.1
 50
238.0
 51
315.799502
  0
ARC
  5
C275
  8
ALPHA
 10
109.675751
 20
55.435553
 30
0.0
 40
0.1
 50
329.200498
 51
47.0
  0
ARC
  5
C276
  8
ALPHA
 10
113.455195
 20
53.182597
 30
0.0
 40
4.3
 50
149.200498
 51
150.799502
  0
ARC
  5
C277
  8
ALPHA
 10
109.614356
 20
55.329213
 30
0.0
 40
0.1
 50
253.0
 51
330.799502
  0
ARC
  5
C278
  8
ALPHA
 10
109.614356
 20
51.035982
 30
0.0
 40
0.1
 50
29.200498
 51
107.0
  0
ARC
  5
C279
  8
ALPHA
 10
109.675751
 20
50.929642
 30
0.0
 40
0.1
 50
313.0
 51
30.799502
  0
ARC
  5
C27A
  8
ALPHA
 10
113.455195
 20
53.182597
 30
0.0
 40
4.3
 50
209.200498
 51
210.799502
  0
ARC
  5
C27B
  8
ALPHA
 10
111.682676
 20
57.85787
 30
0.0
 40
0.399997
 50
28.0
 51
110.763034
  0
ARC
  5
C27C
  8
ALPHA
 10
113.455195
 20
53.182597
 30
0.0
 40
5.2
 50
110.763034
 51
114.236966
  0
LINE
  5
C27D
  8
ALPHA
 10
111.540874
 20
58.231892
 30
0.0
 11
111.611775
 21
58.044881
 31
0.0
  0
LINE
  5
C27E
  8
ALPHA
 10
110.005966
 20
56.51754
 30
0.0
 11
110.025107
 21
56.54035
 31
0.0
  0
LINE
  5
C27F
  8
ALPHA
 10
110.986642
 20
57.296631
 30
0.0
 11
111.011035
 21
57.313709
 31
0.0
  0
LINE
  5
C280
  8
ALPHA
 10
111.236811
 20
57.024958
 30
0.0
 11
111.126613
 21
57.377443
 31
0.0
  0
LINE
  5
C281
  8
ALPHA
 10
111.126613
 20
57.377443
 30
0.0
 11
111.266099
 21
57.50441
 31
0.0
  0
LINE
  5
C282
  8
ALPHA
 10
111.401939
 20
57.029509
 30
0.0
 11
111.398435
 21
57.071559
 31
0.0
  0
LINE
  5
C283
  8
ALPHA
 10
111.388022
 20
56.985989
 30
0.0
 11
111.401939
 21
57.029509
 31
0.0
  0
LINE
  5
C284
  8
ALPHA
 10
111.367386
 20
56.955372
 30
0.0
 11
111.388022
 21
56.985989
 31
0.0
  0
LINE
  5
C285
  8
ALPHA
 10
111.35793
 20
56.944893
 30
0.0
 11
111.367386
 21
56.955372
 31
0.0
  0
LINE
  5
C286
  8
ALPHA
 10
111.323831
 20
56.942433
 30
0.0
 11
111.357932
 21
56.944894
 31
0.0
  0
LINE
  5
C287
  8
ALPHA
 10
111.282892
 20
56.945135
 30
0.0
 11
111.323831
 21
56.942433
 31
0.0
  0
LINE
  5
C288
  8
ALPHA
 10
111.236815
 20
57.024943
 30
0.0
 11
111.282892
 21
56.945135
 31
0.0
  0
LINE
  5
C289
  8
ALPHA
 10
111.126613
 20
57.377443
 30
0.0
 11
111.099626
 21
57.364857
 31
0.0
  0
LINE
  5
C28A
  8
ALPHA
 10
111.366552
 20
56.946741
 30
0.0
 11
111.375833
 21
56.94943
 31
0.0
  0
LINE
  5
C28B
  8
ALPHA
 10
111.357932
 20
56.944894
 30
0.0
 11
111.366552
 21
56.946741
 31
0.0
  0
LINE
  5
C28C
  8
ALPHA
 10
111.239736
 20
56.873553
 30
0.0
 11
111.232703
 21
56.866794
 31
0.0
  0
LINE
  5
C28D
  8
ALPHA
 10
111.245581
 20
56.880027
 30
0.0
 11
111.239736
 21
56.873553
 31
0.0
  0
LINE
  5
C28E
  8
ALPHA
 10
111.282892
 20
56.945135
 30
0.0
 11
111.245581
 21
56.880027
 31
0.0
  0
LINE
  5
C28F
  8
ALPHA
 10
110.317924
 20
56.319872
 30
0.0
 11
110.120252
 21
56.631826
 31
0.0
  0
LINE
  5
C290
  8
ALPHA
 10
110.120252
 20
56.631826
 30
0.0
 11
110.222123
 21
56.790569
 31
0.0
  0
LINE
  5
C291
  8
ALPHA
 10
110.474069
 20
56.321369
 30
0.0
 11
110.46198
 21
56.406717
 31
0.0
  0
LINE
  5
C292
  8
ALPHA
 10
110.462061
 20
56.286453
 30
0.0
 11
110.474069
 21
56.321369
 31
0.0
  0
LINE
  5
C293
  8
ALPHA
 10
110.455639
 20
56.273884
 30
0.0
 11
110.462061
 21
56.286453
 31
0.0
  0
LINE
  5
C294
  8
ALPHA
 10
110.423339
 20
56.262682
 30
0.0
 11
110.45564
 21
56.273885
 31
0.0
  0
LINE
  5
C295
  8
ALPHA
 10
110.383095
 20
56.254697
 30
0.0
 11
110.423339
 21
56.262682
 31
0.0
  0
LINE
  5
C296
  8
ALPHA
 10
110.317932
 20
56.31986
 30
0.0
 11
110.383095
 21
56.254697
 31
0.0
  0
LINE
  5
C297
  8
ALPHA
 10
110.120252
 20
56.631826
 30
0.0
 11
110.097442
 21
56.612685
 31
0.0
  0
LINE
  5
C298
  8
ALPHA
 10
110.986642
 20
57.296631
 30
0.0
 11
110.806942
 21
57.239316
 31
0.0
  0
LINE
  5
C299
  8
ALPHA
 10
110.986642
 20
57.296631
 30
0.0
 11
111.236811
 21
57.024958
 31
0.0
  0
LINE
  5
C29A
  8
ALPHA
 10
111.150297
 20
56.884221
 30
0.0
 11
111.115631
 21
56.90828
 31
0.0
  0
LINE
  5
C29B
  8
ALPHA
 10
111.194945
 20
56.874514
 30
0.0
 11
111.150297
 21
56.884221
 31
0.0
  0
LINE
  5
C29C
  8
ALPHA
 10
111.23178
 20
56.877078
 30
0.0
 11
111.194945
 21
56.874514
 31
0.0
  0
LINE
  5
C29D
  8
ALPHA
 10
111.24558
 20
56.880027
 30
0.0
 11
111.23178
 21
56.877078
 31
0.0
  0
LINE
  5
C29E
  8
ALPHA
 10
110.463489
 20
56.277901
 30
0.0
 11
110.471757
 21
56.2829
 31
0.0
  0
LINE
  5
C29F
  8
ALPHA
 10
110.45564
 20
56.273885
 30
0.0
 11
110.463489
 21
56.277901
 31
0.0
  0
LINE
  5
C2A0
  8
ALPHA
 10
110.005966
 20
56.51754
 30
0.0
 11
109.847223
 21
56.415669
 31
0.0
  0
LINE
  5
C2A1
  8
ALPHA
 10
110.005966
 20
56.51754
 30
0.0
 11
110.317924
 21
56.319872
 31
0.0
  0
ARC
  5
C2A2
  8
ALPHA
 10
113.455195
 20
53.182597
 30
0.0
 40
4.8
 50
134.389452
 51
135.610548
  0
ARC
  5
C2A3
  8
ALPHA
 10
113.455195
 20
53.182597
 30
0.0
 40
4.8
 50
119.389452
 51
120.610548
  0
ARC
  5
C2A4
  8
ALPHA
 10
111.402637
 20
57.741875
 30
0.0
 40
0.399997
 50
114.236966
 51
197.0
  0
ARC
  5
C2A5
  8
ALPHA
 10
113.455195
 20
53.182597
 30
0.0
 40
5.4
 50
110.763034
 51
114.236966
  0
ARC
  5
C2A6
  8
ALPHA
 10
110.292549
 20
57.05528
 30
0.0
 40
0.399997
 50
129.236966
 51
212.0
  0
ARC
  5
C2A7
  8
ALPHA
 10
113.455195
 20
53.182597
 30
0.0
 40
5.399994
 50
125.763034
 51
129.236966
  0
ARC
  5
C2A8
  8
ALPHA
 10
110.533023
 20
57.239803
 30
0.0
 40
0.399997
 50
43.0
 51
125.763034
  0
ARC
  5
C2A9
  8
ALPHA
 10
111.402637
 20
57.741875
 30
0.0
 40
0.2
 50
114.236966
 51
197.0
  0
ARC
  5
C2AA
  8
ALPHA
 10
111.308579
 20
57.023436
 30
0.0
 40
0.1
 50
299.200498
 51
17.0
  0
ARC
  5
C2AB
  8
ALPHA
 10
113.455195
 20
53.182597
 30
0.0
 40
4.3
 50
119.200498
 51
120.799502
  0
ARC
  5
C2AC
  8
ALPHA
 10
111.202239
 20
56.962041
 30
0.0
 40
0.1
 50
223.0
 51
300.799502
  0
ARC
  5
C2AD
  8
ALPHA
 10
110.292549
 20
57.05528
 30
0.0
 40
0.2
 50
129.236966
 51
212.0
  0
ARC
  5
C2AE
  8
ALPHA
 10
113.455195
 20
53.182597
 30
0.0
 40
5.2
 50
125.763034
 51
129.236966
  0
ARC
  5
C2AF
  8
ALPHA
 10
110.533023
 20
57.239803
 30
0.0
 40
0.2
 50
43.0
 51
125.763034
  0
ARC
  5
C2B0
  8
ALPHA
 10
110.387641
 20
56.336977
 30
0.0
 40
0.1
 50
314.200498
 51
32.0
  0
LINE
  5
C2B1
  8
ALPHA
 10
111.020116
 20
57.624926
 30
0.0
 11
111.211376
 21
57.6834
 31
0.0
  0
LINE
  5
C2B2
  8
ALPHA
 10
109.95333
 20
56.843313
 30
0.0
 11
110.122939
 21
56.949296
 31
0.0
  0
LINE
  5
C2B3
  8
ALPHA
 10
110.825565
 20
57.512602
 30
0.0
 11
110.679294
 21
57.376202
 31
0.0
  0
LINE
  5
C2B4
  8
ALPHA
 10
109.79448
 20
56.684462
 30
0.0
 11
109.688496
 21
56.514853
 31
0.0
  0
LINE
  5
C2B5
  8
ALPHA
 10
111.404209
 20
57.052673
 30
0.0
 11
111.211376
 21
57.6834
 31
0.0
  0
LINE
  5
C2B6
  8
ALPHA
 10
111.099626
 20
57.364857
 30
0.0
 11
111.020116
 21
57.624926
 31
0.0
  0
LINE
  5
C2B7
  8
ALPHA
 10
111.238433
 20
58.106617
 30
0.0
 11
111.320535
 21
57.924246
 31
0.0
  0
LINE
  5
C2B8
  8
ALPHA
 10
110.472446
 20
56.389969
 30
0.0
 11
110.122939
 21
56.949296
 31
0.0
  0
LINE
  5
C2B9
  8
ALPHA
 10
110.097442
 20
56.612685
 30
0.0
 11
109.95333
 21
56.843313
 31
0.0
  0
LINE
  5
C2BA
  8
ALPHA
 10
110.29925
 20
57.564379
 30
0.0
 11
110.416136
 21
57.402091
 31
0.0
  0
LINE
  5
C2BB
  8
ALPHA
 10
110.039537
 20
57.365095
 30
0.0
 11
110.166043
 21
57.210188
 31
0.0
  0
LINE
  5
C2BC
  8
ALPHA
 10
110.825565
 20
57.512602
 30
0.0
 11
111.011035
 21
57.313709
 31
0.0
  0
LINE
  5
C2BD
  8
ALPHA
 10
110.679294
 20
57.376202
 30
0.0
 11
111.129103
 21
56.893841
 31
0.0
  0
LINE
  5
C2BE
  8
ALPHA
 10
109.79448
 20
56.684462
 30
0.0
 11
110.025107
 21
56.54035
 31
0.0
  0
LINE
  5
C2BF
  8
ALPHA
 10
112.369573
 20
57.365957
 30
0.0
 11
112.403148
 21
57.359508
 31
0.0
  0
LINE
  5
C2C0
  8
ALPHA
 10
112.330728
 20
57.379163
 30
0.0
 11
112.369573
 21
57.365957
 31
0.0
  0
LINE
  5
C2C1
  8
ALPHA
 10
112.467556
 20
57.42985
 30
0.0
 11
112.475055
 21
57.471374
 31
0.0
  0
LINE
  5
C2C2
  8
ALPHA
 10
112.44285
 20
57.391416
 30
0.0
 11
112.467556
 21
57.42985
 31
0.0
  0
LINE
  5
C2C3
  8
ALPHA
 10
112.403146
 20
57.359508
 30
0.0
 11
112.44285
 21
57.391416
 31
0.0
  0
LINE
  5
C2C4
  8
ALPHA
 10
112.291664
 20
57.837189
 30
0.0
 11
112.459258
 21
57.923728
 31
0.0
  0
LINE
  5
C2C5
  8
ALPHA
 10
112.306876
 20
57.468192
 30
0.0
 11
112.291664
 21
57.837189
 31
0.0
  0
LINE
  5
C2C6
  8
ALPHA
 10
113.455195
 20
57.527202
 30
0.0
 11
113.390328
 21
57.489473
 31
0.0
  0
LINE
  5
C2C7
  8
ALPHA
 10
113.382029
 20
57.486788
 30
0.0
 11
113.372559
 21
57.484451
 31
0.0
  0
LINE
  5
C2C8
  8
ALPHA
 10
113.390328
 20
57.489473
 30
0.0
 11
113.382029
 21
57.486788
 31
0.0
  0
LINE
  5
C2C9
  8
ALPHA
 10
113.528449
 20
57.486763
 30
0.0
 11
113.53783
 21
57.484451
 31
0.0
  0
LINE
  5
C2CA
  8
ALPHA
 10
113.52006
 20
57.489473
 30
0.0
 11
113.528449
 21
57.486763
 31
0.0
  0
LINE
  5
C2CB
  8
ALPHA
 10
113.536007
 20
57.979731
 30
0.0
 11
113.506343
 21
57.982325
 31
0.0
  0
LINE
  5
C2CC
  8
ALPHA
 10
113.455195
 20
57.619356
 30
0.0
 11
113.455195
 21
57.527202
 31
0.0
  0
LINE
  5
C2CD
  8
ALPHA
 10
113.455195
 20
57.527202
 30
0.0
 11
113.52006
 21
57.489473
 31
0.0
  0
LINE
  5
C2CE
  8
ALPHA
 10
113.600478
 20
57.540748
 30
0.0
 11
113.618469
 21
57.578916
 31
0.0
  0
LINE
  5
C2CF
  8
ALPHA
 10
113.566667
 20
57.510018
 30
0.0
 11
113.600478
 21
57.540748
 31
0.0
  0
LINE
  5
C2D0
  8
ALPHA
 10
113.520058
 20
57.489473
 30
0.0
 11
113.566667
 21
57.510018
 31
0.0
  0
LINE
  5
C2D1
  8
ALPHA
 10
113.455198
 20
57.619371
 30
0.0
 11
113.536007
 21
57.979731
 31
0.0
  0
LINE
  5
C2D2
  8
ALPHA
 10
113.374382
 20
57.979731
 30
0.0
 11
113.404046
 21
57.982325
 31
0.0
  0
LINE
  5
C2D3
  8
ALPHA
 10
112.135546
 20
57.795357
 30
0.0
 11
112.163528
 21
57.80554
 31
0.0
  0
LINE
  5
C2D4
  8
ALPHA
 10
112.306877
 20
57.468178
 30
0.0
 11
112.330728
 21
57.379163
 31
0.0
  0
LINE
  5
C2D5
  8
ALPHA
 10
112.291664
 20
57.837189
 30
0.0
 11
112.262339
 21
57.832016
 31
0.0
  0
LINE
  5
C2D6
  8
ALPHA
 10
113.374382
 20
57.979731
 30
0.0
 11
113.1901
 21
58.019945
 31
0.0
  0
LINE
  5
C2D7
  8
ALPHA
 10
113.374382
 20
57.979731
 30
0.0
 11
113.455198
 21
57.619371
 31
0.0
  0
LINE
  5
C2D8
  8
ALPHA
 10
113.309907
 20
57.540746
 30
0.0
 11
113.291914
 21
57.578915
 31
0.0
  0
LINE
  5
C2D9
  8
ALPHA
 10
113.343719
 20
57.510016
 30
0.0
 11
113.309907
 21
57.540746
 31
0.0
  0
LINE
  5
C2DA
  8
ALPHA
 10
113.390327
 20
57.489472
 30
0.0
 11
113.343719
 21
57.510016
 31
0.0
  0
LINE
  5
C2DB
  8
ALPHA
 10
112.411953
 20
57.359062
 30
0.0
 11
112.421613
 21
57.359257
 31
0.0
  0
LINE
  5
C2DC
  8
ALPHA
 10
112.403148
 20
57.359508
 30
0.0
 11
112.411953
 21
57.359062
 31
0.0
  0
LINE
  5
C2DD
  8
ALPHA
 10
112.270515
 20
57.321189
 30
0.0
 11
112.261973
 21
57.316481
 31
0.0
  0
LINE
  5
C2DE
  8
ALPHA
 10
112.277837
 20
57.325931
 30
0.0
 11
112.270515
 21
57.321189
 31
0.0
  0
LINE
  5
C2DF
  8
ALPHA
 10
112.330728
 20
57.379163
 30
0.0
 11
112.277837
 21
57.325931
 31
0.0
  0
LINE
  5
C2E0
  8
ALPHA
 10
112.135546
 20
57.795357
 30
0.0
 11
111.947135
 21
57.786505
 31
0.0
  0
LINE
  5
C2E1
  8
ALPHA
 10
112.135546
 20
57.795357
 30
0.0
 11
112.306876
 21
57.468192
 31
0.0
  0
LINE
  5
C2E2
  8
ALPHA
 10
112.186885
 20
57.354643
 30
0.0
 11
112.159627
 21
57.386854
 31
0.0
  0
LINE
  5
C2E3
  8
ALPHA
 10
112.227499
 20
57.333711
 30
0.0
 11
112.186885
 21
57.354643
 31
0.0
  0
LINE
  5
C2E4
  8
ALPHA
 10
112.277836
 20
57.32593
 30
0.0
 11
112.227499
 21
57.333711
 31
0.0
  0
ARC
  5
C2E5
  8
ALPHA
 10
113.455195
 20
53.182597
 30
0.0
 40
4.8
 50
89.389452
 51
90.610548
  0
ARC
  5
C2E6
  8
ALPHA
 10
113.455195
 20
53.182597
 30
0.0
 40
4.8
 50
104.389452
 51
105.610548
  0
ARC
  5
C2E7
  8
ALPHA
 10
112.652604
 20
58.117762
 30
0.0
 40
0.399997
 50
99.236966
 51
182.0
  0
ARC
  5
C2E8
  8
ALPHA
 10
113.455195
 20
53.182597
 30
0.0
 40
5.399993
 50
95.763034
 51
99.236966
  0
ARC
  5
C2E9
  8
ALPHA
 10
112.953123
 20
58.157326
 30
0.0
 40
0.399997
 50
13.0
 51
95.763034
  0
ARC
  5
C2EA
  8
ALPHA
 10
113.393799
 20
57.582169
 30
0.0
 40
0.1
 50
193.0
 51
270.799502
  0
ARC
  5
C2EB
  8
ALPHA
 10
113.455195
 20
53.182597
 30
0.0
 40
4.3
 50
89.200498
 51
90.799502
  0
ARC
  5
C2EC
  8
ALPHA
 10
113.51659
 20
57.582169
 30
0.0
 40
0.1
 50
269.200498
 51
347.0
  0
ARC
  5
C2ED
  8
ALPHA
 10
112.652604
 20
58.117762
 30
0.0
 40
0.2
 50
99.236966
 51
182.0
  0
ARC
  5
C2EE
  8
ALPHA
 10
113.455195
 20
53.182597
 30
0.0
 40
5.2
 50
95.763034
 51
99.236966
  0
ARC
  5
C2EF
  8
ALPHA
 10
112.953123
 20
58.157326
 30
0.0
 40
0.2
 50
13.0
 51
95.763034
  0
ARC
  5
C2F0
  8
ALPHA
 10
112.375805
 20
57.448148
 30
0.0
 40
0.1
 50
284.200498
 51
2.0
  0
ARC
  5
C2F1
  8
ALPHA
 10
113.455195
 20
53.182597
 30
0.0
 40
4.3
 50
104.200498
 51
105.799502
  0
ARC
  5
C2F2
  8
ALPHA
 10
112.257198
 20
57.416367
 30
0.0
 40
0.1
 50
208.0
 51
285.799502
  0
ARC
  5
C2F3
  8
ALPHA
 10
111.682676
 20
57.85787
 30
0.0
 40
0.2
 50
28.0
 51
110.763034
  0
LINE
  5
C2F4
  8
ALPHA
 10
112.035855
 20
58.045659
 30
0.0
 11
111.859265
 21
57.951765
 31
0.0
  0
LINE
  5
C2F5
  8
ALPHA
 10
113.506343
 20
57.982325
 30
0.0
 11
113.567519
 21
58.247306
 31
0.0
  0
LINE
  5
C2F6
  8
ALPHA
 10
112.475744
 20
57.451638
 30
0.0
 11
112.452726
 21
58.110782
 31
0.0
  0
LINE
  5
C2F7
  8
ALPHA
 10
112.262339
 20
57.832016
 30
0.0
 11
112.252848
 21
58.103802
 31
0.0
  0
LINE
  5
C2F8
  8
ALPHA
 10
112.912957
 20
58.555304
 30
0.0
 11
112.93304
 21
58.356315
 31
0.0
  0
LINE
  5
C2F9
  8
ALPHA
 10
112.588397
 20
58.512575
 30
0.0
 11
112.620501
 21
58.315169
 31
0.0
  0
LINE
  5
C2FA
  8
ALPHA
 10
113.342871
 20
58.247306
 30
0.0
 11
113.404046
 21
57.982325
 31
0.0
  0
LINE
  5
C2FB
  8
ALPHA
 10
113.147997
 20
58.202316
 30
0.0
 11
113.296362
 21
57.559674
 31
0.0
  0
LINE
  5
C2FC
  8
ALPHA
 10
112.035855
 20
58.045659
 30
0.0
 11
112.163528
 21
57.80554
 31
0.0
  0
LINE
  5
C2FD
  8
ALPHA
 10
111.859265
 20
57.951765
 30
0.0
 11
112.168904
 21
57.36942
 31
0.0
  0
LINE
  5
C2FE
  8
ALPHA
 10
113.342871
 20
58.247306
 30
0.0
 11
113.147997
 21
58.202316
 31
0.0
  0
LINE
  5
C2FF
  8
ALPHA
 10
112.252848
 20
58.103802
 30
0.0
 11
112.452726
 21
58.110782
 31
0.0
  0
LINE
  5
C300
  8
ALPHA
 10
116.527294
 20
56.254697
 30
0.0
 11
116.535279
 21
56.214453
 31
0.0
  0
ARC
  5
C301
  8
ALPHA
 10
113.455195
 20
53.182597
 30
0.0
 40
4.3
 50
44.200498
 51
45.799502
  0
ARC
  5
C302
  8
ALPHA
 10
113.455195
 20
53.182597
 30
0.0
 40
5.2
 50
35.763034
 51
39.236966
  0
LINE
  5
C303
  8
ALPHA
 10
116.662567
 20
56.165347
 30
0.0
 11
117.221894
 21
56.514853
 31
0.0
  0
LINE
  5
C304
  8
ALPHA
 10
116.550498
 20
56.174303
 30
0.0
 11
116.555497
 21
56.166035
 31
0.0
  0
LINE
  5
C305
  8
ALPHA
 10
116.546482
 20
56.182152
 30
0.0
 11
116.550498
 21
56.174303
 31
0.0
  0
LINE
  5
C306
  8
ALPHA
 10
117.156818
 20
55.487495
 30
0.0
 11
117.180877
 21
55.522161
 31
0.0
  0
LINE
  5
C307
  8
ALPHA
 10
117.147111
 20
55.442847
 30
0.0
 11
117.156818
 21
55.487495
 31
0.0
  0
LINE
  5
C308
  8
ALPHA
 10
117.149675
 20
55.406012
 30
0.0
 11
117.147111
 21
55.442847
 31
0.0
  0
LINE
  5
C309
  8
ALPHA
 10
117.152624
 20
55.392212
 30
0.0
 11
117.149675
 21
55.406012
 31
0.0
  0
LINE
  5
C30A
  8
ALPHA
 10
117.569228
 20
55.65115
 30
0.0
 11
117.297555
 21
55.400981
 31
0.0
  0
LINE
  5
C30B
  8
ALPHA
 10
117.569228
 20
55.65115
 30
0.0
 11
117.511913
 21
55.83085
 31
0.0
  0
LINE
  5
C30C
  8
ALPHA
 10
117.65004
 20
50.854016
 30
0.0
 11
117.637455
 21
50.827029
 31
0.0
  0
LINE
  5
C30D
  8
ALPHA
 10
116.535279
 20
56.214453
 30
0.0
 11
116.546482
 21
56.182152
 31
0.0
  0
LINE
  5
C30E
  8
ALPHA
 10
116.593966
 20
56.163723
 30
0.0
 11
116.679314
 21
56.175812
 31
0.0
  0
LINE
  5
C30F
  8
ALPHA
 10
116.55905
 20
56.175731
 30
0.0
 11
116.593966
 21
56.163723
 31
0.0
  0
LINE
  5
C310
  8
ALPHA
 10
116.546481
 20
56.182153
 30
0.0
 11
116.55905
 21
56.175731
 31
0.0
  0
LINE
  5
C311
  8
ALPHA
 10
117.217732
 20
55.3549
 30
0.0
 11
117.152625
 21
55.392211
 31
0.0
  0
LINE
  5
C312
  8
ALPHA
 10
117.14615
 20
55.398056
 30
0.0
 11
117.139391
 21
55.405089
 31
0.0
  0
LINE
  5
C313
  8
ALPHA
 10
117.152625
 20
55.392211
 30
0.0
 11
117.14615
 21
55.398056
 31
0.0
  0
LINE
  5
C314
  8
ALPHA
 10
117.219339
 20
55.27124
 30
0.0
 11
117.222027
 21
55.261959
 31
0.0
  0
LINE
  5
C315
  8
ALPHA
 10
117.217491
 20
55.279861
 30
0.0
 11
117.219339
 21
55.27124
 31
0.0
  0
LINE
  5
C316
  8
ALPHA
 10
117.62724
 20
54.450907
 30
0.0
 11
117.659451
 21
54.478165
 31
0.0
  0
LINE
  5
C317
  8
ALPHA
 10
117.606308
 20
54.410293
 30
0.0
 11
117.62724
 21
54.450907
 31
0.0
  0
LINE
  5
C318
  8
ALPHA
 10
117.598527
 20
54.359956
 30
0.0
 11
117.606308
 21
54.410293
 31
0.0
  0
LINE
  5
C319
  8
ALPHA
 10
117.569228
 20
55.65115
 30
0.0
 11
117.586306
 21
55.626757
 31
0.0
  0
LINE
  5
C31A
  8
ALPHA
 10
117.65004
 20
55.511179
 30
0.0
 11
117.637455
 21
55.538166
 31
0.0
  0
LINE
  5
C31B
  8
ALPHA
 10
117.297541
 20
55.400977
 30
0.0
 11
117.217732
 21
55.3549
 31
0.0
  0
LINE
  5
C31C
  8
ALPHA
 10
117.21503
 20
55.313961
 30
0.0
 11
117.217491
 21
55.279861
 31
0.0
  0
LINE
  5
C31D
  8
ALPHA
 10
117.217732
 20
55.3549
 30
0.0
 11
117.21503
 21
55.313961
 31
0.0
  0
LINE
  5
C31E
  8
ALPHA
 10
117.302106
 20
55.235853
 30
0.0
 11
117.344156
 21
55.239357
 31
0.0
  0
LINE
  5
C31F
  8
ALPHA
 10
117.258587
 20
55.24977
 30
0.0
 11
117.302106
 21
55.235853
 31
0.0
  0
LINE
  5
C320
  8
ALPHA
 10
117.227969
 20
55.270406
 30
0.0
 11
117.258587
 21
55.24977
 31
0.0
  0
LINE
  5
C321
  8
ALPHA
 10
117.21749
 20
55.279862
 30
0.0
 11
117.227969
 21
55.270406
 31
0.0
  0
LINE
  5
C322
  8
ALPHA
 10
117.297555
 20
55.400981
 30
0.0
 11
117.65004
 21
55.511179
 31
0.0
  0
LINE
  5
C323
  8
ALPHA
 10
117.65176
 20
54.307064
 30
0.0
 11
117.598528
 21
54.359955
 31
0.0
  0
LINE
  5
C324
  8
ALPHA
 10
117.593786
 20
54.367277
 30
0.0
 11
117.589078
 21
54.375819
 31
0.0
  0
LINE
  5
C325
  8
ALPHA
 10
117.598528
 20
54.359955
 30
0.0
 11
117.593786
 21
54.367277
 31
0.0
  0
LINE
  5
C326
  8
ALPHA
 10
117.631659
 20
54.225839
 30
0.0
 11
117.631854
 21
54.216179
 31
0.0
  0
LINE
  5
C327
  8
ALPHA
 10
117.632105
 20
54.234644
 30
0.0
 11
117.631659
 21
54.225839
 31
0.0
  0
LINE
  5
C328
  8
ALPHA
 10
117.638554
 20
54.268219
 30
0.0
 11
117.632105
 21
54.234644
 31
0.0
  0
LINE
  5
C329
  8
ALPHA
 10
117.65176
 20
54.307064
 30
0.0
 11
117.638554
 21
54.268219
 31
0.0
  0
LINE
  5
C32A
  8
ALPHA
 10
117.664013
 20
54.194942
 30
0.0
 11
117.702447
 21
54.170237
 31
0.0
  0
LINE
  5
C32B
  8
ALPHA
 10
117.632105
 20
54.234646
 30
0.0
 11
117.664013
 21
54.194942
 31
0.0
  0
LINE
  5
C32C
  8
ALPHA
 10
117.664012
 20
52.170256
 30
0.0
 11
117.702446
 21
52.194963
 31
0.0
  0
LINE
  5
C32D
  8
ALPHA
 10
117.632105
 20
52.130554
 30
0.0
 11
117.664012
 21
52.170256
 31
0.0
  0
LINE
  5
C32E
  8
ALPHA
 10
117.638496
 20
52.09719
 30
0.0
 11
117.632105
 21
52.130552
 31
0.0
  0
LINE
  5
C32F
  8
ALPHA
 10
117.65176
 20
52.058131
 30
0.0
 11
117.638496
 21
52.09719
 31
0.0
  0
LINE
  5
C330
  8
ALPHA
 10
117.63166
 20
52.139264
 30
0.0
 11
117.631854
 21
52.149016
 31
0.0
  0
LINE
  5
C331
  8
ALPHA
 10
117.632105
 20
52.130552
 30
0.0
 11
117.63166
 21
52.139264
 31
0.0
  0
LINE
  5
C332
  8
ALPHA
 10
117.59374
 20
51.997839
 30
0.0
 11
117.589078
 21
51.989376
 31
0.0
  0
LINE
  5
C333
  8
ALPHA
 10
117.598529
 20
52.005241
 30
0.0
 11
117.59374
 21
51.997839
 31
0.0
  0
LINE
  5
C334
  8
ALPHA
 10
117.302106
 20
51.129346
 30
0.0
 11
117.344157
 21
51.125844
 31
0.0
  0
LINE
  5
C335
  8
ALPHA
 10
117.258587
 20
51.115429
 30
0.0
 11
117.302106
 21
51.129346
 31
0.0
  0
LINE
  5
C336
  8
ALPHA
 10
117.227968
 20
51.094791
 30
0.0
 11
117.258587
 21
51.115429
 31
0.0
  0
LINE
  5
C337
  8
ALPHA
 10
117.217492
 20
51.085337
 30
0.0
 11
117.227968
 21
51.094791
 31
0.0
  0
LINE
  5
C338
  8
ALPHA
 10
117.65004
 20
50.854016
 30
0.0
 11
117.297552
 21
50.964208
 31
0.0
  0
LINE
  5
C339
  8
ALPHA
 10
117.65176
 20
52.058131
 30
0.0
 11
117.598529
 21
52.005241
 31
0.0
  0
LINE
  5
C33A
  8
ALPHA
 10
117.627243
 20
51.914292
 30
0.0
 11
117.659454
 21
51.887035
 31
0.0
  0
LINE
  5
C33B
  8
ALPHA
 10
117.60631
 20
51.954905
 30
0.0
 11
117.627243
 21
51.914292
 31
0.0
  0
LINE
  5
C33C
  8
ALPHA
 10
117.598529
 20
52.005243
 30
0.0
 11
117.60631
 21
51.954905
 31
0.0
  0
LINE
  5
C33D
  8
ALPHA
 10
117.21503
 20
51.051456
 30
0.0
 11
117.217491
 21
51.085336
 31
0.0
  0
LINE
  5
C33E
  8
ALPHA
 10
117.217732
 20
51.010295
 30
0.0
 11
117.21503
 21
51.051456
 31
0.0
  0
LINE
  5
C33F
  8
ALPHA
 10
117.219316
 20
51.093866
 30
0.0
 11
117.222027
 21
51.103236
 31
0.0
  0
LINE
  5
C340
  8
ALPHA
 10
117.217491
 20
51.085336
 30
0.0
 11
117.219316
 21
51.093866
 31
0.0
  0
LINE
  5
C341
  8
ALPHA
 10
117.146084
 20
50.967074
 30
0.0
 11
117.139391
 21
50.960106
 31
0.0
  0
LINE
  5
C342
  8
ALPHA
 10
117.152626
 20
50.972985
 30
0.0
 11
117.146084
 21
50.967074
 31
0.0
  0
LINE
  5
C343
  8
ALPHA
 10
117.569228
 20
50.714045
 30
0.0
 11
117.586306
 21
50.738438
 31
0.0
  0
LINE
  5
C344
  8
ALPHA
 10
117.297541
 20
50.964218
 30
0.0
 11
117.217732
 21
51.010295
 31
0.0
  0
LINE
  5
C345
  8
ALPHA
 10
117.217732
 20
51.010295
 30
0.0
 11
117.152626
 21
50.972985
 31
0.0
  0
LINE
  5
C346
  8
ALPHA
 10
117.156822
 20
50.877703
 30
0.0
 11
117.180881
 21
50.843038
 31
0.0
  0
LINE
  5
C347
  8
ALPHA
 10
117.147114
 20
50.922349
 30
0.0
 11
117.156822
 21
50.877703
 31
0.0
  0
LINE
  5
C348
  8
ALPHA
 10
117.149677
 20
50.959183
 30
0.0
 11
117.147114
 21
50.922349
 31
0.0
  0
LINE
  5
C349
  8
ALPHA
 10
117.152627
 20
50.972986
 30
0.0
 11
117.149677
 21
50.959183
 31
0.0
  0
LINE
  5
C34A
  8
ALPHA
 10
117.569228
 20
50.714045
 30
0.0
 11
117.511913
 21
50.534345
 31
0.0
  0
LINE
  5
C34B
  8
ALPHA
 10
117.297552
 20
50.964208
 30
0.0
 11
117.569228
 21
50.714045
 31
0.0
  0
ARC
  5
C34C
  8
ALPHA
 10
113.455195
 20
53.182597
 30
0.0
 40
4.8
 50
329.389452
 51
330.610548
  0
ARC
  5
C34D
  8
ALPHA
 10
113.455195
 20
53.182597
 30
0.0
 40
4.8
 50
29.389452
 51
30.610548
  0
ARC
  5
C34E
  8
ALPHA
 10
116.609575
 20
56.250151
 30
0.0
 40
0.1
 50
224.200498
 51
302.0
  0
ARC
  5
C34F
  8
ALPHA
 10
117.5124
 20
56.104769
 30
0.0
 40
0.2
 50
313.0
 51
35.763034
  0
ARC
  5
C350
  8
ALPHA
 10
117.234638
 20
55.435553
 30
0.0
 40
0.1
 50
133.0
 51
210.799502
  0
ARC
  5
C351
  8
ALPHA
 10
113.455195
 20
53.182597
 30
0.0
 40
4.3
 50
29.200498
 51
30.799502
  0
ARC
  5
C352
  8
ALPHA
 10
117.296033
 20
55.329213
 30
0.0
 40
0.1
 50
209.200498
 51
287.0
  0
ARC
  5
C353
  8
ALPHA
 10
117.688964
 20
54.380594
 30
0.0
 40
0.1
 50
118.0
 51
195.799502
  0
ARC
  5
C354
  8
ALPHA
 10
113.455195
 20
53.182597
 30
0.0
 40
4.3
 50
14.200498
 51
15.799502
  0
ARC
  5
C355
  8
ALPHA
 10
117.720745
 20
54.261987
 30
0.0
 40
0.1
 50
194.200498
 51
272.0
  0
ARC
  5
C356
  8
ALPHA
 10
117.720745
 20
52.103208
 30
0.0
 40
0.1
 50
88.0
 51
165.799502
  0
ARC
  5
C357
  8
ALPHA
 10
113.455195
 20
53.182597
 30
0.0
 40
4.3
 50
344.200498
 51
345.799502
  0
ARC
  5
C358
  8
ALPHA
 10
117.688964
 20
51.984601
 30
0.0
 40
0.1
 50
164.200498
 51
242.0
  0
ARC
  5
C359
  8
ALPHA
 10
117.296033
 20
51.035982
 30
0.0
 40
0.1
 50
73.0
 51
150.799502
  0
ARC
  5
C35A
  8
ALPHA
 10
113.455195
 20
53.182597
 30
0.0
 40
4.3
 50
329.200498
 51
330.799502
  0
ARC
  5
C35B
  8
ALPHA
 10
117.234638
 20
50.929642
 30
0.0
 40
0.1
 50
149.200498
 51
227.0
  0
LINE
  5
C35C
  8
ALPHA
 10
117.6488
 20
55.958498
 30
0.0
 11
117.166438
 21
55.508689
 31
0.0
  0
LINE
  5
C35D
  8
ALPHA
 10
115.783776
 20
57.377443
 30
0.0
 11
115.673584
 21
57.024954
 31
0.0
  0
LINE
  5
C35E
  8
ALPHA
 10
115.783776
 20
57.377443
 30
0.0
 11
115.64429
 21
57.50441
 31
0.0
  0
LINE
  5
C35F
  8
ALPHA
 10
115.678609
 20
56.87708
 30
0.0
 11
115.715443
 21
56.874517
 31
0.0
  0
LINE
  5
C360
  8
ALPHA
 10
115.673584
 20
57.024954
 30
0.0
 11
115.923747
 21
57.296631
 31
0.0
  0
ARC
  5
C361
  8
ALPHA
 10
115.507752
 20
57.741875
 30
0.0
 40
0.399997
 50
343.0
 51
65.763034
  0
ARC
  5
C362
  8
ALPHA
 10
115.507752
 20
57.741875
 30
0.0
 40
0.2
 50
343.0
 51
65.763034
  0
ARC
  5
C363
  8
ALPHA
 10
115.70815
 20
56.962041
 30
0.0
 40
0.1
 50
239.200498
 51
317.0
  0
LINE
  5
C364
  8
ALPHA
 10
115.699013
 20
57.6834
 30
0.0
 11
115.50618
 21
57.052673
 31
0.0
  0
LINE
  5
C365
  8
ALPHA
 10
114.442829
 20
57.429849
 30
0.0
 11
114.435328
 21
57.471374
 31
0.0
  0
LINE
  5
C366
  8
ALPHA
 10
114.467536
 20
57.391415
 30
0.0
 11
114.442829
 21
57.429849
 31
0.0
  0
LINE
  5
C367
  8
ALPHA
 10
114.507238
 20
57.359508
 30
0.0
 11
114.467536
 21
57.391415
 31
0.0
  0
LINE
  5
C368
  8
ALPHA
 10
114.618725
 20
57.837189
 30
0.0
 11
114.603519
 21
57.468191
 31
0.0
  0
LINE
  5
C369
  8
ALPHA
 10
114.618725
 20
57.837189
 30
0.0
 11
114.451131
 21
57.923728
 31
0.0
  0
LINE
  5
C36A
  8
ALPHA
 10
114.540602
 20
57.365899
 30
0.0
 11
114.50724
 21
57.359508
 31
0.0
  0
LINE
  5
C36B
  8
ALPHA
 10
114.579661
 20
57.379163
 30
0.0
 11
114.540602
 21
57.365899
 31
0.0
  0
LINE
  5
C36C
  8
ALPHA
 10
114.498528
 20
57.359063
 30
0.0
 11
114.488776
 21
57.359257
 31
0.0
  0
LINE
  5
C36D
  8
ALPHA
 10
114.50724
 20
57.359508
 30
0.0
 11
114.498528
 21
57.359063
 31
0.0
  0
LINE
  5
C36E
  8
ALPHA
 10
114.639953
 20
57.321143
 30
0.0
 11
114.648416
 21
57.316481
 31
0.0
  0
LINE
  5
C36F
  8
ALPHA
 10
114.632551
 20
57.325932
 30
0.0
 11
114.639953
 21
57.321143
 31
0.0
  0
LINE
  5
C370
  8
ALPHA
 10
115.508446
 20
57.029509
 30
0.0
 11
115.511948
 21
57.07156
 31
0.0
  0
LINE
  5
C371
  8
ALPHA
 10
115.522363
 20
56.985989
 30
0.0
 11
115.508446
 21
57.029509
 31
0.0
  0
LINE
  5
C372
  8
ALPHA
 10
115.543001
 20
56.955371
 30
0.0
 11
115.522363
 21
56.985989
 31
0.0
  0
LINE
  5
C373
  8
ALPHA
 10
115.552455
 20
56.944895
 30
0.0
 11
115.543001
 21
56.955371
 31
0.0
  0
LINE
  5
C374
  8
ALPHA
 10
114.774843
 20
57.795357
 30
0.0
 11
114.746861
 21
57.80554
 31
0.0
  0
LINE
  5
C375
  8
ALPHA
 10
114.603512
 20
57.468178
 30
0.0
 11
114.579661
 21
57.379163
 31
0.0
  0
LINE
  5
C376
  8
ALPHA
 10
114.579661
 20
57.379163
 30
0.0
 11
114.632551
 21
57.325932
 31
0.0
  0
LINE
  5
C377
  8
ALPHA
 10
114.7235
 20
57.354646
 30
0.0
 11
114.750757
 21
57.386857
 31
0.0
  0
LINE
  5
C378
  8
ALPHA
 10
114.682887
 20
57.333713
 30
0.0
 11
114.7235
 21
57.354646
 31
0.0
  0
LINE
  5
C379
  8
ALPHA
 10
114.632549
 20
57.325932
 30
0.0
 11
114.682887
 21
57.333713
 31
0.0
  0
LINE
  5
C37A
  8
ALPHA
 10
114.774843
 20
57.795357
 30
0.0
 11
114.963254
 21
57.786505
 31
0.0
  0
LINE
  5
C37B
  8
ALPHA
 10
114.603519
 20
57.468191
 30
0.0
 11
114.774843
 21
57.795357
 31
0.0
  0
LINE
  5
C37C
  8
ALPHA
 10
115.586336
 20
56.942432
 30
0.0
 11
115.552456
 21
56.944894
 31
0.0
  0
LINE
  5
C37D
  8
ALPHA
 10
115.627497
 20
56.945135
 30
0.0
 11
115.586336
 21
56.942432
 31
0.0
  0
LINE
  5
C37E
  8
ALPHA
 10
115.543926
 20
56.946719
 30
0.0
 11
115.534557
 21
56.94943
 31
0.0
  0
LINE
  5
C37F
  8
ALPHA
 10
115.552456
 20
56.944894
 30
0.0
 11
115.543926
 21
56.946719
 31
0.0
  0
LINE
  5
C380
  8
ALPHA
 10
115.670718
 20
56.873487
 30
0.0
 11
115.677686
 21
56.866794
 31
0.0
  0
LINE
  5
C381
  8
ALPHA
 10
115.664807
 20
56.880029
 30
0.0
 11
115.670718
 21
56.873487
 31
0.0
  0
LINE
  5
C382
  8
ALPHA
 10
115.673574
 20
57.024943
 30
0.0
 11
115.627497
 21
56.945135
 31
0.0
  0
LINE
  5
C383
  8
ALPHA
 10
115.627497
 20
56.945135
 30
0.0
 11
115.664807
 21
56.880029
 31
0.0
  0
LINE
  5
C384
  8
ALPHA
 10
115.664806
 20
56.880029
 30
0.0
 11
115.678609
 21
56.87708
 31
0.0
  0
LINE
  5
C385
  8
ALPHA
 10
114.618725
 20
57.837189
 30
0.0
 11
114.64805
 21
57.832016
 31
0.0
  0
ARC
  5
C386
  8
ALPHA
 10
114.257785
 20
58.117762
 30
0.0
 40
0.399997
 50
358.0
 51
80.763034
  0
ARC
  5
C387
  8
ALPHA
 10
113.455195
 20
53.182597
 30
0.0
 40
5.399993
 50
80.763034
 51
84.236966
  0
ARC
  5
C388
  8
ALPHA
 10
113.455195
 20
53.182597
 30
0.0
 40
5.4
 50
65.763034
 51
69.236966
  0
ARC
  5
C389
  8
ALPHA
 10
115.227713
 20
57.85787
 30
0.0
 40
0.399997
 50
69.236966
 51
152.0
  0
ARC
  5
C38A
  8
ALPHA
 10
113.455195
 20
53.182597
 30
0.0
 40
4.8
 50
74.389452
 51
75.610548
  0
ARC
  5
C38B
  8
ALPHA
 10
114.257785
 20
58.117762
 30
0.0
 40
0.2
 50
358.0
 51
80.763034
  0
ARC
  5
C38C
  8
ALPHA
 10
113.455195
 20
53.182597
 30
0.0
 40
5.2
 50
80.763034
 51
84.236966
  0
ARC
  5
C38D
  8
ALPHA
 10
113.957267
 20
58.157326
 30
0.0
 40
0.2
 50
84.236966
 51
167.0
  0
ARC
  5
C38E
  8
ALPHA
 10
114.534584
 20
57.448148
 30
0.0
 40
0.1
 50
178.0
 51
255.799502
  0
ARC
  5
C38F
  8
ALPHA
 10
113.455195
 20
53.182597
 30
0.0
 40
4.3
 50
74.200498
 51
75.799502
  0
ARC
  5
C390
  8
ALPHA
 10
114.653191
 20
57.416367
 30
0.0
 40
0.1
 50
254.200498
 51
332.0
  0
ARC
  5
C391
  8
ALPHA
 10
113.455195
 20
53.182597
 30
0.0
 40
5.2
 50
65.763034
 51
69.236966
  0
ARC
  5
C392
  8
ALPHA
 10
115.227713
 20
57.85787
 30
0.0
 40
0.2
 50
69.236966
 51
152.0
  0
ARC
  5
C393
  8
ALPHA
 10
115.60181
 20
57.023436
 30
0.0
 40
0.1
 50
163.0
 51
240.799502
  0
ARC
  5
C394
  8
ALPHA
 10
113.455195
 20
53.182597
 30
0.0
 40
4.3
 50
59.200498
 51
60.799502
  0
LINE
  5
C395
  8
ALPHA
 10
114.741486
 20
57.36942
 30
0.0
 11
115.051124
 21
57.951765
 31
0.0
  0
LINE
  5
C396
  8
ALPHA
 10
114.746861
 20
57.80554
 30
0.0
 11
114.874534
 21
58.045659
 31
0.0
  0
LINE
  5
C397
  8
ALPHA
 10
115.671956
 20
58.106617
 30
0.0
 11
115.589854
 21
57.924246
 31
0.0
  0
LINE
  5
C398
  8
ALPHA
 10
115.369515
 20
58.231892
 30
0.0
 11
115.298614
 21
58.044881
 31
0.0
  0
LINE
  5
C399
  8
ALPHA
 10
114.321992
 20
58.512575
 30
0.0
 11
114.289888
 21
58.315169
 31
0.0
  0
LINE
  5
C39A
  8
ALPHA
 10
113.997432
 20
58.555304
 30
0.0
 11
113.977349
 21
58.356315
 31
0.0
  0
LINE
  5
C39B
  8
ALPHA
 10
114.657541
 20
58.103802
 30
0.0
 11
114.64805
 21
57.832016
 31
0.0
  0
LINE
  5
C39C
  8
ALPHA
 10
114.457663
 20
58.110782
 30
0.0
 11
114.434645
 21
57.451638
 31
0.0
  0
LINE
  5
C39D
  8
ALPHA
 10
114.874534
 20
58.045659
 30
0.0
 11
115.051124
 21
57.951765
 31
0.0
  0
LINE
  5
C39E
  8
ALPHA
 10
114.657541
 20
58.103802
 30
0.0
 11
114.457663
 21
58.110782
 31
0.0
  0
LINE
  5
C39F
  8
ALPHA
 10
116.436317
 20
56.321369
 30
0.0
 11
116.448403
 21
56.40672
 31
0.0
  0
LINE
  5
C3A0
  8
ALPHA
 10
116.448326
 20
56.286453
 30
0.0
 11
116.436317
 21
56.321369
 31
0.0
  0
LINE
  5
C3A1
  8
ALPHA
 10
116.454747
 20
56.273886
 30
0.0
 11
116.448326
 21
56.286453
 31
0.0
  0
LINE
  5
C3A2
  8
ALPHA
 10
116.790137
 20
56.631826
 30
0.0
 11
116.59247
 21
56.319868
 31
0.0
  0
LINE
  5
C3A3
  8
ALPHA
 10
116.790137
 20
56.631826
 30
0.0
 11
116.688266
 21
56.790569
 31
0.0
  0
LINE
  5
C3A4
  8
ALPHA
 10
115.923747
 20
57.296631
 30
0.0
 11
115.899354
 21
57.313709
 31
0.0
  0
LINE
  5
C3A5
  8
ALPHA
 10
115.760089
 20
56.884225
 30
0.0
 11
115.794754
 21
56.908284
 31
0.0
  0
LINE
  5
C3A6
  8
ALPHA
 10
115.715443
 20
56.874517
 30
0.0
 11
115.760089
 21
56.884225
 31
0.0
  0
LINE
  5
C3A7
  8
ALPHA
 10
115.923747
 20
57.296631
 30
0.0
 11
116.103447
 21
57.239316
 31
0.0
  0
LINE
  5
C3A8
  8
ALPHA
 10
116.486836
 20
56.262739
 30
0.0
 11
116.454748
 21
56.273885
 31
0.0
  0
LINE
  5
C3A9
  8
ALPHA
 10
116.527294
 20
56.254697
 30
0.0
 11
116.486836
 21
56.262739
 31
0.0
  0
LINE
  5
C3AA
  8
ALPHA
 10
116.446981
 20
56.277856
 30
0.0
 11
116.438632
 21
56.2829
 31
0.0
  0
LINE
  5
C3AB
  8
ALPHA
 10
116.454748
 20
56.273885
 30
0.0
 11
116.446981
 21
56.277856
 31
0.0
  0
LINE
  5
C3AC
  8
ALPHA
 10
116.904423
 20
56.51754
 30
0.0
 11
116.885282
 21
56.54035
 31
0.0
  0
LINE
  5
C3AD
  8
ALPHA
 10
116.592457
 20
56.31986
 30
0.0
 11
116.527294
 21
56.254697
 31
0.0
  0
LINE
  5
C3AE
  8
ALPHA
 10
116.904423
 20
56.51754
 30
0.0
 11
117.063166
 21
56.415669
 31
0.0
  0
LINE
  5
C3AF
  8
ALPHA
 10
116.59247
 20
56.319868
 30
0.0
 11
116.904423
 21
56.51754
 31
0.0
  0
LINE
  5
C3B0
  8
ALPHA
 10
116.790137
 20
56.631826
 30
0.0
 11
116.812947
 21
56.612685
 31
0.0
  0
LINE
  5
C3B1
  8
ALPHA
 10
115.783776
 20
57.377443
 30
0.0
 11
115.810763
 21
57.364857
 31
0.0
  0
ARC
  5
C3B2
  8
ALPHA
 10
116.61784
 20
57.05528
 30
0.0
 40
0.399997
 50
328.0
 51
50.763034
  0
ARC
  5
C3B3
  8
ALPHA
 10
113.455195
 20
53.182597
 30
0.0
 40
5.399994
 50
50.763034
 51
54.236966
  0
ARC
  5
C3B4
  8
ALPHA
 10
116.377366
 20
57.239803
 30
0.0
 40
0.399997
 50
54.236966
 51
137.0
  0
ARC
  5
C3B5
  8
ALPHA
 10
117.327877
 20
56.345243
 30
0.0
 40
0.399997
 50
39.236966
 51
122.0
  0
ARC
  5
C3B6
  8
ALPHA
 10
113.455195
 20
53.182597
 30
0.0
 40
4.8
 50
44.389452
 51
45.610548
  0
ARC
  5
C3B7
  8
ALPHA
 10
113.455195
 20
53.182597
 30
0.0
 40
4.8
 50
59.389452
 51
60.610548
  0
ARC
  5
C3B8
  8
ALPHA
 10
116.61784
 20
57.05528
 30
0.0
 40
0.2
 50
328.0
 51
50.763034
  0
ARC
  5
C3B9
  8
ALPHA
 10
113.455195
 20
53.182597
 30
0.0
 40
5.2
 50
50.763034
 51
54.236966
  0
ARC
  5
C3BA
  8
ALPHA
 10
116.377366
 20
57.239803
 30
0.0
 40
0.2
 50
54.236966
 51
137.0
  0
ARC
  5
C3BB
  8
ALPHA
 10
116.522748
 20
56.336977
 30
0.0
 40
0.1
 50
148.0
 51
225.799502
  0
ARC
  5
C3BC
  8
ALPHA
 10
117.327877
 20
56.345243
 30
0.0
 40
0.2
 50
39.236966
 51
122.0
  0
LINE
  5
C3BD
  8
ALPHA
 10
116.885282
 20
56.54035
 30
0.0
 11
117.11591
 21
56.684462
 31
0.0
  0
LINE
  5
C3BE
  8
ALPHA
 10
117.637692
 20
56.598255
 30
0.0
 11
117.482785
 21
56.471749
 31
0.0
  0
LINE
  5
C3BF
  8
ALPHA
 10
115.781286
 20
56.893841
 30
0.0
 11
116.231095
 21
57.376202
 31
0.0
  0
LINE
  5
C3C0
  8
ALPHA
 10
115.899354
 20
57.313709
 30
0.0
 11
116.084824
 21
57.512602
 31
0.0
  0
LINE
  5
C3C1
  8
ALPHA
 10
116.870852
 20
57.365095
 30
0.0
 11
116.744346
 21
57.210188
 31
0.0
  0
LINE
  5
C3C2
  8
ALPHA
 10
116.61114
 20
57.564379
 30
0.0
 11
116.494253
 21
57.402091
 31
0.0
  0
LINE
  5
C3C3
  8
ALPHA
 10
116.95706
 20
56.843313
 30
0.0
 11
116.812947
 21
56.612685
 31
0.0
  0
LINE
  5
C3C4
  8
ALPHA
 10
116.78745
 20
56.949296
 30
0.0
 11
116.437944
 21
56.389969
 31
0.0
  0
LINE
  5
C3C5
  8
ALPHA
 10
115.890274
 20
57.624926
 30
0.0
 11
115.810763
 21
57.364857
 31
0.0
  0
LINE
  5
C3C6
  8
ALPHA
 10
117.11591
 20
56.684462
 30
0.0
 11
117.221894
 21
56.514853
 31
0.0
  0
LINE
  5
C3C7
  8
ALPHA
 10
116.084824
 20
57.512602
 30
0.0
 11
116.231095
 21
57.376202
 31
0.0
  0
LINE
  5
C3C8
  8
ALPHA
 10
116.95706
 20
56.843313
 30
0.0
 11
116.78745
 21
56.949296
 31
0.0
  0
LINE
  5
C3C9
  8
ALPHA
 10
115.890274
 20
57.624926
 30
0.0
 11
115.699013
 21
57.6834
 31
0.0
  0
ARC
  5
C3CA
  8
ALPHA
 10
117.5124
 20
50.260426
 30
0.0
 40
0.399997
 50
324.236966
 51
47.0
  0
LINE
  5
C3CB
  8
ALPHA
 10
125.455195
 20
59.682597
 30
0.0
 11
125.455195
 21
46.682597
 31
0.0
  0
LINE
  5
C3CC
  8
ALPHA
 10
122.955195
 20
61.182597
 30
0.0
 11
122.955195
 21
45.182597
 31
0.0
  0
ARC
  5
C3CD
  8
ALPHA
 10
123.955195
 20
46.682597
 30
0.0
 40
1.5
 50
270.0
 51
0.0
  0
ARC
  5
C3CE
  8
ALPHA
 10
117.5124
 20
56.104769
 30
0.0
 40
0.399997
 50
313.0
 51
35.763034
  0
LINE
  5
C3CF
  8
ALPHA
 10
118.109786
 20
52.019067
 30
0.0
 11
118.104613
 21
51.989742
 31
0.0
  0
LINE
  5
C3D0
  8
ALPHA
 10
118.252328
 20
53.26341
 30
0.0
 11
118.254922
 21
53.233746
 31
0.0
  0
LINE
  5
C3D1
  8
ALPHA
 10
118.067954
 20
54.502246
 30
0.0
 11
118.078137
 21
54.474264
 31
0.0
  0
LINE
  5
C3D2
  8
ALPHA
 10
118.067954
 20
54.502246
 30
0.0
 11
117.74079
 21
54.330916
 31
0.0
  0
LINE
  5
C3D3
  8
ALPHA
 10
118.067954
 20
54.502246
 30
0.0
 11
118.059102
 21
54.690657
 31
0.0
  0
LINE
  5
C3D4
  8
ALPHA
 10
117.813343
 20
53.327885
 30
0.0
 11
117.851512
 21
53.345878
 31
0.0
  0
LINE
  5
C3D5
  8
ALPHA
 10
117.782613
 20
53.294073
 30
0.0
 11
117.813343
 21
53.327885
 31
0.0
  0
LINE
  5
C3D6
  8
ALPHA
 10
117.76207
 20
53.247465
 30
0.0
 11
117.782613
 21
53.294073
 31
0.0
  0
LINE
  5
C3D7
  8
ALPHA
 10
118.252328
 20
53.26341
 30
0.0
 11
117.891968
 21
53.182594
 31
0.0
  0
LINE
  5
C3D8
  8
ALPHA
 10
118.252328
 20
53.26341
 30
0.0
 11
118.292542
 21
53.447692
 31
0.0
  0
LINE
  5
C3D9
  8
ALPHA
 10
118.109786
 20
54.346128
 30
0.0
 11
118.104613
 21
54.375453
 31
0.0
  0
LINE
  5
C3DA
  8
ALPHA
 10
118.109786
 20
54.346128
 30
0.0
 11
118.196325
 21
54.178534
 31
0.0
  0
LINE
  5
C3DB
  8
ALPHA
 10
117.74079
 20
54.330916
 30
0.0
 11
118.109786
 21
54.346128
 31
0.0
  0
LINE
  5
C3DC
  8
ALPHA
 10
117.799799
 20
53.182597
 30
0.0
 11
117.76207
 21
53.247464
 31
0.0
  0
LINE
  5
C3DD
  8
ALPHA
 10
117.759385
 20
53.255763
 30
0.0
 11
117.757048
 21
53.265233
 31
0.0
  0
LINE
  5
C3DE
  8
ALPHA
 10
117.76207
 20
53.247464
 30
0.0
 11
117.759385
 21
53.255763
 31
0.0
  0
LINE
  5
C3DF
  8
ALPHA
 10
117.75936
 20
53.109343
 30
0.0
 11
117.757048
 21
53.099962
 31
0.0
  0
LINE
  5
C3E0
  8
ALPHA
 10
117.76207
 20
53.117732
 30
0.0
 11
117.75936
 21
53.109343
 31
0.0
  0
LINE
  5
C3E1
  8
ALPHA
 10
118.109786
 20
52.019067
 30
0.0
 11
117.740788
 21
52.034273
 31
0.0
  0
LINE
  5
C3E2
  8
ALPHA
 10
118.109786
 20
52.019067
 30
0.0
 11
118.196325
 21
52.186661
 31
0.0
  0
LINE
  5
C3E3
  8
ALPHA
 10
118.252328
 20
53.101785
 30
0.0
 11
118.254922
 21
53.131449
 31
0.0
  0
LINE
  5
C3E4
  8
ALPHA
 10
117.891954
 20
53.182597
 30
0.0
 11
117.799799
 21
53.182597
 31
0.0
  0
LINE
  5
C3E5
  8
ALPHA
 10
117.799799
 20
53.182597
 30
0.0
 11
117.76207
 21
53.117732
 31
0.0
  0
LINE
  5
C3E6
  8
ALPHA
 10
117.813345
 20
53.037314
 30
0.0
 11
117.851513
 21
53.019323
 31
0.0
  0
LINE
  5
C3E7
  8
ALPHA
 10
117.782615
 20
53.071125
 30
0.0
 11
117.813345
 21
53.037314
 31
0.0
  0
LINE
  5
C3E8
  8
ALPHA
 10
117.76207
 20
53.117734
 30
0.0
 11
117.782615
 21
53.071125
 31
0.0
  0
LINE
  5
C3E9
  8
ALPHA
 10
118.252328
 20
53.101785
 30
0.0
 11
118.292542
 21
52.917503
 31
0.0
  0
LINE
  5
C3EA
  8
ALPHA
 10
117.891968
 20
53.182594
 30
0.0
 11
118.252328
 21
53.101785
 31
0.0
  0
LINE
  5
C3EB
  8
ALPHA
 10
118.067954
 20
51.862949
 30
0.0
 11
118.078137
 21
51.890931
 31
0.0
  0
LINE
  5
C3EC
  8
ALPHA
 10
118.067954
 20
51.862949
 30
0.0
 11
118.059102
 21
51.674538
 31
0.0
  0
LINE
  5
C3ED
  8
ALPHA
 10
117.740788
 20
52.034273
 30
0.0
 11
118.067954
 21
51.862949
 31
0.0
  0
ARC
  5
C3EE
  8
ALPHA
 10
113.455195
 20
53.182597
 30
0.0
 40
4.8
 50
344.389452
 51
345.610548
  0
ARC
  5
C3EF
  8
ALPHA
 10
113.455195
 20
53.182597
 30
0.0
 40
4.8
 50
359.389452
 51
0.610548
  0
ARC
  5
C3F0
  8
ALPHA
 10
113.455195
 20
53.182597
 30
0.0
 40
4.8
 50
14.389452
 51
15.610548
  0
ARC
  5
C3F1
  8
ALPHA
 10
118.130468
 20
54.955116
 30
0.0
 40
0.399997
 50
298.0
 51
20.763034
  0
ARC
  5
C3F2
  8
ALPHA
 10
113.455195
 20
53.182597
 30
0.0
 40
5.4
 50
20.763034
 51
24.236966
  0
ARC
  5
C3F3
  8
ALPHA
 10
118.014472
 20
55.235155
 30
0.0
 40
0.399997
 50
24.236966
 51
107.0
  0
ARC
  5
C3F4
  8
ALPHA
 10
118.429923
 20
53.684669
 30
0.0
 40
0.399997
 50
283.0
 51
5.763034
  0
ARC
  5
C3F5
  8
ALPHA
 10
113.455195
 20
53.182597
 30
0.0
 40
5.399995
 50
5.763034
 51
9.236966
  0
ARC
  5
C3F6
  8
ALPHA
 10
118.390359
 20
53.985188
 30
0.0
 40
0.399997
 50
9.236966
 51
92.0
  0
ARC
  5
C3F7
  8
ALPHA
 10
118.390359
 20
52.380007
 30
0.0
 40
0.399997
 50
268.0
 51
350.763034
  0
ARC
  5
C3F8
  8
ALPHA
 10
113.455195
 20
53.182597
 30
0.0
 40
5.399992
 50
350.763034
 51
354.236966
  0
ARC
  5
C3F9
  8
ALPHA
 10
118.429923
 20
52.680525
 30
0.0
 40
0.399997
 50
354.236966
 51
77.0
  0
ARC
  5
C3FA
  8
ALPHA
 10
118.014472
 20
51.13004
 30
0.0
 40
0.399997
 50
253.0
 51
335.763034
  0
ARC
  5
C3FB
  8
ALPHA
 10
113.455195
 20
53.182597
 30
0.0
 40
5.399999
 50
335.763034
 51
339.236966
  0
ARC
  5
C3FC
  8
ALPHA
 10
118.130468
 20
51.410079
 30
0.0
 40
0.399997
 50
339.236966
 51
62.0
  0
ARC
  5
C3FD
  8
ALPHA
 10
118.130468
 20
54.955116
 30
0.0
 40
0.2
 50
298.0
 51
20.763034
  0
ARC
  5
C3FE
  8
ALPHA
 10
113.455195
 20
53.182597
 30
0.0
 40
5.2
 50
20.763034
 51
24.236966
  0
ARC
  5
C3FF
  8
ALPHA
 10
118.014472
 20
55.235155
 30
0.0
 40
0.2
 50
24.236966
 51
107.0
  0
ARC
  5
C400
  8
ALPHA
 10
118.429923
 20
53.684669
 30
0.0
 40
0.2
 50
283.0
 51
5.763034
  0
ARC
  5
C401
  8
ALPHA
 10
113.455195
 20
53.182597
 30
0.0
 40
5.2
 50
5.763034
 51
9.236966
  0
ARC
  5
C402
  8
ALPHA
 10
118.390359
 20
53.985188
 30
0.0
 40
0.2
 50
9.236966
 51
92.0
  0
ARC
  5
C403
  8
ALPHA
 10
113.455195
 20
53.182597
 30
0.0
 40
4.3
 50
359.200498
 51
0.799502
  0
ARC
  5
C404
  8
ALPHA
 10
118.390359
 20
52.380007
 30
0.0
 40
0.2
 50
268.0
 51
350.763034
  0
ARC
  5
C405
  8
ALPHA
 10
113.455195
 20
53.182597
 30
0.0
 40
5.2
 50
350.763034
 51
354.236966
  0
ARC
  5
C406
  8
ALPHA
 10
118.429923
 20
52.680525
 30
0.0
 40
0.2
 50
354.236966
 51
77.0
  0
ARC
  5
C407
  8
ALPHA
 10
118.014472
 20
51.13004
 30
0.0
 40
0.2
 50
253.0
 51
335.763034
  0
ARC
  5
C408
  8
ALPHA
 10
113.455195
 20
53.182597
 30
0.0
 40
5.2
 50
335.763034
 51
339.236966
  0
ARC
  5
C409
  8
ALPHA
 10
118.130468
 20
51.410079
 30
0.0
 40
0.2
 50
339.236966
 51
62.0
  0
LINE
  5
C40A
  8
ALPHA
 10
118.504489
 20
55.096918
 30
0.0
 11
118.317478
 21
55.026017
 31
0.0
  0
LINE
  5
C40B
  8
ALPHA
 10
118.379214
 20
55.399359
 30
0.0
 11
118.196843
 21
55.317257
 31
0.0
  0
LINE
  5
C40C
  8
ALPHA
 10
118.318256
 20
54.601937
 30
0.0
 11
118.078137
 21
54.474264
 31
0.0
  0
LINE
  5
C40D
  8
ALPHA
 10
118.318256
 20
51.763258
 30
0.0
 11
118.224362
 21
51.586668
 31
0.0
  0
LINE
  5
C40E
  8
ALPHA
 10
117.897523
 20
50.747518
 30
0.0
 11
117.955998
 21
50.938779
 31
0.0
  0
LINE
  5
C40F
  8
ALPHA
 10
118.519904
 20
53.070273
 30
0.0
 11
118.474913
 21
52.875399
 31
0.0
  0
LINE
  5
C410
  8
ALPHA
 10
118.376399
 20
51.980251
 30
0.0
 11
118.383379
 21
52.180129
 31
0.0
  0
LINE
  5
C411
  8
ALPHA
 10
118.376399
 20
54.384944
 30
0.0
 11
118.383379
 21
54.185066
 31
0.0
  0
LINE
  5
C412
  8
ALPHA
 10
118.519904
 20
53.294921
 30
0.0
 11
118.474913
 21
53.489795
 31
0.0
  0
LINE
  5
C413
  8
ALPHA
 10
117.897523
 20
55.617676
 30
0.0
 11
117.955998
 21
55.426416
 31
0.0
  0
LINE
  5
C414
  8
ALPHA
 10
118.318256
 20
54.601937
 30
0.0
 11
118.224362
 21
54.778527
 31
0.0
  0
LINE
  5
C415
  8
ALPHA
 10
118.078137
 20
51.890931
 30
0.0
 11
118.318256
 21
51.763258
 31
0.0
  0
LINE
  5
C416
  8
ALPHA
 10
118.379214
 20
50.965836
 30
0.0
 11
118.196843
 21
51.047938
 31
0.0
  0
LINE
  5
C417
  8
ALPHA
 10
118.504489
 20
51.268277
 30
0.0
 11
118.317478
 21
51.339178
 31
0.0
  0
LINE
  5
C418
  8
ALPHA
 10
118.254922
 20
53.131449
 30
0.0
 11
118.519904
 21
53.070273
 31
0.0
  0
LINE
  5
C419
  8
ALPHA
 10
117.832271
 20
53.023765
 30
0.0
 11
118.474913
 21
52.875399
 31
0.0
  0
LINE
  5
C41A
  8
ALPHA
 10
118.785172
 20
52.3158
 30
0.0
 11
118.587766
 21
52.347904
 31
0.0
  0
LINE
  5
C41B
  8
ALPHA
 10
118.827901
 20
52.64036
 30
0.0
 11
118.628912
 21
52.660443
 31
0.0
  0
LINE
  5
C41C
  8
ALPHA
 10
118.376399
 20
51.980251
 30
0.0
 11
118.104613
 21
51.989742
 31
0.0
  0
LINE
  5
C41D
  8
ALPHA
 10
118.104613
 20
54.375453
 30
0.0
 11
118.376399
 21
54.384944
 31
0.0
  0
LINE
  5
C41E
  8
ALPHA
 10
118.827901
 20
53.724835
 30
0.0
 11
118.628912
 21
53.704752
 31
0.0
  0
LINE
  5
C41F
  8
ALPHA
 10
118.785172
 20
54.049395
 30
0.0
 11
118.587766
 21
54.017291
 31
0.0
  0
LINE
  5
C420
  8
ALPHA
 10
118.474913
 20
53.489795
 30
0.0
 11
117.832271
 21
53.34143
 31
0.0
  0
LINE
  5
C421
  8
ALPHA
 10
118.519904
 20
53.294921
 30
0.0
 11
118.254922
 21
53.233746
 31
0.0
  0
ARC
  5
C422
  8
ALPHA
 10
123.955195
 20
59.682597
 30
0.0
 40
1.5
 50
0.0
 51
90.0
  0
LINE
  5
C424
  8
ALPHA
 10
120.955195
 20
150.182597
 30
0.0
 11
123.955195
 21
150.182597
 31
0.0
  0
LINE
  5
C45F
  8
AXE
 10
100.455195
 20
53.182597
 30
0.0
 11
135.455195
 21
53.182597
 31
0.0
  0
TEXT
  5
C460
  8
AXE
 10
131.407576
 20
54.182597
 30
0.0
 40
5.0
  1
X
 72
     2
 11
135.455195
 21
54.182597
 31
0.0
  0
LINE
  5
C469
  8
AXE
 10
122.455195
 20
14.396444
 30
0.0
 11
122.455195
 21
155.182597
 31
0.0
  0
TEXT
  5
C46A
  8
AXE
 10
117.407576
 20
14.396444
 30
0.0
 40
5.0
  1
Y
 72
     2
 11
121.455195
 21
14.396444
 31
0.0
  0
DIMENSION
  5
C46B
  8
COTATION1
  2
*D4
 10
155.455195
 20
25.182597
 30
0.0
 11
155.455195
 21
87.682597
 31
0.0
 13
123.955195
 23
150.182597
 33
0.0
 14
123.955195
 24
25.182597
 34
0.0
 50
90.0
  0
DIMENSION
  5
C46C
  8
COTATION1
  2
*D3
 10
125.455195
 20
4.396444
 30
0.0
 11
115.455195
 21
7.646444
 31
0.0
 13
105.455195
 23
53.182597
 33
0.0
 14
125.455195
 24
46.682597
 34
0.0
  0
DIMENSION
  5
C539
  8
COTATION1
  2
*D5
 10
145.455195
 20
45.182597
 30
0.0
 11
145.455195
 21
53.182597
 31
0.0
 70
   128
 13
123.955195
 23
61.182597
 33
0.0
 14
123.955195
 24
45.182597
 34
0.0
 50
90.0
  0
DIMENSION
  5
C5B6
  8
COTATION1
  2
*D6
 10
123.955195
 20
165.182597
 30
0.0
 11
132.382506
 21
167.939336
 31
0.0
 70
   128
 13
120.955195
 23
150.182597
 33
0.0
 14
123.955195
 24
150.182597
 34
0.0
  0
VIEWPORT
  5
494D
 67
     1
  8
0
 10
4.995325
 20
6.556512
 30
0.0
 40
22.70986
 41
13.988421
 68
    -1
 69
     1
1001
ACAD
1000
MVIEW
1002
{
1070
    16
1010
0.0
1020
0.0
1030
0.0
1010
0.0
1020
0.0
1030
1.0
1040
0.0
1040
13.988421
1040
4.995325
1040
6.556512
1040
50.0
1040
0.0
1040
0.0
1070
     0
1070
   100
1070
     1
1070
     1
1070
     0
1070
     0
1070
     0
1070
     0
1040
0.0
1040
0.0
1040
0.0
1040
10.0
1040
10.0
1040
10.0
1040
10.0
1070
     0
1002
{
1002
}
1002
}
  0
ENDSEC
  0
EOF
