  0
SECTION
  2
HEADER
  9
$ACADVER
  1
AC1009
  9
$INSBASE
 10
402.590624
 20
-1.041018
 30
0.0
  9
$EXTMIN
 10
-44.750903
 20
22.332779
 30
0.0
  9
$EXTMAX
 10
14.499097
 20
200.332779
 30
0.0
  9
$LIMMIN
 10
-407.970438
 20
-367.832444
  9
$LIMMAX
 10
429.804077
 20
234.370848
  9
$ORTHOMODE
 70
     1
  9
$REGENMODE
 70
     1
  9
$FILLMODE
 70
     1
  9
$QTEXTMODE
 70
     0
  9
$MIRRTEXT
 70
     1
  9
$DRAGMODE
 70
     2
  9
$LTSCALE
 40
10.0
  9
$OSMODE
 70
    37
  9
$ATTMODE
 70
     1
  9
$TEXTSIZE
 40
6.0
  9
$TRACEWID
 40
1.0
  9
$TEXTSTYLE
  7
ROMANS
  9
$CLAYER
  8
ALPHA
  9
$CELTYPE
  6
BYLAYER
  9
$CECOLOR
 62
   256
  9
$DIMSCALE
 40
1.0
  9
$DIMASZ
 40
5.0
  9
$DIMEXO
 40
2.0
  9
$DIMDLI
 40
0.38
  9
$DIMRND
 40
0.0
  9
$DIMDLE
 40
0.0
  9
$DIMEXE
 40
2.5
  9
$DIMTP
 40
0.0
  9
$DIMTM
 40
0.0
  9
$DIMTXT
 40
2.5
  9
$DIMCEN
 40
0.0
  9
$DIMTSZ
 40
0.0
  9
$DIMTOL
 70
     0
  9
$DIMLIM
 70
     0
  9
$DIMTIH
 70
     1
  9
$DIMTOH
 70
     1
  9
$DIMSE1
 70
     0
  9
$DIMSE2
 70
     0
  9
$DIMTAD
 70
     1
  9
$DIMZIN
 70
    12
  9
$DIMBLK
  1
OPEN30
  9
$DIMASO
 70
     1
  9
$DIMSHO
 70
     1
  9
$DIMPOST
  1

  9
$DIMAPOST
  1

  9
$DIMALT
 70
     0
  9
$DIMALTD
 70
     2
  9
$DIMALTF
 40
25.4
  9
$DIMLFAC
 40
1.0
  9
$DIMTOFL
 70
     0
  9
$DIMTVP
 40
0.0
  9
$DIMTIX
 70
     0
  9
$DIMSOXD
 70
     0
  9
$DIMSAH
 70
     0
  9
$DIMBLK1
  1

  9
$DIMBLK2
  1

  9
$DIMSTYLE
  2
SC_DEFAUT
  9
$DIMCLRD
 70
     0
  9
$DIMCLRE
 70
     0
  9
$DIMCLRT
 70
     0
  9
$DIMTFAC
 40
1.0
  9
$DIMGAP
 40
2.0
  9
$LUNITS
 70
     2
  9
$LUPREC
 70
     1
  9
$SKETCHINC
 40
0.1
  9
$FILLETRAD
 40
5.0
  9
$AUNITS
 70
     0
  9
$AUPREC
 70
     0
  9
$MENU
  1
acad
  9
$ELEVATION
 40
0.0
  9
$PELEVATION
 40
0.0
  9
$THICKNESS
 40
0.0
  9
$LIMCHECK
 70
     0
  9
$BLIPMODE
 70
     0
  9
$CHAMFERA
 40
0.0
  9
$CHAMFERB
 40
0.0
  9
$SKPOLY
 70
     0
  9
$TDCREATE
 40
2450373.687919
  9
$TDUPDATE
 40
2452850.400209
  9
$TDINDWG
 40
1.578786
  9
$TDUSRTIMER
 40
1.578786
  9
$USRTIMER
 70
     1
  9
$ANGBASE
 50
0.0
  9
$ANGDIR
 70
     0
  9
$PDMODE
 70
    32
  9
$PDSIZE
 40
0.0
  9
$PLINEWID
 40
0.0
  9
$COORDS
 70
     1
  9
$SPLFRAME
 70
     0
  9
$SPLINETYPE
 70
     6
  9
$SPLINESEGS
 70
     8
  9
$ATTDIA
 70
     0
  9
$ATTREQ
 70
     1
  9
$HANDLING
 70
     1
  9
$HANDSEED
  5
111CB
  9
$SURFTAB1
 70
     6
  9
$SURFTAB2
 70
     6
  9
$SURFTYPE
 70
     6
  9
$SURFU
 70
     6
  9
$SURFV
 70
     6
  9
$UCSNAME
  2

  9
$UCSORG
 10
0.0
 20
0.0
 30
0.0
  9
$UCSXDIR
 10
1.0
 20
0.0
 30
0.0
  9
$UCSYDIR
 10
0.0
 20
1.0
 30
0.0
  9
$PUCSNAME
  2

  9
$PUCSORG
 10
0.0
 20
0.0
 30
0.0
  9
$PUCSXDIR
 10
1.0
 20
0.0
 30
0.0
  9
$PUCSYDIR
 10
0.0
 20
1.0
 30
0.0
  9
$USERI1
 70
     0
  9
$USERI2
 70
     0
  9
$USERI3
 70
     0
  9
$USERI4
 70
     0
  9
$USERI5
 70
     0
  9
$USERR1
 40
0.0
  9
$USERR2
 40
0.0
  9
$USERR3
 40
0.0
  9
$USERR4
 40
0.0
  9
$USERR5
 40
0.0
  9
$WORLDVIEW
 70
     1
  9
$SHADEDGE
 70
     3
  9
$SHADEDIF
 70
    70
  9
$TILEMODE
 70
     1
  9
$MAXACTVP
 70
    16
  9
$PLIMCHECK
 70
     0
  9
$PEXTMIN
 10
-1.452248
 20
-0.437698
 30
0.0
  9
$PEXTMAX
 10
12.749749
 20
8.310198
 30
0.0
  9
$PLIMMIN
 10
0.0
 20
0.0
  9
$PLIMMAX
 10
12.0
 20
9.0
  9
$UNITMODE
 70
     0
  9
$VISRETAIN
 70
     0
  9
$PLINEGEN
 70
     0
  9
$PSLTSCALE
 70
     0
  0
ENDSEC
  0
SECTION
  2
TABLES
  0
TABLE
  2
VPORT
 70
     2
  0
VPORT
  2
*ACTIVE
 70
     0
 10
0.0
 20
0.0
 11
1.0
 21
1.0
 12
-15.097448
 22
111.326978
 13
0.0
 23
0.0
 14
1.0
 24
1.0
 15
10.0
 25
10.0
 16
0.0
 26
0.0
 36
1.0
 17
0.0
 27
0.0
 37
0.0
 40
179.558637
 41
1.56
 42
50.0
 43
0.0
 44
0.0
 50
0.0
 51
0.0
 71
     0
 72
   100
 73
     1
 74
     0
 75
     0
 76
     0
 77
     0
 78
     0
  0
ENDTAB
  0
TABLE
  2
LTYPE
 70
     3
  0
LTYPE
  2
CONTINUOUS
 70
     0
  3
Solid line
 72
    65
 73
     0
 40
0.0
  0
LTYPE
  2
AXES2
 70
     0
  3
___ _ ___ _ ___ _ ___ _ ___ _ ___ _ ___ _ ___ _
 72
    65
 73
     4
 40
1.125
 49
0.75
 49
-0.125
 49
0.125
 49
-0.125
  0
LTYPE
  2
CACHE2
 70
     0
  3
Caché (x.5) _ _ _ _ _ _ _ _ _ _ _ _ _ _ _ _ _
 72
    65
 73
     2
 40
0.1875
 49
0.125
 49
-0.0625
  0
ENDTAB
  0
TABLE
  2
LAYER
 70
     6
  0
LAYER
  2
0
 70
     0
 62
   255
  6
CONTINUOUS
  0
LAYER
  2
COTATION1
 70
     0
 62
     2
  6
CONTINUOUS
  0
LAYER
  2
AXE
 70
     0
 62
    80
  6
AXES2
  0
LAYER
  2
DEFPOINTS
 70
     0
 62
     7
  6
CONTINUOUS
  0
LAYER
  2
ALPHA
 70
     0
 62
   254
  6
CONTINUOUS
  0
LAYER
  2
POINTILLE_COURT
 70
     0
 62
    41
  6
CACHE2
  0
ENDTAB
  0
TABLE
  2
STYLE
 70
     2
  0
STYLE
  2
ROMANS
 70
     0
 40
0.0
 41
1.0
 50
0.0
 71
     0
 42
6.0
  3
romans
  4

  0
STYLE
  2
STANDARD
 70
     0
 40
0.2
 41
1.0
 50
0.0
 71
     0
 42
0.2
  3
txt
  4

  0
ENDTAB
  0
TABLE
  2
VIEW
 70
     0
  0
ENDTAB
  0
TABLE
  2
UCS
 70
     0
  0
ENDTAB
  0
TABLE
  2
APPID
 70
     1
  0
APPID
  2
ACAD
 70
     0
  0
ENDTAB
  0
TABLE
  2
DIMSTYLE
 70
     1
  0
DIMSTYLE
  2
SC_DEFAUT
 70
     0
  3

  4

  5
OPEN30
  6

  7

 40
1.0
 41
5.0
 42
2.0
 43
0.38
 44
2.5
 45
0.0
 46
0.0
 47
0.0
 48
0.0
140
2.5
141
0.0
142
0.0
143
25.4
144
1.0
145
0.0
146
1.0
147
2.0
 71
     0
 72
     0
 73
     1
 74
     1
 75
     0
 76
     0
 77
     1
 78
    12
170
     0
171
     2
172
     0
173
     0
174
     0
175
     0
176
     0
177
     0
178
     0
  0
ENDTAB
  0
ENDSEC
  0
SECTION
  2
BLOCKS
  0
BLOCK
  8
0
  2
$MODEL_SPACE
 70
     0
 10
0.0
 20
0.0
 30
0.0
  3
$MODEL_SPACE
  1

  0
ENDBLK
  5
11166
  8
0
  0
BLOCK
 67
     1
  8
0
  2
$PAPER_SPACE
 70
     0
 10
0.0
 20
0.0
 30
0.0
  3
$PAPER_SPACE
  1

  0
ENDBLK
  5
11164
 67
     1
  8
0
  0
BLOCK
  8
0
  2
COTE
 70
     0
 10
0.0
 20
0.0
 30
0.0
  3
COTE
  1

  0
ENDBLK
  5
F
  8
0
  0
BLOCK
  8
0
  2
FOND
 70
     0
 10
0.0
 20
0.0
 30
0.0
  3
FOND
  1

  0
ENDBLK
  5
75
  8
0
  0
BLOCK
  8
0
  2
_OPEN30
 70
     0
 10
0.0
 20
0.0
 30
0.0
  3
_OPEN30
  1

  0
LINE
  5
4B05
  8
COTATION1
 62
     0
 10
-1.0
 20
0.267949
 30
0.0
 11
0.0
 21
0.0
 31
0.0
1001
ACAD
1000
RTLwPs
1070
   158
  0
LINE
  5
4B06
  8
COTATION1
 62
     0
 10
0.0
 20
0.0
 30
0.0
 11
-1.0
 21
-0.267949
 31
0.0
1001
ACAD
1000
RTLwPs
1070
   158
  0
LINE
  5
4B07
  8
COTATION1
 62
     0
 10
0.0
 20
0.0
 30
0.0
 11
-1.0
 21
0.0
 31
0.0
1001
ACAD
1000
RTLwPs
1070
   158
  0
ENDBLK
  5
4B09
  8
0
  0
BLOCK
  8
0
  2
*D3
 70
     1
 10
0.0
 20
0.0
 30
0.0
  3
*D3
  1

  0
LINE
  5
10FF2
  8
COTATION1
 62
     0
 10
-27.250903
 20
160.832779
 30
0.0
 11
14.499097
 21
160.832779
 31
0.0
1001
ACAD
1000
RTLwPs
1070
   158
  0
LINE
  5
10FF3
  8
COTATION1
 62
     0
 10
-6.000903
 20
66.832779
 30
0.0
 11
14.499097
 21
66.832779
 31
0.0
1001
ACAD
1000
RTLwPs
1070
   158
  0
LINE
  5
10FF4
  8
COTATION1
 62
     0
 10
11.999097
 20
155.832779
 30
0.0
 11
11.999097
 21
117.082779
 31
0.0
1001
ACAD
1000
RTLwPs
1070
   158
  0
LINE
  5
10FF5
  8
COTATION1
 62
     0
 10
11.999097
 20
71.832779
 30
0.0
 11
11.999097
 21
110.582779
 31
0.0
1001
ACAD
1000
RTLwPs
1070
   158
  0
INSERT
  5
10FF6
  8
COTATION1
 62
     0
  2
_OPEN30
 10
11.999097
 20
160.832779
 30
0.0
 41
5.0
 42
5.0
 43
5.0
 50
90.0
1001
ACAD
1000
RTLwPs
1070
   158
  0
INSERT
  5
10FF7
  8
COTATION1
 62
     0
  2
_OPEN30
 10
11.999097
 20
66.832779
 30
0.0
 41
5.0
 42
5.0
 43
5.0
 50
270.0
1001
ACAD
1000
RTLwPs
1070
   158
  0
TEXT
  5
10FF8
  8
COTATION1
 62
     0
 10
9.55862
 20
112.582779
 30
0.0
 40
2.5
  1
94
1001
ACAD
1000
MTEXTBEGIN
1070
    73
1070
     1
1070
    44
1040
1.0
1070
    74
1070
     0
1000
MTEXTEND
1000
MTEXTBEGIN
1070
    73
1070
     1
1070
    44
1040
1.0
1070
    74
1070
     0
1000
MTEXTEND
  0
POINT
  5
10FF9
  8
DEFPOINTS
 62
     0
 10
-29.250903
 20
160.832779
 30
0.0
  0
POINT
  5
10FFA
  8
DEFPOINTS
 62
     0
 10
-8.000903
 20
66.832779
 30
0.0
  0
POINT
  5
10FFB
  8
DEFPOINTS
 62
     0
 10
11.999097
 20
66.832779
 30
0.0
  0
ENDBLK
  5
100A8
  8
0
  0
BLOCK
  8
0
  2
*D4
 70
     1
 10
0.0
 20
0.0
 30
0.0
  3
*D4
  1

  0
LINE
  5
10FFC
  8
COTATION1
 62
     0
 10
-24.000903
 20
64.832779
 30
0.0
 11
-24.000903
 21
32.332779
 31
0.0
1001
ACAD
1000
RTLwPs
1070
   158
  0
LINE
  5
10FFD
  8
COTATION1
 62
     0
 10
-8.000903
 20
64.832779
 30
0.0
 11
-8.000903
 21
32.332779
 31
0.0
1001
ACAD
1000
RTLwPs
1070
   158
  0
LINE
  5
10FFE
  8
COTATION1
 62
     0
 10
-19.000903
 20
34.832779
 30
0.0
 11
-13.000903
 21
34.832779
 31
0.0
1001
ACAD
1000
RTLwPs
1070
   158
  0
INSERT
  5
10FFF
  8
COTATION1
 62
     0
  2
_OPEN30
 10
-24.000903
 20
34.832779
 30
0.0
 41
5.0
 42
5.0
 43
5.0
 50
180.0
1001
ACAD
1000
RTLwPs
1070
   158
  0
INSERT
  5
11000
  8
COTATION1
 62
     0
  2
_OPEN30
 10
-8.000903
 20
34.832779
 30
0.0
 41
5.0
 42
5.0
 43
5.0
1001
ACAD
1000
RTLwPs
1070
   158
  0
TEXT
  5
11001
  8
COTATION1
 62
     0
 10
-18.560427
 20
36.832779
 30
0.0
 40
2.5
  1
16
1001
ACAD
1000
MTEXTBEGIN
1070
    73
1070
     1
1070
    44
1040
1.0
1070
    74
1070
     0
1000
MTEXTEND
1000
MTEXTBEGIN
1070
    73
1070
     1
1070
    44
1040
1.0
1070
    74
1070
     0
1000
MTEXTEND
  0
POINT
  5
11002
  8
DEFPOINTS
 62
     0
 10
-24.000903
 20
66.832779
 30
0.0
  0
POINT
  5
11003
  8
DEFPOINTS
 62
     0
 10
-8.000903
 20
66.832779
 30
0.0
  0
POINT
  5
11004
  8
DEFPOINTS
 62
     0
 10
-8.000903
 20
34.832779
 30
0.0
  0
ENDBLK
  5
100B4
  8
0
  0
BLOCK
  8
0
  2
*D5
 70
     1
 10
0.0
 20
0.0
 30
0.0
  3
*D5
  1

  0
LINE
  5
10FE9
  8
COTATION1
 62
     0
 10
-40.400903
 20
124.432779
 30
0.0
 11
-40.400903
 21
22.332779
 31
0.0
1001
ACAD
1000
RTLwPs
1070
   158
  0
LINE
  5
10FEA
  8
COTATION1
 62
     0
 10
-8.000903
 20
64.832779
 30
0.0
 11
-8.000903
 21
22.332779
 31
0.0
1001
ACAD
1000
RTLwPs
1070
   158
  0
LINE
  5
10FEB
  8
COTATION1
 62
     0
 10
-35.400903
 20
24.832779
 30
0.0
 11
-13.000903
 21
24.832779
 31
0.0
1001
ACAD
1000
RTLwPs
1070
   158
  0
INSERT
  5
10FEC
  8
COTATION1
 62
     0
  2
_OPEN30
 10
-40.400903
 20
24.832779
 30
0.0
 41
5.0
 42
5.0
 43
5.0
 50
180.0
1001
ACAD
1000
RTLwPs
1070
   158
  0
INSERT
  5
10FED
  8
COTATION1
 62
     0
  2
_OPEN30
 10
-8.000903
 20
24.832779
 30
0.0
 41
5.0
 42
5.0
 43
5.0
1001
ACAD
1000
RTLwPs
1070
   158
  0
TEXT
  5
10FEE
  8
COTATION1
 62
     0
 10
-28.427094
 20
26.832779
 30
0.0
 40
2.5
  1
32.4
1001
ACAD
1000
MTEXTBEGIN
1070
    73
1070
     1
1070
    44
1040
1.0
1070
    74
1070
     0
1000
MTEXTEND
1000
MTEXTBEGIN
1070
    73
1070
     1
1070
    44
1040
1.0
1070
    74
1070
     0
1000
MTEXTEND
  0
POINT
  5
10FEF
  8
DEFPOINTS
 62
     0
 10
-40.400903
 20
126.432779
 30
0.0
  0
POINT
  5
10FF0
  8
DEFPOINTS
 62
     0
 10
-8.000903
 20
66.832779
 30
0.0
  0
POINT
  5
10FF1
  8
DEFPOINTS
 62
     0
 10
-8.000903
 20
24.832779
 30
0.0
  0
ENDBLK
  5
10E91
  8
0
  0
BLOCK
  8
0
  2
*D6
 70
     1
 10
0.0
 20
0.0
 30
0.0
  3
*D6
  1

  0
LINE
  5
11017
  8
COTATION1
 62
     0
 10
-34.750903
 20
162.832779
 30
0.0
 11
-34.750903
 21
178.332779
 31
0.0
1001
ACAD
1000
RTLwPs
1070
   158
  0
LINE
  5
11018
  8
COTATION1
 62
     0
 10
-29.250903
 20
162.832779
 30
0.0
 11
-29.250903
 21
178.332779
 31
0.0
1001
ACAD
1000
RTLwPs
1070
   158
  0
LINE
  5
11019
  8
COTATION1
 62
     0
 10
-39.750903
 20
175.832779
 30
0.0
 11
-44.750903
 21
175.832779
 31
0.0
1001
ACAD
1000
RTLwPs
1070
   158
  0
LINE
  5
1101A
  8
COTATION1
 62
     0
 10
-24.250903
 20
175.832779
 30
0.0
 11
-10.012807
 21
175.832779
 31
0.0
1001
ACAD
1000
RTLwPs
1070
   158
  0
INSERT
  5
1101B
  8
COTATION1
 62
     0
  2
_OPEN30
 10
-34.750903
 20
175.832779
 30
0.0
 41
5.0
 42
5.0
 43
5.0
1001
ACAD
1000
RTLwPs
1070
   158
  0
INSERT
  5
1101C
  8
COTATION1
 62
     0
  2
_OPEN30
 10
-29.250903
 20
175.832779
 30
0.0
 41
5.0
 42
5.0
 43
5.0
 50
180.0
1001
ACAD
1000
RTLwPs
1070
   158
  0
TEXT
  5
1101D
  8
COTATION1
 62
     0
 10
-17.608046
 20
177.832779
 30
0.0
 40
2.5
  1
5.5
1001
ACAD
1000
MTEXTBEGIN
1070
    73
1070
     1
1070
    44
1040
1.0
1070
    74
1070
     0
1000
MTEXTEND
1000
MTEXTBEGIN
1070
    73
1070
     1
1070
    44
1040
1.0
1070
    74
1070
     0
1000
MTEXTEND
  0
POINT
  5
1101E
  8
DEFPOINTS
 62
     0
 10
-34.750903
 20
160.832779
 30
0.0
  0
POINT
  5
1101F
  8
DEFPOINTS
 62
     0
 10
-29.250903
 20
160.832779
 30
0.0
  0
POINT
  5
11020
  8
DEFPOINTS
 62
     0
 10
-29.250903
 20
175.832779
 30
0.0
  0
ENDBLK
  5
10EE1
  8
0
  0
BLOCK
  8
0
  2
*D7
 70
     1
 10
0.0
 20
0.0
 30
0.0
  3
*D7
  1

  0
LINE
  5
1100E
  8
COTATION1
 62
     0
 10
-32.000903
 20
167.832779
 30
0.0
 11
-32.000903
 21
188.332779
 31
0.0
1001
ACAD
1000
RTLwPs
1070
   158
  0
LINE
  5
1100F
  8
COTATION1
 62
     0
 10
-8.000903
 20
134.833402
 30
0.0
 11
-8.000903
 21
188.332779
 31
0.0
1001
ACAD
1000
RTLwPs
1070
   158
  0
LINE
  5
11010
  8
COTATION1
 62
     0
 10
-27.000903
 20
185.832779
 30
0.0
 11
-13.000903
 21
185.832779
 31
0.0
1001
ACAD
1000
RTLwPs
1070
   158
  0
INSERT
  5
11011
  8
COTATION1
 62
     0
  2
_OPEN30
 10
-32.000903
 20
185.832779
 30
0.0
 41
5.0
 42
5.0
 43
5.0
 50
180.0
1001
ACAD
1000
RTLwPs
1070
   158
  0
INSERT
  5
11012
  8
COTATION1
 62
     0
  2
_OPEN30
 10
-8.000903
 20
185.832779
 30
0.0
 41
5.0
 42
5.0
 43
5.0
1001
ACAD
1000
RTLwPs
1070
   158
  0
TEXT
  5
11013
  8
COTATION1
 62
     0
 10
-22.441379
 20
187.832779
 30
0.0
 40
2.5
  1
24
1001
ACAD
1000
MTEXTBEGIN
1070
    73
1070
     1
1070
    44
1040
1.0
1070
    74
1070
     0
1000
MTEXTEND
1000
MTEXTBEGIN
1070
    73
1070
     1
1070
    44
1040
1.0
1070
    74
1070
     0
1000
MTEXTEND
  0
POINT
  5
11014
  8
DEFPOINTS
 62
     0
 10
-32.000903
 20
165.832779
 30
0.0
  0
POINT
  5
11015
  8
DEFPOINTS
 62
     0
 10
-8.000903
 20
132.833402
 30
0.0
  0
POINT
  5
11016
  8
DEFPOINTS
 62
     0
 10
-8.000903
 20
185.832779
 30
0.0
  0
ENDBLK
  5
10EED
  8
0
  0
BLOCK
  8
0
  2
*D8
 70
     1
 10
0.0
 20
0.0
 30
0.0
  3
*D8
  1

  0
LINE
  5
11005
  8
COTATION1
 62
     0
 10
-39.000903
 20
167.832779
 30
0.0
 11
-39.000903
 21
198.332779
 31
0.0
1001
ACAD
1000
RTLwPs
1070
   158
  0
LINE
  5
11006
  8
COTATION1
 62
     0
 10
-8.000903
 20
134.833402
 30
0.0
 11
-8.000903
 21
198.332779
 31
0.0
1001
ACAD
1000
RTLwPs
1070
   158
  0
LINE
  5
11007
  8
COTATION1
 62
     0
 10
-34.000903
 20
195.832779
 30
0.0
 11
-13.000903
 21
195.832779
 31
0.0
1001
ACAD
1000
RTLwPs
1070
   158
  0
INSERT
  5
11008
  8
COTATION1
 62
     0
  2
_OPEN30
 10
-39.000903
 20
195.832779
 30
0.0
 41
5.0
 42
5.0
 43
5.0
 50
180.0
1001
ACAD
1000
RTLwPs
1070
   158
  0
INSERT
  5
11009
  8
COTATION1
 62
     0
  2
_OPEN30
 10
-8.000903
 20
195.832779
 30
0.0
 41
5.0
 42
5.0
 43
5.0
1001
ACAD
1000
RTLwPs
1070
   158
  0
TEXT
  5
1100A
  8
COTATION1
 62
     0
 10
-25.524712
 20
197.832779
 30
0.0
 40
2.5
  1
31
1001
ACAD
1000
MTEXTBEGIN
1070
    73
1070
     1
1070
    44
1040
1.0
1070
    74
1070
     0
1000
MTEXTEND
1000
MTEXTBEGIN
1070
    73
1070
     1
1070
    44
1040
1.0
1070
    74
1070
     0
1000
MTEXTEND
  0
POINT
  5
1100B
  8
DEFPOINTS
 62
     0
 10
-39.000903
 20
165.832779
 30
0.0
  0
POINT
  5
1100C
  8
DEFPOINTS
 62
     0
 10
-8.000903
 20
132.833402
 30
0.0
  0
POINT
  5
1100D
  8
DEFPOINTS
 62
     0
 10
-8.000903
 20
195.832779
 30
0.0
  0
ENDBLK
  5
10EF9
  8
0
  0
ENDSEC
  0
SECTION
  2
ENTITIES
  0
INSERT
  5
A
  8
0
  2
COTE
 10
0.0
 20
0.0
 30
0.0
  0
INSERT
  5
17
  8
0
  2
COTE
 10
284.010391
 20
6.373258
 30
0.0
  0
INSERT
  5
72
  8
0
  2
FOND
 10
0.0
 20
0.0
 30
0.0
  0
DIMENSION
  5
10076
  8
COTATION1
  2
*D3
 10
11.999097
 20
66.832779
 30
0.0
 11
11.999097
 21
113.832779
 31
0.0
 13
-29.250903
 23
160.832779
 33
0.0
 14
-8.000903
 24
66.832779
 34
0.0
 50
90.0
  0
LINE
  5
10079
  8
AXE
 10
-16.000903
 20
142.232779
 30
0.0
 11
-16.000903
 21
44.832779
 31
0.0
  0
LINE
  5
1007D
  8
ALPHA
 10
-24.000903
 20
66.832779
 30
0.0
 11
-24.000903
 21
116.832779
 31
0.0
  0
LINE
  5
1007E
  8
ALPHA
 10
-8.000903
 20
66.832779
 30
0.0
 11
-8.000903
 21
116.832779
 31
0.0
  0
DIMENSION
  5
1007F
  8
COTATION1
  2
*D4
 10
-8.000903
 20
34.832779
 30
0.0
 11
-16.000903
 21
38.082779
 31
0.0
 13
-24.000903
 23
66.832779
 33
0.0
 14
-8.000903
 24
66.832779
 34
0.0
  0
TEXT
  5
10080
  8
AXE
 10
-23.477094
 20
44.832779
 30
0.0
 40
8.0
  1
Y
 72
     2
 11
-17.000903
 21
44.832779
 31
0.0
  0
LINE
  5
10086
  8
AXE
 10
-29.000903
 20
91.832779
 30
0.0
 11
4.499097
 21
91.832779
 31
0.0
  0
LINE
  5
1008C
  8
ALPHA
 10
-24.000903
 20
114.832779
 30
0.0
 11
-8.000903
 21
114.832779
 31
0.0
  0
TEXT
  5
10098
  8
AXE
 10
-1.977094
 20
92.832779
 30
0.0
 40
8.0
  1
Z
 72
     2
 11
4.499097
 21
92.832779
 31
0.0
  0
ARC
  5
1037F
  8
ALPHA
 10
-16.000903
 20
74.332779
 30
0.0
 40
3.5
 50
0.0
 51
180.0
  0
LINE
  5
10380
  8
ALPHA
 10
-22.750903
 20
80.832779
 30
0.0
 11
-22.750903
 21
66.832779
 31
0.0
  0
LINE
  5
10381
  8
ALPHA
 10
-20.750903
 20
79.332779
 30
0.0
 11
-20.750903
 21
72.832779
 31
0.0
  0
LINE
  5
10382
  8
ALPHA
 10
-11.250903
 20
79.332779
 30
0.0
 11
-11.250903
 21
72.832779
 31
0.0
  0
LINE
  5
10383
  8
ALPHA
 10
-9.250903
 20
80.832779
 30
0.0
 11
-9.250903
 21
66.832779
 31
0.0
  0
LINE
  5
10384
  8
ALPHA
 10
-11.983868
 20
66.832779
 30
0.0
 11
-8.000903
 21
66.832779
 31
0.0
  0
LINE
  5
10385
  8
ALPHA
 10
-24.000903
 20
66.832779
 30
0.0
 11
-18.983868
 21
66.832779
 31
0.0
  0
LINE
  5
10386
  8
ALPHA
 10
-20.750903
 20
72.832779
 30
0.0
 11
-19.500903
 21
72.832779
 31
0.0
  0
LINE
  5
10387
  8
ALPHA
 10
-19.500903
 20
74.332779
 30
0.0
 11
-19.500903
 21
72.332779
 31
0.0
  0
LINE
  5
10388
  8
ALPHA
 10
-11.250903
 20
72.832779
 30
0.0
 11
-12.500903
 21
72.832779
 31
0.0
  0
LINE
  5
10389
  8
ALPHA
 10
-12.500903
 20
74.332779
 30
0.0
 11
-12.500903
 21
72.332779
 31
0.0
  0
LINE
  5
1038A
  8
ALPHA
 10
-9.250903
 20
80.832779
 30
0.0
 11
-16.000903
 21
80.832779
 31
0.0
  0
LINE
  5
1038B
  8
ALPHA
 10
-9.250903
 20
79.332779
 30
0.0
 11
-11.250903
 21
79.332779
 31
0.0
  0
LINE
  5
1038C
  8
ALPHA
 10
-22.750903
 20
80.832779
 30
0.0
 11
-16.000903
 21
80.832779
 31
0.0
  0
LINE
  5
1038D
  8
ALPHA
 10
-22.750903
 20
79.332779
 30
0.0
 11
-20.750903
 21
79.332779
 31
0.0
  0
ARC
  5
1038E
  8
ALPHA
 10
13.772153
 20
72.028312
 30
0.0
 40
26.27482
 50
179.336055
 51
207.655412
  0
ARC
  5
1038F
  8
ALPHA
 10
6.772153
 20
72.028312
 30
0.0
 40
26.27482
 50
179.336055
 51
207.655412
  0
LINE
  5
10390
  8
AXE
 10
-18.000903
 20
59.832779
 30
0.0
 11
-8.000903
 21
59.832779
 31
0.0
  0
DIMENSION
  5
10E85
  8
COTATION1
  2
*D5
 10
-8.000903
 20
24.832779
 30
0.0
 11
-24.200903
 21
28.082779
 31
0.0
 13
-40.400903
 23
126.432779
 33
0.0
 14
-8.000903
 24
66.832779
 34
0.0
  0
POLYLINE
  5
10E9B
  8
ALPHA
 66
     1
 10
0.0
 20
0.0
 30
0.0
 70
   128
  0
VERTEX
  5
1116C
  8
ALPHA
 10
-8.000903
 20
132.833402
 30
0.0
  0
VERTEX
  5
1116D
  8
ALPHA
 10
-8.000903
 20
132.653707
 30
0.0
  0
VERTEX
  5
1116E
  8
ALPHA
 10
-8.000903
 20
132.145875
 30
0.0
  0
VERTEX
  5
1116F
  8
ALPHA
 10
-8.000903
 20
130.333304
 30
0.0
  0
VERTEX
  5
11170
  8
ALPHA
 10
-8.000903
 20
127.770704
 30
0.0
  0
VERTEX
  5
11171
  8
ALPHA
 10
-8.000903
 20
124.83309
 30
0.0
  0
VERTEX
  5
11172
  8
ALPHA
 10
-8.000903
 20
121.895476
 30
0.0
  0
VERTEX
  5
11173
  8
ALPHA
 10
-8.000903
 20
119.332876
 30
0.0
  0
VERTEX
  5
11174
  8
ALPHA
 10
-8.000903
 20
117.520305
 30
0.0
  0
VERTEX
  5
11175
  8
ALPHA
 10
-8.000903
 20
117.012473
 30
0.0
  0
VERTEX
  5
11176
  8
ALPHA
 10
-8.000903
 20
116.832778
 30
0.0
  0
SEQEND
  5
11177
  8
ALPHA
  0
LINE
  5
10E9C
  8
ALPHA
 10
-24.000905
 20
116.832778
 30
0.0
 11
-24.000905
 21
117.633399
 31
0.0
  0
POLYLINE
  5
10E9D
  8
ALPHA
 66
     1
 10
0.0
 20
0.0
 30
0.0
 70
   128
  0
VERTEX
  5
11178
  8
ALPHA
 10
-16.001527
 20
123.239008
 30
0.0
  0
VERTEX
  5
11179
  8
ALPHA
 10
-17.341355
 20
122.998142
 30
0.0
  0
VERTEX
  5
1117A
  8
ALPHA
 10
-18.601693
 20
122.363131
 30
0.0
  0
VERTEX
  5
1117B
  8
ALPHA
 10
-20.848646
 20
120.436204
 30
0.0
  0
VERTEX
  5
1117C
  8
ALPHA
 10
-22.671884
 20
118.509276
 30
0.0
  0
VERTEX
  5
1117D
  8
ALPHA
 10
-23.402578
 20
117.874265
 30
0.0
  0
VERTEX
  5
1117E
  8
ALPHA
 10
-24.000905
 20
117.633399
 30
0.0
  0
SEQEND
  5
1117F
  8
ALPHA
  0
POLYLINE
  5
10E9E
  8
ALPHA
 66
     1
 10
0.0
 20
0.0
 30
0.0
 70
   128
210
0.0
220
0.0
230
-1.0
  0
VERTEX
  5
11180
  8
ALPHA
 10
10.001526
 20
134.832779
 30
0.0
  0
VERTEX
  5
11181
  8
ALPHA
 10
9.222895
 20
134.675633
 30
0.0
  0
VERTEX
  5
11182
  8
ALPHA
 10
8.586962
 20
134.247109
 30
0.0
  0
VERTEX
  5
11183
  8
ALPHA
 10
8.158155
 20
133.611575
 30
0.0
  0
VERTEX
  5
11184
  8
ALPHA
 10
8.000903
 20
132.833402
 30
0.0
  0
SEQEND
  5
11185
  8
ALPHA
  0
POLYLINE
  5
10E9F
  8
ALPHA
 66
     1
 10
0.0
 20
0.0
 30
0.0
 70
   128
  0
VERTEX
  5
11186
  8
ALPHA
 10
-8.000903
 20
116.832778
 30
0.0
  0
VERTEX
  5
11187
  8
ALPHA
 10
-8.18059
 20
116.832778
 30
0.0
  0
VERTEX
  5
11188
  8
ALPHA
 10
-8.688403
 20
116.832778
 30
0.0
  0
VERTEX
  5
11189
  8
ALPHA
 10
-10.500903
 20
116.832778
 30
0.0
  0
VERTEX
  5
1118A
  8
ALPHA
 10
-13.063403
 20
116.832778
 30
0.0
  0
VERTEX
  5
1118B
  8
ALPHA
 10
-16.000904
 20
116.832778
 30
0.0
  0
VERTEX
  5
1118C
  8
ALPHA
 10
-18.938404
 20
116.832778
 30
0.0
  0
VERTEX
  5
1118D
  8
ALPHA
 10
-21.500905
 20
116.832778
 30
0.0
  0
VERTEX
  5
1118E
  8
ALPHA
 10
-23.313405
 20
116.832778
 30
0.0
  0
VERTEX
  5
1118F
  8
ALPHA
 10
-23.821217
 20
116.832778
 30
0.0
  0
VERTEX
  5
11190
  8
ALPHA
 10
-24.000905
 20
116.832778
 30
0.0
  0
SEQEND
  5
11191
  8
ALPHA
  0
POLYLINE
  5
10EA0
  8
ALPHA
 66
     1
 10
0.0
 20
0.0
 30
0.0
 70
   128
  0
VERTEX
  5
11192
  8
ALPHA
 10
-39.415857
 20
130.316268
 30
0.0
  0
VERTEX
  5
11193
  8
ALPHA
 10
-39.134509
 20
130.334376
 30
0.0
  0
VERTEX
  5
11194
  8
ALPHA
 10
-38.515545
 20
130.374212
 30
0.0
  0
VERTEX
  5
11195
  8
ALPHA
 10
-37.896581
 20
130.414049
 30
0.0
  0
VERTEX
  5
11196
  8
ALPHA
 10
-37.615233
 20
130.432156
 30
0.0
  0
SEQEND
  5
11197
  8
ALPHA
  0
POLYLINE
  5
10EA1
  8
ALPHA
 66
     1
 10
0.0
 20
0.0
 30
0.0
 70
   128
  0
VERTEX
  5
11198
  8
ALPHA
 10
-37.615233
 20
122.431532
 30
0.0
  0
VERTEX
  5
11199
  8
ALPHA
 10
-37.896581
 20
122.449737
 30
0.0
  0
VERTEX
  5
1119A
  8
ALPHA
 10
-38.515545
 20
122.489788
 30
0.0
  0
VERTEX
  5
1119B
  8
ALPHA
 10
-39.134509
 20
122.529838
 30
0.0
  0
VERTEX
  5
1119C
  8
ALPHA
 10
-39.415857
 20
122.548043
 30
0.0
  0
SEQEND
  5
1119D
  8
ALPHA
  0
POLYLINE
  5
10EA2
  8
ALPHA
 66
     1
 10
0.0
 20
0.0
 30
0.0
 70
   128
  0
VERTEX
  5
1119E
  8
ALPHA
 10
-35.115544
 20
117.633399
 30
0.0
  0
VERTEX
  5
1119F
  8
ALPHA
 10
-35.115544
 20
117.826557
 30
0.0
  0
VERTEX
  5
111A0
  8
ALPHA
 10
-35.115544
 20
118.372435
 30
0.0
  0
VERTEX
  5
111A1
  8
ALPHA
 10
-35.115544
 20
120.320802
 30
0.0
  0
VERTEX
  5
111A2
  8
ALPHA
 10
-35.115544
 20
123.075391
 30
0.0
  0
VERTEX
  5
111A3
  8
ALPHA
 10
-35.115544
 20
126.233089
 30
0.0
  0
VERTEX
  5
111A4
  8
ALPHA
 10
-35.115544
 20
129.390788
 30
0.0
  0
VERTEX
  5
111A5
  8
ALPHA
 10
-35.115544
 20
132.145376
 30
0.0
  0
VERTEX
  5
111A6
  8
ALPHA
 10
-35.115544
 20
134.093743
 30
0.0
  0
VERTEX
  5
111A7
  8
ALPHA
 10
-35.115544
 20
134.639622
 30
0.0
  0
VERTEX
  5
111A8
  8
ALPHA
 10
-35.115544
 20
134.832779
 30
0.0
  0
SEQEND
  5
111A9
  8
ALPHA
  0
POLYLINE
  5
10EA3
  8
ALPHA
 66
     1
 10
0.0
 20
0.0
 30
0.0
 70
   128
  0
VERTEX
  5
111AA
  8
ALPHA
 10
-37.615233
 20
130.432156
 30
0.0
  0
VERTEX
  5
111AB
  8
ALPHA
 10
-37.615233
 20
130.088379
 30
0.0
  0
VERTEX
  5
111AC
  8
ALPHA
 10
-37.615233
 20
129.182059
 30
0.0
  0
VERTEX
  5
111AD
  8
ALPHA
 10
-37.615233
 20
126.431844
 30
0.0
  0
VERTEX
  5
111AE
  8
ALPHA
 10
-37.615233
 20
123.68163
 30
0.0
  0
VERTEX
  5
111AF
  8
ALPHA
 10
-37.615233
 20
122.775309
 30
0.0
  0
VERTEX
  5
111B0
  8
ALPHA
 10
-37.615233
 20
122.431532
 30
0.0
  0
SEQEND
  5
111B1
  8
ALPHA
  0
POLYLINE
  5
10EA4
  8
ALPHA
 66
     1
 10
0.0
 20
0.0
 30
0.0
 70
   128
  0
VERTEX
  5
111B2
  8
ALPHA
 10
-24.000905
 20
117.633399
 30
0.0
  0
VERTEX
  5
111B3
  8
ALPHA
 10
-24.478487
 20
117.633399
 30
0.0
  0
VERTEX
  5
111B4
  8
ALPHA
 10
-25.737567
 20
117.633399
 30
0.0
  0
VERTEX
  5
111B5
  8
ALPHA
 10
-27.517646
 20
117.633399
 30
0.0
  0
VERTEX
  5
111B6
  8
ALPHA
 10
-29.558225
 20
117.633399
 30
0.0
  0
VERTEX
  5
111B7
  8
ALPHA
 10
-31.598803
 20
117.633399
 30
0.0
  0
VERTEX
  5
111B8
  8
ALPHA
 10
-33.378882
 20
117.633399
 30
0.0
  0
VERTEX
  5
111B9
  8
ALPHA
 10
-34.637962
 20
117.633399
 30
0.0
  0
VERTEX
  5
111BA
  8
ALPHA
 10
-35.115544
 20
117.633399
 30
0.0
  0
SEQEND
  5
111BB
  8
ALPHA
  0
POLYLINE
  5
10EA5
  8
ALPHA
 66
     1
 10
0.0
 20
0.0
 30
0.0
 70
   128
  0
VERTEX
  5
111BC
  8
ALPHA
 10
-35.115544
 20
134.832779
 30
0.0
  0
VERTEX
  5
111BD
  8
ALPHA
 10
-34.833502
 20
134.832779
 30
0.0
  0
VERTEX
  5
111BE
  8
ALPHA
 10
-34.036427
 20
134.832779
 30
0.0
  0
VERTEX
  5
111BF
  8
ALPHA
 10
-32.797893
 20
134.832779
 30
0.0
  0
VERTEX
  5
111C0
  8
ALPHA
 10
-31.191479
 20
134.832779
 30
0.0
  0
VERTEX
  5
111C1
  8
ALPHA
 10
-27.169312
 20
134.832779
 30
0.0
  0
VERTEX
  5
111C2
  8
ALPHA
 10
-22.558535
 20
134.832779
 30
0.0
  0
VERTEX
  5
111C3
  8
ALPHA
 10
-17.947758
 20
134.832779
 30
0.0
  0
VERTEX
  5
111C4
  8
ALPHA
 10
-13.925591
 20
134.832779
 30
0.0
  0
VERTEX
  5
111C5
  8
ALPHA
 10
-12.319177
 20
134.832779
 30
0.0
  0
VERTEX
  5
111C6
  8
ALPHA
 10
-11.080644
 20
134.832779
 30
0.0
  0
VERTEX
  5
111C7
  8
ALPHA
 10
-10.283568
 20
134.832779
 30
0.0
  0
VERTEX
  5
111C8
  8
ALPHA
 10
-10.001526
 20
134.832779
 30
0.0
  0
SEQEND
  5
111C9
  8
ALPHA
  0
LINE
  5
10EA6
  8
ALPHA
 10
-37.116168
 20
139.059329
 30
0.0
 11
-37.116168
 21
118.33496
 31
0.0
  0
LINE
  5
10EA7
  8
ALPHA
 10
-35.316168
 20
138.871868
 30
0.0
 11
-35.316168
 21
118.33496
 31
0.0
  0
LINE
  5
10EA8
  8
ALPHA
 10
-37.116167
 20
119.931844
 30
0.0
 11
-37.116167
 21
132.930598
 31
0.0
  0
LINE
  5
10EA9
  8
ALPHA
 10
-37.615233
 20
132.930598
 30
0.0
 11
-37.615233
 21
119.931844
 31
0.0
  0
LINE
  5
10EAA
  8
ALPHA
 10
-35.115544
 20
121.43278
 30
0.0
 11
-35.115544
 21
131.432781
 31
0.0
  0
LINE
  5
10EAB
  8
ALPHA
 10
-37.116167
 20
131.432781
 30
0.0
 11
-37.116167
 21
121.43278
 31
0.0
  0
LINE
  5
10EAC
  8
ALPHA
 10
-8.000903
 20
116.832779
 30
0.0
 11
-24.000903
 21
116.832779
 31
0.0
  0
LINE
  5
10EAD
  8
ALPHA
 10
-24.000903
 20
114.832779
 30
0.0
 11
-8.000903
 21
114.832779
 31
0.0
  0
LINE
  5
10EAE
  8
ALPHA
 10
-24.000903
 20
116.832779
 30
0.0
 11
-8.000903
 21
116.832779
 31
0.0
  0
LINE
  5
10EAF
  8
ALPHA
 10
-37.116167
 20
121.43278
 30
0.0
 11
-35.115544
 21
121.43278
 31
0.0
  0
LINE
  5
10EB0
  8
ALPHA
 10
-37.615233
 20
119.931844
 30
0.0
 11
-37.116167
 21
119.931844
 31
0.0
  0
LINE
  5
10EB1
  8
ALPHA
 10
-35.316168
 20
118.33496
 30
0.0
 11
-37.116168
 21
118.33496
 31
0.0
  0
DIMENSION
  5
10EB2
  8
COTATION1
  2
*D6
 10
-29.250903
 20
175.832779
 30
0.0
 11
-14.631855
 21
175.832779
 31
0.0
 70
   128
 13
-34.750903
 23
160.832779
 33
0.0
 14
-29.250903
 24
160.832779
 34
0.0
  0
DIMENSION
  5
10EB3
  8
COTATION1
  2
*D7
 10
-8.000903
 20
185.832779
 30
0.0
 11
-20.000903
 21
189.082779
 31
0.0
 13
-32.000903
 23
165.832779
 33
0.0
 14
-8.000903
 24
132.833402
 34
0.0
  0
DIMENSION
  5
10EB4
  8
COTATION1
  2
*D8
 10
-8.000903
 20
195.832779
 30
0.0
 11
-23.500903
 21
199.082779
 31
0.0
 13
-39.000903
 23
165.832779
 33
0.0
 14
-8.000903
 24
132.833402
 34
0.0
  0
LINE
  5
10EB5
  8
ALPHA
 10
-16.001526
 20
123.239006
 30
0.0
 11
-34.986571
 21
123.239006
 31
0.0
  0
LINE
  5
10EB6
  8
ALPHA
 10
-27.450903
 20
143.645318
 30
0.0
 11
-27.450903
 21
159.332779
 31
0.0
  0
LINE
  5
10EB7
  8
ALPHA
 10
-29.250903
 20
143.832779
 30
0.0
 11
-29.250903
 21
160.832779
 31
0.0
  0
LINE
  5
10EB8
  8
AXE
 10
-32.000903
 20
139.832779
 30
0.0
 11
-32.000903
 21
165.832779
 31
0.0
  0
LINE
  5
10EB9
  8
AXE
 10
-39.000903
 20
139.832779
 30
0.0
 11
-39.000903
 21
165.832779
 31
0.0
  0
LINE
  5
10EBA
  8
ALPHA
 10
-34.750903
 20
144.832779
 30
0.0
 11
-34.750903
 21
160.832779
 31
0.0
  0
LINE
  5
10EBB
  8
POINTILLE_COURT
 10
-36.250903
 20
144.832779
 30
0.0
 11
-36.250903
 21
160.832779
 31
0.0
  0
LINE
  5
10EBC
  8
POINTILLE_COURT
 10
-41.750903
 20
144.832779
 30
0.0
 11
-41.750903
 21
160.832779
 31
0.0
  0
LINE
  5
10EBD
  8
ALPHA
 10
-37.116167
 20
130.976082
 30
0.0
 11
-35.115544
 21
130.976082
 31
0.0
  0
LINE
  5
10EBE
  8
ALPHA
 10
-35.115544
 20
131.432781
 30
0.0
 11
-37.116167
 21
131.432781
 31
0.0
  0
LINE
  5
10EBF
  8
ALPHA
 10
-36.273724
 20
140.40752
 30
0.0
 11
-29.250903
 21
143.832779
 31
0.0
  0
LINE
  5
10EC0
  8
ALPHA
 10
-35.316168
 20
138.871868
 30
0.0
 11
-28.293346
 21
142.297127
 31
0.0
  0
LINE
  5
10EC1
  8
ALPHA
 10
-37.116167
 20
130.336831
 30
0.0
 11
-35.115544
 21
130.336831
 31
0.0
  0
LINE
  5
10EC2
  8
ALPHA
 10
-37.116167
 20
129.675769
 30
0.0
 11
-35.115544
 21
129.675769
 31
0.0
  0
LINE
  5
10EC3
  8
ALPHA
 10
-37.116167
 20
128.778572
 30
0.0
 11
-35.115544
 21
128.778572
 31
0.0
  0
LINE
  5
10EC4
  8
ALPHA
 10
-37.116167
 20
127.881375
 30
0.0
 11
-35.115544
 21
127.881375
 31
0.0
  0
LINE
  5
10EC5
  8
ALPHA
 10
-37.116167
 20
124.086984
 30
0.0
 11
-35.115544
 21
124.086984
 31
0.0
  0
LINE
  5
10EC6
  8
ALPHA
 10
-37.116167
 20
124.982311
 30
0.0
 11
-35.115544
 21
124.982311
 31
0.0
  0
LINE
  5
10EC7
  8
ALPHA
 10
-37.116167
 20
125.87826
 30
0.0
 11
-35.115544
 21
125.87826
 31
0.0
  0
LINE
  5
10EC8
  8
ALPHA
 10
-37.116167
 20
126.986049
 30
0.0
 11
-35.115544
 21
126.986049
 31
0.0
  0
LINE
  5
10EC9
  8
ALPHA
 10
-37.116167
 20
121.888231
 30
0.0
 11
-35.115544
 21
121.888231
 31
0.0
  0
LINE
  5
10ECA
  8
ALPHA
 10
-37.116167
 20
122.527482
 30
0.0
 11
-35.115544
 21
122.527482
 31
0.0
  0
LINE
  5
10ECB
  8
ALPHA
 10
-37.116167
 20
123.189788
 30
0.0
 11
-35.115544
 21
123.189788
 31
0.0
  0
LINE
  5
10ECC
  8
ALPHA
 10
-37.116167
 20
132.930598
 30
0.0
 11
-37.615233
 21
132.930598
 31
0.0
  0
ARC
  5
10ECD
  8
ALPHA
 10
-32.250708
 20
126.432156
 30
0.0
 40
8.150195
 50
151.538585
 51
208.461415
  0
LINE
  5
10ECE
  8
POINTILLE_COURT
 10
-41.750903
 20
144.832779
 30
0.0
 11
-36.250903
 21
144.832779
 31
0.0
  0
ARC
  5
10ECF
  8
ALPHA
 10
-35.616168
 20
139.059329
 30
0.0
 40
1.5
 50
116.0
 51
180.0
  0
LINE
  5
10ED0
  8
ALPHA
 10
-34.750903
 20
144.832779
 30
0.0
 11
-29.250903
 21
144.832779
 31
0.0
  0
ARC
  5
10ED1
  8
ALPHA
 10
-28.950903
 20
143.645318
 30
0.0
 40
1.5
 50
296.0
 51
0.0
  0
LINE
  5
10ED2
  8
POINTILLE_COURT
 10
-41.750903
 20
160.832779
 30
0.0
 11
-36.250903
 21
160.832779
 31
0.0
  0
LINE
  5
10ED3
  8
ALPHA
 10
-29.250903
 20
159.332779
 30
0.0
 11
-27.450903
 21
159.332779
 31
0.0
  0
LINE
  5
10ED4
  8
ALPHA
 10
-34.750903
 20
160.832779
 30
0.0
 11
-29.250903
 21
160.832779
 31
0.0
  0
VIEWPORT
  5
494D
 67
     1
  8
0
 10
4.995325
 20
6.556512
 30
0.0
 40
22.70986
 41
13.988421
 68
    -1
 69
     1
1001
ACAD
1000
MVIEW
1002
{
1070
    16
1010
0.0
1020
0.0
1030
0.0
1010
0.0
1020
0.0
1030
1.0
1040
0.0
1040
13.988421
1040
4.995325
1040
6.556512
1040
50.0
1040
0.0
1040
0.0
1070
     0
1070
   100
1070
     1
1070
     1
1070
     0
1070
     0
1070
     0
1070
     0
1040
0.0
1040
0.0
1040
0.0
1040
10.0
1040
10.0
1040
10.0
1040
10.0
1070
     0
1002
{
1002
}
1002
}
  0
ENDSEC
  0
EOF
