  0
SECTION
  2
HEADER
  9
$ACADVER
  1
AC1014
  9
$ACADMAINTVER
 70
     9
  9
$DWGCODEPAGE
  3
ANSI_1252
  9
$INSBASE
 10
0.0
 20
0.0
 30
0.0
  9
$EXTMIN
 10
0.0
 20
0.0
 30
0.0
  9
$EXTMAX
 10
131.200008
 20
82.0
 30
0.0
  9
$LIMMIN
 10
0.0
 20
0.0
  9
$LIMMAX
 10
16.40000099999999
 20
10.25
  9
$ORTHOMODE
 70
     1
  9
$REGENMODE
 70
     1
  9
$FILLMODE
 70
     1
  9
$QTEXTMODE
 70
     0
  9
$MIRRTEXT
 70
     1
  9
$DRAGMODE
 70
     2
  9
$LTSCALE
 40
1.0
  9
$OSMODE
 70
    43
  9
$ATTMODE
 70
     1
  9
$TEXTSIZE
 40
0.2
  9
$TRACEWID
 40
0.05
  9
$TEXTSTYLE
  7
ROMANS
  9
$CLAYER
  8
0
  9
$CELTYPE
  6
BYLAYER
  9
$CECOLOR
 62
   256
  9
$CELTSCALE
 40
1.0
  9
$DELOBJ
 70
     1
  9
$DISPSILH
 70
     0
  9
$DIMSCALE
 40
0.0
  9
$DIMASZ
 40
0.07
  9
$DIMEXO
 40
0.0625
  9
$DIMDLI
 40
0.38
  9
$DIMRND
 40
0.001
  9
$DIMDLE
 40
0.0
  9
$DIMEXE
 40
0.0625
  9
$DIMTP
 40
0.0
  9
$DIMTM
 40
0.0
  9
$DIMTXT
 40
0.1
  9
$DIMCEN
 40
0.09
  9
$DIMTSZ
 40
0.0
  9
$DIMTOL
 70
     0
  9
$DIMLIM
 70
     0
  9
$DIMTIH
 70
     1
  9
$DIMTOH
 70
     1
  9
$DIMSE1
 70
     0
  9
$DIMSE2
 70
     0
  9
$DIMTAD
 70
     0
  9
$DIMZIN
 70
     4
  9
$DIMBLK
  1
SEARROW
  9
$DIMASO
 70
     1
  9
$DIMSHO
 70
     1
  9
$DIMPOST
  1
\P{\H0.8x;
  9
$DIMAPOST
  1

  9
$DIMALT
 70
     1
  9
$DIMALTD
 70
     0
  9
$DIMALTF
 40
25.4
  9
$DIMLFAC
 40
1.0
  9
$DIMTOFL
 70
     0
  9
$DIMTVP
 40
0.0
  9
$DIMTIX
 70
     0
  9
$DIMSOXD
 70
     0
  9
$DIMSAH
 70
     0
  9
$DIMBLK1
  1

  9
$DIMBLK2
  1

  9
$DIMSTYLE
  2
SCHNEIDERELECTRIC_DUAL_BEL
  9
$DIMCLRD
 70
   256
  9
$DIMCLRE
 70
   256
  9
$DIMCLRT
 70
   256
  9
$DIMTFAC
 40
1.0
  9
$DIMGAP
 40
0.04
  9
$DIMJUST
 70
     0
  9
$DIMSD1
 70
     0
  9
$DIMSD2
 70
     0
  9
$DIMTOLJ
 70
     1
  9
$DIMTZIN
 70
     0
  9
$DIMALTZ
 70
     4
  9
$DIMALTTZ
 70
     0
  9
$DIMFIT
 70
     3
  9
$DIMUPT
 70
     0
  9
$DIMUNIT
 70
     2
  9
$DIMDEC
 70
     2
  9
$DIMTDEC
 70
     2
  9
$DIMALTU
 70
     2
  9
$DIMALTTD
 70
     0
  9
$DIMTXSTY
  7
ROMANS
  9
$DIMAUNIT
 70
     0
  9
$LUNITS
 70
     2
  9
$LUPREC
 70
     4
  9
$SKETCHINC
 40
0.1
  9
$FILLETRAD
 40
0.5
  9
$AUNITS
 70
     0
  9
$AUPREC
 70
     0
  9
$MENU
  1
.
  9
$ELEVATION
 40
0.0
  9
$PELEVATION
 40
0.0
  9
$THICKNESS
 40
0.0
  9
$LIMCHECK
 70
     0
  9
$BLIPMODE
 70
     0
  9
$CHAMFERA
 40
0.5
  9
$CHAMFERB
 40
0.5
  9
$CHAMFERC
 40
1.0
  9
$CHAMFERD
 40
0.0
  9
$SKPOLY
 70
     0
  9
$TDCREATE
 40
2451764.618375243
  9
$TDUPDATE
 40
2452660.610896932
  9
$TDINDWG
 40
0.3296354514
  9
$TDUSRTIMER
 40
0.3296352199
  9
$USRTIMER
 70
     1
  9
$ANGBASE
 50
0.0
  9
$ANGDIR
 70
     0
  9
$PDMODE
 70
     0
  9
$PDSIZE
 40
0.0
  9
$PLINEWID
 40
0.0
  9
$COORDS
 70
     1
  9
$SPLFRAME
 70
     0
  9
$SPLINETYPE
 70
     6
  9
$SPLINESEGS
 70
     8
  9
$ATTDIA
 70
     0
  9
$ATTREQ
 70
     1
  9
$HANDLING
 70
 22529
  9
$HANDSEED
  5
5F98
  9
$SURFTAB1
 70
     6
  9
$SURFTAB2
 70
     6
  9
$SURFTYPE
 70
     6
  9
$SURFU
 70
     6
  9
$SURFV
 70
     6
  9
$UCSNAME
  2

  9
$UCSORG
 10
0.0
 20
0.0
 30
0.0
  9
$UCSXDIR
 10
1.0
 20
0.0
 30
0.0
  9
$UCSYDIR
 10
0.0
 20
1.0
 30
0.0
  9
$PUCSNAME
  2

  9
$PUCSORG
 10
0.0
 20
0.0
 30
0.0
  9
$PUCSXDIR
 10
1.0
 20
0.0
 30
0.0
  9
$PUCSYDIR
 10
0.0
 20
1.0
 30
0.0
  9
$USERI1
 70
     0
  9
$USERI2
 70
     0
  9
$USERI3
 70
     0
  9
$USERI4
 70
     0
  9
$USERI5
 70
     0
  9
$USERR1
 40
0.0
  9
$USERR2
 40
0.0
  9
$USERR3
 40
0.0
  9
$USERR4
 40
0.0
  9
$USERR5
 40
0.0
  9
$WORLDVIEW
 70
     1
  9
$SHADEDGE
 70
     3
  9
$SHADEDIF
 70
    70
  9
$TILEMODE
 70
     0
  9
$MAXACTVP
 70
    48
  9
$PINSBASE
 10
0.0
 20
0.0
 30
0.0
  9
$PLIMCHECK
 70
     0
  9
$PEXTMIN
 10
-0.0000913032855917
 20
-0.1507501677372116
 30
-0.0000000349181948
  9
$PEXTMAX
 10
16.40093273450172
 20
10.25079344383982
 30
0.0000000814935746
  9
$PLIMMIN
 10
-0.4248199260784916
 20
-1.6105067468698
  9
$PLIMMAX
 10
16.82566035631829
 20
11.71940974933722
  9
$UNITMODE
 70
     0
  9
$VISRETAIN
 70
     1
  9
$PLINEGEN
 70
     0
  9
$PSLTSCALE
 70
     1
  9
$TREEDEPTH
 70
  3020
  9
$PICKSTYLE
 70
     1
  9
$CMLSTYLE
  2
STANDARD
  9
$CMLJUST
 70
     0
  9
$CMLSCALE
 40
1.0
  9
$PROXYGRAPHICS
 70
     1
  9
$MEASUREMENT
 70
     0
  0
ENDSEC
  0
SECTION
  2
CLASSES
  0
CLASS
  1
ACDBDICTIONARYWDFLT
  2
AcDbDictionaryWithDefault
  3
AutoCAD 2000
 90
        0
280
     0
281
     0
  0
CLASS
  1
ACDBPLACEHOLDER
  2
AcDbPlaceHolder
  3
AutoCAD 2000
 90
        0
280
     0
281
     0
  0
CLASS
  1
LAYOUT
  2
AcDbLayout
  3
AutoCAD 2000
 90
        0
280
     0
281
     0
  0
CLASS
  1
LONG_TRANSACTION
  2
AcDbLongTransaction
  3
AutoCAD 2000
 90
        0
280
     0
281
     0
  0
CLASS
  1
LWPOLYLINE
  2
AcDbPolyline
  3
AutoCAD 2000
 90
        0
280
     0
281
     1
  0
CLASS
  1
HATCH
  2
AcDbHatch
  3
AutoCAD 2000
 90
        0
280
     0
281
     1
  0
CLASS
  1
XRECORD
  2
AcDbXrecord
  3
AutoCAD 2000
 90
        0
280
     0
281
     0
  0
CLASS
  1
LONG_TRANSACTION
  2
AcDbLongTransaction
  3
AutoCAD 2000
 90
        0
280
     0
281
     0
  0
CLASS
  1
LWPOLYLINE
  2
AcDbPolyline
  3
AutoCAD 2000
 90
        0
280
     0
281
     1
  0
CLASS
  1
HATCH
  2
AcDbHatch
  3
AutoCAD 2000
 90
        0
280
     0
281
     1
  0
CLASS
  1
XRECORD
  2
AcDbXrecord
  3
AutoCAD 2000
 90
        0
280
     0
281
     0
  0
CLASS
  1
LONG_TRANSACTION
  2
AcDbLongTransaction
  3
AutoCAD 2000
 90
        0
280
     0
281
     0
  0
CLASS
  1
LWPOLYLINE
  2
AcDbPolyline
  3
AutoCAD 2000
 90
        0
280
     0
281
     1
  0
CLASS
  1
HATCH
  2
AcDbHatch
  3
AutoCAD 2000
 90
        0
280
     0
281
     1
  0
CLASS
  1
XRECORD
  2
AcDbXrecord
  3
AutoCAD 2000
 90
        0
280
     0
281
     0
  0
CLASS
  1
PLOTSETTINGS
  2
AcDbPlotSettings
  3
AutoCAD 2000
 90
        0
280
     0
281
     0
  0
CLASS
  1
ACME_DOCUMENT
  2
AcMeDbDoc
  3
AcMeServices
 90
        0
280
     0
281
     0
  0
CLASS
  1
AMGSETTINGSOBJ
  2
AmgSettingsObj
  3
"AcadM|Product Description: AutoCAD Mechanical 2000|Company: Autodesk"
 90
        0
280
     0
281
     0
  0
CLASS
  1
ACMESCOPE
  2
AcMeScope
  3
AcMeServices
 90
        0
280
     0
281
     0
  0
CLASS
  1
ACMECOMMANDHISTORY
  2
AcMeCommandHistory
  3
AcMeServices
 90
        0
280
     0
281
     0
  0
CLASS
  1
DICTIONARYVAR
  2
AcDbDictionaryVar
  3
AutoCAD 2000
 90
        0
280
     0
281
     0
  0
CLASS
  1
ACIMSYSVARMAN
  2
AcImSysVarManager
  3
AcMeServices
 90
        0
280
     0
281
     0
  0
CLASS
  1
ACIMREALSYSVAR
  2
AcImRealSysVar
  3
AcMeServices
 90
        0
280
     0
281
     0
  0
CLASS
  1
ACIMINTSYSVAR
  2
AcImIntSysVar
  3
AcMeServices
 90
        0
280
     0
281
     0
  0
CLASS
  1
ACMEDRAWINGMAN
  2
AcMeDrawingMan
  3
AcMeServices
 90
        0
280
     0
281
     0
  0
CLASS
  1
ACMEVIEW
  2
AcMeView
  3
AcMeServices
 90
        0
280
     0
281
     0
  0
CLASS
  1
ACDBENTITYCACHE
  2
AcMeEntityCache
  3
AcMeServices
 90
        0
280
     0
281
     0
  0
CLASS
  1
GSMANAGER
  2
AcMeGSManager
  3
AcMeServices
 90
        0
280
     0
281
     0
  0
CLASS
  1
AmdtInternalReactor
  2
AmdtInternalReactor
  3
AcMeServices
 90
        0
280
     0
281
     0
  0
CLASS
  1
ACMESTATEMGR
  2
AcMeStateMgr
  3
AcMeServices
 90
        0
280
     0
281
     0
  0
CLASS
  1
ACME_DATABASE
  2
AcMeDbDatabase
  3
AcMeServices
 90
        0
280
     0
281
     0
  0
CLASS
  1
ACRFINSADJUSTERMGR
  2
AcRfInsAdjusterMgr
  3
AcMeServices
 90
        0
280
     0
281
     0
  0
CLASS
  1
ACMDATADICTIONARY
  2
AcmDataDictionary
  3
"AcmSymBB|Product Description: AutoCAD Mechanical 2000|Company: Autodesk"
 90
        0
280
     0
281
     0
  0
CLASS
  1
ACMDATAENTRYBLOCK
  2
AcmDataEntryBlock
  3
"AcmSymBB|Product Description: AutoCAD Mechanical 2000|Company: Autodesk"
 90
        0
280
     0
281
     0
  0
CLASS
  1
AMGOBJPROPCFG
  2
AmgObjPropCfg
  3
"AmgLay|Product Description: AutoCAD Mechanical 2000|Company: Autodesk"
 90
        1
280
     0
281
     0
  0
CLASS
  1
ACAMGFILTERDAT
  2
AcAmgFilterDat
  3
"AcadM|Product Description: AutoCAD Mechanical 2000|Company: Autodesk"
 90
        0
280
     0
281
     0
  0
CLASS
  1
LAYER_INDEX
  2
AcDbLayerIndex
  3
AutoCAD 2000
 90
        0
280
     0
281
     0
  0
CLASS
  1
IDBUFFER
  2
AcDbIdBuffer
  3
AutoCAD 2000
 90
        0
280
     0
281
     0
  0
CLASS
  1
LONG_TRANSACTION
  2
AcDbLongTransaction
  3
AutoCAD 2000
 90
        0
280
     0
281
     0
  0
CLASS
  1
LWPOLYLINE
  2
AcDbPolyline
  3
AutoCAD 2000
 90
        0
280
     0
281
     1
  0
CLASS
  1
HATCH
  2
AcDbHatch
  3
AutoCAD 2000
 90
        0
280
     0
281
     1
  0
CLASS
  1
XRECORD
  2
AcDbXrecord
  3
AutoCAD 2000
 90
        0
280
     0
281
     0
  0
CLASS
  1
LONG_TRANSACTION
  2
AcDbLongTransaction
  3
AutoCAD 2000
 90
        0
280
     0
281
     0
  0
CLASS
  1
LWPOLYLINE
  2
AcDbPolyline
  3
AutoCAD 2000
 90
        0
280
     0
281
     1
  0
CLASS
  1
HATCH
  2
AcDbHatch
  3
AutoCAD 2000
 90
        0
280
     0
281
     1
  0
CLASS
  1
XRECORD
  2
AcDbXrecord
  3
AutoCAD 2000
 90
        0
280
     0
281
     0
  0
CLASS
  1
LONG_TRANSACTION
  2
AcDbLongTransaction
  3
AutoCAD 2000
 90
        0
280
     0
281
     0
  0
CLASS
  1
LWPOLYLINE
  2
AcDbPolyline
  3
AutoCAD 2000
 90
        0
280
     0
281
     1
  0
CLASS
  1
HATCH
  2
AcDbHatch
  3
AutoCAD 2000
 90
        0
280
     0
281
     1
  0
CLASS
  1
XRECORD
  2
AcDbXrecord
  3
AutoCAD 2000
 90
        0
280
     0
281
     0
  0
CLASS
  1
LONG_TRANSACTION
  2
AcDbLongTransaction
  3
AutoCAD 2000
 90
        0
280
     0
281
     0
  0
CLASS
  1
LWPOLYLINE
  2
AcDbPolyline
  3
AutoCAD 2000
 90
        0
280
     0
281
     1
  0
CLASS
  1
HATCH
  2
AcDbHatch
  3
AutoCAD 2000
 90
        0
280
     0
281
     1
  0
CLASS
  1
XRECORD
  2
AcDbXrecord
  3
AutoCAD 2000
 90
        0
280
     0
281
     0
  0
CLASS
  1
LONG_TRANSACTION
  2
AcDbLongTransaction
  3
AutoCAD 2000
 90
        0
280
     0
281
     0
  0
CLASS
  1
LWPOLYLINE
  2
AcDbPolyline
  3
AutoCAD 2000
 90
        0
280
     0
281
     1
  0
CLASS
  1
HATCH
  2
AcDbHatch
  3
AutoCAD 2000
 90
        0
280
     0
281
     1
  0
CLASS
  1
XRECORD
  2
AcDbXrecord
  3
AutoCAD 2000
 90
        0
280
     0
281
     0
  0
CLASS
  1
LONG_TRANSACTION
  2
AcDbLongTransaction
  3
AutoCAD 2000
 90
        0
280
     0
281
     0
  0
CLASS
  1
LWPOLYLINE
  2
AcDbPolyline
  3
AutoCAD 2000
 90
        0
280
     0
281
     1
  0
CLASS
  1
HATCH
  2
AcDbHatch
  3
AutoCAD 2000
 90
        0
280
     0
281
     1
  0
CLASS
  1
XRECORD
  2
AcDbXrecord
  3
AutoCAD 2000
 90
        0
280
     0
281
     0
  0
CLASS
  1
LONG_TRANSACTION
  2
AcDbLongTransaction
  3
AutoCAD 2000
 90
        0
280
     0
281
     0
  0
CLASS
  1
LWPOLYLINE
  2
AcDbPolyline
  3
AutoCAD 2000
 90
        0
280
     0
281
     1
  0
CLASS
  1
HATCH
  2
AcDbHatch
  3
AutoCAD 2000
 90
        0
280
     0
281
     1
  0
CLASS
  1
XRECORD
  2
AcDbXrecord
  3
AutoCAD 2000
 90
        0
280
     0
281
     0
  0
CLASS
  1
LONG_TRANSACTION
  2
AcDbLongTransaction
  3
AutoCAD 2000
 90
        0
280
     0
281
     0
  0
CLASS
  1
LWPOLYLINE
  2
AcDbPolyline
  3
AutoCAD 2000
 90
        0
280
     0
281
     1
  0
CLASS
  1
HATCH
  2
AcDbHatch
  3
AutoCAD 2000
 90
        0
280
     0
281
     1
  0
CLASS
  1
XRECORD
  2
AcDbXrecord
  3
AutoCAD 2000
 90
        0
280
     0
281
     0
  0
CLASS
  1
LONG_TRANSACTION
  2
AcDbLongTransaction
  3
AutoCAD 2000
 90
        0
280
     0
281
     0
  0
CLASS
  1
LWPOLYLINE
  2
AcDbPolyline
  3
AutoCAD 2000
 90
        0
280
     0
281
     1
  0
CLASS
  1
HATCH
  2
AcDbHatch
  3
AutoCAD 2000
 90
        0
280
     0
281
     1
  0
CLASS
  1
XRECORD
  2
AcDbXrecord
  3
AutoCAD 2000
 90
        0
280
     0
281
     0
  0
CLASS
  1
LONG_TRANSACTION
  2
AcDbLongTransaction
  3
AutoCAD 2000
 90
        0
280
     0
281
     0
  0
CLASS
  1
LWPOLYLINE
  2
AcDbPolyline
  3
AutoCAD 2000
 90
        0
280
     0
281
     1
  0
CLASS
  1
HATCH
  2
AcDbHatch
  3
AutoCAD 2000
 90
        0
280
     0
281
     1
  0
CLASS
  1
XRECORD
  2
AcDbXrecord
  3
AutoCAD 2000
 90
        0
280
     0
281
     0
  0
CLASS
  1
LONG_TRANSACTION
  2
AcDbLongTransaction
  3
AutoCAD 2000
 90
        0
280
     0
281
     0
  0
CLASS
  1
LWPOLYLINE
  2
AcDbPolyline
  3
AutoCAD 2000
 90
        0
280
     0
281
     1
  0
CLASS
  1
HATCH
  2
AcDbHatch
  3
AutoCAD 2000
 90
        0
280
     0
281
     1
  0
CLASS
  1
XRECORD
  2
AcDbXrecord
  3
AutoCAD 2000
 90
        0
280
     0
281
     0
  0
CLASS
  1
LONG_TRANSACTION
  2
AcDbLongTransaction
  3
AutoCAD 2000
 90
        0
280
     0
281
     0
  0
CLASS
  1
LWPOLYLINE
  2
AcDbPolyline
  3
AutoCAD 2000
 90
        0
280
     0
281
     1
  0
CLASS
  1
HATCH
  2
AcDbHatch
  3
AutoCAD 2000
 90
        0
280
     0
281
     1
  0
CLASS
  1
XRECORD
  2
AcDbXrecord
  3
AutoCAD 2000
 90
        0
280
     0
281
     0
  0
CLASS
  1
LONG_TRANSACTION
  2
AcDbLongTransaction
  3
AutoCAD 2000
 90
        0
280
     0
281
     0
  0
CLASS
  1
LWPOLYLINE
  2
AcDbPolyline
  3
AutoCAD 2000
 90
        0
280
     0
281
     1
  0
CLASS
  1
HATCH
  2
AcDbHatch
  3
AutoCAD 2000
 90
        0
280
     0
281
     1
  0
CLASS
  1
XRECORD
  2
AcDbXrecord
  3
AutoCAD 2000
 90
        0
280
     0
281
     0
  0
CLASS
  1
LONG_TRANSACTION
  2
AcDbLongTransaction
  3
AutoCAD 2000
 90
        0
280
     0
281
     0
  0
CLASS
  1
LWPOLYLINE
  2
AcDbPolyline
  3
AutoCAD 2000
 90
        0
280
     0
281
     1
  0
CLASS
  1
HATCH
  2
AcDbHatch
  3
AutoCAD 2000
 90
        0
280
     0
281
     1
  0
CLASS
  1
XRECORD
  2
AcDbXrecord
  3
AutoCAD 2000
 90
        0
280
     0
281
     0
  0
CLASS
  1
LONG_TRANSACTION
  2
AcDbLongTransaction
  3
AutoCAD 2000
 90
        0
280
     0
281
     0
  0
CLASS
  1
LWPOLYLINE
  2
AcDbPolyline
  3
AutoCAD 2000
 90
        0
280
     0
281
     1
  0
CLASS
  1
HATCH
  2
AcDbHatch
  3
AutoCAD 2000
 90
        0
280
     0
281
     1
  0
CLASS
  1
XRECORD
  2
AcDbXrecord
  3
AutoCAD 2000
 90
        0
280
     0
281
     0
  0
CLASS
  1
LONG_TRANSACTION
  2
AcDbLongTransaction
  3
AutoCAD 2000
 90
        0
280
     0
281
     0
  0
CLASS
  1
LWPOLYLINE
  2
AcDbPolyline
  3
AutoCAD 2000
 90
        0
280
     0
281
     1
  0
CLASS
  1
HATCH
  2
AcDbHatch
  3
AutoCAD 2000
 90
        0
280
     0
281
     1
  0
CLASS
  1
XRECORD
  2
AcDbXrecord
  3
AutoCAD 2000
 90
        0
280
     0
281
     0
  0
CLASS
  1
LONG_TRANSACTION
  2
AcDbLongTransaction
  3
AutoCAD 2000
 90
        0
280
     0
281
     0
  0
CLASS
  1
LWPOLYLINE
  2
AcDbPolyline
  3
AutoCAD 2000
 90
        0
280
     0
281
     1
  0
CLASS
  1
HATCH
  2
AcDbHatch
  3
AutoCAD 2000
 90
        0
280
     0
281
     1
  0
CLASS
  1
XRECORD
  2
AcDbXrecord
  3
AutoCAD 2000
 90
        0
280
     0
281
     0
  0
CLASS
  1
LONG_TRANSACTION
  2
AcDbLongTransaction
  3
AutoCAD 2000
 90
        0
280
     0
281
     0
  0
CLASS
  1
LWPOLYLINE
  2
AcDbPolyline
  3
AutoCAD 2000
 90
        0
280
     0
281
     1
  0
CLASS
  1
HATCH
  2
AcDbHatch
  3
AutoCAD 2000
 90
        0
280
     0
281
     1
  0
CLASS
  1
XRECORD
  2
AcDbXrecord
  3
AutoCAD 2000
 90
        0
280
     0
281
     0
  0
CLASS
  1
LONG_TRANSACTION
  2
AcDbLongTransaction
  3
AutoCAD 2000
 90
        0
280
     0
281
     0
  0
CLASS
  1
LWPOLYLINE
  2
AcDbPolyline
  3
AutoCAD 2000
 90
        0
280
     0
281
     1
  0
CLASS
  1
HATCH
  2
AcDbHatch
  3
AutoCAD 2000
 90
        0
280
     0
281
     1
  0
CLASS
  1
XRECORD
  2
AcDbXrecord
  3
AutoCAD 2000
 90
        0
280
     0
281
     0
  0
CLASS
  1
LONG_TRANSACTION
  2
AcDbLongTransaction
  3
AutoCAD 2000
 90
        0
280
     0
281
     0
  0
CLASS
  1
LWPOLYLINE
  2
AcDbPolyline
  3
AutoCAD 2000
 90
        0
280
     0
281
     1
  0
CLASS
  1
HATCH
  2
AcDbHatch
  3
AutoCAD 2000
 90
        0
280
     0
281
     1
  0
CLASS
  1
XRECORD
  2
AcDbXrecord
  3
AutoCAD 2000
 90
        0
280
     0
281
     0
  0
CLASS
  1
LONG_TRANSACTION
  2
AcDbLongTransaction
  3
AutoCAD 2000
 90
        0
280
     0
281
     0
  0
CLASS
  1
LWPOLYLINE
  2
AcDbPolyline
  3
AutoCAD 2000
 90
        0
280
     0
281
     1
  0
CLASS
  1
HATCH
  2
AcDbHatch
  3
AutoCAD 2000
 90
        0
280
     0
281
     1
  0
CLASS
  1
XRECORD
  2
AcDbXrecord
  3
AutoCAD 2000
 90
        0
280
     0
281
     0
  0
CLASS
  1
LONG_TRANSACTION
  2
AcDbLongTransaction
  3
AutoCAD 2000
 90
        0
280
     0
281
     0
  0
CLASS
  1
LWPOLYLINE
  2
AcDbPolyline
  3
AutoCAD 2000
 90
        0
280
     0
281
     1
  0
CLASS
  1
HATCH
  2
AcDbHatch
  3
AutoCAD 2000
 90
        0
280
     0
281
     1
  0
CLASS
  1
XRECORD
  2
AcDbXrecord
  3
AutoCAD 2000
 90
        0
280
     0
281
     0
  0
CLASS
  1
LONG_TRANSACTION
  2
AcDbLongTransaction
  3
AutoCAD 2000
 90
        0
280
     0
281
     0
  0
CLASS
  1
LWPOLYLINE
  2
AcDbPolyline
  3
AutoCAD 2000
 90
        0
280
     0
281
     1
  0
CLASS
  1
HATCH
  2
AcDbHatch
  3
AutoCAD 2000
 90
        0
280
     0
281
     1
  0
CLASS
  1
XRECORD
  2
AcDbXrecord
  3
AutoCAD 2000
 90
        0
280
     0
281
     0
  0
CLASS
  1
LONG_TRANSACTION
  2
AcDbLongTransaction
  3
AutoCAD 2000
 90
        0
280
     0
281
     0
  0
CLASS
  1
LWPOLYLINE
  2
AcDbPolyline
  3
AutoCAD 2000
 90
        0
280
     0
281
     1
  0
CLASS
  1
HATCH
  2
AcDbHatch
  3
AutoCAD 2000
 90
        0
280
     0
281
     1
  0
CLASS
  1
XRECORD
  2
AcDbXrecord
  3
AutoCAD 2000
 90
        0
280
     0
281
     0
  0
CLASS
  1
LONG_TRANSACTION
  2
AcDbLongTransaction
  3
AutoCAD 2000
 90
        0
280
     0
281
     0
  0
CLASS
  1
LWPOLYLINE
  2
AcDbPolyline
  3
AutoCAD 2000
 90
        0
280
     0
281
     1
  0
CLASS
  1
HATCH
  2
AcDbHatch
  3
AutoCAD 2000
 90
        0
280
     0
281
     1
  0
CLASS
  1
XRECORD
  2
AcDbXrecord
  3
AutoCAD 2000
 90
        0
280
     0
281
     0
  0
CLASS
  1
LONG_TRANSACTION
  2
AcDbLongTransaction
  3
AutoCAD 2000
 90
        0
280
     0
281
     0
  0
CLASS
  1
LWPOLYLINE
  2
AcDbPolyline
  3
AutoCAD 2000
 90
        0
280
     0
281
     1
  0
CLASS
  1
HATCH
  2
AcDbHatch
  3
AutoCAD 2000
 90
        0
280
     0
281
     1
  0
CLASS
  1
XRECORD
  2
AcDbXrecord
  3
AutoCAD 2000
 90
        0
280
     0
281
     0
  0
CLASS
  1
LONG_TRANSACTION
  2
AcDbLongTransaction
  3
AutoCAD 2000
 90
        0
280
     0
281
     0
  0
CLASS
  1
LWPOLYLINE
  2
AcDbPolyline
  3
AutoCAD 2000
 90
        0
280
     0
281
     1
  0
CLASS
  1
HATCH
  2
AcDbHatch
  3
AutoCAD 2000
 90
        0
280
     0
281
     1
  0
CLASS
  1
XRECORD
  2
AcDbXrecord
  3
AutoCAD 2000
 90
        0
280
     0
281
     0
  0
CLASS
  1
LONG_TRANSACTION
  2
AcDbLongTransaction
  3
AutoCAD 2000
 90
        0
280
     0
281
     0
  0
CLASS
  1
LWPOLYLINE
  2
AcDbPolyline
  3
AutoCAD 2000
 90
        0
280
     0
281
     1
  0
CLASS
  1
HATCH
  2
AcDbHatch
  3
AutoCAD 2000
 90
        0
280
     0
281
     1
  0
CLASS
  1
XRECORD
  2
AcDbXrecord
  3
AutoCAD 2000
 90
        0
280
     0
281
     0
  0
CLASS
  1
LONG_TRANSACTION
  2
AcDbLongTransaction
  3
AutoCAD 2000
 90
        0
280
     0
281
     0
  0
CLASS
  1
LWPOLYLINE
  2
AcDbPolyline
  3
AutoCAD 2000
 90
        0
280
     0
281
     1
  0
CLASS
  1
HATCH
  2
AcDbHatch
  3
AutoCAD 2000
 90
        0
280
     0
281
     1
  0
CLASS
  1
XRECORD
  2
AcDbXrecord
  3
AutoCAD 2000
 90
        0
280
     0
281
     0
  0
CLASS
  1
LONG_TRANSACTION
  2
AcDbLongTransaction
  3
AutoCAD 2000
 90
        0
280
     0
281
     0
  0
CLASS
  1
LWPOLYLINE
  2
AcDbPolyline
  3
AutoCAD 2000
 90
        0
280
     0
281
     1
  0
CLASS
  1
HATCH
  2
AcDbHatch
  3
AutoCAD 2000
 90
        0
280
     0
281
     1
  0
CLASS
  1
XRECORD
  2
AcDbXrecord
  3
AutoCAD 2000
 90
        0
280
     0
281
     0
  0
CLASS
  1
LONG_TRANSACTION
  2
AcDbLongTransaction
  3
AutoCAD 2000
 90
        0
280
     0
281
     0
  0
CLASS
  1
LWPOLYLINE
  2
AcDbPolyline
  3
AutoCAD 2000
 90
        0
280
     0
281
     1
  0
CLASS
  1
HATCH
  2
AcDbHatch
  3
AutoCAD 2000
 90
        0
280
     0
281
     1
  0
CLASS
  1
XRECORD
  2
AcDbXrecord
  3
AutoCAD 2000
 90
        0
280
     0
281
     0
  0
CLASS
  1
LONG_TRANSACTION
  2
AcDbLongTransaction
  3
AutoCAD 2000
 90
        0
280
     0
281
     0
  0
CLASS
  1
LWPOLYLINE
  2
AcDbPolyline
  3
AutoCAD 2000
 90
        0
280
     0
281
     1
  0
CLASS
  1
HATCH
  2
AcDbHatch
  3
AutoCAD 2000
 90
        0
280
     0
281
     1
  0
CLASS
  1
XRECORD
  2
AcDbXrecord
  3
AutoCAD 2000
 90
        0
280
     0
281
     0
  0
ENDSEC
  0
SECTION
  2
TABLES
  0
TABLE
  2
VPORT
  5
8
330
0
100
AcDbSymbolTable
 70
     1
  0
VPORT
  5
5EC2
330
8
100
AcDbSymbolTableRecord
100
AcDbViewportTableRecord
  2
*ACTIVE
 70
     0
 10
0.0
 20
0.0
 11
1.0
 21
1.0
 12
65.60000430547384
 22
41.00000019092112
 13
0.0
 23
0.0
 14
0.5
 24
0.5
 15
0.5
 25
0.5
 16
0.0
 26
0.0
 36
1.0
 17
0.0
 27
0.0
 37
0.0
 40
83.35945993936313
 41
1.581542351453855
 42
50.0
 43
0.0
 44
0.0
 50
0.0
 51
0.0
 71
     0
 72
   100
 73
     1
 74
     2
 75
     0
 76
     0
 77
     0
 78
     0
  0
ENDTAB
  0
TABLE
  2
LTYPE
  5
5
330
0
100
AcDbSymbolTable
 70
     2
  0
LTYPE
  5
14
330
5
100
AcDbSymbolTableRecord
100
AcDbLinetypeTableRecord
  2
BYBLOCK
 70
     0
  3

 72
    65
 73
     0
 40
0.0
  0
LTYPE
  5
15
330
5
100
AcDbSymbolTableRecord
100
AcDbLinetypeTableRecord
  2
BYLAYER
 70
     0
  3

 72
    65
 73
     0
 40
0.0
  0
LTYPE
  5
16
330
5
100
AcDbSymbolTableRecord
100
AcDbLinetypeTableRecord
  2
CONTINUOUS
 70
     0
  3
Solid line
 72
    65
 73
     0
 40
0.0
  0
LTYPE
  5
1EF6
330
5
100
AcDbSymbolTableRecord
100
AcDbLinetypeTableRecord
  2
HIDDEN2
 70
     0
  3
Hidden (.5x) _ _ _ _ _ _ _ _ _ _ _ _ _ _ _ _ _
 72
    65
 73
     2
 40
0.08
 49
0.035
 74
     0
 49
-0.045
 74
     0
  0
ENDTAB
  0
TABLE
  2
LAYER
  5
2
330
0
100
AcDbSymbolTable
 70
    10
  0
LAYER
  5
10
330
2
100
AcDbSymbolTableRecord
100
AcDbLayerTableRecord
  2
0
 70
     0
 62
     7
  6
CONTINUOUS
  0
LAYER
  5
48
330
2
100
AcDbSymbolTableRecord
100
AcDbLayerTableRecord
  2
CONTINUOUS2
 70
     0
 62
   254
  6
CONTINUOUS
  0
LAYER
  5
49
330
2
100
AcDbSymbolTableRecord
100
AcDbLayerTableRecord
  2
CONTINUOUS3
 70
     0
 62
   253
  6
CONTINUOUS
  0
LAYER
  5
55
330
2
100
AcDbSymbolTableRecord
100
AcDbLayerTableRecord
  2
TEXT1
 70
     0
 62
     3
  6
CONTINUOUS
  0
LAYER
  5
58
330
2
100
AcDbSymbolTableRecord
100
AcDbLayerTableRecord
  2
TITLEBLOCK
 70
     0
 62
     9
  6
CONTINUOUS
  0
LAYER
  5
59
330
2
100
AcDbSymbolTableRecord
100
AcDbLayerTableRecord
  2
VIEWPORT
 70
     0
 62
     9
  6
CONTINUOUS
  0
LAYER
  5
1EFC
330
2
100
AcDbSymbolTableRecord
100
AcDbLayerTableRecord
  2
CONTINUOUS1
 70
     0
 62
     7
  6
CONTINUOUS
  0
LAYER
  5
1F00
330
2
100
AcDbSymbolTableRecord
100
AcDbLayerTableRecord
  2
DIM
 70
     0
 62
     2
  6
CONTINUOUS
  0
LAYER
  5
1F01
330
2
100
AcDbSymbolTableRecord
100
AcDbLayerTableRecord
  2
HIDDEN1
 70
     0
 62
     5
  6
HIDDEN2
  0
LAYER
  5
1F0A
330
2
100
AcDbSymbolTableRecord
100
AcDbLayerTableRecord
  2
DEFPOINTS
 70
     0
 62
     7
  6
CONTINUOUS
  0
ENDTAB
  0
TABLE
  2
STYLE
  5
3
330
0
100
AcDbSymbolTable
 70
     3
  0
STYLE
  5
11
330
3
100
AcDbSymbolTableRecord
100
AcDbTextStyleTableRecord
  2
STANDARD
 70
     0
 40
0.0
 41
1.0
 50
0.0
 71
     0
 42
0.2
  3
txt
  4

  0
STYLE
  5
36
330
3
100
AcDbSymbolTableRecord
100
AcDbTextStyleTableRecord
  2
ROMANS
 70
     0
 40
0.0
 41
1.0
 50
0.0
 71
     0
 42
0.2
  3
romans.shx
  4

  0
STYLE
  5
6CC
330
3
100
AcDbSymbolTableRecord
100
AcDbTextStyleTableRecord
  2
M_STANDARD
 70
     0
 40
0.0
 41
0.8
 50
0.0
 71
     0
 42
0.0
  3
MEDUSA.SHX
  4

  0
ENDTAB
  0
TABLE
  2
VIEW
  5
6
330
0
100
AcDbSymbolTable
 70
     0
  0
ENDTAB
  0
TABLE
  2
UCS
  5
7
330
0
100
AcDbSymbolTable
 70
     0
  0
ENDTAB
  0
TABLE
  2
APPID
  5
9
330
0
100
AcDbSymbolTable
 70
    11
  0
APPID
  5
12
330
9
100
AcDbSymbolTableRecord
100
AcDbRegAppTableRecord
  2
ACAD
 70
     0
  0
APPID
  5
6B
330
9
100
AcDbSymbolTableRecord
100
AcDbRegAppTableRecord
  2
DCO15
 70
     0
  0
APPID
  5
370
330
9
100
AcDbSymbolTableRecord
100
AcDbRegAppTableRecord
  2
MCAD_NO_VIS
 70
     0
  0
APPID
  5
371
330
9
100
AcDbSymbolTableRecord
100
AcDbRegAppTableRecord
  2
ACAD_TEMP_GRAPHIC
 70
     0
  0
APPID
  5
387
330
9
100
AcDbSymbolTableRecord
100
AcDbRegAppTableRecord
  2
GENIUS_GENSCREG_15
 70
     0
  0
APPID
  5
389
330
9
100
AcDbSymbolTableRecord
100
AcDbRegAppTableRecord
  2
GENIUS_GENODEF_13
 70
     0
  0
APPID
  5
38A
330
9
100
AcDbSymbolTableRecord
100
AcDbRegAppTableRecord
  2
GENIUS_GENOBJ-N-SDF_13
 70
     0
  0
APPID
  5
38B
330
9
100
AcDbSymbolTableRecord
100
AcDbRegAppTableRecord
  2
GENIUS_GENOENT_13
 70
     0
  0
APPID
  5
38C
330
9
100
AcDbSymbolTableRecord
100
AcDbRegAppTableRecord
  2
GENIUS_GENOREF_13
 70
     0
  0
APPID
  5
38D
330
9
100
AcDbSymbolTableRecord
100
AcDbRegAppTableRecord
  2
GENIUS_GENOLIS_13
 70
     0
  0
APPID
  5
6CE
330
9
100
AcDbSymbolTableRecord
100
AcDbRegAppTableRecord
  2
MED_PRIMTYPE
 70
     0
  0
ENDTAB
  0
TABLE
  2
DIMSTYLE
  5
A
330
0
100
AcDbSymbolTable
 70
     1
  0
DIMSTYLE
105
1F0C
102
{ACAD_REACTORS
330
514F
330
515D
330
5175
330
5183
330
5191
330
519F
330
51B6
330
51C4
102
}
330
A
100
AcDbSymbolTableRecord
100
AcDbDimStyleTableRecord
  2
SCHNEIDERELECTRIC_DUAL_BEL
 70
     0
  3
\P{\H0.8x;
  4

  5
SEARROW
  6

  7

 40
0.0
 41
0.07
 42
0.0625
 43
0.38
 44
0.0625
 45
0.001
 46
0.0
 47
0.0
 48
0.0
140
0.1
141
0.09
142
0.0
143
25.4
144
1.0
145
0.0
146
1.0
147
0.04
 71
     0
 72
     0
 73
     1
 74
     1
 75
     0
 76
     0
 77
     0
 78
     4
170
     1
171
     0
172
     0
173
     0
174
     0
175
     0
176
   256
177
   256
178
   256
270
     2
271
     2
272
     2
273
     2
274
     0
340
36
275
     0
280
     0
281
     0
282
     0
283
     1
284
     0
285
     4
286
     0
287
     3
288
     0
  0
ENDTAB
  0
TABLE
  2
BLOCK_RECORD
  5
1
330
0
100
AcDbSymbolTable
 70
    43
  0
BLOCK_RECORD
  5
1F
102
{ACAD_XDICTIONARY
360
73
102
}
330
1
100
AcDbSymbolTableRecord
100
AcDbBlockTableRecord
  2
*MODEL_SPACE
  0
BLOCK_RECORD
  5
1B
102
{ACAD_XDICTIONARY
360
75
102
}
330
1
100
AcDbSymbolTableRecord
100
AcDbBlockTableRecord
  2
*PAPER_SPACE
  0
BLOCK_RECORD
  5
841
330
1
100
AcDbSymbolTableRecord
100
AcDbBlockTableRecord
  2
LOGO-PAD
1001
ACAD
1000
DesignCenter Data
1002
{
1070
     1
1070
     1
1002
}
  0
BLOCK_RECORD
  5
AE5
330
1
100
AcDbSymbolTableRecord
100
AcDbBlockTableRecord
  2
TITLE-PAD
1001
ACAD
1000
DesignCenter Data
1002
{
1070
     1
1070
     1
1002
}
  0
BLOCK_RECORD
  5
E0D
330
1
100
AcDbSymbolTableRecord
100
AcDbBlockTableRecord
  2
SEARROW
1001
ACAD
1000
DesignCenter Data
1002
{
1070
     1
1070
     1
1002
}
  0
BLOCK_RECORD
  5
E42
330
1
100
AcDbSymbolTableRecord
100
AcDbBlockTableRecord
  2
SETUP
1001
ACAD
1000
DesignCenter Data
1002
{
1070
     1
1070
     1
1002
}
  0
BLOCK_RECORD
  5
F54
330
1
100
AcDbSymbolTableRecord
100
AcDbBlockTableRecord
  2
MEDCLUMP_DIM_1475_
  0
BLOCK_RECORD
  5
F57
330
1
100
AcDbSymbolTableRecord
100
AcDbBlockTableRecord
  2
MEDCLUMP_DMS_1474_
  0
BLOCK_RECORD
  5
F5B
330
1
100
AcDbSymbolTableRecord
100
AcDbBlockTableRecord
  2
MEDCLUMP_DIM_1451_
  0
BLOCK_RECORD
  5
F5E
330
1
100
AcDbSymbolTableRecord
100
AcDbBlockTableRecord
  2
MEDCLUMP_DMS_1450_
  0
BLOCK_RECORD
  5
F62
330
1
100
AcDbSymbolTableRecord
100
AcDbBlockTableRecord
  2
MEDCLUMP_DIM_1143_
  0
BLOCK_RECORD
  5
F65
330
1
100
AcDbSymbolTableRecord
100
AcDbBlockTableRecord
  2
MEDCLUMP_DMS_1142_
  0
BLOCK_RECORD
  5
269D
330
1
100
AcDbSymbolTableRecord
100
AcDbBlockTableRecord
  2
0SETUP
  0
BLOCK_RECORD
  5
454C
330
1
100
AcDbSymbolTableRecord
100
AcDbBlockTableRecord
  2
M_PFN_100
  0
BLOCK_RECORD
  5
4BDC
330
1
100
AcDbSymbolTableRecord
100
AcDbBlockTableRecord
  2
M_PFN_101
  0
BLOCK_RECORD
  5
5150
330
1
100
AcDbSymbolTableRecord
100
AcDbBlockTableRecord
  2
*D13
  0
BLOCK_RECORD
  5
515E
330
1
100
AcDbSymbolTableRecord
100
AcDbBlockTableRecord
  2
*D14
  0
BLOCK_RECORD
  5
5176
330
1
100
AcDbSymbolTableRecord
100
AcDbBlockTableRecord
  2
*D15
  0
BLOCK_RECORD
  5
5184
330
1
100
AcDbSymbolTableRecord
100
AcDbBlockTableRecord
  2
*D16
  0
BLOCK_RECORD
  5
5192
330
1
100
AcDbSymbolTableRecord
100
AcDbBlockTableRecord
  2
*D17
  0
BLOCK_RECORD
  5
51A0
330
1
100
AcDbSymbolTableRecord
100
AcDbBlockTableRecord
  2
*D18
  0
BLOCK_RECORD
  5
51B7
330
1
100
AcDbSymbolTableRecord
100
AcDbBlockTableRecord
  2
*D19
  0
BLOCK_RECORD
  5
51C5
330
1
100
AcDbSymbolTableRecord
100
AcDbBlockTableRecord
  2
*D20
  0
BLOCK_RECORD
  5
5A39
330
1
100
AcDbSymbolTableRecord
100
AcDbBlockTableRecord
  2
*D28
  0
BLOCK_RECORD
  5
5A46
330
1
100
AcDbSymbolTableRecord
100
AcDbBlockTableRecord
  2
*D29
  0
BLOCK_RECORD
  5
5A53
330
1
100
AcDbSymbolTableRecord
100
AcDbBlockTableRecord
  2
*D30
  0
BLOCK_RECORD
  5
5A60
330
1
100
AcDbSymbolTableRecord
100
AcDbBlockTableRecord
  2
*D31
  0
BLOCK_RECORD
  5
5A6C
330
1
100
AcDbSymbolTableRecord
100
AcDbBlockTableRecord
  2
*D32
  0
BLOCK_RECORD
  5
5A79
330
1
100
AcDbSymbolTableRecord
100
AcDbBlockTableRecord
  2
*D33
  0
BLOCK_RECORD
  5
5A86
330
1
100
AcDbSymbolTableRecord
100
AcDbBlockTableRecord
  2
*D34
  0
BLOCK_RECORD
  5
5A94
330
1
100
AcDbSymbolTableRecord
100
AcDbBlockTableRecord
  2
3046
1001
ACAD
1000
DesignCenter Data
1002
{
1070
     1
1070
     1
1002
}
  0
ENDTAB
  0
ENDSEC
  0
SECTION
  2
BLOCKS
  0
BLOCK
  5
20
330
1F
100
AcDbEntity
  8
0
100
AcDbBlockBegin
  2
*MODEL_SPACE
 70
     0
 10
0.0
 20
0.0
 30
0.0
  3
*MODEL_SPACE
  1

  0
ENDBLK
  5
21
330
1F
100
AcDbEntity
  8
0
100
AcDbBlockEnd
  0
BLOCK
  5
1C
330
1B
100
AcDbEntity
 67
     1
  8
0
100
AcDbBlockBegin
  2
*PAPER_SPACE
 70
     0
 10
0.0
 20
0.0
 30
0.0
  3
*PAPER_SPACE
  1

  0
ENDBLK
  5
1D
330
1B
100
AcDbEntity
 67
     1
  8
0
100
AcDbBlockEnd
  0
BLOCK
  5
852
330
841
100
AcDbEntity
  8
0
100
AcDbBlockBegin
  2
LOGO-PAD
 70
     0
 10
0.0
 20
0.0
 30
0.0
  3
LOGO-PAD
  1

  0
HATCH
  5
842
330
841
100
AcDbEntity
  8
TITLEBLOCK
 62
     0
100
AcDbHatch
 10
0.0
 20
0.0
 30
0.0
210
0.0
220
0.0
230
1.0
  2
SOLID
 70
     1
 71
     0
 91
        2
 92
        1
 93
       11
 72
     2
 10
1.203771209334867
 20
0.3650136751459491
 40
0.021562648149145
 50
90.00000747299615
 51
179.9997683268519
 73
     1
 72
     1
 10
1.182208561185898
 20
0.3650137623336376
 11
1.182208392435807
 21
0.2795138227272444
 72
     2
 10
1.203771079023129
 20
0.2795136821032751
 40
0.0215626865877801
 50
179.9996263378447
 51
269.9998903896797
 73
     1
 72
     1
 10
1.203771037772394
 20
0.2579509955155343
 11
1.330521045577125
 21
0.2579511736405264
 72
     2
 10
1.330521265257171
 20
0.2795136382789064
 40
0.021562464639499
 50
269.9994162661957
 51
311.7040125634689
 73
     1
 72
     1
 10
1.344866398698837
 20
0.2634152834601535
 11
1.352083334663557
 21
0.2579511736405264
 72
     1
 10
1.352083334663557
 20
0.2579511736405264
 11
1.365099386916806
 21
0.2751416404960081
 72
     1
 10
1.365099386916806
 20
0.2751416404960081
 11
1.352083522163621
 21
0.284997066934386
 72
     1
 10
1.352083522163621
 20
0.284997066934386
 11
1.352083690913712
 21
0.3650136723335662
 72
     2
 10
1.330521042764654
 20
0.3650136751460369
 40
0.0215626481490576
 50
359.9999925267666
 51
449.9999925267678
 73
     1
 72
     1
 10
1.330521045577125
 20
0.3865763232950938
 11
1.203771206522485
 21
0.3865763232950938
 97
        0
 92
       16
 93
       10
 72
     2
 10
1.21455271481628
 20
0.3542325202904111
 40
0.0107811520434708
 50
90.00043844291294
 51
179.9999701074038
 73
     1
 72
     1
 10
1.203771562772811
 20
0.3542325259151993
 11
1.203771562772811
 21
0.2902950591455122
 72
     2
 10
1.214552849813946
 20
0.2902948416431456
 40
0.0107812870433294
 50
179.9988441113203
 51
269.9988441346395
 73
     1
 72
     1
 10
1.214552632315967
 20
0.2795135546020104
 11
1.323606134809704
 21
0.2795135546020104
 72
     1
 10
1.323606134809704
 20
0.2795135546020104
 11
1.280867956889135
 21
0.311873265117333
 72
     1
 10
1.280867956889135
 20
0.311873265117333
 11
1.293884009142384
 21
0.3290635557226322
 72
     1
 10
1.293884009142384
 20
0.3290635557226322
 11
1.330521045577125
 21
0.3013240413506308
 72
     1
 10
1.330521045577125
 20
0.3013240413506308
 11
1.330521045577125
 21
0.3542324377902786
 72
     2
 10
1.319739809158772
 20
0.3542324359152127
 40
0.0107812364183532
 50
0.0000099648460607
 51
90.00000996484372
 73
     1
 72
     1
 10
1.319739807283706
 20
0.3650136723335662
 11
1.214552632315967
 21
0.3650136723335662
 97
        0
 75
     0
 76
     1
 98
        1
 10
-7.279586802153931
 20
-0.4081141432880261
  0
HATCH
  5
843
330
841
100
AcDbEntity
  8
TITLEBLOCK
 62
     0
100
AcDbHatch
 10
0.0
 20
0.0
 30
0.0
210
0.0
220
0.0
230
1.0
  2
SOLID
 70
     1
 71
     0
 91
        1
 92
        1
 93
        4
 72
     1
 10
3.703333445713536
 20
0.1990762889281312
 11
1.018147379006204
 21
0.1990762889281312
 72
     1
 10
1.018147379006204
 20
0.1990762889281312
 11
1.018147379006204
 21
0.220706173683743
 72
     1
 10
1.018147379006204
 20
0.220706173683743
 11
3.703333445713536
 21
0.220706173683743
 72
     1
 10
3.703333445713536
 20
0.220706173683743
 11
3.703333445713536
 21
0.1990762889281312
 97
        0
 75
     0
 76
     1
 98
        1
 10
-7.279586802153931
 20
-0.4081141432880261
  0
HATCH
  5
844
330
841
100
AcDbEntity
  8
TITLEBLOCK
 62
     0
100
AcDbHatch
 10
0.0
 20
0.0
 30
0.0
210
0.0
220
0.0
230
1.0
  2
SOLID
 70
     1
 71
     0
 91
        4
 92
        1
 93
        4
 72
     1
 10
0.8306472632318495
 20
0.4814782717956759
 11
0.4556470182475714
 21
0.4814782717956759
 72
     1
 10
0.4556470182475714
 20
0.4814782717956759
 11
0.4556470182475714
 21
0.1064783844396073
 72
     1
 10
0.4556470182475714
 20
0.1064783844396073
 11
0.8306472632318495
 21
0.1064783844396073
 72
     1
 10
0.8306472632318495
 20
0.1064783844396073
 11
0.8306472632318495
 21
0.4814782717956759
 97
        0
 92
        0
 93
       10
 72
     1
 10
0.7368972019857374
 20
0.4177282462416896
 11
0.5193971779121789
 21
0.4177282462416896
 72
     1
 10
0.5193971779121789
 20
0.4177282462416896
 11
0.5193971779121789
 21
0.37460312508514
 72
     1
 10
0.5193971779121789
 20
0.37460312508514
 11
0.5531473465883146
 21
0.37460312508514
 72
     1
 10
0.5531473465883146
 20
0.37460312508514
 11
0.5531473465883146
 21
0.2133535311501431
 72
     1
 10
0.5531473465883146
 20
0.2133535311501431
 11
0.5193971779121789
 21
0.2133535311501431
 72
     1
 10
0.5193971779121789
 20
0.2133535311501431
 11
0.5193971779121789
 21
0.1702282758831428
 72
     1
 10
0.5193971779121789
 20
0.1702282758831428
 11
0.7368972019857374
 21
0.1702282758831428
 72
     1
 10
0.7368972019857374
 20
0.1702282758831428
 11
0.7668970141602749
 21
0.2002283115750982
 72
     1
 10
0.7668970141602749
 20
0.2002283115750982
 11
0.7668970141602749
 21
0.3877281658462506
 72
     1
 10
0.7668970141602749
 20
0.3877281658462506
 11
0.7368972019857374
 21
0.4177282462416896
 97
        0
 92
       16
 93
        4
 72
     1
 10
0.7987720492890098
 20
0.4496031025563197
 11
0.4875220533764768
 21
0.4496031025563197
 72
     1
 10
0.4875220533764768
 20
0.4496031025563197
 11
0.4875220533764768
 21
0.1383533301613751
 72
     1
 10
0.4875220533764768
 20
0.1383533301613751
 11
0.7987720492890098
 21
0.1383533301613751
 72
     1
 10
0.7987720492890098
 20
0.1383533301613751
 11
0.7987720492890098
 21
0.4496031025563197
 97
        0
 92
        0
 93
        4
 72
     1
 10
0.5962724677448641
 20
0.37460312508514
 11
0.5962724677448641
 21
0.2133535311501431
 72
     1
 10
0.5962724677448641
 20
0.2133535311501431
 11
0.7237719824106926
 21
0.2133535311501431
 72
     1
 10
0.7237719824106926
 20
0.2133535311501431
 11
0.7237719824106926
 21
0.37460312508514
 72
     1
 10
0.7237719824106926
 20
0.37460312508514
 11
0.5962724677448641
 21
0.37460312508514
 97
        0
 75
     0
 76
     1
 98
        1
 10
-7.279586802153931
 20
-0.313212194787444
  0
HATCH
  5
845
330
841
100
AcDbEntity
  8
TITLEBLOCK
 62
     0
100
AcDbHatch
 10
0.0
 20
0.0
 30
0.0
210
0.0
220
0.0
230
1.0
  2
SOLID
 70
     1
 71
     0
 91
        1
 92
        1
 93
       26
 72
     1
 10
1.050490193885575
 20
0.3650136723335662
 11
1.138990457951802
 21
0.3650136723335662
 72
     2
 10
1.138990281703138
 20
0.3542326140418093
 40
0.0107810582931976
 50
270.0009366709926
 51
360.0009366862294
 73
     0
 72
     1
 10
1.149771339994895
 20
0.3542324377902786
 11
1.171333797831589
 21
0.3542324377902786
 72
     1
 10
1.171333797831589
 20
0.3542324377902786
 11
1.171333797831589
 21
0.3650136723335662
 72
     2
 10
1.149771243432702
 20
0.365013768896207
 40
0.0215625543991033
 50
359.9997434148255
 51
449.9997434160159
 73
     1
 72
     1
 10
1.149771339994895
 20
0.3865763232950938
 11
1.039708786842066
 21
0.3865763232950938
 72
     2
 10
1.039709408398413
 20
0.3650142939052909
 40
0.0215620293987615
 50
90.00165163282177
 51
180.0014125206716
 73
     1
 72
     1
 10
1.018147379006204
 20
0.3650137623336376
 11
1.018147379006204
 21
0.3334199129435318
 72
     2
 10
1.039709363397143
 20
0.3334193363730153
 40
0.0215619843986475
 50
179.9984679027414
 51
269.9984679437668
 73
     1
 72
     1
 10
1.039708786842066
 20
0.3118573519820755
 11
1.138990457951802
 21
0.311857620107139
 72
     2
 10
1.138990280765661
 20
0.3010765608779043
 40
0.0107810592306907
 50
270.0009416531222
 51
360.0009416684906
 73
     0
 72
     1
 10
1.149771339994895
 20
0.3010763836888712
 11
1.149771508744986
 21
0.2902949691454408
 72
     2
 10
1.138990231076649
 20
0.2902948322713164
 40
0.0107812776692067
 50
359.9992725992319
 51
449.9997907459082
 73
     0
 72
     1
 10
1.138990270451738
 20
0.279513554602181
 11
1.050490193885575
 21
0.2795135546020104
 72
     2
 10
1.05049014888543
 20
0.2902951041454384
 40
0.0107815495435218
 50
89.99976085826782
 51
179.9997608594354
 73
     0
 72
     1
 10
1.039708599342002
 20
0.2902950591455122
 11
1.018147379006204
 21
0.2902950591455122
 72
     1
 10
1.018147379006204
 20
0.2902950591455122
 11
1.018147379006204
 21
0.2795138227272444
 72
     2
 10
1.039709273392517
 20
0.2795130680345569
 40
0.0215618943995203
 50
179.9979945776083
 51
269.9987071039827
 73
     1
 72
     1
 10
1.039708786842066
 20
0.2579511736405264
 11
1.149771339994895
 21
0.2579511736405264
 72
     2
 10
1.149771378432784
 20
0.2795135930396681
 40
0.0215624193991759
 50
269.9998978626289
 51
359.9996636967671
 73
     1
 72
     1
 10
1.171333797831589
 20
0.2795134664769192
 11
1.171333797831589
 21
0.3114825579869829
 72
     2
 10
1.149771333432362
 20
0.3114825645494808
 40
0.0215624643992288
 50
359.9999825621309
 51
449.9999825620359
 73
     1
 72
     1
 10
1.149771339994895
 20
0.3330450289487088
 11
1.050490193885575
 21
0.3330447608234748
 72
     2
 10
1.050490103885701
 20
0.3438262653667981
 40
0.0107815045436989
 50
89.99952171675776
 51
179.9999900368059
 73
     0
 72
     1
 10
1.039708599342002
 20
0.3438262634919964
 11
1.039708786842066
 21
0.3542325259151993
 72
     2
 10
1.050490107634269
 20
0.3542323515402983
 40
0.0107813207936133
 50
180.0009266903443
 51
270.0004583701697
 73
     0
 97
        0
 75
     0
 76
     1
 98
        1
 10
-7.279586802153931
 20
-0.4081141432880261
  0
HATCH
  5
846
330
841
100
AcDbEntity
  8
TITLEBLOCK
 62
     0
100
AcDbHatch
 10
0.0
 20
0.0
 30
0.0
210
0.0
220
0.0
230
1.0
  2
SOLID
 70
     1
 71
     0
 91
        1
 92
        1
 93
       18
 72
     2
 10
2.471082802883087
 20
0.3650137595211706
 40
0.021562563774099
 50
180.0000074732525
 51
269.9997683261728
 73
     0
 72
     1
 10
2.471082715695484
 20
0.3865763232950938
 11
2.586957622645552
 21
0.3865763232950938
 72
     2
 10
2.586957713583391
 20
0.3650135813961111
 40
0.0215627418991744
 50
269.9997583630888
 51
359.999758364108
 73
     0
 72
     1
 10
2.608520455482373
 20
0.3650136723335662
 11
2.608520455482373
 21
0.3542324377902786
 72
     1
 10
2.608520455482373
 20
0.3542324377902786
 11
2.586957622645552
 21
0.3542324377902786
 72
     2
 10
2.576176208103625
 20
0.3542322577916381
 40
0.0107814145434302
 50
0.0009565685814303
 51
90.00095658455173
 73
     1
 72
     1
 10
2.576176028101979
 20
0.3650136723335662
 11
2.481864141488966
 21
0.3650136723335662
 72
     2
 10
2.481864045863444
 20
0.3542323421656055
 40
0.0107813301683848
 50
89.99949181235312
 51
179.9994918168631
 73
     1
 72
     1
 10
2.471082715695484
 20
0.3542324377902786
 11
2.471082715695484
 21
0.2902950591455122
 72
     2
 10
2.481864090863785
 20
0.2902951097704554
 40
0.0107813751684203
 50
180.0002690376259
 51
270.0002690388874
 73
     1
 72
     1
 10
2.481864141488966
 20
0.2795137346021532
 11
2.576176028101979
 21
0.2795135546020104
 72
     2
 10
2.576176073102679
 20
0.2902951041456355
 40
0.010781549543719
 50
269.9997608553225
 51
359.9992825760937
 73
     1
 72
     1
 10
2.586957622645552
 20
0.2902949691454408
 11
2.608520455482373
 21
0.2902950591455122
 72
     1
 10
2.608520455482373
 20
0.2902950591455122
 11
2.608520099232048
 21
0.2795134664769192
 72
     2
 10
2.586957670458414
 20
0.2795136024145366
 40
0.0215624287740632
 50
0.0003612140281018
 51
90.00012704854281
 73
     0
 72
     1
 10
2.586957622645552
 20
0.2579511736405264
 11
2.471082715695484
 21
0.2579511736405264
 72
     2
 10
2.471082667882924
 20
0.2795136024144634
 40
0.02156242877399
 50
89.99987295225965
 51
179.9998729525419
 73
     0
 72
     1
 10
2.449520239108988
 20
0.2795135546020104
 11
2.449520239108988
 21
0.3650137623336376
 97
        0
 75
     0
 76
     1
 98
        1
 10
-7.279586802153931
 20
-0.4081141432880261
  0
HATCH
  5
847
330
841
100
AcDbEntity
  8
TITLEBLOCK
 62
     0
100
AcDbHatch
 10
0.0
 20
0.0
 30
0.0
210
0.0
220
0.0
230
1.0
  2
SOLID
 70
     1
 71
     0
 91
        1
 92
        1
 93
       12
 72
     1
 10
2.026708344139745
 20
0.3865765014202565
 11
1.890208311215626
 21
0.3865765014202565
 72
     1
 10
1.890208311215626
 20
0.3865765014202565
 11
1.890208311215626
 21
0.2579511736405264
 72
     1
 10
1.890208311215626
 20
0.2579511736405264
 11
2.026708344139745
 21
0.2579511736405264
 72
     1
 10
2.026708344139745
 20
0.2579511736405264
 11
2.026708344139745
 21
0.2795135546020104
 72
     1
 10
2.026708344139745
 20
0.2795135546020104
 11
1.911770600302059
 21
0.2795135546020104
 72
     1
 10
1.911770600302059
 20
0.2795135546020104
 11
1.911770600302059
 21
0.3114825579869829
 72
     1
 10
1.911770600302059
 20
0.3114825579869829
 11
2.026708344139745
 21
0.3114825579869829
 72
     1
 10
2.026708344139745
 20
0.3114825579869829
 11
2.026708344139745
 21
0.333044848948566
 72
     1
 10
2.026708344139745
 20
0.333044848948566
 11
1.911770600302059
 21
0.333044848948566
 72
     1
 10
1.911770600302059
 20
0.333044848948566
 11
1.911770600302059
 21
0.3650136723335662
 72
     1
 10
1.911770600302059
 20
0.3650136723335662
 11
2.026708344139745
 21
0.3650136723335662
 72
     1
 10
2.026708344139745
 20
0.3650136723335662
 11
2.026708344139745
 21
0.3865765014202565
 97
        0
 75
     0
 76
     1
 98
        1
 10
-7.279586802153931
 20
-0.4081141432880261
  0
HATCH
  5
848
330
841
100
AcDbEntity
  8
TITLEBLOCK
 62
     0
100
AcDbHatch
 10
0.0
 20
0.0
 30
0.0
210
0.0
220
0.0
230
1.0
  2
SOLID
 70
     1
 71
     0
 91
        2
 92
        1
 93
        8
 72
     1
 10
1.614830743814064
 20
0.3865765014202565
 11
1.531145595393223
 21
0.2579509955155343
 72
     1
 10
1.531145595393223
 20
0.2579509955155343
 11
1.556870855949323
 21
0.2579511736405264
 72
     1
 10
1.556870855949323
 20
0.2579511736405264
 11
1.570898996363819
 21
0.2795135546020104
 72
     1
 10
1.570898996363819
 20
0.2795135546020104
 11
1.673830432358027
 21
0.2795135546020104
 72
     1
 10
1.673830432358027
 20
0.2795135546020104
 11
1.687858760272586
 21
0.2579514417655899
 72
     1
 10
1.687858760272586
 20
0.2579514417655899
 11
1.713583120827973
 21
0.2579514417655899
 72
     1
 10
1.713583120827973
 20
0.2579514417655899
 11
1.629898141157394
 21
0.3865765014202565
 72
     1
 10
1.629898141157394
 20
0.3865765014202565
 11
1.614830743814064
 21
0.3865765014202565
 97
        0
 92
       16
 93
        3
 72
     1
 10
1.622364536235675
 20
0.3586169575295115
 11
1.659801223192726
 21
0.3010763836888712
 72
     1
 10
1.659801223192726
 20
0.3010763836888712
 11
1.584928205528949
 21
0.3010762055637086
 72
     1
 10
1.584928205528949
 20
0.3010762055637086
 11
1.622364348735612
 21
0.3586165994043766
 97
        0
 75
     0
 76
     1
 98
        1
 10
-7.279586802153931
 20
-0.4081141432880261
  0
HATCH
  5
849
330
841
100
AcDbEntity
  8
TITLEBLOCK
 62
     0
100
AcDbHatch
 10
0.0
 20
0.0
 30
0.0
210
0.0
220
0.0
230
1.0
  2
SOLID
 70
     1
 71
     0
 91
        1
 92
        1
 93
       12
 72
     1
 10
1.392021104504447
 20
0.3865765014202565
 11
1.370458815418015
 21
0.3865765014202565
 72
     1
 10
1.370458815418015
 20
0.3865765014202565
 11
1.370458627917951
 21
0.2795138227272444
 72
     2
 10
1.39202114575308
 20
0.2795135133528436
 40
0.0215625178373483
 50
179.999177932392
 51
269.9998903944058
 73
     1
 72
     1
 10
1.392021104504447
 20
0.2579509955155343
 11
1.509583287556818
 21
0.2579511736405264
 72
     2
 10
1.509583335369764
 20
0.2795136024146219
 40
0.0215624287741484
 50
269.9998729512306
 51
359.9996387857453
 73
     1
 72
     1
 10
1.531145764143484
 20
0.2795134664769192
 11
1.531146120393639
 21
0.3865765014202565
 72
     1
 10
1.531146120393639
 20
0.3865765014202565
 11
1.509583287556818
 21
0.3865765014202565
 72
     1
 10
1.509583287556818
 20
0.3865765014202565
 11
1.509583287556818
 21
0.2902950591455122
 72
     2
 10
1.498801916139266
 20
0.290294926019563
 40
0.0107813714183743
 50
359.9992925246018
 51
449.9992925333428
 73
     0
 72
     1
 10
1.49880204926357
 20
0.2795135546020104
 11
1.402802342797695
 21
0.2795135546020104
 72
     2
 10
1.402802382172719
 20
0.2902950197703451
 40
0.0107814651684066
 50
90.00020925010334
 51
180.0002092508632
 73
     0
 72
     1
 10
1.392020917004384
 20
0.2902950591455122
 11
1.392021104504447
 21
0.3865765014202565
 97
        0
 75
     0
 76
     1
 98
        1
 10
-7.279586802153931
 20
-0.4081141432880261
  0
HATCH
  5
84A
330
841
100
AcDbEntity
  8
TITLEBLOCK
 62
     0
100
AcDbHatch
 10
0.0
 20
0.0
 30
0.0
210
0.0
220
0.0
230
1.0
  2
SOLID
 70
     1
 71
     0
 91
        2
 92
        1
 93
       13
 72
     2
 10
1.851958289039648
 20
0.2899198104641797
 40
0.0215625675244637
 50
0.0002565813902296
 51
90.00070498518821
 73
     1
 72
     2
 10
1.851958289040149
 20
0.3330449455099156
 40
0.0215625675245372
 50
269.9992950134807
 51
359.9995092535441
 73
     1
 72
     1
 10
1.873520856563896
 20
0.3330447608234748
 11
1.873520856563896
 21
0.3650136657708798
 72
     2
 10
1.851957894958188
 20
0.3650135398162329
 40
0.0215629616060761
 50
0.0003346789653151
 51
89.99920945081219
 73
     1
 72
     1
 10
1.851958192477166
 20
0.3865765014202565
 11
1.720333350237904
 21
0.3865765014202565
 72
     1
 10
1.720333350237904
 20
0.3865765014202565
 11
1.720333350237904
 21
0.2579511736405264
 72
     1
 10
1.720333350237904
 20
0.2579511736405264
 11
1.741896183074725
 21
0.2579511736405264
 72
     1
 10
1.741896183074725
 20
0.2579511736405264
 11
1.741896183074725
 21
0.3007013215688856
 72
     1
 10
1.741896183074725
 20
0.3007013215688856
 11
1.841176785433827
 21
0.3007013215688856
 72
     2
 10
1.841176693559081
 20
0.2899201789011263
 40
0.0107811426681508
 50
270.0004882631974
 51
360.0004882673548
 73
     0
 72
     1
 10
1.851957836226841
 20
0.289920087025598
 11
1.851958192477166
 21
0.2579511736405264
 72
     1
 10
1.851958192477166
 20
0.2579511736405264
 11
1.873520856563896
 21
0.2579511736405264
 72
     1
 10
1.873520856563896
 20
0.2579511736405264
 11
1.873520856563896
 21
0.2899199070254552
 97
        0
 92
       16
 93
        6
 72
     2
 10
1.841176693559081
 20
0.3542325296658069
 40
0.0107811426681508
 50
270.0004882631974
 51
360.0004882673548
 73
     0
 72
     1
 10
1.851957836226841
 20
0.3542324377902786
 11
1.851958192477166
 21
0.333044848948566
 72
     2
 10
1.841176871684197
 20
0.333044935198247
 40
0.0107813207933138
 50
0.0004583615308307
 51
90.00045836519477
 73
     0
 72
     1
 10
1.841176785433827
 20
0.3222636144052784
 11
1.741896183074725
 21
0.3222638825303419
 72
     1
 10
1.741896183074725
 20
0.3222638825303419
 11
1.741896183074725
 21
0.3650136723335662
 72
     1
 10
1.741896183074725
 20
0.3650136723335662
 11
1.841176785433827
 21
0.3650136723335662
 97
        0
 75
     0
 76
     1
 98
        1
 10
-7.279586802153931
 20
-0.4081141432880261
  0
HATCH
  5
84B
330
841
100
AcDbEntity
  8
TITLEBLOCK
 62
     0
100
AcDbHatch
 10
0.0
 20
0.0
 30
0.0
210
0.0
220
0.0
230
1.0
  2
SOLID
 70
     1
 71
     0
 91
        2
 92
        1
 93
       10
 72
     1
 10
2.168832611988261
 20
0.3650136723335662
 11
2.168832611988261
 21
0.2795135546021492
 72
     1
 10
2.168832611988261
 20
0.2795135546021492
 11
2.148020079641632
 21
0.2795135546021492
 72
     1
 10
2.148020079641632
 20
0.2795135546021492
 11
2.148020079641632
 21
0.2579511736406499
 72
     1
 10
2.148020079641632
 20
0.2579511736406499
 11
2.314895263659607
 21
0.2579511736406499
 72
     2
 10
2.314895311472477
 20
0.2795136024147182
 40
0.0215624287741214
 50
269.9998729514336
 51
359.9996387859474
 73
     1
 72
     1
 10
2.336457740246171
 20
0.2795134664770916
 11
2.336457740246171
 21
0.3650136723335662
 72
     2
 10
2.314895087410214
 20
0.3650138485844006
 40
0.0215626528366775
 50
359.9995316703829
 51
449.999531674211
 73
     1
 72
     1
 10
2.314895263659607
 20
0.386576501420358
 11
2.148020079641632
 21
0.386576501420358
 72
     1
 10
2.148020079641632
 20
0.386576501420358
 11
2.148020079641632
 21
0.3650136723335662
 72
     1
 10
2.148020079641632
 20
0.3650136723335662
 11
2.168832611988261
 21
0.3650136723335662
 97
        0
 92
       16
 93
        6
 72
     1
 10
2.190395257324933
 20
0.3650136723335662
 11
2.304113856616218
 21
0.3650136723335662
 72
     2
 10
2.304113942866619
 20
0.3542323515405775
 40
0.0107813207933337
 50
269.9995416346447
 51
359.9995416383139
 73
     0
 72
     1
 10
2.314895263659607
 20
0.3542324377902877
 11
2.314895263659607
 21
0.2902949691455452
 72
     2
 10
2.304113807866077
 20
0.2902950103956483
 40
0.0107814557936096
 50
0.0002192149982456
 51
89.99974092762393
 73
     0
 72
     1
 10
2.304113856616218
 20
0.2795135546021492
 11
2.190395257324933
 21
0.2795135546021492
 72
     1
 10
2.190395257324933
 20
0.2795135546021492
 11
2.190395257324933
 21
0.3650136723335662
 97
        0
 75
     0
 76
     1
 98
        1
 10
-7.279586802153931
 20
-0.4081141432880261
  0
HATCH
  5
84C
330
841
100
AcDbEntity
  8
TITLEBLOCK
 62
     0
100
AcDbHatch
 10
0.0
 20
0.0
 30
0.0
210
0.0
220
0.0
230
1.0
  2
SOLID
 70
     1
 71
     0
 91
        2
 92
        1
 93
        8
 72
     1
 10
3.241392303571654
 20
0.3865765014202565
 11
3.157707226761072
 21
0.2579509955155343
 72
     1
 10
3.157707226761072
 20
0.2579509955155343
 11
3.183432299816939
 21
0.2579511736405264
 72
     1
 10
3.183432299816939
 20
0.2579511736405264
 11
3.197460983981823
 21
0.2795133764768478
 72
     1
 10
3.197460983981823
 20
0.2795133764768478
 11
3.30039082622498
 21
0.2795135546020104
 72
     1
 10
3.30039082622498
 20
0.2795135546020104
 11
3.314419679139785
 21
0.2579514417655899
 72
     1
 10
3.314419679139785
 20
0.2579514417655899
 11
3.340144583445731
 21
0.2579511736405264
 72
     1
 10
3.340144583445731
 20
0.2579511736405264
 11
3.256459603774981
 21
0.3865765014202565
 72
     1
 10
3.256459603774981
 20
0.3865765014202565
 11
3.241392303571654
 21
0.3865765014202565
 97
        0
 92
       16
 93
        3
 72
     1
 10
3.248925740352245
 20
0.358616778466603
 11
3.211489480646473
 21
0.3010762055637086
 72
     1
 10
3.211489480646473
 20
0.3010762055637086
 11
3.28636178580994
 21
0.3010763836888712
 72
     1
 10
3.28636178580994
 20
0.3010763836888712
 11
3.248925740352245
 21
0.358616778466603
 97
        0
 75
     0
 76
     1
 98
        1
 10
-7.279586802153931
 20
-0.4081141432880261
  0
HATCH
  5
84D
330
841
100
AcDbEntity
  8
TITLEBLOCK
 62
     0
100
AcDbHatch
 10
0.0
 20
0.0
 30
0.0
210
0.0
220
0.0
230
1.0
  2
SOLID
 70
     1
 71
     0
 91
        1
 92
        1
 93
       13
 72
     1
 10
2.838488736968525
 20
0.3865765014202565
 11
2.806145209588674
 21
0.3865765014202565
 72
     1
 10
2.806145209588674
 20
0.3865765014202565
 11
2.806145209588674
 21
0.2579511736405264
 72
     1
 10
2.806145209588674
 20
0.2579511736405264
 11
2.827707667425368
 21
0.2579511736405264
 72
     1
 10
2.827707667425368
 20
0.2579511736405264
 11
2.827707667425368
 21
0.3640633654626753
 72
     1
 10
2.827707667425368
 20
0.3640633654626753
 11
2.899718420719221
 21
0.2579514417655899
 72
     1
 10
2.899718420719221
 20
0.2579514417655899
 11
2.922570860648686
 21
0.2579511736405264
 72
     1
 10
2.922570860648686
 20
0.2579511736405264
 11
2.994582138942956
 21
0.3640642598382782
 72
     1
 10
2.994582138942956
 20
0.3640642598382782
 11
2.994582138942956
 21
0.2579511736405264
 72
     1
 10
2.994582138942956
 20
0.2579511736405264
 11
3.016144596779479
 21
0.2579511736405264
 72
     1
 10
3.016144596779479
 20
0.2579511736405264
 11
3.016144596779479
 21
0.3865765014202565
 72
     1
 10
3.016144596779479
 20
0.3865765014202565
 11
2.983801425649954
 21
0.3865765014202565
 72
     1
 10
2.983801425649954
 20
0.3865765014202565
 11
2.911144640683954
 21
0.2795135546020104
 72
     1
 10
2.911144640683954
 20
0.2795135546020104
 11
2.838488380718199
 21
0.3865765014202565
 97
        0
 75
     0
 76
     1
 98
        1
 10
-7.279586802153931
 20
-0.4081141432880261
  0
HATCH
  5
84E
330
841
100
AcDbEntity
  8
TITLEBLOCK
 62
     0
100
AcDbHatch
 10
0.0
 20
0.0
 30
0.0
210
0.0
220
0.0
230
1.0
  2
SOLID
 70
     1
 71
     0
 91
        2
 92
        1
 93
        8
 72
     1
 10
2.79358243888161
 20
0.2795134664769192
 11
2.793582795131936
 21
0.3650136723335662
 72
     2
 10
2.772020240733041
 20
0.3650137688961994
 40
0.0215625543991104
 50
359.9997434148459
 51
449.999743415997
 73
     1
 72
     1
 10
2.772020337295241
 20
0.3865763232950938
 11
2.640957676673206
 21
0.3865763232950938
 72
     2
 10
2.640957763860811
 20
0.3650137595211699
 40
0.0215625637741002
 50
90.00023167383188
 51
179.9999925267453
 73
     1
 72
     1
 10
2.61939520008671
 20
0.3650137623336376
 11
2.61939520008671
 21
0.2795135546020104
 72
     2
 10
2.640957628860649
 20
0.2795136024144641
 40
0.0215624287739915
 50
180.0001270474597
 51
270.0001270477355
 73
     1
 72
     1
 10
2.640957676673206
 20
0.2579511736405264
 11
2.772020337295241
 21
0.2579511736405264
 72
     2
 10
2.772020197607671
 20
0.2795134149140743
 40
0.0215622412740004
 50
270.000371181646
 51
360.000137014207
 73
     1
 97
        0
 92
       16
 93
        8
 72
     2
 10
2.651738913091431
 20
0.3542324359149649
 40
0.0107812364186015
 50
89.9999900344766
 51
179.999521702949
 73
     1
 72
     1
 10
2.640957676673206
 20
0.3542325259151993
 11
2.640957676673206
 21
0.2902950591455122
 72
     2
 10
2.651738958091508
 20
0.2902950160204556
 40
0.010781281418388
 50
179.9997708172488
 51
269.9997708181704
 73
     1
 72
     1
 10
2.651738914966625
 20
0.2795137346021532
 11
2.761238742751839
 21
0.2795135546020104
 72
     2
 10
2.761238956501978
 20
0.2902951041442614
 40
0.0107815495443698
 50
269.9988640797126
 51
359.9992825833961
 73
     1
 72
     1
 10
2.772020506045503
 20
0.2902949691454408
 11
2.772020337295241
 21
0.3542324377902786
 72
     2
 10
2.761239007127366
 20
0.3542323421656908
 40
0.0107813301682991
 50
0.0005081826837109
 51
90.00050818719378
 73
     1
 72
     1
 10
2.76123891150193
 20
0.3650136723335662
 11
2.651738914966625
 21
0.3650136723335662
 97
        0
 75
     0
 76
     1
 98
        1
 10
-7.279586802153931
 20
-0.4081141432880261
  0
HATCH
  5
84F
330
841
100
AcDbEntity
  8
TITLEBLOCK
 62
     0
100
AcDbHatch
 10
0.0
 20
0.0
 30
0.0
210
0.0
220
0.0
230
1.0
  2
SOLID
 70
     1
 71
     0
 91
        2
 92
        1
 93
        8
 72
     2
 10
3.162769048174736
 20
0.3650134554401196
 40
0.0215630459811904
 50
270.0005663490367
 51
359.9994236862867
 73
     0
 72
     1
 10
3.184332094154836
 20
0.3650136723335662
 11
3.184332094154836
 21
0.3222638825303419
 72
     2
 10
3.162769397256125
 20
0.3222640184675962
 40
0.0215626968991391
 50
0.0003612085718475
 51
90.00036121084693
 73
     0
 72
     1
 10
3.162769261318015
 20
0.3007013215688856
 11
3.052707420665665
 21
0.3007013215688856
 72
     1
 10
3.052707420665665
 20
0.3007013215688856
 11
3.052707420665665
 21
0.2579511736405264
 72
     1
 10
3.052707420665665
 20
0.2579511736405264
 11
3.031144250328662
 21
0.2579511736405264
 72
     1
 10
3.031144250328662
 20
0.2579511736405264
 11
3.031144250328662
 21
0.3865765014202565
 72
     1
 10
3.031144250328662
 20
0.3865765014202565
 11
3.162769261318015
 21
0.3865765014202565
 97
        0
 92
       16
 93
        6
 72
     2
 10
3.151988118650169
 20
0.3542325296657216
 40
0.0107811426682361
 50
270.0004882627443
 51
360.0004882669015
 73
     0
 72
     1
 10
3.162769261318015
 20
0.3542324377902786
 11
3.162769261318015
 21
0.333044848948566
 72
     2
 10
3.151988118650169
 20
0.333044757073123
 40
0.0107811426682367
 50
359.9995117330984
 51
449.9995117372556
 73
     0
 72
     1
 10
3.15198821052483
 20
0.3222636144052784
 11
3.052707420665665
 21
0.3222638825303419
 72
     1
 10
3.052707420665665
 20
0.3222638825303419
 11
3.052707420665665
 21
0.3650136723335662
 72
     1
 10
3.052707420665665
 20
0.3650136723335662
 11
3.15198821052483
 21
0.3650136723335662
 97
        0
 75
     0
 76
     1
 98
        1
 10
-7.279586802153931
 20
-0.4081141432880261
  0
HATCH
  5
850
330
841
100
AcDbEntity
  8
TITLEBLOCK
 62
     0
100
AcDbHatch
 10
0.0
 20
0.0
 30
0.0
210
0.0
220
0.0
230
1.0
  2
SOLID
 70
     1
 71
     0
 91
        1
 92
        1
 93
        9
 72
     1
 10
3.556847887515953
 20
0.3865763232950938
 11
3.525206566844968
 21
0.3865765014202565
 72
     1
 10
3.525206566844968
 20
0.3865765014202565
 11
3.60348814923547
 21
0.3136817019238036
 72
     1
 10
3.60348814923547
 20
0.3136817019238036
 11
3.603486349234383
 21
0.2579511736405264
 72
     1
 10
3.603486349234383
 20
0.2579511736405264
 11
3.625050607072164
 21
0.2579511736405264
 72
     1
 10
3.625050607072164
 20
0.2579511736405264
 11
3.625050607072164
 21
0.3136813437984982
 72
     1
 10
3.625050607072164
 20
0.3136813437984982
 11
3.703331833212512
 21
0.3865766795454191
 72
     1
 10
3.703331833212512
 20
0.3865766795454191
 11
3.671691225042007
 21
0.3865765014202565
 72
     1
 10
3.671691225042007
 20
0.3865765014202565
 11
3.61426955627898
 21
0.3331056458632473
 72
     1
 10
3.61426955627898
 20
0.3331056458632473
 11
3.556847887515953
 21
0.3865763232950938
 97
        0
 75
     0
 76
     1
 98
        1
 10
-7.279586802153931
 20
-0.4081141432880261
  0
HATCH
  5
851
330
841
100
AcDbEntity
  8
TITLEBLOCK
 62
     0
100
AcDbHatch
 10
0.0
 20
0.0
 30
0.0
210
0.0
220
0.0
230
1.0
  2
SOLID
 70
     1
 71
     0
 91
        1
 92
        1
 93
       10
 72
     1
 10
3.376247484495632
 20
0.3865765014202565
 11
3.345207161752892
 21
0.3865765014202565
 72
     1
 10
3.345207161752892
 20
0.3865765014202565
 11
3.345207161752892
 21
0.2579511736405264
 72
     1
 10
3.345207161752892
 20
0.2579511736405264
 11
3.366769638339558
 21
0.2579511736405264
 72
     1
 10
3.366769638339558
 20
0.2579511736405264
 11
3.366769638339558
 21
0.3659393041881229
 72
     1
 10
3.366769638339558
 20
0.3659393041881229
 11
3.48273627034943
 21
0.2579509955155343
 72
     1
 10
3.48273627034943
 20
0.2579509955155343
 11
3.515082122730785
 21
0.2579511736405264
 72
     1
 10
3.515082122730785
 20
0.2579511736405264
 11
3.515082122730785
 21
0.3865765014202565
 72
     1
 10
3.515082122730785
 20
0.3865765014202565
 11
3.49351767739277
 21
0.3865765014202565
 72
     1
 10
3.49351767739277
 20
0.3865765014202565
 11
3.49351767739277
 21
0.277374671329744
 72
     1
 10
3.49351767739277
 20
0.277374671329744
 11
3.376247484495632
 21
0.3865765014202565
 97
        0
 75
     0
 76
     1
 98
        1
 10
-7.279586802153931
 20
-0.4081141432880261
  0
ENDBLK
  5
853
330
841
100
AcDbEntity
  8
0
100
AcDbBlockEnd
  0
BLOCK
  5
AF5
330
AE5
100
AcDbEntity
  8
0
100
AcDbBlockBegin
  2
TITLE-PAD
 70
     2
 10
0.0
 20
0.0
 30
0.0
  3
TITLE-PAD
  1

  0
LWPOLYLINE
  5
B1D
330
AE5
100
AcDbEntity
  8
CONTINUOUS2
 62
     0
100
AcDbPolyline
 90
        7
 70
     1
 43
0.0
 10
16.40000099999999
 20
0.0
 10
16.40000099999999
 20
0.0
 10
16.40000099999999
 20
0.0
 10
8.002461
 20
0.0
 10
8.002461
 20
0.9120019999999993
 10
16.40000099999999
 20
0.9120019999999993
 10
16.40000099999999
 20
0.0
  0
INSERT
  5
B1E
330
AE5
100
AcDbEntity
  8
TITLEBLOCK
 62
     0
100
AcDbBlockReference
  2
LOGO-PAD
 10
12.245701
 20
0.3040000000000003
 30
0.0
  0
LINE
  5
B1F
330
AE5
100
AcDbEntity
  8
CONTINUOUS2
 62
     0
100
AcDbLine
 10
16.40000099999999
 20
0.3040000000000003
 30
0.0
 11
12.245701
 21
0.3040000000000003
 31
0.0
  0
LINE
  5
B20
330
AE5
100
AcDbEntity
  8
CONTINUOUS2
 62
     0
100
AcDbLine
 10
12.245701
 20
0.9120019999999993
 30
0.0
 11
12.245701
 21
0.0
 31
0.0
  0
TEXT
  5
B21
330
AE5
100
AcDbEntity
  8
TEXT1
  6
CONTINUOUS
 62
     0
100
AcDbText
 10
12.36897712113656
 20
0.0611566731182909
 30
0.0
 40
0.0699999951940822
  1
NO.
  7
ROMANS
 11
12.36897712113656
 21
0.096156670715332
 31
0.0
100
AcDbText
 73
     2
  0
TEXT
  5
B22
330
AE5
100
AcDbEntity
  8
TEXT1
  6
CONTINUOUS
 62
     0
100
AcDbText
 10
12.36897712113656
 20
0.1661566731182908
 30
0.0
 40
0.0699999951940822
  1
DWG#
  7
ROMANS
 11
12.36897712113656
 21
0.2011566707153319
 31
0.0
100
AcDbText
 73
     2
  0
ATTDEF
  5
B23
330
AE5
100
AcDbEntity
  8
TEXT1
 62
     0
100
AcDbText
 10
10.10183834893798
 20
0.7474460884590166
 30
0.0
 40
0.1
  1

  7
ROMANS
 72
     4
 11
10.10183834893798
 21
0.7474460884590166
 31
0.0
100
AcDbAttributeDefinition
  3
DESCRIPTION 1
  2
DESCRIPTION 1
 70
     0
  0
ATTDEF
  5
B24
330
AE5
100
AcDbEntity
  8
TEXT1
 62
     0
100
AcDbText
 10
10.10183834893798
 20
0.6017231711406717
 30
0.0
 40
0.1
  1

  7
ROMANS
 72
     4
 11
10.10183834893798
 21
0.6017231711406717
 31
0.0
100
AcDbAttributeDefinition
  3
DESCRIPTION 2
  2
DESCRIPTION 2
 70
     0
  0
ATTDEF
  5
B25
330
AE5
100
AcDbEntity
  8
TEXT1
 62
     0
100
AcDbText
 10
10.10183834893798
 20
0.4560002538223267
 30
0.0
 40
0.08
  1

  7
ROMANS
 72
     4
 11
10.10183834893798
 21
0.4560002538223267
 31
0.0
100
AcDbAttributeDefinition
  3
DESCRIPTION 3
  2
DESCRIPTION 3
 70
     0
  0
ATTDEF
  5
B26
330
AE5
100
AcDbEntity
  8
TEXT1
 62
     0
100
AcDbText
 10
10.10183834893798
 20
0.3202773365039833
 30
0.0
 40
0.08
  1

  7
ROMANS
 72
     4
 11
10.10183834893798
 21
0.3202773365039833
 31
0.0
100
AcDbAttributeDefinition
  3
DESCRIPTION 4
  2
DESCRIPTION 4
 70
     0
  0
ATTDEF
  5
B27
330
AE5
100
AcDbEntity
  8
TEXT1
 62
     0
100
AcDbText
 10
10.10183834893798
 20
0.1845544191856399
 30
0.0
 40
0.08
  1

  7
ROMANS
 72
     4
 11
10.10183834893798
 21
0.1845544191856399
 31
0.0
100
AcDbAttributeDefinition
  3
DESCRIPTION 5
  2
DESCRIPTION 5
 70
     0
  0
ATTDEF
  5
B28
330
AE5
100
AcDbEntity
  8
TEXT1
 62
     0
100
AcDbText
 10
12.74772367103195
 20
0.096540546036505
 30
0.0
 40
0.12
  1

 41
0.9512024731840066
  7
M_STANDARD
 11
12.74772367103195
 21
0.156540546036505
 31
0.0
100
AcDbAttributeDefinition
  3
DRAWING NUMBER
  2
DWGNO
 70
     0
 74
     2
  0
ATTDEF
  5
B29
330
AE5
100
AcDbEntity
  8
TEXT1
 62
     0
100
AcDbText
 10
16.35506454949325
 20
-0.1507193079929352
 30
0.0
 40
0.08
  1

  7
ROMANS
 72
     2
 11
16.35506454949325
 21
-0.1107193079929352
 31
0.0
100
AcDbAttributeDefinition
  3
REF DWG #
  2
REF
 70
     0
 74
     2
  0
ATTDEF
  5
B2A
330
AE5
100
AcDbEntity
  8
TEXT1
 62
     0
100
AcDbText
 10
0.0266402374038712
 20
-0.1507193079929352
 30
0.0
 40
0.08
  1

  7
ROMANS
 11
0.0266402374038712
 21
-0.1107193079929352
 31
0.0
100
AcDbAttributeDefinition
  3
DATE MODIFIED
  2
DATE
 70
     0
 74
     2
  0
LWPOLYLINE
  5
B2B
330
AE5
100
AcDbEntity
  8
CONTINUOUS3
 62
     0
100
AcDbPolyline
 90
        4
 70
   129
 43
0.0
 10
0.0
 20
0.0
 10
16.40000099999999
 20
0.0
 10
16.40000099999999
 20
10.25
 10
0.0
 20
10.25
  0
ENDBLK
  5
AF6
330
AE5
100
AcDbEntity
  8
0
100
AcDbBlockEnd
  0
BLOCK
  5
E0F
330
E0D
100
AcDbEntity
  8
0
100
AcDbBlockBegin
  2
SEARROW
 70
     0
 10
0.0
 20
0.0
 30
0.0
  3
SEARROW
  1

  0
LWPOLYLINE
  5
E0E
330
E0D
100
AcDbEntity
  8
0
  6
BYBLOCK
100
AcDbPolyline
 90
        2
 70
     0
 10
0.0
 20
0.0
 40
0.0
 41
0.5000000001500001
 10
-1.000000000300019
 20
0.0
 40
0.5000000001500001
 41
0.5000000001500001
  0
ENDBLK
  5
E10
330
E0D
100
AcDbEntity
  8
0
100
AcDbBlockEnd
  0
BLOCK
  5
E43
330
E42
100
AcDbEntity
  8
0
100
AcDbBlockBegin
  2
SETUP
 70
     0
 10
0.0
 20
0.0
 30
0.0
  3
SETUP
  1

  0
ENDBLK
  5
E44
330
E42
100
AcDbEntity
  8
0
100
AcDbBlockEnd
  0
BLOCK
  5
F55
330
F54
100
AcDbEntity
  8
0
100
AcDbBlockBegin
  2
MEDCLUMP_DIM_1475_
 70
     0
 10
0.0
 20
0.0
 30
0.0
  3
MEDCLUMP_DIM_1475_
  1

  0
ENDBLK
  5
F56
330
F54
100
AcDbEntity
  8
0
100
AcDbBlockEnd
  0
BLOCK
  5
F59
330
F57
100
AcDbEntity
  8
0
100
AcDbBlockBegin
  2
MEDCLUMP_DMS_1474_
 70
     0
 10
0.0
 20
0.0
 30
0.0
  3
MEDCLUMP_DMS_1474_
  1

  0
INSERT
  5
F58
330
F57
100
AcDbEntity
  8
0
100
AcDbBlockReference
  2
MEDCLUMP_DIM_1475_
 10
0.0
 20
0.0
 30
0.0
  0
ENDBLK
  5
F5A
330
F57
100
AcDbEntity
  8
0
100
AcDbBlockEnd
  0
BLOCK
  5
F5C
330
F5B
100
AcDbEntity
  8
0
100
AcDbBlockBegin
  2
MEDCLUMP_DIM_1451_
 70
     0
 10
0.0
 20
0.0
 30
0.0
  3
MEDCLUMP_DIM_1451_
  1

  0
ENDBLK
  5
F5D
330
F5B
100
AcDbEntity
  8
0
100
AcDbBlockEnd
  0
BLOCK
  5
F60
330
F5E
100
AcDbEntity
  8
0
100
AcDbBlockBegin
  2
MEDCLUMP_DMS_1450_
 70
     0
 10
0.0
 20
0.0
 30
0.0
  3
MEDCLUMP_DMS_1450_
  1

  0
INSERT
  5
F5F
330
F5E
100
AcDbEntity
  8
0
100
AcDbBlockReference
  2
MEDCLUMP_DIM_1451_
 10
0.0
 20
0.0
 30
0.0
  0
ENDBLK
  5
F61
330
F5E
100
AcDbEntity
  8
0
100
AcDbBlockEnd
  0
BLOCK
  5
F63
330
F62
100
AcDbEntity
  8
0
100
AcDbBlockBegin
  2
MEDCLUMP_DIM_1143_
 70
     0
 10
0.0
 20
0.0
 30
0.0
  3
MEDCLUMP_DIM_1143_
  1

  0
ENDBLK
  5
F64
330
F62
100
AcDbEntity
  8
0
100
AcDbBlockEnd
  0
BLOCK
  5
F67
330
F65
100
AcDbEntity
  8
0
100
AcDbBlockBegin
  2
MEDCLUMP_DMS_1142_
 70
     0
 10
0.0
 20
0.0
 30
0.0
  3
MEDCLUMP_DMS_1142_
  1

  0
INSERT
  5
F66
330
F65
100
AcDbEntity
  8
0
100
AcDbBlockReference
  2
MEDCLUMP_DIM_1143_
 10
0.0
 20
0.0
 30
0.0
  0
ENDBLK
  5
F68
330
F65
100
AcDbEntity
  8
0
100
AcDbBlockEnd
  0
BLOCK
  5
269E
330
269D
100
AcDbEntity
  8
0
100
AcDbBlockBegin
  2
0SETUP
 70
     0
 10
0.0
 20
0.0
 30
0.0
  3
0SETUP
  1

  0
ENDBLK
  5
269F
330
269D
100
AcDbEntity
  8
0
100
AcDbBlockEnd
  0
BLOCK
  5
454E
330
454C
100
AcDbEntity
  8
0
100
AcDbBlockBegin
  2
M_PFN_100
 70
     0
 10
0.0
 20
0.0
 30
0.0
  3
M_PFN_100
  1

  0
SOLID
  5
454D
330
454C
100
AcDbEntity
  8
0
  6
BYBLOCK
 62
     0
100
AcDbTrace
 10
-0.0688976377952756
 20
0.0162645260088438
 30
0.0
 11
-0.0688976377952756
 21
-0.0162645260088438
 31
0.0
 12
0.0
 22
0.0
 32
0.0
 13
0.0
 23
0.0
 33
0.0
  0
ENDBLK
  5
454F
330
454C
100
AcDbEntity
  8
0
100
AcDbBlockEnd
  0
BLOCK
  5
4BDE
330
4BDC
100
AcDbEntity
  8
0
100
AcDbBlockBegin
  2
M_PFN_101
 70
     0
 10
0.0
 20
0.0
 30
0.0
  3
M_PFN_101
  1

  0
SOLID
  5
4BDD
330
4BDC
100
AcDbEntity
  8
0
  6
BYBLOCK
 62
     0
100
AcDbTrace
 10
0.0688976377952756
 20
0.0162645260088438
 30
0.0
 11
0.0688976377952756
 21
-0.0162645260088438
 31
0.0
 12
0.0
 22
0.0
 32
0.0
 13
0.0
 23
0.0
 33
0.0
  0
ENDBLK
  5
4BDF
330
4BDC
100
AcDbEntity
  8
0
100
AcDbBlockEnd
  0
BLOCK
  5
515B
330
5150
100
AcDbEntity
  8
0
100
AcDbBlockBegin
  2
*D13
 70
     1
 10
0.0
 20
0.0
 30
0.0
  3
*D13
  1

  0
LINE
  5
5EC3
330
5150
100
AcDbEntity
  8
DIM
100
AcDbLine
 10
43.04311910851413
 20
59.32568611031931
 30
0.0
 11
54.34121390171299
 21
59.3256861103193
 31
0.0
  0
LINE
  5
5EC4
330
5150
100
AcDbEntity
  8
DIM
100
AcDbLine
 10
51.57311910851412
 20
61.38568611031931
 30
0.0
 11
54.34121390171299
 21
61.38568611031931
 31
0.0
  0
LINE
  5
5EC5
330
5150
100
AcDbEntity
  8
DIM
100
AcDbLine
 10
53.84121390171299
 20
59.8856861103193
 30
0.0
 11
53.84121390171299
 21
60.82568611031931
 31
0.0
  0
LINE
  5
5EC6
330
5150
100
AcDbEntity
  8
DIM
100
AcDbLine
 10
53.84121390171299
 20
61.38568611031931
 30
0.0
 11
53.84121390171299
 21
62.7914994321612
 31
0.0
  0
LINE
  5
5EC7
330
5150
100
AcDbEntity
  8
DIM
100
AcDbLine
 10
53.84121390171299
 20
62.7914994321612
 30
0.0
 11
54.40121390171299
 21
62.7914994321612
 31
0.0
  0
INSERT
  5
5EC8
330
5150
100
AcDbEntity
  8
DIM
100
AcDbBlockReference
  2
SEARROW
 10
53.84121390171299
 20
59.3256861103193
 30
0.0
 41
0.5600000000000001
 42
0.5600000000000001
 43
0.5600000000000001
 50
270.0
  0
INSERT
  5
5EC9
330
5150
100
AcDbEntity
  8
DIM
100
AcDbBlockReference
  2
SEARROW
 10
53.84121390171299
 20
61.38568611031931
 30
0.0
 41
0.5600000000000001
 42
0.5600000000000001
 43
0.5600000000000001
 50
90.0
  0
MTEXT
  5
5ECA
330
5150
100
AcDbEntity
  8
DIM
100
AcDbMText
 10
55.9402615207606
 20
62.79149943216122
 30
0.0
 40
0.8
 41
0.0
 71
     5
 72
     1
  1
\A1;2.06\P{\H0.8x; [52]
  7
ROMANS
1001
ACAD
1000
MTEXTBEGIN
1070
    73
1070
     1
1070
    44
1040
1.0
1070
    74
1070
     0
1000
MTEXTEND
  0
POINT
  5
5ECB
330
5150
100
AcDbEntity
  8
DEFPOINTS
 62
     0
100
AcDbPoint
 10
42.54311910851413
 20
59.32568611031931
 30
0.0
  0
POINT
  5
5ECC
330
5150
100
AcDbEntity
  8
DEFPOINTS
 62
     0
100
AcDbPoint
 10
51.07311910851412
 20
61.38568611031931
 30
0.0
  0
POINT
  5
5ECD
330
5150
100
AcDbEntity
  8
DEFPOINTS
 62
     0
100
AcDbPoint
 10
53.84121390171299
 20
61.38568611031931
 30
0.0
  0
ENDBLK
  5
515C
330
5150
100
AcDbEntity
  8
0
100
AcDbBlockEnd
  0
BLOCK
  5
5169
330
515E
100
AcDbEntity
  8
0
100
AcDbBlockBegin
  2
*D14
 70
     1
 10
0.0
 20
0.0
 30
0.0
  3
*D14
  1

  0
LINE
  5
5ECE
330
515E
100
AcDbEntity
  8
DIM
100
AcDbLine
 10
42.54311910851413
 20
58.82568611031931
 30
0.0
 11
42.54311910851413
 21
56.82433220607204
 31
0.0
  0
LINE
  5
5ECF
330
515E
100
AcDbEntity
  8
DIM
100
AcDbLine
 10
43.10311910851413
 20
57.32433220607203
 30
0.0
 11
43.66311910851413
 21
57.32433220607203
 31
0.0
  0
LINE
  5
5ED0
330
515E
100
AcDbEntity
  8
DIM
100
AcDbLine
 10
38.20311910851413
 20
57.32433220607203
 30
0.0
 11
37.64311910851413
 21
57.32433220607203
 31
0.0
  0
INSERT
  5
5ED1
330
515E
100
AcDbEntity
  8
DIM
100
AcDbBlockReference
  2
SEARROW
 10
42.54311910851413
 20
57.32433220607203
 30
0.0
 41
0.5600000000000001
 42
0.5600000000000001
 43
0.5600000000000001
 50
180.0
  0
INSERT
  5
5ED2
330
515E
100
AcDbEntity
  8
DIM
100
AcDbBlockReference
  2
SEARROW
 10
38.76311910851413
 20
57.32433220607203
 30
0.0
 41
0.5600000000000001
 42
0.5600000000000001
 43
0.5600000000000001
  0
MTEXT
  5
5ED3
330
515E
100
AcDbEntity
  8
DIM
100
AcDbMText
 10
40.65311910851413
 20
57.32433220607203
 30
0.0
 40
0.8
 41
0.0
 71
     5
 72
     1
  1
\A1;3.78\P{\H0.8x; [96]
  7
ROMANS
1001
ACAD
1000
MTEXTBEGIN
1070
    73
1070
     1
1070
    44
1040
1.0
1070
    74
1070
     0
1000
MTEXTEND
  0
POINT
  5
5ED4
330
515E
100
AcDbEntity
  8
DEFPOINTS
 62
     0
100
AcDbPoint
 10
42.54311910851413
 20
59.32568611031931
 30
0.0
  0
POINT
  5
5ED5
330
515E
100
AcDbEntity
  8
DEFPOINTS
 62
     0
100
AcDbPoint
 10
38.76311910851413
 20
57.32433220607203
 30
0.0
  0
POINT
  5
5ED6
330
515E
100
AcDbEntity
  8
DEFPOINTS
 62
     0
100
AcDbPoint
 10
38.76311910851413
 20
57.32433220607203
 30
0.0
  0
ENDBLK
  5
516A
330
515E
100
AcDbEntity
  8
0
100
AcDbBlockEnd
  0
BLOCK
  5
5181
330
5176
100
AcDbEntity
  8
0
100
AcDbBlockBegin
  2
*D15
 70
     1
 10
0.0
 20
0.0
 30
0.0
  3
*D15
  1

  0
LINE
  5
5ED7
330
5176
100
AcDbEntity
  8
DIM
100
AcDbLine
 10
51.63561910851412
 20
61.38568611031931
 30
0.0
 11
57.43488034444116
 21
61.38568611031931
 31
0.0
  0
LINE
  5
5ED8
330
5176
100
AcDbEntity
  8
DIM
100
AcDbLine
 10
51.63561910851412
 20
38.14568611031933
 30
0.0
 11
57.43488034444115
 21
38.14568611031933
 31
0.0
  0
LINE
  5
5ED9
330
5176
100
AcDbEntity
  8
DIM
100
AcDbLine
 10
56.93488034444115
 20
60.82568611031931
 30
0.0
 11
56.93488034444115
 21
54.24568611031928
 31
0.0
  0
LINE
  5
5EDA
330
5176
100
AcDbEntity
  8
DIM
100
AcDbLine
 10
56.93488034444115
 20
38.70568611031933
 30
0.0
 11
56.93488034444115
 21
51.25901944365262
 31
0.0
  0
INSERT
  5
5EDB
330
5176
100
AcDbEntity
  8
DIM
100
AcDbBlockReference
  2
SEARROW
 10
56.93488034444115
 20
61.38568611031931
 30
0.0
 41
0.5600000000000001
 42
0.5600000000000001
 43
0.5600000000000001
 50
90.0
  0
INSERT
  5
5EDC
330
5176
100
AcDbEntity
  8
DIM
100
AcDbBlockReference
  2
SEARROW
 10
56.93488034444115
 20
38.14568611031933
 30
0.0
 41
0.5600000000000001
 42
0.5600000000000001
 43
0.5600000000000001
 50
270.0
  0
MTEXT
  5
5EDD
330
5176
100
AcDbEntity
  8
DIM
100
AcDbMText
 10
56.93488034444114
 20
52.75235277698596
 30
0.0
 40
0.8
 41
0.0
 71
     5
 72
     1
  1
\A1;23.24\P{\H0.8x; [590]
  7
ROMANS
1001
ACAD
1000
MTEXTBEGIN
1070
    73
1070
     1
1070
    44
1040
1.0
1070
    74
1070
     0
1000
MTEXTEND
  0
POINT
  5
5EDE
330
5176
100
AcDbEntity
  8
DEFPOINTS
 62
     0
100
AcDbPoint
 10
51.13561910851412
 20
61.38568611031931
 30
0.0
  0
POINT
  5
5EDF
330
5176
100
AcDbEntity
  8
DEFPOINTS
 62
     0
100
AcDbPoint
 10
51.13561910851412
 20
38.14568611031933
 30
0.0
  0
POINT
  5
5EE0
330
5176
100
AcDbEntity
  8
DEFPOINTS
 62
     0
100
AcDbPoint
 10
56.93488034444115
 20
38.14568611031933
 30
0.0
  0
ENDBLK
  5
5182
330
5176
100
AcDbEntity
  8
0
100
AcDbBlockEnd
  0
BLOCK
  5
518F
330
5184
100
AcDbEntity
  8
0
100
AcDbBlockBegin
  2
*D16
 70
     1
 10
0.0
 20
0.0
 30
0.0
  3
*D16
  1

  0
LINE
  5
5EE1
330
5184
100
AcDbEntity
  8
DIM
100
AcDbLine
 10
43.04311910851413
 20
59.32568611031931
 30
0.0
 11
54.34121390171299
 21
59.3256861103193
 31
0.0
  0
LINE
  5
5EE2
330
5184
100
AcDbEntity
  8
DIM
100
AcDbLine
 10
45.70311910851414
 20
39.52568611031934
 30
0.0
 11
54.34121390171299
 21
39.52568611031933
 31
0.0
  0
LINE
  5
5EE3
330
5184
100
AcDbEntity
  8
DIM
100
AcDbLine
 10
53.841213901713
 20
58.7656861103193
 30
0.0
 11
53.841213901713
 21
50.91901944365265
 31
0.0
  0
LINE
  5
5EE4
330
5184
100
AcDbEntity
  8
DIM
100
AcDbLine
 10
53.84121390171299
 20
40.08568611031933
 30
0.0
 11
53.84121390171299
 21
47.93235277698598
 31
0.0
  0
INSERT
  5
5EE5
330
5184
100
AcDbEntity
  8
DIM
100
AcDbBlockReference
  2
SEARROW
 10
53.841213901713
 20
59.3256861103193
 30
0.0
 41
0.5600000000000001
 42
0.5600000000000001
 43
0.5600000000000001
 50
90.0
  0
INSERT
  5
5EE6
330
5184
100
AcDbEntity
  8
DIM
100
AcDbBlockReference
  2
SEARROW
 10
53.84121390171299
 20
39.52568611031933
 30
0.0
 41
0.5600000000000001
 42
0.5600000000000001
 43
0.5600000000000001
 50
270.0
  0
MTEXT
  5
5EE7
330
5184
100
AcDbEntity
  8
DIM
100
AcDbMText
 10
53.84121390171298
 20
49.42568611031934
 30
0.0
 40
0.8
 41
0.0
 71
     5
 72
     1
  1
\A1;19.80\P{\H0.8x; [503]
  7
ROMANS
1001
ACAD
1000
MTEXTBEGIN
1070
    73
1070
     1
1070
    44
1040
1.0
1070
    74
1070
     0
1000
MTEXTEND
  0
POINT
  5
5EE8
330
5184
100
AcDbEntity
  8
DEFPOINTS
 62
     0
100
AcDbPoint
 10
42.54311910851413
 20
59.32568611031931
 30
0.0
  0
POINT
  5
5EE9
330
5184
100
AcDbEntity
  8
DEFPOINTS
 62
     0
100
AcDbPoint
 10
45.20311910851414
 20
39.52568611031934
 30
0.0
  0
POINT
  5
5EEA
330
5184
100
AcDbEntity
  8
DEFPOINTS
 62
     0
100
AcDbPoint
 10
53.84121390171299
 20
39.52568611031933
 30
0.0
  0
ENDBLK
  5
5190
330
5184
100
AcDbEntity
  8
0
100
AcDbBlockEnd
  0
BLOCK
  5
519D
330
5192
100
AcDbEntity
  8
0
100
AcDbBlockBegin
  2
*D17
 70
     1
 10
0.0
 20
0.0
 30
0.0
  3
*D17
  1

  0
LINE
  5
5EEB
330
5192
100
AcDbEntity
  8
DIM
100
AcDbLine
 10
45.20311910851414
 20
40.02568611031934
 30
0.0
 11
45.20311910851414
 21
44.66287287647718
 31
0.0
  0
LINE
  5
5EEC
330
5192
100
AcDbEntity
  8
DIM
100
AcDbLine
 10
39.88311910851415
 20
40.02568611031934
 30
0.0
 11
39.88311910851415
 21
44.66287287647718
 31
0.0
  0
LINE
  5
5EED
330
5192
100
AcDbEntity
  8
DIM
100
AcDbLine
 10
44.64311910851414
 20
44.16287287647718
 30
0.0
 11
44.38692863232367
 21
44.16287287647718
 31
0.0
  0
LINE
  5
5EEE
330
5192
100
AcDbEntity
  8
DIM
100
AcDbLine
 10
40.44311910851415
 20
44.16287287647718
 30
0.0
 11
40.69930958470462
 21
44.16287287647718
 31
0.0
  0
INSERT
  5
5EEF
330
5192
100
AcDbEntity
  8
DIM
100
AcDbBlockReference
  2
SEARROW
 10
45.20311910851414
 20
44.16287287647718
 30
0.0
 41
0.5600000000000001
 42
0.5600000000000001
 43
0.5600000000000001
  0
INSERT
  5
5EF0
330
5192
100
AcDbEntity
  8
DIM
100
AcDbBlockReference
  2
SEARROW
 10
39.88311910851415
 20
44.16287287647718
 30
0.0
 41
0.5600000000000001
 42
0.5600000000000001
 43
0.5600000000000001
 50
180.0
  0
MTEXT
  5
5EF1
330
5192
100
AcDbEntity
  8
DIM
100
AcDbMText
 10
42.54311910851415
 20
44.16287287647718
 30
0.0
 40
0.8
 41
0.0
 71
     5
 72
     1
  1
\A1;5.32\P{\H0.8x; [135]
  7
ROMANS
1001
ACAD
1000
MTEXTBEGIN
1070
    73
1070
     1
1070
    44
1040
1.0
1070
    74
1070
     0
1000
MTEXTEND
  0
POINT
  5
5EF2
330
5192
100
AcDbEntity
  8
DEFPOINTS
 62
     0
100
AcDbPoint
 10
45.20311910851414
 20
39.52568611031934
 30
0.0
  0
POINT
  5
5EF3
330
5192
100
AcDbEntity
  8
DEFPOINTS
 62
     0
100
AcDbPoint
 10
39.88311910851415
 20
39.52568611031934
 30
0.0
  0
POINT
  5
5EF4
330
5192
100
AcDbEntity
  8
DEFPOINTS
 62
     0
100
AcDbPoint
 10
39.88311910851415
 20
44.16287287647718
 30
0.0
  0
ENDBLK
  5
519E
330
5192
100
AcDbEntity
  8
0
100
AcDbBlockEnd
  0
BLOCK
  5
51AB
330
51A0
100
AcDbEntity
  8
0
100
AcDbBlockBegin
  2
*D18
 70
     1
 10
0.0
 20
0.0
 30
0.0
  3
*D18
  1

  0
LINE
  5
5EF5
330
51A0
100
AcDbEntity
  8
DIM
100
AcDbLine
 10
39.88311910851415
 20
40.02568611031934
 30
0.0
 11
39.88311910851415
 21
47.80561694365901
 31
0.0
  0
LINE
  5
5EF6
330
51A0
100
AcDbEntity
  8
DIM
100
AcDbLine
 10
40.44311910851415
 20
47.30561694365901
 30
0.0
 11
41.00311910851415
 21
47.30561694365901
 31
0.0
  0
LINE
  5
5EF7
330
51A0
100
AcDbEntity
  8
DIM
100
AcDbLine
 10
38.20311910851413
 20
47.30561694365901
 30
0.0
 11
37.64311910851413
 21
47.30561694365901
 31
0.0
  0
INSERT
  5
5EF8
330
51A0
100
AcDbEntity
  8
DIM
100
AcDbBlockReference
  2
SEARROW
 10
39.88311910851415
 20
47.30561694365901
 30
0.0
 41
0.5600000000000001
 42
0.5600000000000001
 43
0.5600000000000001
 50
180.0
  0
INSERT
  5
5EF9
330
51A0
100
AcDbEntity
  8
DIM
100
AcDbBlockReference
  2
SEARROW
 10
38.76311910851413
 20
47.30561694365901
 30
0.0
 41
0.5600000000000001
 42
0.5600000000000001
 43
0.5600000000000001
  0
MTEXT
  5
5EFA
330
51A0
100
AcDbEntity
  8
DIM
100
AcDbMText
 10
36.10407148946651
 20
47.30561694365901
 30
0.0
 40
0.8
 41
0.0
 71
     5
 72
     1
  1
\A1;1.12\P{\H0.8x; [28]
  7
ROMANS
1001
ACAD
1000
MTEXTBEGIN
1070
    73
1070
     1
1070
    44
1040
1.0
1070
    74
1070
     0
1000
MTEXTEND
  0
POINT
  5
5EFB
330
51A0
100
AcDbEntity
  8
DEFPOINTS
 62
     0
100
AcDbPoint
 10
39.88311910851415
 20
39.52568611031934
 30
0.0
  0
POINT
  5
5EFC
330
51A0
100
AcDbEntity
  8
DEFPOINTS
 62
     0
100
AcDbPoint
 10
38.76311910851413
 20
47.30561694365901
 30
0.0
  0
POINT
  5
5EFD
330
51A0
100
AcDbEntity
  8
DEFPOINTS
 62
     0
100
AcDbPoint
 10
38.76311910851413
 20
47.30561694365901
 30
0.0
  0
ENDBLK
  5
51AC
330
51A0
100
AcDbEntity
  8
0
100
AcDbBlockEnd
  0
BLOCK
  5
51C2
330
51B7
100
AcDbEntity
  8
0
100
AcDbBlockBegin
  2
*D19
 70
     1
 10
0.0
 20
0.0
 30
0.0
  3
*D19
  1

  0
LINE
  5
5EFE
330
51B7
100
AcDbEntity
  8
DIM
100
AcDbLine
 10
51.07311910851414
 20
37.64568611031933
 30
0.0
 11
51.07311910851414
 21
30.81550913108953
 31
0.0
  0
LINE
  5
5EFF
330
51B7
100
AcDbEntity
  8
DIM
100
AcDbLine
 10
46.32311910851413
 20
33.39168611031934
 30
0.0
 11
46.32311910851413
 21
30.81550913108953
 31
0.0
  0
LINE
  5
5F00
330
51B7
100
AcDbEntity
  8
DIM
100
AcDbLine
 10
51.63311910851414
 20
31.31550913108953
 30
0.0
 11
52.19311910851413
 21
31.31550913108953
 31
0.0
  0
LINE
  5
5F01
330
51B7
100
AcDbEntity
  8
DIM
100
AcDbLine
 10
45.76311910851413
 20
31.31550913108953
 30
0.0
 11
45.20311910851414
 21
31.31550913108953
 31
0.0
  0
INSERT
  5
5F02
330
51B7
100
AcDbEntity
  8
DIM
100
AcDbBlockReference
  2
SEARROW
 10
51.07311910851414
 20
31.31550913108953
 30
0.0
 41
0.5600000000000001
 42
0.5600000000000001
 43
0.5600000000000001
 50
180.0
  0
INSERT
  5
5F03
330
51B7
100
AcDbEntity
  8
DIM
100
AcDbBlockReference
  2
SEARROW
 10
46.32311910851413
 20
31.31550913108953
 30
0.0
 41
0.5600000000000001
 42
0.5600000000000001
 43
0.5600000000000001
  0
MTEXT
  5
5F04
330
51B7
100
AcDbEntity
  8
DIM
100
AcDbMText
 10
48.69811910851414
 20
31.31550913108953
 30
0.0
 40
0.8
 41
0.0
 71
     5
 72
     1
  1
\A1;4.75\P{\H0.8x; [121]
  7
ROMANS
1001
ACAD
1000
MTEXTBEGIN
1070
    73
1070
     1
1070
    44
1040
1.0
1070
    74
1070
     0
1000
MTEXTEND
  0
POINT
  5
5F05
330
51B7
100
AcDbEntity
  8
DEFPOINTS
 62
     0
100
AcDbPoint
 10
51.07311910851414
 20
38.14568611031933
 30
0.0
  0
POINT
  5
5F06
330
51B7
100
AcDbEntity
  8
DEFPOINTS
 62
     0
100
AcDbPoint
 10
46.32311910851413
 20
33.89168611031934
 30
0.0
  0
POINT
  5
5F07
330
51B7
100
AcDbEntity
  8
DEFPOINTS
 62
     0
100
AcDbPoint
 10
46.32311910851413
 20
31.31550913108953
 30
0.0
  0
ENDBLK
  5
51C3
330
51B7
100
AcDbEntity
  8
0
100
AcDbBlockEnd
  0
BLOCK
  5
51D0
330
51C5
100
AcDbEntity
  8
0
100
AcDbBlockBegin
  2
*D20
 70
     1
 10
0.0
 20
0.0
 30
0.0
  3
*D20
  1

  0
LINE
  5
5F08
330
51C5
100
AcDbEntity
  8
DIM
100
AcDbLine
 10
46.32311910851413
 20
33.39168611031934
 30
0.0
 11
46.32311910851413
 21
30.81550913108953
 31
0.0
  0
LINE
  5
5F09
330
51C5
100
AcDbEntity
  8
DIM
100
AcDbLine
 10
38.76311910851413
 20
33.39168611031934
 30
0.0
 11
38.76311910851413
 21
30.81550913108953
 31
0.0
  0
LINE
  5
5F0A
330
51C5
100
AcDbEntity
  8
DIM
100
AcDbLine
 10
45.76311910851413
 20
31.31550913108953
 30
0.0
 11
44.38692863232366
 21
31.31550913108953
 31
0.0
  0
LINE
  5
5F0B
330
51C5
100
AcDbEntity
  8
DIM
100
AcDbLine
 10
39.32311910851413
 20
31.31550913108953
 30
0.0
 11
40.6993095847046
 21
31.31550913108953
 31
0.0
  0
INSERT
  5
5F0C
330
51C5
100
AcDbEntity
  8
DIM
100
AcDbBlockReference
  2
SEARROW
 10
46.32311910851413
 20
31.31550913108953
 30
0.0
 41
0.5600000000000001
 42
0.5600000000000001
 43
0.5600000000000001
  0
INSERT
  5
5F0D
330
51C5
100
AcDbEntity
  8
DIM
100
AcDbBlockReference
  2
SEARROW
 10
38.76311910851413
 20
31.31550913108953
 30
0.0
 41
0.5600000000000001
 42
0.5600000000000001
 43
0.5600000000000001
 50
180.0
  0
MTEXT
  5
5F0E
330
51C5
100
AcDbEntity
  8
DIM
100
AcDbMText
 10
42.54311910851413
 20
31.31550913108953
 30
0.0
 40
0.8
 41
0.0
 71
     5
 72
     1
  1
\A1;7.56\P{\H0.8x; [192]
  7
ROMANS
1001
ACAD
1000
MTEXTBEGIN
1070
    73
1070
     1
1070
    44
1040
1.0
1070
    74
1070
     0
1000
MTEXTEND
  0
POINT
  5
5F0F
330
51C5
100
AcDbEntity
  8
DEFPOINTS
 62
     0
100
AcDbPoint
 10
46.32311910851413
 20
33.89168611031934
 30
0.0
  0
POINT
  5
5F10
330
51C5
100
AcDbEntity
  8
DEFPOINTS
 62
     0
100
AcDbPoint
 10
38.76311910851413
 20
33.89168611031934
 30
0.0
  0
POINT
  5
5F11
330
51C5
100
AcDbEntity
  8
DEFPOINTS
 62
     0
100
AcDbPoint
 10
38.76311910851413
 20
31.31550913108953
 30
0.0
  0
ENDBLK
  5
51D1
330
51C5
100
AcDbEntity
  8
0
100
AcDbBlockEnd
  0
BLOCK
  5
5A44
330
5A39
100
AcDbEntity
  8
0
100
AcDbBlockBegin
  2
*D28
 70
     1
 10
0.0
 20
0.0
 30
0.0
  3
*D28
  1

  0
LINE
  5
5A3A
330
5A39
100
AcDbEntity
  8
DIM
100
AcDbLine
 10
66.69122422081276
 20
37.64168611031927
 30
0.0
 11
66.69122422081276
 21
30.81550913108953
 31
0.0
  0
LINE
  5
5A3B
330
5A39
100
AcDbEntity
  8
DIM
100
AcDbLine
 10
62.44122422081275
 20
33.39168611031928
 30
0.0
 11
62.44122422081275
 21
30.81550913108953
 31
0.0
  0
LINE
  5
5A3C
330
5A39
100
AcDbEntity
  8
DIM
100
AcDbLine
 10
67.25122422081276
 20
31.31550913108953
 30
0.0
 11
67.81122422081276
 21
31.31550913108953
 31
0.0
  0
LINE
  5
5A3D
330
5A39
100
AcDbEntity
  8
DIM
100
AcDbLine
 10
61.88122422081275
 20
31.31550913108953
 30
0.0
 11
61.32122422081276
 21
31.31550913108953
 31
0.0
  0
INSERT
  5
5A3E
330
5A39
100
AcDbEntity
  8
DIM
100
AcDbBlockReference
  2
SEARROW
 10
66.69122422081276
 20
31.31550913108953
 30
0.0
 41
0.5600000000000001
 42
0.5600000000000001
 43
0.5600000000000001
 50
180.0
  0
INSERT
  5
5A3F
330
5A39
100
AcDbEntity
  8
DIM
100
AcDbBlockReference
  2
SEARROW
 10
62.44122422081275
 20
31.31550913108953
 30
0.0
 41
0.5600000000000001
 42
0.5600000000000001
 43
0.5600000000000001
  0
MTEXT
  5
5A40
330
5A39
100
AcDbEntity
  8
DIM
100
AcDbMText
 10
64.56622422081276
 20
31.31550913108953
 30
0.0
 40
0.8
 41
0.0
 71
     5
 72
     1
  1
\A1;4.25\P{\H0.8x; [108]
  7
ROMANS
1001
ACAD
1000
MTEXTBEGIN
1070
    73
1070
     1
1070
    44
1040
1.0
1070
    74
1070
     0
1000
MTEXTEND
  0
POINT
  5
5A41
330
5A39
100
AcDbEntity
  8
DEFPOINTS
 62
     0
100
AcDbPoint
 10
66.69122422081276
 20
38.14168611031927
 30
0.0
  0
POINT
  5
5A42
330
5A39
100
AcDbEntity
  8
DEFPOINTS
 62
     0
100
AcDbPoint
 10
62.44122422081275
 20
33.89168611031927
 30
0.0
  0
POINT
  5
5A43
330
5A39
100
AcDbEntity
  8
DEFPOINTS
 62
     0
100
AcDbPoint
 10
62.44122422081275
 20
31.31550913108953
 30
0.0
  0
ENDBLK
  5
5A45
330
5A39
100
AcDbEntity
  8
0
100
AcDbBlockEnd
  0
BLOCK
  5
5A51
330
5A46
100
AcDbEntity
  8
0
100
AcDbBlockBegin
  2
*D29
 70
     1
 10
0.0
 20
0.0
 30
0.0
  3
*D29
  1

  0
LINE
  5
5A47
330
5A46
100
AcDbEntity
  8
DIM
100
AcDbLine
 10
62.44122422081275
 20
33.39168611031928
 30
0.0
 11
62.44122422081275
 21
30.81550913108953
 31
0.0
  0
LINE
  5
5A48
330
5A46
100
AcDbEntity
  8
DIM
100
AcDbLine
 10
54.88122422081275
 20
33.39168611031928
 30
0.0
 11
54.88122422081275
 21
30.81550913108953
 31
0.0
  0
LINE
  5
5A49
330
5A46
100
AcDbEntity
  8
DIM
100
AcDbLine
 10
61.88122422081275
 20
31.31550913108953
 30
0.0
 11
60.50503374462228
 21
31.31550913108953
 31
0.0
  0
LINE
  5
5A4A
330
5A46
100
AcDbEntity
  8
DIM
100
AcDbLine
 10
55.44122422081276
 20
31.31550913108953
 30
0.0
 11
56.81741469700323
 21
31.31550913108953
 31
0.0
  0
INSERT
  5
5A4B
330
5A46
100
AcDbEntity
  8
DIM
100
AcDbBlockReference
  2
SEARROW
 10
62.44122422081275
 20
31.31550913108953
 30
0.0
 41
0.5600000000000001
 42
0.5600000000000001
 43
0.5600000000000001
  0
INSERT
  5
5A4C
330
5A46
100
AcDbEntity
  8
DIM
100
AcDbBlockReference
  2
SEARROW
 10
54.88122422081275
 20
31.31550913108953
 30
0.0
 41
0.5600000000000001
 42
0.5600000000000001
 43
0.5600000000000001
 50
180.0
  0
MTEXT
  5
5A4D
330
5A46
100
AcDbEntity
  8
DIM
100
AcDbMText
 10
58.66122422081275
 20
31.31550913108953
 30
0.0
 40
0.8
 41
0.0
 71
     5
 72
     1
  1
\A1;7.56\P{\H0.8x; [192]
  7
ROMANS
1001
ACAD
1000
MTEXTBEGIN
1070
    73
1070
     1
1070
    44
1040
1.0
1070
    74
1070
     0
1000
MTEXTEND
  0
POINT
  5
5A4E
330
5A46
100
AcDbEntity
  8
DEFPOINTS
 62
     0
100
AcDbPoint
 10
62.44122422081275
 20
33.89168611031927
 30
0.0
  0
POINT
  5
5A4F
330
5A46
100
AcDbEntity
  8
DEFPOINTS
 62
     0
100
AcDbPoint
 10
54.88122422081275
 20
33.89168611031927
 30
0.0
  0
POINT
  5
5A50
330
5A46
100
AcDbEntity
  8
DEFPOINTS
 62
     0
100
AcDbPoint
 10
54.88122422081275
 20
31.31550913108953
 30
0.0
  0
ENDBLK
  5
5A52
330
5A46
100
AcDbEntity
  8
0
100
AcDbBlockEnd
  0
BLOCK
  5
5A5E
330
5A53
100
AcDbEntity
  8
0
100
AcDbBlockBegin
  2
*D30
 70
     1
 10
0.0
 20
0.0
 30
0.0
  3
*D30
  1

  0
LINE
  5
5A54
330
5A53
100
AcDbEntity
  8
DIM
100
AcDbLine
 10
61.32122422081277
 20
40.70168611031927
 30
0.0
 11
61.32122422081277
 21
44.69550993992014
 31
0.0
  0
LINE
  5
5A55
330
5A53
100
AcDbEntity
  8
DIM
100
AcDbLine
 10
56.00122422081276
 20
40.70168611031926
 30
0.0
 11
56.00122422081276
 21
44.69550993992014
 31
0.0
  0
LINE
  5
5A56
330
5A53
100
AcDbEntity
  8
DIM
100
AcDbLine
 10
60.76122422081276
 20
44.19550993992014
 30
0.0
 11
60.50503374462229
 21
44.19550993992014
 31
0.0
  0
LINE
  5
5A57
330
5A53
100
AcDbEntity
  8
DIM
100
AcDbLine
 10
56.56122422081276
 20
44.19550993992014
 30
0.0
 11
56.81741469700323
 21
44.19550993992014
 31
0.0
  0
INSERT
  5
5A58
330
5A53
100
AcDbEntity
  8
DIM
100
AcDbBlockReference
  2
SEARROW
 10
61.32122422081277
 20
44.19550993992014
 30
0.0
 41
0.5600000000000001
 42
0.5600000000000001
 43
0.5600000000000001
  0
INSERT
  5
5A59
330
5A53
100
AcDbEntity
  8
DIM
100
AcDbBlockReference
  2
SEARROW
 10
56.00122422081276
 20
44.19550993992014
 30
0.0
 41
0.5600000000000001
 42
0.5600000000000001
 43
0.5600000000000001
 50
180.0
  0
MTEXT
  5
5A5A
330
5A53
100
AcDbEntity
  8
DIM
100
AcDbMText
 10
58.66122422081276
 20
44.19550993992014
 30
0.0
 40
0.8
 41
0.0
 71
     5
 72
     1
  1
\A1;5.32\P{\H0.8x; [135]
  7
ROMANS
1001
ACAD
1000
MTEXTBEGIN
1070
    73
1070
     1
1070
    44
1040
1.0
1070
    74
1070
     0
1000
MTEXTEND
  0
POINT
  5
5A5B
330
5A53
100
AcDbEntity
  8
DEFPOINTS
 62
     0
100
AcDbPoint
 10
61.32122422081277
 20
40.20168611031927
 30
0.0
  0
POINT
  5
5A5C
330
5A53
100
AcDbEntity
  8
DEFPOINTS
 62
     0
100
AcDbPoint
 10
56.00122422081276
 20
40.20168611031926
 30
0.0
  0
POINT
  5
5A5D
330
5A53
100
AcDbEntity
  8
DEFPOINTS
 62
     0
100
AcDbPoint
 10
56.00122422081276
 20
44.19550993992014
 30
0.0
  0
ENDBLK
  5
5A5F
330
5A53
100
AcDbEntity
  8
0
100
AcDbBlockEnd
  0
BLOCK
  5
5A6A
330
5A60
100
AcDbEntity
  8
0
100
AcDbBlockBegin
  2
*D31
 70
     1
 10
0.0
 20
0.0
 30
0.0
  3
*D31
  1

  0
LINE
  5
5A61
330
5A60
100
AcDbEntity
  8
DIM
100
AcDbLine
 10
56.00122422081276
 20
40.70168611031926
 30
0.0
 11
56.00122422081276
 21
47.86561694365896
 31
0.0
  0
LINE
  5
5A62
330
5A60
100
AcDbEntity
  8
DIM
100
AcDbLine
 10
56.56122422081276
 20
47.36561694365896
 30
0.0
 11
57.12122422081275
 21
47.36561694365896
 31
0.0
  0
LINE
  5
5A63
330
5A60
100
AcDbEntity
  8
DIM
100
AcDbLine
 10
54.32122422081275
 20
47.36561694365896
 30
0.0
 11
53.76122422081276
 21
47.36561694365896
 31
0.0
  0
INSERT
  5
5A64
330
5A60
100
AcDbEntity
  8
DIM
100
AcDbBlockReference
  2
SEARROW
 10
56.00122422081276
 20
47.36561694365896
 30
0.0
 41
0.5600000000000001
 42
0.5600000000000001
 43
0.5600000000000001
 50
180.0
  0
INSERT
  5
5A65
330
5A60
100
AcDbEntity
  8
DIM
100
AcDbBlockReference
  2
SEARROW
 10
54.88122422081275
 20
47.36561694365896
 30
0.0
 41
0.5600000000000001
 42
0.5600000000000001
 43
0.5600000000000001
  0
MTEXT
  5
5A66
330
5A60
100
AcDbEntity
  8
DIM
100
AcDbMText
 10
52.22217660176514
 20
47.36561694365896
 30
0.0
 40
0.8
 41
0.0
 71
     5
 72
     1
  1
\A1;1.12\P{\H0.8x; [28]
  7
ROMANS
1001
ACAD
1000
MTEXTBEGIN
1070
    73
1070
     1
1070
    44
1040
1.0
1070
    74
1070
     0
1000
MTEXTEND
  0
POINT
  5
5A67
330
5A60
100
AcDbEntity
  8
DEFPOINTS
 62
     0
100
AcDbPoint
 10
56.00122422081276
 20
40.20168611031926
 30
0.0
  0
POINT
  5
5A68
330
5A60
100
AcDbEntity
  8
DEFPOINTS
 62
     0
100
AcDbPoint
 10
54.88122422081275
 20
47.36561694365896
 30
0.0
  0
POINT
  5
5A69
330
5A60
100
AcDbEntity
  8
DEFPOINTS
 62
     0
100
AcDbPoint
 10
54.88122422081275
 20
47.36561694365896
 30
0.0
  0
ENDBLK
  5
5A6B
330
5A60
100
AcDbEntity
  8
0
100
AcDbBlockEnd
  0
BLOCK
  5
5A77
330
5A6C
100
AcDbEntity
  8
0
100
AcDbBlockBegin
  2
*D32
 70
     1
 10
0.0
 20
0.0
 30
0.0
  3
*D32
  1

  0
LINE
  5
5A6D
330
5A6C
100
AcDbEntity
  8
DIM
100
AcDbLine
 10
55.50122422081274
 20
40.20168611031927
 30
0.0
 11
45.27690769478453
 21
40.20168611031928
 31
0.0
  0
LINE
  5
5A6E
330
5A6C
100
AcDbEntity
  8
DIM
100
AcDbLine
 10
55.50122422081274
 20
59.20168611031927
 30
0.0
 11
45.27690769478454
 21
59.20168611031928
 31
0.0
  0
LINE
  5
5A6F
330
5A6C
100
AcDbEntity
  8
DIM
100
AcDbLine
 10
45.77690769478453
 20
40.76168611031928
 30
0.0
 11
45.77690769478453
 21
48.20835277698595
 31
0.0
  0
LINE
  5
5A70
330
5A6C
100
AcDbEntity
  8
DIM
100
AcDbLine
 10
45.77690769478453
 20
58.64168611031928
 30
0.0
 11
45.77690769478453
 21
51.19501944365261
 31
0.0
  0
INSERT
  5
5A71
330
5A6C
100
AcDbEntity
  8
DIM
100
AcDbBlockReference
  2
SEARROW
 10
45.77690769478453
 20
40.20168611031928
 30
0.0
 41
0.5600000000000001
 42
0.5600000000000001
 43
0.5600000000000001
 50
270.0
  0
INSERT
  5
5A72
330
5A6C
100
AcDbEntity
  8
DIM
100
AcDbBlockReference
  2
SEARROW
 10
45.77690769478453
 20
59.20168611031928
 30
0.0
 41
0.5600000000000001
 42
0.5600000000000001
 43
0.5600000000000001
 50
90.0
  0
MTEXT
  5
5A73
330
5A6C
100
AcDbEntity
  8
DIM
100
AcDbMText
 10
45.77690769478452
 20
49.70168611031929
 30
0.0
 40
0.8
 41
0.0
 71
     5
 72
     1
  1
\A1;19.00\P{\H0.8x; [483]
  7
ROMANS
1001
ACAD
1000
MTEXTBEGIN
1070
    73
1070
     1
1070
    44
1040
1.0
1070
    74
1070
     0
1000
MTEXTEND
  0
POINT
  5
5A74
330
5A6C
100
AcDbEntity
  8
DEFPOINTS
 62
     0
100
AcDbPoint
 10
56.00122422081274
 20
40.20168611031927
 30
0.0
  0
POINT
  5
5A75
330
5A6C
100
AcDbEntity
  8
DEFPOINTS
 62
     0
100
AcDbPoint
 10
56.00122422081274
 20
59.20168611031927
 30
0.0
  0
POINT
  5
5A76
330
5A6C
100
AcDbEntity
  8
DEFPOINTS
 62
     0
100
AcDbPoint
 10
45.77690769478453
 20
59.20168611031928
 30
0.0
  0
ENDBLK
  5
5A78
330
5A6C
100
AcDbEntity
  8
0
100
AcDbBlockEnd
  0
BLOCK
  5
5A84
330
5A79
100
AcDbEntity
  8
0
100
AcDbBlockBegin
  2
*D33
 70
     1
 10
0.0
 20
0.0
 30
0.0
  3
*D33
  1

  0
LINE
  5
5A7A
330
5A79
100
AcDbEntity
  8
DIM
100
AcDbLine
 10
50.13122422081275
 20
61.26168611031928
 30
0.0
 11
41.81619338641419
 21
61.26168611031928
 31
0.0
  0
LINE
  5
5A7B
330
5A79
100
AcDbEntity
  8
DIM
100
AcDbLine
 10
50.13122422081275
 20
38.14168611031927
 30
0.0
 11
41.81619338641418
 21
38.14168611031927
 31
0.0
  0
LINE
  5
5A7C
330
5A79
100
AcDbEntity
  8
DIM
100
AcDbLine
 10
42.31619338641419
 20
60.70168611031927
 30
0.0
 11
42.31619338641419
 21
54.18168611031926
 31
0.0
  0
LINE
  5
5A7D
330
5A79
100
AcDbEntity
  8
DIM
100
AcDbLine
 10
42.31619338641418
 20
38.70168611031928
 30
0.0
 11
42.31619338641419
 21
51.19501944365261
 31
0.0
  0
INSERT
  5
5A7E
330
5A79
100
AcDbEntity
  8
DIM
100
AcDbBlockReference
  2
SEARROW
 10
42.31619338641419
 20
61.26168611031928
 30
0.0
 41
0.5600000000000001
 42
0.5600000000000001
 43
0.5600000000000001
 50
90.0
  0
INSERT
  5
5A7F
330
5A79
100
AcDbEntity
  8
DIM
100
AcDbBlockReference
  2
SEARROW
 10
42.31619338641418
 20
38.14168611031927
 30
0.0
 41
0.5600000000000001
 42
0.5600000000000001
 43
0.5600000000000001
 50
270.0
  0
MTEXT
  5
5A80
330
5A79
100
AcDbEntity
  8
DIM
100
AcDbMText
 10
42.31619338641418
 20
52.68835277698594
 30
0.0
 40
0.8
 41
0.0
 71
     5
 72
     1
  1
\A1;23.12\P{\H0.8x; [587]
  7
ROMANS
1001
ACAD
1000
MTEXTBEGIN
1070
    73
1070
     1
1070
    44
1040
1.0
1070
    74
1070
     0
1000
MTEXTEND
  0
POINT
  5
5A81
330
5A79
100
AcDbEntity
  8
DEFPOINTS
 62
     0
100
AcDbPoint
 10
50.63122422081275
 20
61.26168611031928
 30
0.0
  0
POINT
  5
5A82
330
5A79
100
AcDbEntity
  8
DEFPOINTS
 62
     0
100
AcDbPoint
 10
50.63122422081275
 20
38.14168611031927
 30
0.0
  0
POINT
  5
5A83
330
5A79
100
AcDbEntity
  8
DEFPOINTS
 62
     0
100
AcDbPoint
 10
42.31619338641418
 20
38.14168611031927
 30
0.0
  0
ENDBLK
  5
5A85
330
5A79
100
AcDbEntity
  8
0
100
AcDbBlockEnd
  0
BLOCK
  5
5A92
330
5A86
100
AcDbEntity
  8
0
100
AcDbBlockBegin
  2
*D34
 70
     1
 10
0.0
 20
0.0
 30
0.0
  3
*D34
  1

  0
LINE
  5
5A87
330
5A86
100
AcDbEntity
  8
DIM
100
AcDbLine
 10
55.50122422081276
 20
40.20168611031926
 30
0.0
 11
45.27690769478454
 21
40.20168611031926
 31
0.0
  0
LINE
  5
5A88
330
5A86
100
AcDbEntity
  8
DIM
100
AcDbLine
 10
50.13122422081275
 20
38.14168611031927
 30
0.0
 11
45.27690769478454
 21
38.14168611031927
 31
0.0
  0
LINE
  5
5A89
330
5A86
100
AcDbEntity
  8
DIM
100
AcDbLine
 10
45.77690769478453
 20
39.64168611031926
 30
0.0
 11
45.77690769478453
 21
38.70168611031928
 31
0.0
  0
LINE
  5
5A8A
330
5A86
100
AcDbEntity
  8
DIM
100
AcDbLine
 10
45.77690769478453
 20
38.14168611031927
 30
0.0
 11
45.77690769478453
 21
36.20976375508576
 31
0.0
  0
LINE
  5
5A8B
330
5A86
100
AcDbEntity
  8
DIM
100
AcDbLine
 10
45.77690769478453
 20
36.20976375508576
 30
0.0
 11
45.21690769478453
 21
36.20976375508576
 31
0.0
  0
INSERT
  5
5A8C
330
5A86
100
AcDbEntity
  8
DIM
100
AcDbBlockReference
  2
SEARROW
 10
45.77690769478453
 20
40.20168611031926
 30
0.0
 41
0.5600000000000001
 42
0.5600000000000001
 43
0.5600000000000001
 50
90.0
  0
INSERT
  5
5A8D
330
5A86
100
AcDbEntity
  8
DIM
100
AcDbBlockReference
  2
SEARROW
 10
45.77690769478453
 20
38.14168611031927
 30
0.0
 41
0.5600000000000001
 42
0.5600000000000001
 43
0.5600000000000001
 50
270.0
  0
MTEXT
  5
5A8E
330
5A86
100
AcDbEntity
  8
DIM
100
AcDbMText
 10
43.67786007573691
 20
36.20976375508577
 30
0.0
 40
0.8
 41
0.0
 71
     5
 72
     1
  1
\A1;2.06\P{\H0.8x; [52]
  7
ROMANS
1001
ACAD
1000
MTEXTBEGIN
1070
    73
1070
     1
1070
    44
1040
1.0
1070
    74
1070
     0
1000
MTEXTEND
  0
POINT
  5
5A8F
330
5A86
100
AcDbEntity
  8
DEFPOINTS
 62
     0
100
AcDbPoint
 10
56.00122422081276
 20
40.20168611031926
 30
0.0
  0
POINT
  5
5A90
330
5A86
100
AcDbEntity
  8
DEFPOINTS
 62
     0
100
AcDbPoint
 10
50.63122422081275
 20
38.14168611031927
 30
0.0
  0
POINT
  5
5A91
330
5A86
100
AcDbEntity
  8
DEFPOINTS
 62
     0
100
AcDbPoint
 10
45.77690769478453
 20
38.14168611031927
 30
0.0
  0
ENDBLK
  5
5A93
330
5A86
100
AcDbEntity
  8
0
100
AcDbBlockEnd
  0
BLOCK
  5
5C32
330
5A94
100
AcDbEntity
  8
0
100
AcDbBlockBegin
  2
3046
 70
     0
 10
0.0
 20
0.0
 30
0.0
  3
3046
  1

  0
INSERT
  5
5A95
330
5A94
100
AcDbEntity
  8
0
100
AcDbBlockReference
  2
SETUP
 10
6.725780313066863
 20
5.07702380357103
 30
0.0
  0
INSERT
  5
5A96
330
5A94
100
AcDbEntity
  8
0
100
AcDbBlockReference
  2
MEDCLUMP_DMS_1142_
 10
0.7585923366532589
 20
-1.009653345009568
 30
0.0
  0
INSERT
  5
5A97
330
5A94
100
AcDbEntity
  8
0
100
AcDbBlockReference
  2
MEDCLUMP_DMS_1450_
 10
0.7585923366532589
 20
-1.009653345009568
 30
0.0
  0
INSERT
  5
5A98
330
5A94
100
AcDbEntity
  8
0
100
AcDbBlockReference
  2
MEDCLUMP_DMS_1474_
 10
0.7585923366532589
 20
-1.009653345009568
 30
0.0
  0
INSERT
  5
5A99
330
5A94
100
AcDbEntity
  8
0
  6
CONTINUOUS
100
AcDbBlockReference
  2
SETUP
 10
36.22102307275557
 20
9.463835136766618
 30
0.0
  0
MTEXT
  5
5A9A
330
5A94
100
AcDbEntity
  8
0
100
AcDbMText
 10
0.7015888475680973
 20
9.890340654990433
 30
0.0
 40
0.2
 41
0.0
 71
     9
 72
     1
  1

  7
ROMANS
1001
ACAD
1000
MTEXTBEGIN
1070
    73
1070
     1
1070
    44
1040
1.0
1070
    74
1070
     0
1000
MTEXTEND
  0
MTEXT
  5
5A9B
330
5A94
100
AcDbEntity
  8
0
100
AcDbMText
 10
189.0712362786796
 20
218.2169687499913
 30
0.0
 40
0.2
 41
81.2324
 71
     1
 72
     5
  1

  7
ROMANS
1001
ACAD
1000
MTEXTBEGIN
1070
    73
1070
     1
1070
    44
1040
1.0
1070
    74
1070
     0
1000
MTEXTEND
  0
MTEXT
  5
5A9C
330
5A94
100
AcDbEntity
  8
0
100
AcDbMText
 10
53.63297733665327
 20
253.4090946549904
 30
0.0
 40
0.2
 41
0.0
 71
     9
 72
     1
  1

  7
ROMANS
1001
ACAD
1000
MTEXTBEGIN
1070
    73
1070
     1
1070
    44
1040
1.0
1070
    74
1070
     0
1000
MTEXTEND
  0
MTEXT
  5
5A9D
330
5A94
100
AcDbEntity
  8
0
100
AcDbMText
 10
118.3282833366532
 20
200.6117216549904
 30
0.0
 40
0.2
 41
0.0
 71
     1
 72
     1
  1

  7
ROMANS
1001
ACAD
1000
MTEXTBEGIN
1070
    73
1070
     1
1070
    44
1040
1.0
1070
    74
1070
     0
1000
MTEXTEND
  0
MTEXT
  5
5A9E
330
5A94
100
AcDbEntity
  8
0
100
AcDbMText
 10
137.7927023366533
 20
240.1654046549904
 30
0.0
 40
0.2
 41
0.0
 71
     1
 72
     1
  1

  7
ROMANS
1001
ACAD
1000
MTEXTBEGIN
1070
    73
1070
     1
1070
    44
1040
1.0
1070
    74
1070
     0
1000
MTEXTEND
  0
MTEXT
  5
5A9F
330
5A94
100
AcDbEntity
  8
0
100
AcDbMText
 10
118.3282833366532
 20
249.3791286549903
 30
0.0
 40
0.2
 41
0.0
 71
     1
 72
     1
  1

  7
ROMANS
1001
ACAD
1000
MTEXTBEGIN
1070
    73
1070
     1
1070
    44
1040
1.0
1070
    74
1070
     0
1000
MTEXTEND
  0
MTEXT
  5
5AA0
330
5A94
100
AcDbEntity
  8
0
100
AcDbMText
 10
137.5565703366532
 20
260.8364576549904
 30
0.0
 40
0.2
 41
0.0
 71
     1
 72
     1
  1

  7
ROMANS
1001
ACAD
1000
MTEXTBEGIN
1070
    73
1070
     1
1070
    44
1040
1.0
1070
    74
1070
     0
1000
MTEXTEND
  0
MTEXT
  5
5AA1
330
5A94
100
AcDbEntity
  8
0
100
AcDbMText
 10
51.03124833665328
 20
95.94974065499044
 30
0.0
 40
0.2
 41
0.0
 71
     9
 72
     1
  1

  7
ROMANS
1001
ACAD
1000
MTEXTBEGIN
1070
    73
1070
     1
1070
    44
1040
1.0
1070
    74
1070
     0
1000
MTEXTEND
  0
MTEXT
  5
5AA2
330
5A94
100
AcDbEntity
  8
0
100
AcDbMText
 10
53.26940633665328
 20
73.81266465499045
 30
0.0
 40
0.2
 41
0.0
 71
     9
 72
     1
  1

  7
ROMANS
1001
ACAD
1000
MTEXTBEGIN
1070
    73
1070
     1
1070
    44
1040
1.0
1070
    74
1070
     0
1000
MTEXTEND
  0
MTEXT
  5
5AA3
330
5A94
100
AcDbEntity
  8
0
100
AcDbMText
 10
113.3234768366532
 20
81.84958465499041
 30
0.0
 40
0.2
 41
0.0
 71
     1
 72
     1
  1

  7
ROMANS
1001
ACAD
1000
MTEXTBEGIN
1070
    73
1070
     1
1070
    44
1040
1.0
1070
    74
1070
     0
1000
MTEXTEND
  0
MTEXT
  5
5AA4
330
5A94
100
AcDbEntity
  8
0
100
AcDbMText
 10
116.3397238366532
 20
110.8464486549904
 30
0.0
 40
0.2
 41
0.0
 71
     1
 72
     1
  1

  7
ROMANS
1001
ACAD
1000
MTEXTBEGIN
1070
    73
1070
     1
1070
    44
1040
1.0
1070
    74
1070
     0
1000
MTEXTEND
  0
MTEXT
  5
5AA5
330
5A94
100
AcDbEntity
  8
0
100
AcDbMText
 10
364.0419983366533
 20
258.0089236549903
 30
0.0
 40
0.2
 41
0.0
 71
     9
 72
     1
  1

  7
ROMANS
1001
ACAD
1000
MTEXTBEGIN
1070
    73
1070
     1
1070
    44
1040
1.0
1070
    74
1070
     0
1000
MTEXTEND
  0
MTEXT
  5
5AA6
330
5A94
100
AcDbEntity
  8
0
100
AcDbMText
 10
374.1704245970126
 20
179.7432640415952
 30
0.0
 40
0.2
 41
0.0
 71
     9
 72
     1
  1

  7
ROMANS
1001
ACAD
1000
MTEXTBEGIN
1070
    73
1070
     1
1070
    44
1040
1.0
1070
    74
1070
     0
1000
MTEXTEND
  0
MTEXT
  5
5AA7
330
5A94
100
AcDbEntity
  8
0
100
AcDbMText
 10
213.6848731135625
 20
114.1031580866561
 30
0.0
 40
0.2
 41
0.0
 71
     9
 72
     1
  1

  7
ROMANS
1001
ACAD
1000
MTEXTBEGIN
1070
    73
1070
     1
1070
    44
1040
1.0
1070
    74
1070
     0
1000
MTEXTEND
  0
MTEXT
  5
5AA8
330
5A94
100
AcDbEntity
  8
0
100
AcDbMText
 10
261.5481263366532
 20
115.8823886549904
 30
0.0
 40
0.2
 41
0.0
 71
     1
 72
     1
  1

  7
ROMANS
1001
ACAD
1000
MTEXTBEGIN
1070
    73
1070
     1
1070
    44
1040
1.0
1070
    74
1070
     0
1000
MTEXTEND
  0
MTEXT
  5
5AA9
330
5A94
100
AcDbEntity
  8
0
100
AcDbMText
 10
259.7213143366532
 20
106.5069966549904
 30
0.0
 40
0.2
 41
0.0
 71
     1
 72
     1
  1

  7
ROMANS
1001
ACAD
1000
MTEXTBEGIN
1070
    73
1070
     1
1070
    44
1040
1.0
1070
    74
1070
     0
1000
MTEXTEND
  0
MTEXT
  5
5AAA
330
5A94
100
AcDbEntity
  8
0
100
AcDbMText
 10
295.7667253366532
 20
94.50920565499044
 30
0.0
 40
0.2
 41
0.0
 71
     1
 72
     1
  1

  7
ROMANS
1001
ACAD
1000
MTEXTBEGIN
1070
    73
1070
     1
1070
    44
1040
1.0
1070
    74
1070
     0
1000
MTEXTEND
  0
MTEXT
  5
5AAB
330
5A94
100
AcDbEntity
  8
0
100
AcDbMText
 10
294.2892032198323
 20
72.69888765499043
 30
0.0
 40
0.2
 41
0.0
 71
     1
 72
     1
  1

  7
ROMANS
1001
ACAD
1000
MTEXTBEGIN
1070
    73
1070
     1
1070
    44
1040
1.0
1070
    74
1070
     0
1000
MTEXTEND
  0
MTEXT
  5
5AAC
330
5A94
100
AcDbEntity
  8
0
100
AcDbMText
 10
255.9529913366533
 20
161.9187166549904
 30
0.0
 40
0.2
 41
0.0
 71
     1
 72
     1
  1

  7
ROMANS
1001
ACAD
1000
MTEXTBEGIN
1070
    73
1070
     1
1070
    44
1040
1.0
1070
    74
1070
     0
1000
MTEXTEND
  0
MTEXT
  5
5AAD
330
5A94
100
AcDbEntity
  8
0
100
AcDbMText
 10
219.0826773366533
 20
140.8776966549904
 30
0.0
 40
0.2
 41
0.0
 71
     1
 72
     1
  1

  7
ROMANS
1001
ACAD
1000
MTEXTBEGIN
1070
    73
1070
     1
1070
    44
1040
1.0
1070
    74
1070
     0
1000
MTEXTEND
  0
MTEXT
  5
5AAE
330
5A94
100
AcDbEntity
  8
0
100
AcDbMText
 10
271.5200623366533
 20
48.93008765499044
 30
0.0
 40
0.2
 41
0.0
 71
     1
 72
     1
  1

  7
ROMANS
1001
ACAD
1000
MTEXTBEGIN
1070
    73
1070
     1
1070
    44
1040
1.0
1070
    74
1070
     0
1000
MTEXTEND
  0
MTEXT
  5
5AAF
330
5A94
100
AcDbEntity
  8
0
100
AcDbMText
 10
269.1739133366532
 20
35.87993365499044
 30
0.0
 40
0.2
 41
0.0
 71
     1
 72
     1
  1

  7
ROMANS
1001
ACAD
1000
MTEXTBEGIN
1070
    73
1070
     1
1070
    44
1040
1.0
1070
    74
1070
     0
1000
MTEXTEND
  0
LWPOLYLINE
  5
5AB0
330
5A94
100
AcDbEntity
  8
VIEWPORT
100
AcDbPolyline
 90
        6
 70
     1
 43
0.0
 10
131.200008
 20
82.0
 10
131.200008
 20
7.296016000000008
 10
64.01968799999997
 20
7.296016000000008
 10
64.01968799999997
 20
0.0
 10
0.0
 20
0.0
 10
0.0
 20
82.0
1001
GENIUS_GENOREF_13
1005
0
1005
0
1005
0
1005
0
1005
0
1005
0
1005
0
1005
0
  0
VIEWPORT
  5
5AB1
330
5A94
100
AcDbEntity
  8
VIEWPORT
100
AcDbViewport
 10
65.60000400000001
 20
41.0
 30
0.0
 40
131.200008
 41
82.0
 69
     0
1001
ACAD
1000
MVIEW
1002
{
1070
    16
1010
0.0
1020
0.0
1030
0.0
1010
0.0
1020
0.0
1030
1.0
1040
0.0
1040
133.2499998667499
1040
2683.27431646614
1040
1656.609511129782
1040
50.0
1040
0.0
1040
0.0
1070
     0
1070
   100
1070
     1
1070
     2
1070
     0
1070
     0
1070
     0
1070
     0
1040
0.0
1040
0.0
1040
0.0
1040
0.5
1040
0.5
1040
0.5
1040
0.5
1070
     0
1002
{
1002
}
1002
}
1001
GENIUS_GENOREF_13
1005
0
1005
0
1005
0
1005
0
1005
0
1005
0
1005
0
1005
0
1001
GENIUS_GENSCREG_15
1000
PF
1040
0.0
1000
DF
1040
0.0
1000
MIN
1011
-792.4212355528315
1021
-489.4241464725102
1031
0.0
1000
MAX
1011
-661.2212275528314
1021
-407.4241464725103
1031
0.0
1000
FLAGS
1070
     2
  0
INSERT
  5
5AB2
330
5A94
100
AcDbEntity
  8
0
100
AcDbBlockReference
  2
0SETUP
 10
6.978999856125817
 20
3.591539568616315
 30
0.0
  0
TEXT
  5
5AB3
330
5A94
100
AcDbEntity
  8
TEXT1
100
AcDbText
 10
78.56946285941218
 20
20.68858414904539
 30
0.0
 40
0.6599999952504016
  1
RATING
  7
ROMANS
 72
     1
 11
80.2508914187406
 21
21.01858414667059
 31
0.0
100
AcDbText
 73
     2
  0
TEXT
  5
5AB4
330
5A94
100
AcDbEntity
  8
TEXT1
100
AcDbText
 10
110.6939488068157
 20
19.51904523686832
 30
0.0
 40
0.6599999952504016
  1
AWG
  7
ROMANS
 72
     1
 11
111.6525202284889
 21
19.84904523449352
 31
0.0
100
AcDbText
 73
     2
  0
TEXT
  5
5AB5
330
5A94
100
AcDbEntity
  8
TEXT1
100
AcDbText
 10
110.1282345251725
 20
18.47404523686831
 30
0.0
 40
0.6599999952504016
  1
AL/CU
  7
ROMANS
 72
     1
 11
111.6525202284889
 21
18.80404523449351
 31
0.0
100
AcDbText
 73
     2
  0
TEXT
  5
5AB6
330
5A94
100
AcDbEntity
  8
TEXT1
100
AcDbText
 10
108.1325202538201
 20
21.60904523686832
 30
0.0
 40
0.6599999952504016
  1
TERMINAL LUG
  7
ROMANS
 72
     1
 11
111.6525202284889
 21
21.93904523449352
 31
0.0
100
AcDbText
 73
     2
  0
TEXT
  5
5AB7
330
5A94
100
AcDbEntity
  8
TEXT1
100
AcDbText
 10
94.46873353690179
 20
24.15534282938901
 30
0.0
 40
0.6599999952504016
  1
CIRCUIT BREAKER (ORDER SEPARATELY)
  7
ROMANS
 72
     1
 11
104.4944477504674
 21
24.48534282701421
 31
0.0
100
AcDbText
 73
     2
  0
TEXT
  5
5AB8
330
5A94
100
AcDbEntity
  8
TEXT1
100
AcDbText
 10
101.3311132150513
 20
22.05645905749267
 30
0.0
 40
0.6599999952504016
  1
UL LISTED
  7
ROMANS
 72
     1
 11
103.8768274824457
 21
22.38645905511787
 31
0.0
100
AcDbText
 73
     2
  0
TEXT
  5
5AB9
330
5A94
100
AcDbEntity
  8
TEXT1
100
AcDbText
 10
94.47869237542533
 20
20.54027723090118
 30
0.0
 40
0.6599999952504016
  1
CATALOG
  7
ROMANS
 72
     1
 11
96.56869236038495
 21
20.87027722852638
 31
0.0
100
AcDbText
 73
     2
  0
TEXT
  5
5ABA
330
5A94
100
AcDbEntity
  8
TEXT1
100
AcDbText
 10
117.4021788687437
 20
24.14645706431334
 30
0.0
 40
0.6599999952504016
  1
NEUTRAL ASSEMBLY
  7
ROMANS
 72
     1
 11
122.3678931187229
 21
24.47645706193854
 31
0.0
100
AcDbText
 73
     2
  0
TEXT
  5
5ABB
330
5A94
100
AcDbEntity
  8
TEXT1
100
AcDbText
 10
118.8478931440541
 20
23.101458060903
 30
0.0
 40
0.6599999952504016
  1
TERMINAL LUG
  7
ROMANS
 72
     1
 11
122.3678931187229
 21
23.4314580585282
 31
0.0
100
AcDbText
 73
     2
  0
TEXT
  5
5ABC
330
5A94
100
AcDbEntity
  8
TEXT1
100
AcDbText
 10
119.8536074225309
 20
22.05645905749265
 30
0.0
 40
0.6599999952504016
  1
WIRE SIZE
  7
ROMANS
 72
     1
 11
122.3678931187229
 21
22.38645905511785
 31
0.0
100
AcDbText
 73
     2
  0
TEXT
  5
5ABD
330
5A94
100
AcDbEntity
  8
TEXT1
100
AcDbText
 10
121.4093216970497
 20
21.01146005408232
 30
0.0
 40
0.6599999952504016
  1
AWG
  7
ROMANS
 72
     1
 11
122.3678931187229
 21
21.34146005170752
 31
0.0
100
AcDbText
 73
     2
  0
TEXT
  5
5ABE
330
5A94
100
AcDbEntity
  8
TEXT1
100
AcDbText
 10
116.7833832836734
 20
19.15807626745524
 30
0.0
 40
0.6599999952504016
  1
NEUTRAL
  7
ROMANS
 72
     1
 11
118.951954696639
 21
19.48807626508044
 31
0.0
100
AcDbText
 73
     2
  0
TEXT
  5
5ABF
330
5A94
100
AcDbEntity
  8
TEXT1
100
AcDbText
 10
78.34946286099539
 20
21.73358414904539
 30
0.0
 40
0.6599999952504016
  1
AMPERE
  7
ROMANS
 72
     1
 11
80.2508914187406
 21
22.06358414667059
 31
0.0
100
AcDbText
 73
     2
  0
TEXT
  5
5AC0
330
5A94
100
AcDbEntity
  8
TEXT1
100
AcDbText
 10
109.1382345322969
 20
20.56404523686831
 30
0.0
 40
0.6599999952504016
  1
WIRE SIZE
  7
ROMANS
 72
     1
 11
111.6525202284889
 21
20.89404523449351
 31
0.0
100
AcDbText
 73
     2
  0
TEXT
  5
5AC1
330
5A94
100
AcDbEntity
  8
TEXT1
100
AcDbText
 10
72.72272766351673
 20
21.16646105067198
 30
0.0
 40
0.6599999952504016
  1
SERVICE
  7
ROMANS
 72
     1
 11
74.71844193486913
 21
21.49646104829718
 31
0.0
100
AcDbText
 73
     2
  0
TEXT
  5
5AC2
330
5A94
100
AcDbEntity
  8
TEXT1
100
AcDbText
 10
100.4511132213841
 20
21.01146005408233
 30
0.0
 40
0.6599999952504016
  1
INTERRUPTING
  7
ROMANS
 72
     1
 11
103.8768274824457
 21
21.34146005170753
 31
0.0
100
AcDbText
 73
     2
  0
TEXT
  5
5AC3
330
5A94
100
AcDbEntity
  8
TEXT1
100
AcDbText
 10
101.3939703574561
 20
18.92146204726165
 30
0.0
 40
0.6599999952504016
  1
RMS SYM.
  7
ROMANS
 72
     1
 11
103.8768274824457
 21
19.25146204488685
 31
0.0
100
AcDbText
 73
     2
  0
TEXT
  5
5AC4
330
5A94
100
AcDbEntity
  8
TEXT1
100
AcDbText
 10
101.6768274982777
 20
17.87646304385131
 30
0.0
 40
0.6599999952504016
  1
AMPERES
  7
ROMANS
 72
     1
 11
103.8768274824457
 21
18.20646304147651
 31
0.0
100
AcDbText
 73
     2
  0
TEXT
  5
5AC5
330
5A94
100
AcDbEntity
  8
TEXT1
100
AcDbText
 10
102.1953989231173
 20
19.96646105067199
 30
0.0
 40
0.6599999952504016
  1
RATING
  7
ROMANS
 72
     1
 11
103.8768274824457
 21
20.29646104829719
 31
0.0
100
AcDbText
 73
     2
  0
TEXT
  5
5AC6
330
5A94
100
AcDbEntity
  8
TEXT1
100
AcDbText
 10
94.52583523222894
 20
19.49527822749084
 30
0.0
 40
0.6599999952504016
  1
NUMBER
  7
ROMANS
 72
     1
 11
96.56869236038495
 21
19.82527822511604
 31
0.0
100
AcDbText
 73
     2
  0
TEXT
  5
5AC7
330
5A94
100
AcDbEntity
  8
TEXT1
100
AcDbText
 10
116.3905261436434
 20
18.1130772640449
 30
0.0
 40
0.6599999952504016
  1
TERMINALS
  7
ROMANS
 72
     1
 11
118.951954696639
 21
18.4430772616701
 31
0.0
100
AcDbText
 73
     2
  0
TEXT
  5
5AC8
330
5A94
100
AcDbEntity
  8
TEXT1
100
AcDbText
 10
95.62213951497612
 20
16.2311534191366
 30
0.0
 40
0.6599999952504016
  1
Q2L
  7
ROMANS
 72
     1
 11
96.58071093664933
 21
16.5611534167618
 31
0.0
100
AcDbText
 73
     2
  0
TEXT
  5
5AC9
330
5A94
100
AcDbEntity
  8
TEXT1
100
AcDbText
 10
95.60642522937492
 20
13.38771749261369
 30
0.0
 40
0.6599999952504016
  1
QBL
  7
ROMANS
 72
     1
 11
96.58071093664933
 21
13.71771749023889
 31
0.0
100
AcDbText
 73
     2
  0
TEXT
  5
5ACA
330
5A94
100
AcDbEntity
  8
TEXT1
100
AcDbText
 10
94.91499666292211
 20
15.03115341913663
 30
0.0
 40
0.6599999952504016
  1
Q2L-H
  7
ROMANS
 72
     1
 11
96.58071093664933
 21
15.36115341676183
 31
0.0
100
AcDbText
 73
     2
  0
TEXT
  5
5ACB
330
5A94
100
AcDbEntity
  8
TEXT1
100
AcDbText
 10
123.0457187912147
 20
11.80943545587516
 30
0.0
 40
0.6599999952504016
  1
14-1/0 CU
  7
ROMANS
 72
     1
 11
126.0942901978475
 21
12.13943545350036
 31
0.0
100
AcDbText
 73
     2
  0
TEXT
  5
5ACC
330
5A94
100
AcDbEntity
  8
TEXT1
100
AcDbText
 10
123.1242902192207
 20
14.20943545587509
 30
0.0
 40
0.6599999952504016
  1
12-1/0 AL
  7
ROMANS
 72
     1
 11
126.0942901978475
 21
14.53943545350029
 31
0.0
100
AcDbText
 73
     2
  0
TEXT
  5
5ACD
330
5A94
100
AcDbEntity
  8
TEXT1
100
AcDbText
 10
125.100002918949
 20
13.00943545587512
 30
0.0
 40
0.6599999952504016
  1
OR
  7
ROMANS
 72
     1
 11
125.7757171998006
 21
13.33943545350033
 31
0.0
100
AcDbText
 73
     2
  0
TEXT
  5
5ACE
330
5A94
100
AcDbEntity
  8
TEXT1
100
AcDbText
 10
117.4195546523165
 20
12.45191530473683
 30
0.0
 40
0.6599999952504016
  1
AL/CU
  7
ROMANS
 72
     1
 11
118.9438403556329
 21
12.78191530236203
 31
0.0
100
AcDbText
 73
     2
  0
TEXT
  5
5ACF
330
5A94
100
AcDbEntity
  8
TEXT1
100
AcDbText
 10
117.2781260819057
 20
13.6519153047368
 30
0.0
 40
0.6599999952504016
  1
4-250
  7
ROMANS
 72
     1
 11
118.9438403556329
 21
13.981915302362
 31
0.0
100
AcDbText
 73
     2
  0
TEXT
  5
5AD0
330
5A94
100
AcDbEntity
  8
TEXT1
100
AcDbText
 10
102.0813858751299
 20
16.2311534191366
 30
0.0
 40
0.6599999952504016
  1
10,000
  7
ROMANS
 72
     1
 11
103.8571001480655
 21
16.5611534167618
 31
0.0
100
AcDbText
 73
     2
  0
TEXT
  5
5AD1
330
5A94
100
AcDbEntity
  8
TEXT1
100
AcDbText
 10
102.0813858751299
 20
13.38771749261369
 30
0.0
 40
0.6599999952504016
  1
10,000
  7
ROMANS
 72
     1
 11
103.8571001480655
 21
13.71771749023889
 31
0.0
100
AcDbText
 73
     2
  0
TEXT
  5
5AD2
330
5A94
100
AcDbEntity
  8
TEXT1
100
AcDbText
 10
102.1285287319335
 20
15.03115341913663
 30
0.0
 40
0.6599999952504016
  1
22,000
  7
ROMANS
 72
     1
 11
103.8571001480655
 21
15.36115341676183
 31
0.0
100
AcDbText
 73
     2
  0
TEXT
  5
5AD3
330
5A94
100
AcDbEntity
  8
TEXT1
100
AcDbText
 10
85.08940716362049
 20
13.00943545587517
 30
0.0
 40
0.6599999952504016
  1
Q2-2200NS
  7
ROMANS
 72
     1
 11
88.07512142784849
 21
13.33943545350037
 31
0.0
100
AcDbText
 73
     2
  0
TEXT
  5
5AD4
330
5A94
100
AcDbEntity
  8
TEXT1
100
AcDbText
 10
77.59517715213779
 20
15.63115341913662
 30
0.0
 40
0.6599999952504016
  1
100-200A
  7
ROMANS
 72
     1
 11
80.2508914187406
 21
15.96115341676182
 31
0.0
100
AcDbText
 73
     2
  0
TEXT
  5
5AD5
330
5A94
100
AcDbEntity
  8
TEXT1
100
AcDbText
 10
72.85973760225823
 20
11.34234003313037
 30
0.0
 40
0.6599999952504016
  1
240VAC
  7
ROMANS
 72
     1
 11
74.69830901759863
 21
11.67234003075557
 31
0.0
100
AcDbText
 73
     2
  0
TEXT
  5
5AD6
330
5A94
100
AcDbEntity
  8
TEXT1
100
AcDbText
 10
109.3153499347598
 20
13.11866376772673
 30
0.0
 40
0.6599999952504016
  1
 4-300
  7
ROMANS
 72
     1
 11
111.6410642037374
 21
13.44866376535193
 31
0.0
100
AcDbText
 73
     2
  0
TEXT
  5
5AD7
330
5A94
100
AcDbEntity
  8
TEXT1
100
AcDbText
 10
109.0785286106344
 20
13.11866376772673
 30
0.0
 40
0.6599999952504016
  1
#
  7
ROMANS
 72
     1
 11
109.4085286082596
 21
13.44866376535193
 31
0.0
100
AcDbText
 73
     2
  0
TEXT
  5
5AD8
330
5A94
100
AcDbEntity
  8
TEXT1
100
AcDbText
 10
116.5614155456908
 20
13.6519153047368
 30
0.0
 40
0.6599999952504016
  1
#
  7
ROMANS
 72
     1
 11
116.891415543316
 21
13.981915302362
 31
0.0
100
AcDbText
 73
     2
  0
TEXT
  5
5AD9
330
5A94
100
AcDbEntity
  8
TEXT1
100
AcDbText
 10
122.5426435098537
 20
14.20943545587511
 30
0.0
 40
0.6599999952504016
  1
#
  7
ROMANS
 72
     1
 11
122.8726435074789
 21
14.53943545350031
 31
0.0
100
AcDbText
 73
     2
  0
TEXT
  5
5ADA
330
5A94
100
AcDbEntity
  8
TEXT1
100
AcDbText
 10
122.5426435098537
 20
11.80943545587518
 30
0.0
 40
0.6599999952504016
  1
#
  7
ROMANS
 72
     1
 11
122.8726435074789
 21
12.13943545350038
 31
0.0
100
AcDbText
 73
     2
  0
TEXT
  5
5ADB
330
5A94
100
AcDbEntity
  8
TEXT1
100
AcDbText
 10
46.90636871357882
 20
44.40583289985579
 30
0.0
 40
0.8
  1
A,B
  7
ROMANS
 72
     1
 11
47.80160680881691
 21
44.80583289985579
 31
0.0
100
AcDbText
 73
     2
  0
TEXT
  5
5ADC
330
5A94
100
AcDbEntity
  8
TEXT1
100
AcDbText
 10
70.50371255893449
 20
34.75520142980727
 30
0.0
 40
0.8
  1
D,E,F,G
  7
ROMANS
 72
     1
 11
72.5989506541726
 21
35.15520142980727
 31
0.0
100
AcDbText
 73
     2
  0
LINE
  5
5ADD
330
5A94
100
AcDbEntity
  8
CONTINUOUS1
100
AcDbLine
 10
71.87261459378942
 20
17.38287138002327
 30
0.0
 11
129.1997699628906
 21
17.38287138002326
 31
0.0
  0
LINE
  5
5ADE
330
5A94
100
AcDbEntity
  8
CONTINUOUS1
100
AcDbLine
 10
115.5360162745552
 20
20.45146204488683
 30
0.0
 11
129.1877513866262
 21
20.45146204488684
 31
0.0
  0
LINE
  5
5ADF
330
5A94
100
AcDbEntity
  8
HIDDEN1
100
AcDbLine
 10
75.09423177271668
 20
13.80832965943304
 30
0.0
 11
76.18895177271667
 21
13.80832965943304
 31
0.0
  0
LWPOLYLINE
  5
5AE0
330
5A94
100
AcDbEntity
  8
CONTINUOUS1
100
AcDbPolyline
 90
        4
 70
   129
 43
0.0
 10
72.77135540622473
 20
15.06087457663357
 10
73.87333630215938
 20
15.06087457663357
 10
73.87333630215938
 20
12.43223936086752
 10
72.77135540622473
 20
12.43223936086752
  0
TEXT
  5
5AE1
330
5A94
100
AcDbEntity
  8
TEXT1
100
AcDbText
 10
73.038682511429
 20
12.7856781101569
 30
0.0
 40
0.56
  1
N
  7
ROMANS
 72
     1
 11
73.33201584476234
 21
13.0656781101569
 31
0.0
100
AcDbText
 73
     2
  0
TEXT
  5
5AE2
330
5A94
100
AcDbEntity
  8
TEXT1
100
AcDbText
 10
73.038682511429
 20
13.4256781101569
 30
0.0
 40
0.56
  1
/
  7
ROMANS
 72
     1
 11
73.33201584476234
 21
13.7056781101569
 31
0.0
100
AcDbText
 73
     2
  0
TEXT
  5
5AE3
330
5A94
100
AcDbEntity
  8
TEXT1
100
AcDbText
 10
73.06534917809567
 20
14.06567811015692
 30
0.0
 40
0.56
  1
S
  7
ROMANS
 72
     1
 11
73.33201584476234
 21
14.34567811015692
 31
0.0
100
AcDbText
 73
     2
  0
CIRCLE
  5
5AE4
330
5A94
100
AcDbEntity
  8
CONTINUOUS1
100
AcDbCircle
 10
74.75185367006062
 20
15.03057549723056
 30
0.0
 40
0.229079082812258
  0
CIRCLE
  5
5AE5
330
5A94
100
AcDbEntity
  8
CONTINUOUS1
100
AcDbCircle
 10
74.75185367006062
 20
12.58607546492115
 30
0.0
 40
0.229079082812258
  0
LWPOLYLINE
  5
5AE6
330
5A94
100
AcDbEntity
  8
CONTINUOUS1
100
AcDbPolyline
 90
       11
 70
   128
 43
0.0
 10
74.73756801027059
 20
14.80194228418735
 10
74.73756801027059
 20
14.16875427492526
 10
74.87464589018983
 20
14.14025024468412
 10
74.99611875893544
 20
14.05578011046536
 10
75.06839296042787
 20
13.9427295470058
 10
75.0942653940088
 20
13.80832548107585
 10
75.06839296042787
 20
13.6739214151459
 10
74.99611875893544
 20
13.56087085168635
 10
74.87464589018983
 20
13.47640071746758
 10
74.73756801027059
 20
13.44789668722645
 10
74.73756801027059
 20
12.81470867794239
  0
LWPOLYLINE
  5
5AE7
330
5A94
100
AcDbEntity
  8
CONTINUOUS1
100
AcDbPolyline
 90
       11
 70
   128
 43
0.0
 10
75.83223289742218
 20
14.80194228418735
 10
75.83223289742218
 20
14.16875427492526
 10
75.96931077734146
 20
14.14025024468412
 10
76.09078364608703
 20
14.05578011046536
 10
76.16305784757947
 20
13.9427295470058
 10
76.1889302811604
 20
13.80832548107585
 10
76.16305784757947
 20
13.6739214151459
 10
76.09078364608703
 20
13.56087085168635
 10
75.96931077734146
 20
13.47640071746758
 10
75.83223289742218
 20
13.44789668722645
 10
75.83223289742218
 20
12.81470867794239
  0
CIRCLE
  5
5AE8
330
5A94
100
AcDbEntity
  8
CONTINUOUS1
100
AcDbCircle
 10
75.8465176715255
 20
15.03057549723056
 30
0.0
 40
0.2290790828122296
  0
CIRCLE
  5
5AE9
330
5A94
100
AcDbEntity
  8
CONTINUOUS1
100
AcDbCircle
 10
75.8465176715255
 20
12.58607546492115
 30
0.0
 40
0.2290790828122296
  0
LWPOLYLINE
  5
5AEA
330
5A94
100
AcDbEntity
  8
DIM
100
AcDbPolyline
 90
        3
 70
   128
 43
0.0
 10
61.33844943876193
 20
59.34062239739578
 10
64.81697916396521
 20
64.2073085907111
 10
65.81697916396521
 20
64.2073085907111
  0
INSERT
  5
5AEB
330
5A94
100
AcDbEntity
  8
DIM
100
AcDbBlockReference
  2
M_PFN_101
 10
61.33844943876193
 20
59.34062239739578
 30
0.0
 41
8.000000000000001
 42
8.0
 43
8.0
 50
54.44419901335694
  0
LWPOLYLINE
  5
5AEC
330
5A94
100
AcDbEntity
  8
TEXT1
100
AcDbPolyline
 90
        3
 70
   128
 43
0.0
 10
65.38422589107303
 20
40.20192862048966
 10
68.64168801451779
 20
35.10152598764156
 10
69.6416880145178
 20
35.10152598764156
  0
INSERT
  5
5AED
330
5A94
100
AcDbEntity
  8
TEXT1
100
AcDbBlockReference
  2
M_PFN_101
 10
65.38422589107303
 20
40.20192862048966
 30
0.0
 41
7.999999999999999
 42
8.0
 43
8.0
 50
302.5650541755919
  0
LWPOLYLINE
  5
5AEE
330
5A94
100
AcDbEntity
  8
DIM
100
AcDbPolyline
 90
        3
 70
   128
 43
0.0
 10
58.50268879897304
 20
37.2287224634616
 10
52.29153065078349
 20
30.63622033735322
 10
51.2915306507835
 20
30.63622033735322
  0
INSERT
  5
5AEF
330
5A94
100
AcDbEntity
  8
DIM
100
AcDbBlockReference
  2
M_PFN_101
 10
58.50268879897304
 20
37.2287224634616
 30
0.0
 41
8.000000000000003
 42
8.0
 43
8.0
 50
226.705992090038
  0
LWPOLYLINE
  5
5AF0
330
5A94
100
AcDbEntity
  8
TEXT1
100
AcDbPolyline
 90
        3
 70
   128
 43
0.0
 10
53.22841244330516
 20
43.17238474360417
 10
49.91994850237611
 20
44.80464340397143
 10
49.11656480464357
 20
44.80464340397143
  0
INSERT
  5
5AF1
330
5A94
100
AcDbEntity
  8
TEXT1
100
AcDbBlockReference
  2
M_PFN_101
 10
53.22841244330516
 20
43.17238474360417
 30
0.0
 41
8.0
 42
8.0
 43
8.0
 50
153.7401828030081
  0
TEXT
  5
5AF2
330
5A94
100
AcDbEntity
  8
TEXT1
100
AcDbText
 10
122.307203777893
 20
27.37723724382344
 30
0.0
 40
0.6400000000000001
  1
MILLIMETERS
  7
ROMANS
 11
122.307203777893
 21
27.69723724382344
 31
0.0
100
AcDbText
 73
     2
  0
TEXT
  5
5AF3
330
5A94
100
AcDbEntity
  8
TEXT1
100
AcDbText
 10
122.3604837785797
 20
28.49723724382345
 30
0.0
 40
0.8
  1
INCHES
  7
ROMANS
 11
122.3604837785797
 21
28.89723724382344
 31
0.0
100
AcDbText
 73
     2
  0
TEXT
  5
5AF4
330
5A94
100
AcDbEntity
  8
TEXT1
100
AcDbText
 10
112.9375653348999
 20
28.07640373247091
 30
0.0
 40
0.6400000000000001
  1
DUAL DIMENSIONS:
  7
ROMANS
 11
112.9375653348999
 21
28.39640373247091
 31
0.0
100
AcDbText
 73
     2
  0
TEXT
  5
5AF5
330
5A94
100
AcDbEntity
  8
TEXT1
100
AcDbText
 10
4.213121899230955
 20
1.679999999999985
 30
0.0
 40
0.6400000000000001
  1
EQUIPMENT GROUND KIT FACTORY INSTALLED.
  7
ROMANS
 11
4.213121899230955
 21
1.999999999999985
 31
0.0
100
AcDbText
 73
     2
  0
TEXT
  5
5AF6
330
5A94
100
AcDbEntity
  8
TEXT1
100
AcDbText
 10
4.213121899230955
 20
4.079999999999969
 30
0.0
 40
0.6400000000000001
  1
UL LISTED - FILE E-136861
  7
ROMANS
 11
4.213121899230955
 21
4.39999999999997
 31
0.0
100
AcDbText
 73
     2
  0
TEXT
  5
5AF7
330
5A94
100
AcDbEntity
  8
TEXT1
100
AcDbText
 10
122.4991563308634
 20
19.15807626745531
 30
0.0
 40
0.6599999952504016
  1
GROUNDING
  7
ROMANS
 72
     1
 11
125.3277277390794
 21
19.48807626508051
 31
0.0
100
AcDbText
 73
     2
  0
TEXT
  5
5AF8
330
5A94
100
AcDbEntity
  8
TEXT1
100
AcDbText
 10
122.7662991860838
 20
18.11307726404497
 30
0.0
 40
0.6599999952504016
  1
TERMINALS
  7
ROMANS
 72
     1
 11
125.3277277390794
 21
18.44307726167017
 31
0.0
100
AcDbText
 73
     2
  0
LWPOLYLINE
  5
5AF9
330
5A94
100
AcDbEntity
  8
CONTINUOUS1
100
AcDbPolyline
 90
        4
 70
   129
 43
0.0
 10
71.87261459378942
 20
25.68534282701421
 10
77.50429392008527
 20
25.68534282701421
 10
77.50429392008527
 20
9.295999526977507
 10
71.87261459378942
 20
9.295999526977507
  0
LWPOLYLINE
  5
5AFA
330
5A94
100
AcDbEntity
  8
CONTINUOUS1
100
AcDbPolyline
 90
        4
 70
   129
 43
0.0
 10
77.50429392008527
 20
9.295999526977464
 10
82.99748891739591
 20
9.295999526977464
 10
82.99748891739591
 20
25.68534282701425
 10
77.50429392008527
 20
25.68534282701425
  0
LWPOLYLINE
  5
5AFB
330
5A94
100
AcDbEntity
  8
CONTINUOUS1
100
AcDbPolyline
 90
        4
 70
   129
 43
0.0
 10
93.15275393830109
 20
9.295999526977524
 10
99.9846307824688
 20
9.295999526977524
 10
99.9846307824688
 20
23.28534282701423
 10
93.15275393830109
 20
23.28534282701423
  0
LWPOLYLINE
  5
5AFC
330
5A94
100
AcDbEntity
  8
CONTINUOUS1
100
AcDbPolyline
 90
        4
 70
   129
 43
0.0
 10
99.9846307824688
 20
23.28534282701423
 10
107.7690241824226
 20
23.28534282701424
 10
107.7690241824226
 20
9.295999526977539
 10
99.9846307824688
 20
9.295999526977533
  0
LWPOLYLINE
  5
5AFD
330
5A94
100
AcDbEntity
  8
CONTINUOUS1
100
AcDbPolyline
 90
        4
 70
   129
 43
0.0
 10
107.7690241824226
 20
9.295999526977539
 10
115.5360162745552
 20
9.295999526977539
 10
115.5360162745552
 20
23.28534282701422
 10
107.7690241824226
 20
23.28534282701422
  0
LWPOLYLINE
  5
5AFE
330
5A94
100
AcDbEntity
  8
CONTINUOUS1
100
AcDbPolyline
 90
        4
 70
   129
 43
0.0
 10
115.5360162745552
 20
20.45146204488683
 10
122.3678931187229
 20
20.45146204488683
 10
122.3678931187229
 20
9.295999526977519
 10
115.5360162745552
 20
9.295999526977515
  0
LWPOLYLINE
  5
5AFF
330
5A94
100
AcDbEntity
  8
CONTINUOUS1
100
AcDbPolyline
 90
        4
 70
   129
 43
0.0
 10
122.3678931187229
 20
9.295999526977519
 10
129.1997699628906
 20
9.295999526977517
 10
129.1997699628906
 20
20.45146204488684
 10
122.3678931187229
 20
20.45146204488684
  0
LWPOLYLINE
  5
5B00
330
5A94
100
AcDbEntity
  8
CONTINUOUS1
100
AcDbPolyline
 90
        4
 70
   129
 43
0.0
 10
129.1997699628906
 20
20.45146204488684
 10
115.5360162745551
 20
20.45146204488683
 10
115.5360162745551
 20
25.68534282701426
 10
129.1997699628906
 20
25.68534282701426
  0
LWPOLYLINE
  5
5B01
330
5A94
100
AcDbEntity
  8
CONTINUOUS1
100
AcDbPolyline
 90
        4
 70
   129
 43
0.0
 10
115.5360162745552
 20
25.68534282701421
 10
93.15275393830109
 20
25.68534282701421
 10
93.15275393830109
 20
23.28534282701423
 10
115.5360162745552
 20
23.28534282701423
  0
TEXT
  5
5B02
330
5A94
100
AcDbEntity
  8
TEXT1
100
AcDbText
 10
4.213121899230955
 20
6.479999999999956
 30
0.0
 40
0.6400000000000001
  1
NOTES:
  7
ROMANS
 11
4.213121899230955
 21
6.799999999999957
 31
0.0
100
AcDbText
 73
     2
  0
TEXT
  5
5B03
330
5A94
100
AcDbEntity
  8
TEXT1
100
AcDbText
 10
4.213121899230955
 20
5.279999999999961
 30
0.0
 40
0.6400000000000001
  1
FINISH - GRAY BAKED ENAMEL ELECTRODEPOSITED OVER CLEANED PHOSPATIZED STEEL.
  7
ROMANS
 11
4.213121899230955
 21
5.599999999999961
 31
0.0
100
AcDbText
 73
     2
  0
TEXT
  5
5B04
330
5A94
100
AcDbEntity
  8
TEXT1
100
AcDbText
 10
4.239620616603261
 20
2.879999999999977
 30
0.0
 40
0.6400000000000001
  1
NEUTRALS - INSULATED GROUNDABLE.
  7
ROMANS
 11
4.239620616603261
 21
3.199999999999977
 31
0.0
100
AcDbText
 73
     2
  0
TEXT
  5
5B05
330
5A94
100
AcDbEntity
  8
TEXT1
100
AcDbText
 10
84.73239722646219
 20
20.68858414904534
 30
0.0
 40
0.6599999952504016
  1
NEMA TYPE 1
  7
ROMANS
 72
     1
 11
88.095254345119
 21
21.01858414667054
 31
0.0
100
AcDbText
 73
     2
  0
TEXT
  5
5B06
330
5A94
100
AcDbEntity
  8
TEXT1
100
AcDbText
 10
83.30239723675299
 20
21.73358315245568
 30
0.0
 40
0.6599999952504016
  1
GENERAL PURPOSE
  7
ROMANS
 72
     1
 11
88.095254345119
 21
22.06358315008088
 31
0.0
100
AcDbText
 73
     2
  0
LWPOLYLINE
  5
5B07
330
5A94
100
AcDbEntity
  8
CONTINUOUS1
100
AcDbPolyline
 90
        4
 70
   129
 43
0.0
 10
93.15275393830109
 20
25.6853428270142
 10
82.99748891739591
 20
25.6853428270142
 10
82.99748891739591
 20
9.295999526977464
 10
93.15275393830109
 20
9.295999526977468
  0
LWPOLYLINE
  5
5B08
102
{ACAD_REACTORS
330
5C20
102
}
330
5A94
100
AcDbEntity
  8
TEXT1
100
AcDbPolyline
 90
        3
 70
   129
 43
0.0
 10
3.221865448737133
 20
2.491870263160659
 10
2.821865448737142
 20
1.691870263160661
 10
3.621865448737139
 20
1.691870263160661
  0
LWPOLYLINE
  5
5B09
102
{ACAD_REACTORS
330
5C21
102
}
330
5A94
100
AcDbEntity
  8
TEXT1
100
AcDbPolyline
 90
        3
 70
   129
 43
0.0
 10
128.5643839277556
 20
18.94895178149335
 10
128.1643839277556
 20
18.14895178149335
 10
128.9643839277555
 20
18.14895178149335
  0
TEXT
  5
5B0A
330
5A94
100
AcDbEntity
  8
DIM
100
AcDbText
 10
66.17304696155935
 20
62.55474407524626
 30
0.0
 40
0.6400000000000001
  1
[7]
  7
ROMANS
 11
66.17304696155935
 21
62.87474407524626
 31
0.0
100
AcDbText
 73
     2
  0
TEXT
  5
5B0B
330
5A94
100
AcDbEntity
  8
DIM
100
AcDbText
 10
65.75821201609972
 20
63.73751091983926
 30
0.0
 40
0.8
  1
.28 DIA (4 HOLES)
  7
ROMANS
 11
65.75821201609972
 21
64.13751091983925
 31
0.0
100
AcDbText
 73
     2
  0
TEXT
  5
5B0C
330
5A94
100
AcDbEntity
  8
DIM
100
AcDbText
 10
39.27751139275474
 20
29.05396139914745
 30
0.0
 40
0.6400000000000001
  1
[11]
  7
ROMANS
 11
39.27751139275474
 21
29.37396139914745
 31
0.0
100
AcDbText
 73
     2
  0
TEXT
  5
5B0D
330
5A94
100
AcDbEntity
  8
DIM
100
AcDbText
 10
38.99498285293375
 20
30.23672824374044
 30
0.0
 40
0.8
  1
.44 DIA (2 HOLES)
  7
ROMANS
 11
38.99498285293375
 21
30.63672824374044
 31
0.0
100
AcDbText
 73
     2
  0
TEXT
  5
5B0E
330
5A94
100
AcDbEntity
  8
TEXT1
100
AcDbText
 10
114.5762061453963
 20
78.27981647949214
 30
0.0
 40
0.6400000000000001
  1
KNOCKOUTS
  7
ROMANS
 72
     1
 11
117.4409680501582
 21
78.59981647949213
 31
0.0
100
AcDbText
 73
     2
  0
LINE
  5
5B0F
330
5A94
100
AcDbEntity
  8
CONTINUOUS1
100
AcDbLine
 10
105.6821661374259
 20
74.39981647949217
 30
0.0
 11
129.1997699628906
 21
74.39981647949217
 31
0.0
  0
LINE
  5
5B10
330
5A94
100
AcDbEntity
  8
CONTINUOUS1
100
AcDbLine
 10
105.6821661374259
 20
75.99981647949217
 30
0.0
 11
129.1997699628906
 21
75.99981647949217
 31
0.0
  0
TEXT
  5
5B11
330
5A94
100
AcDbEntity
  8
TEXT1
100
AcDbText
 10
116.692820789032
 20
74.87981647949219
 30
0.0
 40
0.6400000000000001
  1
1.25
  7
ROMANS
 72
     1
 11
117.805201741413
 21
75.19981647949219
 31
0.0
100
AcDbText
 73
     2
  0
TEXT
  5
5B12
330
5A94
100
AcDbEntity
  8
TEXT1
100
AcDbText
 10
123.2497169155907
 20
74.87981647949219
 30
0.0
 40
0.6400000000000001
  1
2.00
  7
ROMANS
 72
     1
 11
124.3163835822573
 21
75.19981647949219
 31
0.0
100
AcDbText
 73
     2
  0
TEXT
  5
5B13
330
5A94
100
AcDbEntity
  8
TEXT1
100
AcDbText
 10
126.5053078360128
 20
74.87981647949222
 30
0.0
 40
0.6400000000000001
  1
2.50
  7
ROMANS
 72
     1
 11
127.5719745026795
 21
75.19981647949221
 31
0.0
100
AcDbText
 73
     2
  0
TEXT
  5
5B14
330
5A94
100
AcDbEntity
  8
TEXT1
100
AcDbText
 10
119.9484117094542
 20
74.87981647949219
 30
0.0
 40
0.6400000000000001
  1
1.50
  7
ROMANS
 72
     1
 11
121.0607926618351
 21
75.19981647949219
 31
0.0
100
AcDbText
 73
     2
  0
TEXT
  5
5B15
330
5A94
100
AcDbEntity
  8
TEXT1
100
AcDbText
 10
117.4699636461749
 20
76.47981647949219
 30
0.0
 40
0.6400000000000001
  1
D
  7
ROMANS
 72
     1
 11
117.805201741413
 21
76.79981647949218
 31
0.0
100
AcDbText
 73
     2
  0
TEXT
  5
5B16
330
5A94
100
AcDbEntity
  8
TEXT1
100
AcDbText
 10
123.9963835822573
 20
76.47981647949219
 30
0.0
 40
0.6400000000000001
  1
F
  7
ROMANS
 72
     1
 11
124.3163835822573
 21
76.79981647949218
 31
0.0
100
AcDbText
 73
     2
  0
TEXT
  5
5B17
330
5A94
100
AcDbEntity
  8
TEXT1
100
AcDbText
 10
127.2519745026795
 20
76.47981647949221
 30
0.0
 40
0.6400000000000001
  1
G
  7
ROMANS
 72
     1
 11
127.5719745026795
 21
76.79981647949221
 31
0.0
100
AcDbText
 73
     2
  0
TEXT
  5
5B18
330
5A94
100
AcDbEntity
  8
TEXT1
100
AcDbText
 10
120.7407926618351
 20
76.47981647949219
 30
0.0
 40
0.6400000000000001
  1
E
  7
ROMANS
 72
     1
 11
121.0607926618351
 21
76.79981647949218
 31
0.0
100
AcDbText
 73
     2
  0
TEXT
  5
5B19
330
5A94
100
AcDbEntity
  8
TEXT1
100
AcDbText
 10
117.1956779318891
 20
73.27981647949219
 30
0.0
 40
0.6400000000000001
  1
32
  7
ROMANS
 72
     1
 11
117.805201741413
 21
73.59981647949219
 31
0.0
100
AcDbText
 73
     2
  0
TEXT
  5
5B1A
330
5A94
100
AcDbEntity
  8
TEXT1
100
AcDbText
 10
123.7982883441621
 20
73.27981647949219
 30
0.0
 40
0.6400000000000001
  1
51
  7
ROMANS
 72
     1
 11
124.3163835822573
 21
73.59981647949219
 31
0.0
100
AcDbText
 73
     2
  0
TEXT
  5
5B1B
330
5A94
100
AcDbEntity
  8
TEXT1
100
AcDbText
 10
126.9319745026795
 20
73.27981647949222
 30
0.0
 40
0.6400000000000001
  1
64
  7
ROMANS
 72
     1
 11
127.5719745026795
 21
73.59981647949222
 31
0.0
100
AcDbText
 73
     2
  0
TEXT
  5
5B1C
330
5A94
100
AcDbEntity
  8
TEXT1
100
AcDbText
 10
120.4512688523113
 20
73.27981647949219
 30
0.0
 40
0.6400000000000001
  1
38
  7
ROMANS
 72
     1
 11
121.0607926618351
 21
73.59981647949219
 31
0.0
100
AcDbText
 73
     2
  0
TEXT
  5
5B1D
330
5A94
100
AcDbEntity
  8
TEXT1
100
AcDbText
 10
114.024263424059
 20
74.87981647949216
 30
0.0
 40
0.6400000000000001
  1
.75
  7
ROMANS
 72
     1
 11
114.8014062812019
 21
75.19981647949215
 31
0.0
100
AcDbText
 73
     2
  0
TEXT
  5
5B1E
330
5A94
100
AcDbEntity
  8
TEXT1
100
AcDbText
 10
114.4661681859638
 20
76.47981647949215
 30
0.0
 40
0.6400000000000001
  1
B
  7
ROMANS
 72
     1
 11
114.8014062812019
 21
76.79981647949215
 31
0.0
100
AcDbText
 73
     2
  0
TEXT
  5
5B1F
330
5A94
100
AcDbEntity
  8
TEXT1
100
AcDbText
 10
114.1614062812019
 20
73.27981647949217
 30
0.0
 40
0.6400000000000001
  1
19
  7
ROMANS
 72
     1
 11
114.8014062812019
 21
73.59981647949216
 31
0.0
100
AcDbText
 73
     2
  0
TEXT
  5
5B20
330
5A94
100
AcDbEntity
  8
TEXT1
100
AcDbText
 10
111.272263424059
 20
74.87981647949216
 30
0.0
 40
0.6400000000000001
  1
.50
  7
ROMANS
 72
     1
 11
112.0494062812019
 21
75.19981647949215
 31
0.0
100
AcDbText
 73
     2
  0
TEXT
  5
5B21
330
5A94
100
AcDbEntity
  8
TEXT1
100
AcDbText
 10
111.7751205669161
 20
76.47981647949215
 30
0.0
 40
0.6400000000000001
  1
A
  7
ROMANS
 72
     1
 11
112.0494062812019
 21
76.79981647949215
 31
0.0
100
AcDbText
 73
     2
  0
TEXT
  5
5B22
330
5A94
100
AcDbEntity
  8
TEXT1
100
AcDbText
 10
111.3941681859638
 20
73.27981647949217
 30
0.0
 40
0.6400000000000001
  1
13
  7
ROMANS
 72
     1
 11
112.0494062812019
 21
73.59981647949216
 31
0.0
100
AcDbText
 73
     2
  0
TEXT
  5
5B23
330
5A94
100
AcDbEntity
  8
TEXT1
100
AcDbText
 10
107.7011093484364
 20
74.87981647949216
 30
0.0
 40
0.6400000000000001
  1
IN
  7
ROMANS
 72
     1
 11
108.1582522055793
 21
75.19981647949215
 31
0.0
100
AcDbText
 73
     2
  0
TEXT
  5
5B24
330
5A94
100
AcDbEntity
  8
TEXT1
100
AcDbText
 10
107.4268236341507
 20
73.27981647949217
 30
0.0
 40
0.6400000000000001
  1
MM
  7
ROMANS
 72
     1
 11
108.1582522055793
 21
73.59981647949216
 31
0.0
100
AcDbText
 73
     2
  0
TEXT
  5
5B25
330
5A94
100
AcDbEntity
  8
TEXT1
100
AcDbText
 10
106.2687283960555
 20
76.47981647949215
 30
0.0
 40
0.6400000000000001
  1
SYMBOL
  7
ROMANS
 72
     1
 11
108.1582522055793
 21
76.79981647949215
 31
0.0
100
AcDbText
 73
     2
  0
LINE
  5
5B26
330
5A94
100
AcDbEntity
  8
CONTINUOUS1
100
AcDbLine
 10
110.6734062812018
 20
77.5998164794921
 30
0.0
 11
110.6734062812019
 21
72.79981647949218
 31
0.0
  0
LINE
  5
5B27
330
5A94
100
AcDbEntity
  8
CONTINUOUS1
100
AcDbLine
 10
113.4254062812019
 20
77.59981647949207
 30
0.0
 11
113.4254062812019
 21
72.79981647949218
 31
0.0
  0
LINE
  5
5B28
330
5A94
100
AcDbEntity
  8
CONTINUOUS1
100
AcDbLine
 10
116.1774062812019
 20
77.59981647949207
 30
0.0
 11
116.1774062812019
 21
72.79981647949218
 31
0.0
  0
LINE
  5
5B29
330
5A94
100
AcDbEntity
  8
CONTINUOUS1
100
AcDbLine
 10
119.4329972016241
 20
77.59981647949207
 30
0.0
 11
119.4329972016241
 21
72.79981647949218
 31
0.0
  0
LINE
  5
5B2A
330
5A94
100
AcDbEntity
  8
CONTINUOUS1
100
AcDbLine
 10
122.6885881220462
 20
77.59981647949207
 30
0.0
 11
122.6885881220462
 21
72.79981647949218
 31
0.0
  0
LINE
  5
5B2B
330
5A94
100
AcDbEntity
  8
CONTINUOUS1
100
AcDbLine
 10
125.9441790424684
 20
77.59981647949207
 30
0.0
 11
125.9441790424684
 21
72.79981647949218
 31
0.0
  0
LWPOLYLINE
  5
5B2C
330
5A94
100
AcDbEntity
  8
CONTINUOUS1
100
AcDbPolyline
 90
        4
 70
   129
 43
0.0
 10
129.1997699628906
 20
72.7998164794922
 10
105.6821661374259
 20
72.7998164794922
 10
105.6821661374259
 20
79.59981647949216
 10
129.1997699628906
 20
79.59981647949216
  0
LWPOLYLINE
  5
5B2D
330
5A94
100
AcDbEntity
  8
CONTINUOUS1
100
AcDbPolyline
 90
        4
 70
   129
 43
0.0
 10
105.6821661374259
 20
77.59981647949216
 10
129.1997699628906
 20
77.59981647949216
 10
129.1997699628906
 20
79.59981647949216
 10
105.6821661374259
 20
79.59981647949216
  0
LINE
  5
5B2E
330
5A94
100
AcDbEntity
  8
CONTINUOUS1
100
AcDbLine
 10
53.76760691967264
 20
43.11837141829212
 30
0.0
 11
53.97463816967307
 21
43.11837141829212
 31
0.0
  0
LINE
  5
5B2F
330
5A94
100
AcDbEntity
  8
CONTINUOUS1
100
AcDbLine
 10
53.97463816967307
 20
42.95133716470833
 30
0.0
 11
53.76760691967264
 21
42.95133716470834
 31
0.0
  0
LWPOLYLINE
  5
5B30
330
5A94
100
AcDbEntity
  8
CONTINUOUS1
100
AcDbPolyline
 90
       12
 70
   129
 43
0.0
 10
54.88122422081275
 20
65.51168611031929
 10
54.88122422081277
 20
61.26168611031928
 10
50.63122422081275
 20
61.26168611031928
 10
50.63122422081275
 20
38.14168611031927
 10
54.88122422081275
 20
38.14168611031927
 10
54.88122422081275
 20
33.89168611031927
 10
62.44122422081275
 20
33.89168611031927
 10
62.44122422081275
 20
38.14168611031927
 10
66.69122422081276
 20
38.14168611031927
 10
66.69122422081276
 20
61.26168611031928
 10
62.44122422081275
 20
61.26168611031927
 10
62.44122422081275
 20
65.51168611031929
  0
LWPOLYLINE
  5
5B31
330
5A94
100
AcDbEntity
  8
HIDDEN1
100
AcDbPolyline
 90
        4
 70
   129
 43
0.0
 10
54.88122422081275
 20
61.26168611031928
 10
62.44122422081275
 20
61.26168611031928
 10
62.44122422081275
 20
38.14168611031927
 10
54.88122422081275
 20
38.14168611031927
  0
CIRCLE
  5
5B32
330
5A94
100
AcDbEntity
  8
CONTINUOUS1
100
AcDbCircle
 10
56.00122422081276
 20
40.20168611031927
 30
0.0
 40
0.1400000000000006
  0
CIRCLE
  5
5B33
330
5A94
100
AcDbEntity
  8
CONTINUOUS1
100
AcDbCircle
 10
56.00122422081276
 20
59.20168611031927
 30
0.0
 40
0.1400000000000006
  0
CIRCLE
  5
5B34
330
5A94
100
AcDbEntity
  8
CONTINUOUS1
100
AcDbCircle
 10
61.32122422081277
 20
40.20168611031927
 30
0.0
 40
0.1400000000000006
  0
CIRCLE
  5
5B35
330
5A94
100
AcDbEntity
  8
CONTINUOUS1
100
AcDbCircle
 10
61.32122422081277
 20
59.20168611031927
 30
0.0
 40
0.1400000000000006
  0
LWPOLYLINE
  5
5B36
330
5A94
100
AcDbEntity
  8
CONTINUOUS1
100
AcDbPolyline
 90
       17
 70
   128
 43
0.0
 10
53.94286416065924
 20
43.11837141829212
 10
53.92262552218119
 20
43.18101603316786
 10
53.84008793325264
 20
43.30235821326562
 10
53.71328511471706
 20
43.38432290455741
 10
53.57728258353515
 20
43.40985429150022
 10
53.43021098522922
 20
43.37981073073819
 10
53.30597451122113
 20
43.29373057449511
 10
53.22841244330516
 20
43.17238474360417
 10
53.20228258353515
 20
43.03485429150023
 10
53.23180114369558
 20
42.88902022577356
 10
53.31692094959141
 20
42.76497131765759
 10
53.43871868966414
 20
42.68639332192788
 10
53.57728258353515
 20
42.65985429150023
 10
53.72649513121958
 20
42.69081851485262
 10
53.84826645502205
 20
42.77563866428232
 10
53.9269055355453
 20
42.89924901347718
 10
53.94286416065916
 20
42.95133716470833
  0
LWPOLYLINE
  5
5B37
330
5A94
100
AcDbEntity
  8
CONTINUOUS1
100
AcDbPolyline
 90
       16
 70
   128
 43
0.0
 10
53.81291978249284
 20
43.11837141829212
 10
53.80648068751852
 20
43.13469531077798
 10
53.75384847992117
 20
43.21184153463771
 10
53.67404094418055
 20
43.26537071097011
 10
53.57728258353515
 20
43.28485429150023
 10
53.47687534899804
 20
43.26380491336575
 10
53.39998302211492
 20
43.21110656955697
 10
53.34505472201553
 20
43.12742977601977
 10
53.32728258353515
 20
43.03485429150023
 10
53.34929653922225
 20
42.932275718696
 10
53.40100266140322
 20
42.857582215151
 10
53.48416241340544
 20
42.80284430482938
 10
53.57728258353515
 20
42.78485429150022
 10
53.67915246242613
 20
42.80655070463673
 10
53.75842301452832
 20
42.86255181252907
 10
53.81291978249212
 20
42.95133716470834
  0
CIRCLE
  5
5B38
330
5A94
100
AcDbEntity
  8
CONTINUOUS1
100
AcDbCircle
 10
58.66122422081275
 20
37.38125613194861
 30
0.0
 40
0.2199999999999989
  0
CIRCLE
  5
5B39
330
5A94
100
AcDbEntity
  8
CONTINUOUS1
100
AcDbCircle
 10
58.66122422081272
 20
62.02211608868994
 30
0.0
 40
0.220000000000006
  0
LWPOLYLINE
  5
5B3A
330
5A94
100
AcDbEntity
  8
CONTINUOUS1
100
AcDbPolyline
 90
        7
 70
   128
 43
0.0
 10
56.61825834654869
 20
37.52423174837566
 10
56.82894886756852
 20
37.48424820165422
 10
57.14072778682538
 20
37.2832429646359
 10
57.34643354564416
 20
36.988441029783
 10
57.4277445706235
 20
36.60494871639487
 10
57.36518653959905
 20
36.2668345768051
 10
57.36923484232841
 20
36.27384644281674
  0
LWPOLYLINE
  5
5B3B
330
5A94
100
AcDbEntity
  8
CONTINUOUS1
100
AcDbPolyline
 90
        7
 70
   128
 43
0.0
 10
56.61825834654869
 20
61.87914047226289
 10
56.82894886756852
 20
61.91912401898432
 10
57.14072778682535
 20
62.12012925600266
 10
57.34643354564415
 20
62.41493119085555
 10
57.42774457062349
 20
62.79842350424369
 10
57.36518653959904
 20
63.13653764383345
 10
57.36923484232838
 20
63.1295257778218
  0
LWPOLYLINE
  5
5B3C
330
5A94
100
AcDbEntity
  8
CONTINUOUS1
100
AcDbPolyline
 90
        7
 70
   128
 43
0.0
 10
58.79673799673852
 20
41.9013049491131
 10
59.00742851775835
 20
41.86132140239165
 10
59.31920743701519
 20
41.66031616537333
 10
59.52491319583399
 20
41.36551423052043
 10
59.60622422081333
 20
40.98202191713229
 10
59.54366618978889
 20
40.64390777754253
 10
59.54771449251822
 20
40.65091964355418
  0
LWPOLYLINE
  5
5B3D
330
5A94
100
AcDbEntity
  8
CONTINUOUS1
100
AcDbPolyline
 90
        7
 70
   128
 43
0.0
 10
58.79673799673851
 20
57.50206727152545
 10
59.00742851775834
 20
57.54205081824689
 10
59.31920743701519
 20
57.74305605526522
 10
59.52491319583398
 20
58.03785799011811
 10
59.60622422081332
 20
58.42135030350624
 10
59.54366618978887
 20
58.75946444309602
 10
59.54771449251822
 20
58.75245257708437
  0
LWPOLYLINE
  5
5B3E
330
5A94
100
AcDbEntity
  8
CONTINUOUS1
100
AcDbPolyline
 90
        7
 70
   128
 43
0.0
 10
54.34352574692799
 20
40.80253569305817
 10
54.30354220020655
 20
41.01322621407801
 10
54.10253696318822
 20
41.32500513333485
 10
53.80773502833531
 20
41.53071089215363
 10
53.42424271494718
 20
41.61202191713298
 10
53.08612857535742
 20
41.54946388610854
 10
53.09314044136907
 20
41.55351218883788
  0
LWPOLYLINE
  5
5B3F
330
5A94
100
AcDbEntity
  8
CONTINUOUS1
100
AcDbPolyline
 90
        7
 70
   128
 43
0.0
 10
54.34352574692798
 20
58.60083652758039
 10
54.30354220020653
 20
58.39014600656054
 10
54.10253696318822
 20
58.07836708730369
 10
53.80773502833531
 20
57.87266132848491
 10
53.42424271494718
 20
57.79135030350556
 10
53.08612857535741
 20
57.85390833453001
 10
53.09314044136906
 20
57.84986003180066
  0
LWPOLYLINE
  5
5B40
330
5A94
100
AcDbEntity
  8
CONTINUOUS1
100
AcDbPolyline
 90
        7
 70
   128
 43
0.0
 10
62.97892269469753
 20
40.80253569305817
 10
63.01890624141896
 20
41.01322621407801
 10
63.21991147843729
 20
41.32500513333485
 10
63.5147134132902
 20
41.53071089215363
 10
63.89820572667833
 20
41.61202191713298
 10
64.23631986626809
 20
41.54946388610854
 10
64.22930800025643
 20
41.55351218883788
  0
LWPOLYLINE
  5
5B41
330
5A94
100
AcDbEntity
  8
CONTINUOUS1
100
AcDbPolyline
 90
        7
 70
   128
 43
0.0
 10
62.97892269469752
 20
58.60083652758039
 10
63.01890624141896
 20
58.39014600656054
 10
63.21991147843728
 20
58.07836708730371
 10
63.51471341329018
 20
57.87266132848492
 10
63.89820572667831
 20
57.79135030350557
 10
64.23631986626808
 20
57.85390833453002
 10
64.22930800025643
 20
57.84986003180067
  0
LWPOLYLINE
  5
5B42
330
5A94
100
AcDbEntity
  8
CONTINUOUS1
100
AcDbPolyline
 90
        7
 70
   128
 43
0.0
 10
60.70419009507682
 20
37.52423174837566
 10
60.49349957405699
 20
37.48424820165422
 10
60.18172065480013
 20
37.2832429646359
 10
59.97601489598136
 20
36.988441029783
 10
59.89470387100201
 20
36.60494871639487
 10
59.95726190202645
 20
36.2668345768051
 10
59.9532135992971
 20
36.27384644281674
  0
LWPOLYLINE
  5
5B43
330
5A94
100
AcDbEntity
  8
CONTINUOUS1
100
AcDbPolyline
 90
        7
 70
   128
 43
0.0
 10
60.7041900950768
 20
61.87914047226289
 10
60.49349957405697
 20
61.91912401898432
 10
60.18172065480013
 20
62.12012925600266
 10
59.97601489598133
 20
62.41493119085555
 10
59.89470387100199
 20
62.79842350424369
 10
59.95726190202643
 20
63.13653764383345
 10
59.9532135992971
 20
63.12952577782181
  0
LWPOLYLINE
  5
5B44
330
5A94
100
AcDbEntity
  8
CONTINUOUS1
100
AcDbPolyline
 90
        6
 70
   128
 43
0.0
 10
55.60373729900319
 20
36.27816675493054
 10
55.53774457062235
 20
36.60494871639487
 10
55.60684497895994
 20
36.95966678095538
 10
55.80472355336472
 20
37.26321348087577
 10
56.11132038872011
 20
37.47389582473852
 10
56.34723079469717
 20
37.52220088784607
  0
LWPOLYLINE
  5
5B45
330
5A94
100
AcDbEntity
  8
CONTINUOUS1
100
AcDbPolyline
 90
        6
 70
   128
 43
0.0
 10
55.60373729900317
 20
63.12520546570801
 10
55.53774457062232
 20
62.79842350424369
 10
55.60684497895993
 20
62.44370543968315
 10
55.80472355336471
 20
62.14015873976276
 10
56.11132038872011
 20
61.92947639590002
 10
56.34723079469714
 20
61.88117133279248
  0
LWPOLYLINE
  5
5B46
330
5A94
100
AcDbEntity
  8
CONTINUOUS1
100
AcDbPolyline
 90
        6
 70
   128
 43
0.0
 10
57.78221694919301
 20
40.65523995566797
 10
57.71622422081218
 20
40.98202191713229
 10
57.78532462914978
 20
41.33673998169281
 10
57.98320320355455
 20
41.64028668161321
 10
58.28980003890996
 20
41.85096902547595
 10
58.52571044488698
 20
41.8992740885835
  0
LWPOLYLINE
  5
5B47
330
5A94
100
AcDbEntity
  8
CONTINUOUS1
100
AcDbPolyline
 90
        6
 70
   128
 43
0.0
 10
57.782216949193
 20
58.74813226497058
 10
57.71622422081216
 20
58.42135030350624
 10
57.78532462914977
 20
58.06663223894574
 10
57.98320320355455
 20
57.76308553902534
 10
58.28980003890994
 20
57.5524031951626
 10
58.52571044488698
 20
57.50409813205505
  0
LWPOLYLINE
  5
5B48
330
5A94
100
AcDbEntity
  8
CONTINUOUS1
100
AcDbPolyline
 90
        6
 70
   128
 43
0.0
 10
53.09746075348286
 20
39.78801464551267
 10
53.42424271494718
 20
39.72202191713183
 10
53.7789607795077
 20
39.79112232546943
 10
54.0825074794281
 20
39.9890008998742
 10
54.29318982329085
 20
40.29559773522961
 10
54.34149488639839
 20
40.53150814120664
  0
LWPOLYLINE
  5
5B49
330
5A94
100
AcDbEntity
  8
CONTINUOUS1
100
AcDbPolyline
 90
        6
 70
   128
 43
0.0
 10
53.09746075348285
 20
59.61535757512589
 10
53.42424271494718
 20
59.68135030350672
 10
53.77896077950769
 20
59.61224989516911
 10
54.08250747942808
 20
59.41437132076434
 10
54.29318982329083
 20
59.10777448540894
 10
54.34149488639838
 20
58.87186407943191
  0
LWPOLYLINE
  5
5B4A
330
5A94
100
AcDbEntity
  8
CONTINUOUS1
100
AcDbPolyline
 90
        6
 70
   128
 43
0.0
 10
64.22498768814264
 20
39.78801464551267
 10
63.89820572667833
 20
39.72202191713183
 10
63.54348766211781
 20
39.79112232546943
 10
63.23994096219741
 20
39.9890008998742
 10
63.02925861833466
 20
40.29559773522961
 10
62.98095355522711
 20
40.53150814120664
  0
LWPOLYLINE
  5
5B4B
330
5A94
100
AcDbEntity
  8
CONTINUOUS1
100
AcDbPolyline
 90
        6
 70
   128
 43
0.0
 10
64.22498768814263
 20
59.6153575751259
 10
63.89820572667831
 20
59.68135030350673
 10
63.5434876621178
 20
59.61224989516913
 10
63.23994096219741
 20
59.41437132076434
 10
63.02925861833466
 20
59.10777448540895
 10
62.9809535552271
 20
58.87186407943191
  0
LWPOLYLINE
  5
5B4C
330
5A94
100
AcDbEntity
  8
CONTINUOUS1
100
AcDbPolyline
 90
        6
 70
   128
 43
0.0
 10
61.71871114262232
 20
36.27816675493054
 10
61.78470387100316
 20
36.60494871639487
 10
61.71560346266557
 20
36.95966678095538
 10
61.51772488826079
 20
37.26321348087577
 10
61.2111280529054
 20
37.47389582473852
 10
60.97521764692834
 20
37.52220088784607
  0
LWPOLYLINE
  5
5B4D
330
5A94
100
AcDbEntity
  8
CONTINUOUS1
100
AcDbPolyline
 90
        6
 70
   128
 43
0.0
 10
61.71871114262231
 20
63.12520546570801
 10
61.78470387100316
 20
62.79842350424369
 10
61.71560346266556
 20
62.44370543968319
 10
61.51772488826077
 20
62.14015873976278
 10
61.21112805290536
 20
61.92947639590002
 10
60.97521764692834
 20
61.88117133279248
  0
LWPOLYLINE
  5
5B4E
330
5A94
100
AcDbEntity
  8
CONTINUOUS1
100
AcDbPolyline
 90
        9
 70
   128
 43
0.0
 10
56.34723079469714
 20
35.99164000797937
 10
56.20439533368403
 20
36.02565975340988
 10
55.93952077499761
 20
36.19303702817977
 10
55.75574127746254
 20
36.4626587020407
 10
55.69672732988639
 20
36.76176457196624
 10
55.75306306991976
 20
37.05426256332247
 10
55.91829584444614
 20
37.30937556874001
 10
56.17887813177778
 20
37.48765582912181
 10
56.34723079469711
 20
37.53087113712658
  0
LWPOLYLINE
  5
5B4F
330
5A94
100
AcDbEntity
  8
CONTINUOUS1
100
AcDbPolyline
 90
        9
 70
   128
 43
0.0
 10
56.34723079469711
 20
63.41173221265917
 10
56.20439533368401
 20
63.37771246722866
 10
55.93952077499759
 20
63.21033519245877
 10
55.75574127746254
 20
62.94071351859784
 10
55.69672732988637
 20
62.64160764867231
 10
55.75306306991975
 20
62.34910965731607
 10
55.91829584444612
 20
62.09399665189853
 10
56.17887813177777
 20
61.91571639151674
 10
56.3472307946971
 20
61.87250108351197
  0
LWPOLYLINE
  5
5B50
330
5A94
100
AcDbEntity
  8
CONTINUOUS1
100
AcDbPolyline
 90
        9
 70
   128
 43
0.0
 10
58.52571044488695
 20
40.36871320871681
 10
58.38287498387384
 20
40.40273295414731
 10
58.11800042518743
 20
40.5701102289172
 10
57.93422092765237
 20
40.83973190277813
 10
57.87520698007623
 20
41.13883777270368
 10
57.93154272010959
 20
41.4313357640599
 10
58.09677549463597
 20
41.68644876947744
 10
58.3573577819676
 20
41.86472902985925
 10
58.52571044488695
 20
41.90794433786401
  0
LWPOLYLINE
  5
5B51
330
5A94
100
AcDbEntity
  8
CONTINUOUS1
100
AcDbPolyline
 90
        9
 70
   128
 43
0.0
 10
58.52571044488695
 20
59.03465901192174
 10
58.38287498387384
 20
59.00063926649123
 10
58.11800042518743
 20
58.83326199172135
 10
57.93422092765237
 20
58.56364031786042
 10
57.87520698007622
 20
58.26453444793487
 10
57.93154272010958
 20
57.97203645657865
 10
58.09677549463595
 20
57.71692345116111
 10
58.3573577819676
 20
57.53864319077931
 10
58.52571044488694
 20
57.49542788277453
  0
LWPOLYLINE
  5
5B52
330
5A94
100
AcDbEntity
  8
CONTINUOUS1
100
AcDbPolyline
 90
        9
 70
   128
 43
0.0
 10
52.81093400653169
 20
40.53150814120662
 10
52.84495375196221
 20
40.38867268019351
 10
53.0123310267321
 20
40.12379812150709
 10
53.28195270059302
 20
39.94001862397203
 10
53.58105857051857
 20
39.88100467639587
 10
53.87355656187479
 20
39.93734041642924
 10
54.12866956729232
 20
40.10257319095561
 10
54.30694982767413
 20
40.36315547828726
 10
54.35016513567891
 20
40.5315081412066
  0
LWPOLYLINE
  5
5B53
330
5A94
100
AcDbEntity
  8
CONTINUOUS1
100
AcDbPolyline
 90
        9
 70
   128
 43
0.0
 10
52.81093400653168
 20
58.87186407943193
 10
52.84495375196219
 20
59.01469954044504
 10
53.01233102673208
 20
59.27957409913145
 10
53.28195270059301
 20
59.46335359666652
 10
53.58105857051855
 20
59.52236754424267
 10
53.87355656187478
 20
59.4660318042093
 10
54.12866956729232
 20
59.30079902968294
 10
54.30694982767412
 20
59.04021674235129
 10
54.35016513567889
 20
58.87186407943194
  0
LWPOLYLINE
  5
5B54
330
5A94
100
AcDbEntity
  8
CONTINUOUS1
100
AcDbPolyline
 90
        9
 70
   128
 43
0.0
 10
64.51151443509381
 20
40.53150814120662
 10
64.4774946896633
 20
40.38867268019351
 10
64.31011741489341
 20
40.12379812150709
 10
64.04049574103249
 20
39.94001862397203
 10
63.74138987110694
 20
39.88100467639587
 10
63.44889187975072
 20
39.93734041642924
 10
63.19377887433319
 20
40.10257319095561
 10
63.01549861395137
 20
40.36315547828726
 10
62.9722833059466
 20
40.5315081412066
  0
LWPOLYLINE
  5
5B55
330
5A94
100
AcDbEntity
  8
CONTINUOUS1
100
AcDbPolyline
 90
        9
 70
   128
 43
0.0
 10
64.5115144350938
 20
58.87186407943194
 10
64.4774946896633
 20
59.01469954044505
 10
64.31011741489339
 20
59.27957409913147
 10
64.04049574103249
 20
59.46335359666653
 10
63.74138987110694
 20
59.52236754424268
 10
63.4488918797507
 20
59.46603180420932
 10
63.19377887433316
 20
59.30079902968294
 10
63.01549861395137
 20
59.04021674235129
 10
62.9722833059466
 20
58.87186407943196
  0
LWPOLYLINE
  5
5B56
330
5A94
100
AcDbEntity
  8
CONTINUOUS1
100
AcDbPolyline
 90
        9
 70
   128
 43
0.0
 10
60.97521764692837
 20
35.99164000797937
 10
61.11805310794148
 20
36.02565975340988
 10
61.3829276666279
 20
36.19303702817977
 10
61.56670716416297
 20
36.4626587020407
 10
61.62572111173912
 20
36.76176457196624
 10
61.56938537170574
 20
37.05426256332247
 10
61.40415259717937
 20
37.30937556874001
 10
61.14357030984773
 20
37.48765582912181
 10
60.9752176469284
 20
37.53087113712658
  0
LWPOLYLINE
  5
5B57
330
5A94
100
AcDbEntity
  8
CONTINUOUS1
100
AcDbPolyline
 90
        9
 70
   128
 43
0.0
 10
60.97521764692837
 20
63.41173221265917
 10
61.11805310794148
 20
63.37771246722866
 10
61.3829276666279
 20
63.21033519245879
 10
61.56670716416295
 20
62.94071351859784
 10
61.62572111173911
 20
62.64160764867231
 10
61.56938537170572
 20
62.34910965731609
 10
61.40415259717936
 20
62.09399665189855
 10
61.14357030984772
 20
61.91571639151674
 10
60.97521764692839
 20
61.87250108351197
  0
LWPOLYLINE
  5
5B58
330
5A94
100
AcDbEntity
  8
CONTINUOUS1
100
AcDbPolyline
 90
        9
 70
   128
 43
0.0
 10
56.61825834654873
 20
35.99208290028768
 10
56.79444065801209
 20
36.03793866675538
 10
57.05025467778941
 20
36.21425266211648
 10
57.21905943267127
 20
36.47860731756789
 10
57.27172732988731
 20
36.76176457196624
 10
57.20295391345004
 20
37.08361600986977
 10
57.02446529221282
 20
37.33473856270475
 10
56.76224066344207
 20
37.49855819053678
 10
56.61825834654869
 20
37.53266327551855
  0
LWPOLYLINE
  5
5B59
330
5A94
100
AcDbEntity
  8
CONTINUOUS1
100
AcDbPolyline
 90
        9
 70
   128
 43
0.0
 10
56.61825834654871
 20
63.41128932035087
 10
56.79444065801208
 20
63.36543355388318
 10
57.05025467778938
 20
63.18911955852207
 10
57.21905943267126
 20
62.92476490307065
 10
57.2717273298873
 20
62.64160764867231
 10
57.20295391345001
 20
62.31975621076879
 10
57.0244652922128
 20
62.06863365793378
 10
56.76224066344204
 20
61.90481403010178
 10
56.61825834654867
 20
61.87070894512
  0
LWPOLYLINE
  5
5B5A
330
5A94
100
AcDbEntity
  8
CONTINUOUS1
100
AcDbPolyline
 90
        9
 70
   128
 43
0.0
 10
58.79673799673856
 20
40.36915610102511
 10
58.97292030820192
 20
40.41501186749281
 10
59.22873432797922
 20
40.5913258628539
 10
59.3975390828611
 20
40.85568051830533
 10
59.45020698007714
 20
41.13883777270368
 10
59.38143356363986
 20
41.46068921060719
 10
59.20294494240263
 20
41.71181176344219
 10
58.9407203136319
 20
41.87563139127422
 10
58.79673799673851
 20
41.90973647625599
  0
LWPOLYLINE
  5
5B5B
330
5A94
100
AcDbEntity
  8
CONTINUOUS1
100
AcDbPolyline
 90
        9
 70
   128
 43
0.0
 10
58.79673799673854
 20
59.03421611961345
 10
58.97292030820191
 20
58.98836035314574
 10
59.22873432797922
 20
58.81204635778463
 10
59.39753908286109
 20
58.54769170233322
 10
59.45020698007713
 20
58.26453444793487
 10
59.38143356363986
 20
57.94268301003135
 10
59.20294494240263
 20
57.69156045719636
 10
58.94072031363188
 20
57.52774082936434
 10
58.7967379967385
 20
57.49363574438256
  0
LWPOLYLINE
  5
5B5C
330
5A94
100
AcDbEntity
  8
CONTINUOUS1
100
AcDbPolyline
 90
        9
 70
   128
 43
0.0
 10
52.81137689883999
 20
40.80253569305821
 10
52.85723266530769
 20
40.97871800452157
 10
53.0335466606688
 20
41.23453202429888
 10
53.29790131612021
 20
41.40333677918075
 10
53.58105857051857
 20
41.45600467639678
 10
53.90291000842208
 20
41.38723125995952
 10
54.15403256125708
 20
41.2087426387223
 10
54.31785218908911
 20
40.94651800995154
 10
54.35195727407088
 20
40.80253569305816
  0
LWPOLYLINE
  5
5B5D
330
5A94
100
AcDbEntity
  8
CONTINUOUS1
100
AcDbPolyline
 90
        9
 70
   128
 43
0.0
 10
52.81137689883999
 20
58.60083652758034
 10
52.85723266530769
 20
58.42465421611698
 10
53.03354666066879
 20
58.16884019633966
 10
53.2979013161202
 20
58.0000354414578
 10
53.58105857051857
 20
57.94736754424175
 10
53.90291000842208
 20
58.01614096067904
 10
54.15403256125706
 20
58.19462958191625
 10
54.3178521890891
 20
58.456854210687
 10
54.35195727407087
 20
58.60083652758039
  0
LWPOLYLINE
  5
5B5E
330
5A94
100
AcDbEntity
  8
CONTINUOUS1
100
AcDbPolyline
 90
        9
 70
   128
 43
0.0
 10
64.51107154278552
 20
40.80253569305821
 10
64.46521577631782
 20
40.97871800452157
 10
64.2889017809567
 20
41.23453202429888
 10
64.02454712550529
 20
41.40333677918075
 10
63.74138987110694
 20
41.45600467639678
 10
63.41953843320343
 20
41.38723125995952
 10
63.16841588036843
 20
41.2087426387223
 10
63.0045962525364
 20
40.94651800995154
 10
62.97049116755463
 20
40.80253569305816
  0
LWPOLYLINE
  5
5B5F
330
5A94
100
AcDbEntity
  8
CONTINUOUS1
100
AcDbPolyline
 90
        9
 70
   128
 43
0.0
 10
64.5110715427855
 20
58.60083652758035
 10
64.46521577631781
 20
58.42465421611699
 10
64.2889017809567
 20
58.16884019633968
 10
64.02454712550528
 20
58.00003544145781
 10
63.74138987110694
 20
57.94736754424177
 10
63.41953843320341
 20
58.01614096067904
 10
63.16841588036843
 20
58.19462958191626
 10
63.0045962525364
 20
58.45685421068701
 10
62.97049116755463
 20
58.60083652758039
  0
LWPOLYLINE
  5
5B60
330
5A94
100
AcDbEntity
  8
CONTINUOUS1
100
AcDbPolyline
 90
        9
 70
   128
 43
0.0
 10
60.70419009507678
 20
35.99208290028768
 10
60.52800778361342
 20
36.03793866675538
 10
60.2721937638361
 20
36.21425266211648
 10
60.10338900895423
 20
36.47860731756789
 10
60.0507211117382
 20
36.76176457196624
 10
60.11949452817546
 20
37.08361600986977
 10
60.29798314941269
 20
37.33473856270475
 10
60.56020777818344
 20
37.49855819053678
 10
60.70419009507682
 20
37.53266327551855
  0
LWPOLYLINE
  5
5B61
330
5A94
100
AcDbEntity
  8
CONTINUOUS1
100
AcDbPolyline
 90
        9
 70
   128
 43
0.0
 10
60.70419009507677
 20
63.41128932035087
 10
60.52800778361341
 20
63.36543355388318
 10
60.2721937638361
 20
63.18911955852207
 10
60.10338900895423
 20
62.92476490307065
 10
60.05072111173818
 20
62.64160764867231
 10
60.11949452817545
 20
62.31975621076879
 10
60.29798314941269
 20
62.06863365793378
 10
60.56020777818344
 20
61.90481403010178
 10
60.70419009507681
 20
61.87070894512
  0
LWPOLYLINE
  5
5B62
330
5A94
100
AcDbEntity
  8
CONTINUOUS1
100
AcDbPolyline
 90
       17
 70
   128
 43
0.0
 10
56.34723079469718
 20
36.1510818993102
 10
56.25837720242628
 20
36.17363897319787
 10
56.04893232830964
 20
36.30633262139353
 10
55.90606020060239
 20
36.51151915119795
 10
55.85422732988651
 20
36.76176457196624
 10
55.90007085489254
 20
36.99769085859566
 10
56.03679693922368
 20
37.20528012469417
 10
56.23321141681427
 20
37.33959760268094
 10
56.48422732988696
 20
37.3917645719667
 10
56.70209906203115
 20
37.35289223020356
 10
56.91741404265392
 20
37.21920229656142
 10
57.06577212696458
 20
37.00405705842138
 10
57.11422732988748
 20
36.76176457196624
 10
57.07250597013842
 20
36.53631337674973
 10
56.93712347723873
 20
36.3238318377312
 10
56.73991464435363
 20
36.18598336593267
 10
56.61825834654874
 20
36.15175729042244
  0
LWPOLYLINE
  5
5B63
330
5A94
100
AcDbEntity
  8
CONTINUOUS1
100
AcDbPolyline
 90
       17
 70
   128
 43
0.0
 10
56.34723079469717
 20
63.25229032132835
 10
56.25837720242627
 20
63.22973324744068
 10
56.04893232830963
 20
63.09703959924501
 10
55.90606020060238
 20
62.8918530694406
 10
55.8542273298865
 20
62.64160764867231
 10
55.90007085489253
 20
62.40568136204287
 10
56.03679693922368
 20
62.19809209594439
 10
56.23321141681427
 20
62.0637746179576
 10
56.48422732988695
 20
62.01160764867186
 10
56.70209906203112
 20
62.05047999043498
 10
56.9174140426539
 20
62.18416992407712
 10
57.06577212696456
 20
62.39931516221716
 10
57.11422732988747
 20
62.64160764867231
 10
57.07250597013839
 20
62.86705884388883
 10
56.93712347723871
 20
63.07954038290735
 10
56.7399146443536
 20
63.21738885470589
 10
56.61825834654871
 20
63.2516149302161
  0
LWPOLYLINE
  5
5B64
330
5A94
100
AcDbEntity
  8
CONTINUOUS1
100
AcDbPolyline
 90
       17
 70
   128
 43
0.0
 10
58.52571044488701
 20
40.52815510004763
 10
58.43685685261613
 20
40.55071217393531
 10
58.22741197849947
 20
40.68340582213097
 10
58.08453985079222
 20
40.88859235193538
 10
58.03270698007634
 20
41.13883777270368
 10
58.07855050508237
 20
41.3747640593331
 10
58.21527658941352
 20
41.58235332543159
 10
58.41169106700411
 20
41.71667080341838
 10
58.66270698007679
 20
41.76883777270413
 10
58.88057871222098
 20
41.72996543094099
 10
59.09589369284375
 20
41.59627549729886
 10
59.2442517771544
 20
41.38113025915881
 10
59.29270698007731
 20
41.13883777270368
 10
59.25098562032825
 20
40.91338657748717
 10
59.11560312742856
 20
40.70090503846863
 10
58.91839429454346
 20
40.5630565666701
 10
58.79673799673856
 20
40.52883049115988
  0
LWPOLYLINE
  5
5B65
330
5A94
100
AcDbEntity
  8
CONTINUOUS1
100
AcDbPolyline
 90
       17
 70
   128
 43
0.0
 10
58.525710444887
 20
58.87521712059092
 10
58.43685685261611
 20
58.85266004670325
 10
58.22741197849947
 20
58.71996639850758
 10
58.08453985079222
 20
58.51477986870317
 10
58.03270698007633
 20
58.26453444793487
 10
58.07855050508236
 20
58.02860816130545
 10
58.2152765894135
 20
57.82101889520695
 10
58.4116910670041
 20
57.68670141722017
 10
58.66270698007679
 20
57.63453444793442
 10
58.88057871222097
 20
57.67340678969755
 10
59.09589369284373
 20
57.80709672333969
 10
59.2442517771544
 20
58.02224196147974
 10
59.2927069800773
 20
58.26453444793487
 10
59.25098562032824
 20
58.48998564315139
 10
59.11560312742856
 20
58.70246718216993
 10
58.91839429454345
 20
58.84031565396845
 10
58.79673799673856
 20
58.87454172947867
  0
LWPOLYLINE
  5
5B66
330
5A94
100
AcDbEntity
  8
CONTINUOUS1
100
AcDbPolyline
 90
       17
 70
   128
 43
0.0
 10
52.97037589786253
 20
40.53150814120666
 10
52.99293297175019
 20
40.44265454893578
 10
53.12562661994586
 20
40.23320967481913
 10
53.33081314975027
 20
40.09033754711188
 10
53.58105857051857
 20
40.03850467639598
 10
53.81698485714799
 20
40.08434820140203
 10
54.02457412324648
 20
40.22107428573316
 10
54.15889160123326
 20
40.41748876332376
 10
54.21105857051902
 20
40.66850467639644
 10
54.17218622875589
 20
40.88637640854063
 10
54.03849629511374
 20
41.10169138916339
 10
53.82335105697371
 20
41.25004947347406
 10
53.58105857051857
 20
41.29850467639696
 10
53.35560737530205
 20
41.2567833166479
 10
53.14312583628352
 20
41.12140082374821
 10
53.00527736448498
 20
40.9241919908631
 10
52.97105128897476
 20
40.80253569305821
  0
LWPOLYLINE
  5
5B67
330
5A94
100
AcDbEntity
  8
CONTINUOUS1
100
AcDbPolyline
 90
       17
 70
   128
 43
0.0
 10
52.97037589786251
 20
58.87186407943189
 10
52.99293297175018
 20
58.96071767170277
 10
53.12562661994585
 20
59.17016254581942
 10
53.33081314975027
 20
59.31303467352667
 10
53.58105857051855
 20
59.36486754424255
 10
53.81698485714799
 20
59.31902401923651
 10
54.02457412324648
 20
59.18229793490538
 10
54.15889160123325
 20
58.98588345731479
 10
54.21105857051902
 20
58.7348675442421
 10
54.17218622875587
 20
58.51699581209792
 10
54.03849629511373
 20
58.30168083147516
 10
53.82335105697369
 20
58.1533227471645
 10
53.58105857051855
 20
58.10486754424158
 10
53.35560737530204
 20
58.14658890399065
 10
53.1431258362835
 20
58.28197139689034
 10
53.00527736448498
 20
58.47918022977544
 10
52.97105128897476
 20
58.60083652758032
  0
LWPOLYLINE
  5
5B68
330
5A94
100
AcDbEntity
  8
CONTINUOUS1
100
AcDbPolyline
 90
       17
 70
   128
 43
0.0
 10
64.35207254376298
 20
40.53150814120666
 10
64.32951546987531
 20
40.44265454893578
 10
64.19682182167965
 20
40.23320967481913
 10
63.99163529187524
 20
40.09033754711188
 10
63.74138987110694
 20
40.03850467639598
 10
63.50546358447752
 20
40.08434820140203
 10
63.29787431837903
 20
40.22107428573316
 10
63.16355684039224
 20
40.41748876332376
 10
63.11138987110649
 20
40.66850467639644
 10
63.15026221286962
 20
40.88637640854063
 10
63.28395214651177
 20
41.10169138916339
 10
63.4990973846518
 20
41.25004947347406
 10
63.74138987110694
 20
41.29850467639696
 10
63.96684106632346
 20
41.2567833166479
 10
64.17932260534199
 20
41.12140082374821
 10
64.31717107714053
 20
40.9241919908631
 10
64.35139715265075
 20
40.80253569305821
  0
LWPOLYLINE
  5
5B69
330
5A94
100
AcDbEntity
  8
CONTINUOUS1
100
AcDbPolyline
 90
       17
 70
   128
 43
0.0
 10
64.35207254376297
 20
58.8718640794319
 10
64.3295154698753
 20
58.96071767170278
 10
64.19682182167964
 20
59.17016254581943
 10
63.99163529187522
 20
59.31303467352668
 10
63.74138987110694
 20
59.36486754424257
 10
63.50546358447751
 20
59.31902401923654
 10
63.29787431837901
 20
59.1822979349054
 10
63.16355684039223
 20
58.9858834573148
 10
63.11138987110648
 20
58.7348675442421
 10
63.15026221286962
 20
58.51699581209792
 10
63.28395214651175
 20
58.30168083147516
 10
63.4990973846518
 20
58.1533227471645
 10
63.74138987110694
 20
58.1048675442416
 10
63.96684106632346
 20
58.14658890399066
 10
64.17932260534198
 20
58.28197139689034
 10
64.3171710771405
 20
58.47918022977546
 10
64.35139715265073
 20
58.60083652758034
  0
LWPOLYLINE
  5
5B6A
330
5A94
100
AcDbEntity
  8
CONTINUOUS1
100
AcDbPolyline
 90
       17
 70
   128
 43
0.0
 10
60.97521764692833
 20
36.1510818993102
 10
61.06407123919922
 20
36.17363897319787
 10
61.27351611331587
 20
36.30633262139353
 10
61.41638824102312
 20
36.51151915119795
 10
61.46822111173901
 20
36.76176457196624
 10
61.42237758673296
 20
36.99769085859566
 10
61.28565150240183
 20
37.20528012469417
 10
61.08923702481124
 20
37.33959760268094
 10
60.83822111173855
 20
37.3917645719667
 10
60.62034937959436
 20
37.35289223020356
 10
60.40503439897159
 20
37.21920229656142
 10
60.25667631466092
 20
37.00405705842138
 10
60.20822111173803
 20
36.76176457196624
 10
60.24994247148709
 20
36.53631337674973
 10
60.38532496438678
 20
36.3238318377312
 10
60.58253379727188
 20
36.18598336593267
 10
60.70419009507678
 20
36.15175729042244
  0
LWPOLYLINE
  5
5B6B
330
5A94
100
AcDbEntity
  8
CONTINUOUS1
100
AcDbPolyline
 90
       17
 70
   128
 43
0.0
 10
60.97521764692832
 20
63.25229032132836
 10
61.06407123919919
 20
63.22973324744068
 10
61.27351611331585
 20
63.09703959924502
 10
61.4163882410231
 20
62.8918530694406
 10
61.46822111173898
 20
62.64160764867231
 10
61.42237758673295
 20
62.40568136204288
 10
61.28565150240181
 20
62.19809209594439
 10
61.08923702481121
 20
62.06377461795762
 10
60.83822111173853
 20
62.01160764867186
 10
60.62034937959436
 20
62.05047999043498
 10
60.40503439897157
 20
62.18416992407714
 10
60.25667631466091
 20
62.39931516221716
 10
60.20822111173801
 20
62.64160764867231
 10
60.24994247148709
 20
62.86705884388883
 10
60.38532496438676
 20
63.07954038290735
 10
60.58253379727188
 20
63.21738885470589
 10
60.70419009507677
 20
63.2516149302161
  0
LWPOLYLINE
  5
5B6C
330
5A94
100
AcDbEntity
  8
CONTINUOUS1
100
AcDbPolyline
 90
        7
 70
   128
 43
0.0
 10
55.7511313943797
 20
36.01282113748078
 10
55.82597926703221
 20
35.92547514369293
 10
56.12806395422037
 20
35.72903396006909
 10
56.48274457062294
 20
35.65994871639424
 10
56.86250411101048
 20
35.73961196605681
 10
57.1695048338246
 20
35.9558067127561
 10
57.21558927341664
 20
36.01211011529527
  0
LWPOLYLINE
  5
5B6D
330
5A94
100
AcDbEntity
  8
CONTINUOUS1
100
AcDbPolyline
 90
        7
 70
   128
 43
0.0
 10
55.75113139437968
 20
63.39055108315776
 10
55.82597926703219
 20
63.47789707694563
 10
56.12806395422035
 20
63.67433826056945
 10
56.48274457062292
 20
63.74342350424432
 10
56.86250411101046
 20
63.66376025458174
 10
57.16950483382459
 20
63.44756550788244
 10
57.21558927341662
 20
63.39126210534328
  0
LWPOLYLINE
  5
5B6E
330
5A94
100
AcDbEntity
  8
CONTINUOUS1
100
AcDbPolyline
 90
        7
 70
   128
 43
0.0
 10
57.92961104456953
 20
40.38989433821821
 10
58.00445891722204
 20
40.30254834443036
 10
58.3065436044102
 20
40.10610716080652
 10
58.66122422081277
 20
40.03702191713166
 10
59.04098376120031
 20
40.11668516679424
 10
59.34798448401443
 20
40.33287991349353
 10
59.39406892360647
 20
40.38918331603269
  0
LWPOLYLINE
  5
5B6F
330
5A94
100
AcDbEntity
  8
CONTINUOUS1
100
AcDbPolyline
 90
        7
 70
   128
 43
0.0
 10
57.92961104456951
 20
59.01347788242033
 10
58.00445891722202
 20
59.10082387620819
 10
58.30654360441018
 20
59.29726505983203
 10
58.66122422081275
 20
59.36635030350689
 10
59.04098376120029
 20
59.2866870538443
 10
59.34798448401443
 20
59.07049230714502
 10
59.39406892360645
 20
59.01418890460586
  0
LWPOLYLINE
  5
5B70
330
5A94
100
AcDbEntity
  8
CONTINUOUS1
100
AcDbPolyline
 90
        7
 70
   128
 43
0.0
 10
52.83211513603309
 20
39.93540874088918
 10
52.74476914224525
 20
40.01025661354169
 10
52.54832795862141
 20
40.31234130072984
 10
52.47924271494657
 20
40.66702191713242
 10
52.55890596460912
 20
41.04678145751996
 10
52.77510071130842
 20
41.35378218033409
 10
52.83140411384758
 20
41.39986661992612
  0
LWPOLYLINE
  5
5B71
330
5A94
100
AcDbEntity
  8
CONTINUOUS1
100
AcDbPolyline
 90
        7
 70
   128
 43
0.0
 10
52.83211513603308
 20
59.46796347974937
 10
52.74476914224525
 20
59.39311560709686
 10
52.5483279586214
 20
59.0910309199087
 10
52.47924271494653
 20
58.73635030350611
 10
52.55890596460912
 20
58.35659076311859
 10
52.77510071130841
 20
58.04959004030447
 10
52.83140411384758
 20
58.00350560071243
  0
LWPOLYLINE
  5
5B72
330
5A94
100
AcDbEntity
  8
CONTINUOUS1
100
AcDbPolyline
 90
        7
 70
   128
 43
0.0
 10
64.49033330559242
 20
39.93540874088918
 10
64.57767929938026
 20
40.01025661354169
 10
64.7741204830041
 20
40.31234130072984
 10
64.84320572667894
 20
40.66702191713242
 10
64.76354247701639
 20
41.04678145751996
 10
64.54734773031709
 20
41.35378218033409
 10
64.49104432777793
 20
41.39986661992612
  0
LWPOLYLINE
  5
5B73
330
5A94
100
AcDbEntity
  8
CONTINUOUS1
100
AcDbPolyline
 90
        7
 70
   128
 43
0.0
 10
64.4903333055924
 20
59.46796347974938
 10
64.57767929938025
 20
59.39311560709686
 10
64.77412048300408
 20
59.09103091990871
 10
64.84320572667894
 20
58.73635030350613
 10
64.76354247701635
 20
58.3565907631186
 10
64.54734773031709
 20
58.04959004030447
 10
64.49104432777791
 20
58.00350560071244
  0
LWPOLYLINE
  5
5B74
330
5A94
100
AcDbEntity
  8
CONTINUOUS1
100
AcDbPolyline
 90
        7
 70
   128
 43
0.0
 10
61.57131704724581
 20
36.01282113748078
 10
61.4964691745933
 20
35.92547514369293
 10
61.19438448740514
 20
35.72903396006909
 10
60.83970387100257
 20
35.65994871639424
 10
60.45994433061503
 20
35.73961196605681
 10
60.15294360780091
 20
35.9558067127561
 10
60.10685916820887
 20
36.01211011529527
  0
LWPOLYLINE
  5
5B75
330
5A94
100
AcDbEntity
  8
CONTINUOUS1
100
AcDbPolyline
 90
        7
 70
   128
 43
0.0
 10
61.5713170472458
 20
63.39055108315777
 10
61.49646917459328
 20
63.47789707694563
 10
61.19438448740513
 20
63.67433826056947
 10
60.83970387100255
 20
63.74342350424432
 10
60.45994433061501
 20
63.66376025458174
 10
60.15294360780089
 20
63.44756550788246
 10
60.10685916820886
 20
63.39126210534328
  0
LWPOLYLINE
  5
5B76
330
5A94
100
AcDbEntity
  8
CONTINUOUS1
100
AcDbPolyline
 90
        7
 70
   128
 43
0.0
 10
56.61825834654871
 20
37.52413428105241
 10
56.94597749390871
 20
37.46170605423646
 10
57.36552405687572
 20
37.18900398647156
 10
57.64264315884165
 20
36.782122735467
 10
57.74274457062339
 20
36.28994871639498
 10
57.65758490668722
 20
35.83459151072275
 10
57.6404615209045
 20
35.80493293654959
  0
LWPOLYLINE
  5
5B77
330
5A94
100
AcDbEntity
  8
CONTINUOUS1
100
AcDbPolyline
 90
        7
 70
   128
 43
0.0
 10
56.61825834654869
 20
61.87923793958614
 10
56.9459774939087
 20
61.94166616640209
 10
57.36552405687572
 20
62.21436823416699
 10
57.64264315884162
 20
62.62124948517154
 10
57.74274457062336
 20
63.11342350424357
 10
57.65758490668719
 20
63.5687807099158
 10
57.6404615209045
 20
63.59843928408896
  0
LWPOLYLINE
  5
5B78
330
5A94
100
AcDbEntity
  8
CONTINUOUS1
100
AcDbPolyline
 90
        7
 70
   128
 43
0.0
 10
58.79673799673852
 20
41.90120748178983
 10
59.12445714409854
 20
41.8387792549739
 10
59.54400370706557
 20
41.56607718720898
 10
59.82112280903148
 20
41.15919593620442
 10
59.9212242208132
 20
40.66702191713241
 10
59.83606455687703
 20
40.21166471146019
 10
59.81894117109433
 20
40.18200613728702
  0
LWPOLYLINE
  5
5B79
330
5A94
100
AcDbEntity
  8
CONTINUOUS1
100
AcDbPolyline
 90
        7
 70
   128
 43
0.0
 10
58.79673799673852
 20
57.50216473884872
 10
59.12445714409853
 20
57.56459296566466
 10
59.54400370706555
 20
57.83729503342957
 10
59.82112280903146
 20
58.24417628443413
 10
59.9212242208132
 20
58.73635030350614
 10
59.83606455687703
 20
59.19170750917836
 10
59.81894117109432
 20
59.22136608335154
  0
LWPOLYLINE
  5
5B7A
330
5A94
100
AcDbEntity
  8
CONTINUOUS1
100
AcDbPolyline
 90
        7
 70
   128
 43
0.0
 10
54.34342827960472
 20
40.80253569305819
 10
54.28100005278878
 20
41.13025484041819
 10
54.00829798502389
 20
41.54980140338522
 10
53.60141673401931
 20
41.82692050535113
 10
53.1092427149473
 20
41.92702191713286
 10
52.65388550927508
 20
41.84186225319669
 10
52.62422693510192
 20
41.82473886741399
  0
LWPOLYLINE
  5
5B7B
330
5A94
100
AcDbEntity
  8
CONTINUOUS1
100
AcDbPolyline
 90
        7
 70
   128
 43
0.0
 10
54.34342827960472
 20
58.60083652758036
 10
54.28100005278877
 20
58.27311738022036
 10
54.00829798502387
 20
57.85357081725333
 10
53.60141673401931
 20
57.57645171528742
 10
53.1092427149473
 20
57.47635030350568
 10
52.65388550927507
 20
57.56150996744185
 10
52.6242269351019
 20
57.57863335322455
  0
LWPOLYLINE
  5
5B7C
330
5A94
100
AcDbEntity
  8
CONTINUOUS1
100
AcDbPolyline
 90
        7
 70
   128
 43
0.0
 10
62.97902016202079
 20
40.80253569305819
 10
63.04144838883672
 20
41.13025484041819
 10
63.31415045660162
 20
41.54980140338522
 10
63.7210317076062
 20
41.82692050535113
 10
64.21320572667821
 20
41.92702191713286
 10
64.66856293235044
 20
41.84186225319669
 10
64.69822150652359
 20
41.82473886741399
  0
LWPOLYLINE
  5
5B7D
330
5A94
100
AcDbEntity
  8
CONTINUOUS1
100
AcDbPolyline
 90
        7
 70
   128
 43
0.0
 10
62.97902016202077
 20
58.60083652758037
 10
63.04144838883671
 20
58.27311738022037
 10
63.31415045660162
 20
57.85357081725334
 10
63.72103170760619
 20
57.57645171528743
 10
64.21320572667821
 20
57.47635030350569
 10
64.66856293235043
 20
57.56150996744186
 10
64.69822150652359
 20
57.57863335322458
  0
LWPOLYLINE
  5
5B7E
330
5A94
100
AcDbEntity
  8
CONTINUOUS1
100
AcDbPolyline
 90
        7
 70
   128
 43
0.0
 10
60.70419009507681
 20
37.52413428105241
 10
60.3764709477168
 20
37.46170605423646
 10
59.95692438474979
 20
37.18900398647156
 10
59.67980528278386
 20
36.782122735467
 10
59.57970387100212
 20
36.28994871639498
 10
59.66486353493829
 20
35.83459151072275
 10
59.681986920721
 20
35.80493293654959
  0
LWPOLYLINE
  5
5B7F
330
5A94
100
AcDbEntity
  8
CONTINUOUS1
100
AcDbPolyline
 90
        7
 70
   128
 43
0.0
 10
60.7041900950768
 20
61.87923793958614
 10
60.37647094771678
 20
61.94166616640209
 10
59.95692438474975
 20
62.21436823416699
 10
59.67980528278386
 20
62.62124948517154
 10
59.57970387100212
 20
63.11342350424357
 10
59.66486353493827
 20
63.5687807099158
 10
59.68198692072099
 20
63.59843928408896
  0
LWPOLYLINE
  5
5B80
330
5A94
100
AcDbEntity
  8
CONTINUOUS1
100
AcDbPolyline
 90
        6
 70
   128
 43
0.0
 10
55.32230390503755
 20
35.79905416391242
 10
55.22274457062249
 20
36.28994871639498
 10
55.30791005679953
 20
36.74532094340341
 10
55.57825400435778
 20
37.16715839232122
 10
55.99998204459661
 20
37.45379593294273
 10
56.34723079469714
 20
37.52295816503943
  0
LWPOLYLINE
  5
5B81
330
5A94
100
AcDbEntity
  8
CONTINUOUS1
100
AcDbPolyline
 90
        6
 70
   128
 43
0.0
 10
55.32230390503753
 20
63.60431805672613
 10
55.22274457062247
 20
63.11342350424357
 10
55.30791005679951
 20
62.65805127723513
 10
55.57825400435778
 20
62.23621382831733
 10
55.99998204459659
 20
61.94957628769582
 10
56.34723079469712
 20
61.88041405559912
  0
LWPOLYLINE
  5
5B82
330
5A94
100
AcDbEntity
  8
CONTINUOUS1
100
AcDbPolyline
 90
        6
 70
   128
 43
0.0
 10
57.50078355522738
 20
40.17612736464985
 10
57.40122422081231
 20
40.66702191713241
 10
57.48638970698936
 20
41.12239414414084
 10
57.75673365454761
 20
41.54423159305865
 10
58.17846169478643
 20
41.83086913368017
 10
58.52571044488697
 20
41.90003136577686
  0
LWPOLYLINE
  5
5B83
330
5A94
100
AcDbEntity
  8
CONTINUOUS1
100
AcDbPolyline
 90
        6
 70
   128
 43
0.0
 10
57.50078355522737
 20
59.2272448559887
 10
57.40122422081231
 20
58.73635030350613
 10
57.48638970698934
 20
58.28097807649772
 10
57.7567336545476
 20
57.85914062757989
 10
58.17846169478642
 20
57.57250308695838
 10
58.52571044488695
 20
57.50334085486169
  0
LWPOLYLINE
  5
5B84
330
5A94
100
AcDbEntity
  8
CONTINUOUS1
100
AcDbPolyline
 90
        6
 70
   128
 43
0.0
 10
52.61834816246474
 20
39.50658125154704
 10
53.1092427149473
 20
39.40702191713196
 10
53.56461494195574
 20
39.49218740330901
 10
53.98645239087355
 20
39.76253135086726
 10
54.27308993149506
 20
40.18425939110609
 10
54.34225216359175
 20
40.53150814120662
  0
LWPOLYLINE
  5
5B85
330
5A94
100
AcDbEntity
  8
CONTINUOUS1
100
AcDbPolyline
 90
        6
 70
   128
 43
0.0
 10
52.61834816246473
 20
59.8967909690915
 10
53.10924271494728
 20
59.99635030350658
 10
53.56461494195571
 20
59.91118481732953
 10
53.98645239087354
 20
59.64084086977128
 10
54.27308993149505
 20
59.21911282953245
 10
54.34225216359175
 20
58.87186407943193
  0
LWPOLYLINE
  5
5B86
330
5A94
100
AcDbEntity
  8
CONTINUOUS1
100
AcDbPolyline
 90
        6
 70
   128
 43
0.0
 10
64.70410027916077
 20
39.50658125154704
 10
64.21320572667821
 20
39.40702191713196
 10
63.75783349966977
 20
39.49218740330901
 10
63.33599605075197
 20
39.76253135086726
 10
63.04935851013046
 20
40.18425939110609
 10
62.98019627803376
 20
40.53150814120662
  0
LWPOLYLINE
  5
5B87
330
5A94
100
AcDbEntity
  8
CONTINUOUS1
100
AcDbPolyline
 90
        6
 70
   128
 43
0.0
 10
64.70410027916075
 20
59.89679096909153
 10
64.21320572667821
 20
59.99635030350659
 10
63.75783349966977
 20
59.91118481732955
 10
63.33599605075196
 20
59.6408408697713
 10
63.04935851013045
 20
59.21911282953247
 10
62.98019627803374
 20
58.87186407943193
  0
LWPOLYLINE
  5
5B88
330
5A94
100
AcDbEntity
  8
CONTINUOUS1
100
AcDbPolyline
 90
        6
 70
   128
 43
0.0
 10
62.00014453658795
 20
35.79905416391242
 10
62.09970387100303
 20
36.28994871639498
 10
62.01453838482598
 20
36.74532094340341
 10
61.74419443726773
 20
37.16715839232122
 10
61.3224663970289
 20
37.45379593294273
 10
60.97521764692837
 20
37.52295816503943
  0
LWPOLYLINE
  5
5B89
330
5A94
100
AcDbEntity
  8
CONTINUOUS1
100
AcDbPolyline
 90
        6
 70
   128
 43
0.0
 10
62.00014453658794
 20
63.60431805672615
 10
62.09970387100302
 20
63.11342350424357
 10
62.01453838482597
 20
62.65805127723514
 10
61.74419443726771
 20
62.23621382831733
 10
61.32246639702889
 20
61.94957628769582
 10
60.97521764692835
 20
61.88041405559912
  0
LWPOLYLINE
  5
5B8A
330
5A94
100
AcDbEntity
  8
CONTINUOUS1
100
AcDbPolyline
 90
        7
 70
   128
 43
0.0
 10
55.47569170397453
 20
35.54147524770011
 10
55.6092260165797
 20
35.38189291648867
 10
56.01765127398017
 20
35.11892855200015
 10
56.48274457062292
 20
35.02994871639454
 10
56.96919348787838
 20
35.12763746251232
 10
57.38543221879209
 20
35.41088386677119
 10
57.49070734525997
 20
35.54094991207785
  0
LWPOLYLINE
  5
5B8B
330
5A94
100
AcDbEntity
  8
CONTINUOUS1
100
AcDbPolyline
 90
        7
 70
   128
 43
0.0
 10
55.47569170397451
 20
63.86189697293843
 10
55.60922601657967
 20
64.02147930414987
 10
56.01765127398016
 20
64.28444366863839
 10
56.48274457062291
 20
64.37342350424401
 10
56.96919348787837
 20
64.27573475812621
 10
57.38543221879208
 20
63.99248835386735
 10
57.49070734525995
 20
63.86242230856069
  0
LWPOLYLINE
  5
5B8C
330
5A94
100
AcDbEntity
  8
CONTINUOUS1
100
AcDbPolyline
 90
        7
 70
   128
 43
0.0
 10
57.65417135416436
 20
39.91854844843754
 10
57.78770566676951
 20
39.7589661172261
 10
58.19613092417
 20
39.49600175273759
 10
58.66122422081275
 20
39.40702191713197
 10
59.14767313806821
 20
39.50471066324976
 10
59.56391186898192
 20
39.78795706750863
 10
59.6691869954498
 20
39.91802311281527
  0
LWPOLYLINE
  5
5B8D
330
5A94
100
AcDbEntity
  8
CONTINUOUS1
100
AcDbPolyline
 90
        7
 70
   128
 43
0.0
 10
57.65417135416434
 20
59.484823772201
 10
57.78770566676951
 20
59.64440610341245
 10
58.19613092416999
 20
59.90737046790096
 10
58.66122422081274
 20
59.99635030350658
 10
59.14767313806819
 20
59.89866155738879
 10
59.56391186898191
 20
59.61541515312992
 10
59.66918699544979
 20
59.48534910782327
  0
LWPOLYLINE
  5
5B8E
330
5A94
100
AcDbEntity
  8
CONTINUOUS1
100
AcDbPolyline
 90
        7
 70
   128
 43
0.0
 10
52.36076924625243
 20
39.65996905048401
 10
52.20118691504099
 20
39.79350336308917
 10
51.93822255055248
 20
40.20192862048966
 10
51.84924271494685
 20
40.66702191713241
 10
51.94693146106465
 20
41.15347083438787
 10
52.23017786532351
 20
41.56970956530157
 10
52.36024391063017
 20
41.67498469176945
  0
LWPOLYLINE
  5
5B8F
330
5A94
100
AcDbEntity
  8
CONTINUOUS1
100
AcDbPolyline
 90
        7
 70
   128
 43
0.0
 10
52.36076924625243
 20
59.74340317015453
 10
52.20118691504097
 20
59.60986885754937
 10
51.93822255055247
 20
59.20144360014888
 10
51.84924271494685
 20
58.73635030350613
 10
51.94693146106463
 20
58.24990138625067
 10
52.23017786532349
 20
57.83366265533697
 10
52.36024391063015
 20
57.72838752886909
  0
LWPOLYLINE
  5
5B90
330
5A94
100
AcDbEntity
  8
CONTINUOUS1
100
AcDbPolyline
 90
        7
 70
   128
 43
0.0
 10
64.96167919537308
 20
39.65996905048401
 10
65.12126152658452
 20
39.79350336308917
 10
65.38422589107303
 20
40.20192862048966
 10
65.47320572667866
 20
40.66702191713241
 10
65.37551698056086
 20
41.15347083438787
 10
65.092270576302
 20
41.56970956530157
 10
64.96220453099535
 20
41.67498469176945
  0
LWPOLYLINE
  5
5B91
330
5A94
100
AcDbEntity
  8
CONTINUOUS1
100
AcDbPolyline
 90
        7
 70
   128
 43
0.0
 10
64.96167919537306
 20
59.74340317015455
 10
65.1212615265845
 20
59.60986885754938
 10
65.38422589107302
 20
59.20144360014891
 10
65.47320572667864
 20
58.73635030350616
 10
65.37551698056086
 20
58.24990138625069
 10
65.09227057630198
 20
57.83366265533699
 10
64.96220453099533
 20
57.72838752886911
  0
LWPOLYLINE
  5
5B92
330
5A94
100
AcDbEntity
  8
CONTINUOUS1
100
AcDbPolyline
 90
        7
 70
   128
 43
0.0
 10
61.84675673765098
 20
35.54147524770011
 10
61.71322242504581
 20
35.38189291648867
 10
61.30479716764533
 20
35.11892855200015
 10
60.83970387100258
 20
35.02994871639454
 10
60.35325495374713
 20
35.12763746251232
 10
59.93701622283342
 20
35.41088386677119
 10
59.83174109636554
 20
35.54094991207785
  0
LWPOLYLINE
  5
5B93
330
5A94
100
AcDbEntity
  8
CONTINUOUS1
100
AcDbPolyline
 90
        7
 70
   128
 43
0.0
 10
61.84675673765096
 20
63.86189697293843
 10
61.71322242504579
 20
64.02147930414987
 10
61.30479716764532
 20
64.2844436686384
 10
60.83970387100257
 20
64.37342350424401
 10
60.35325495374711
 20
64.27573475812621
 10
59.93701622283339
 20
63.99248835386737
 10
59.83174109636552
 20
63.86242230856071
  0
LINE
  5
5B94
330
5A94
100
AcDbEntity
  8
CONTINUOUS1
100
AcDbLine
 10
56.34723079469715
 20
37.64575427840096
 30
0.0
 11
56.34723079469717
 21
37.39864749729118
 31
0.0
  0
LINE
  5
5B95
330
5A94
100
AcDbEntity
  8
CONTINUOUS1
100
AcDbLine
 10
56.34723079469714
 20
61.75761794223759
 30
0.0
 11
56.34723079469715
 21
62.00472472334737
 31
0.0
  0
LINE
  5
5B96
330
5A94
100
AcDbEntity
  8
CONTINUOUS1
100
AcDbLine
 10
58.52571044488698
 20
42.0228274791384
 30
0.0
 11
58.525710444887
 21
41.7757206980286
 31
0.0
  0
LINE
  5
5B97
330
5A94
100
AcDbEntity
  8
CONTINUOUS1
100
AcDbLine
 10
58.52571044488698
 20
57.38054474150016
 30
0.0
 11
58.52571044488698
 21
57.62765152260993
 31
0.0
  0
LINE
  5
5B98
330
5A94
100
AcDbEntity
  8
CONTINUOUS1
100
AcDbLine
 10
54.46504827695328
 20
40.53150814120663
 30
0.0
 11
54.21794149584349
 21
40.53150814120665
 31
0.0
  0
LINE
  5
5B99
330
5A94
100
AcDbEntity
  8
CONTINUOUS1
100
AcDbLine
 10
54.46504827695327
 20
58.87186407943191
 30
0.0
 11
54.21794149584349
 21
58.87186407943189
 31
0.0
  0
LINE
  5
5B9A
330
5A94
100
AcDbEntity
  8
CONTINUOUS1
100
AcDbLine
 10
62.85740016467222
 20
40.53150814120663
 30
0.0
 11
63.10450694578202
 21
40.53150814120665
 31
0.0
  0
LINE
  5
5B9B
330
5A94
100
AcDbEntity
  8
CONTINUOUS1
100
AcDbLine
 10
62.85740016467221
 20
58.87186407943193
 30
0.0
 11
63.104506945782
 21
58.87186407943191
 31
0.0
  0
LINE
  5
5B9C
330
5A94
100
AcDbEntity
  8
CONTINUOUS1
100
AcDbLine
 10
60.97521764692835
 20
37.64575427840096
 30
0.0
 11
60.97521764692834
 21
37.39864749729118
 31
0.0
  0
LINE
  5
5B9D
330
5A94
100
AcDbEntity
  8
CONTINUOUS1
100
AcDbLine
 10
60.97521764692834
 20
61.75761794223759
 30
0.0
 11
60.97521764692833
 21
62.00472472334737
 31
0.0
  0
LINE
  5
5B9E
330
5A94
100
AcDbEntity
  8
CONTINUOUS1
100
AcDbLine
 10
56.34723079469712
 20
36.11519339853427
 30
0.0
 11
56.34723079469714
 21
35.86808661742448
 31
0.0
  0
LINE
  5
5B9F
330
5A94
100
AcDbEntity
  8
CONTINUOUS1
100
AcDbLine
 10
56.34723079469711
 20
63.28817882210427
 30
0.0
 11
56.34723079469712
 21
63.53528560321406
 31
0.0
  0
LINE
  5
5BA0
330
5A94
100
AcDbEntity
  8
CONTINUOUS1
100
AcDbLine
 10
58.52571044488695
 20
40.4922665992717
 30
0.0
 11
58.52571044488697
 21
40.24515981816192
 31
0.0
  0
LINE
  5
5BA1
330
5A94
100
AcDbEntity
  8
CONTINUOUS1
100
AcDbLine
 10
58.52571044488695
 20
58.91110562136685
 30
0.0
 11
58.52571044488695
 21
59.15821240247663
 31
0.0
  0
LINE
  5
5BA2
330
5A94
100
AcDbEntity
  8
CONTINUOUS1
100
AcDbLine
 10
52.9344873970866
 20
40.53150814120661
 30
0.0
 11
52.6873806159768
 21
40.53150814120662
 31
0.0
  0
LINE
  5
5BA3
330
5A94
100
AcDbEntity
  8
CONTINUOUS1
100
AcDbLine
 10
52.93448739708658
 20
58.87186407943194
 30
0.0
 11
52.68738061597679
 21
58.87186407943193
 31
0.0
  0
LINE
  5
5BA4
330
5A94
100
AcDbEntity
  8
CONTINUOUS1
100
AcDbLine
 10
64.38796104453891
 20
40.53150814120661
 30
0.0
 11
64.6350678256487
 21
40.53150814120662
 31
0.0
  0
LINE
  5
5BA5
330
5A94
100
AcDbEntity
  8
CONTINUOUS1
100
AcDbLine
 10
64.38796104453891
 20
58.87186407943195
 30
0.0
 11
64.63506782564869
 21
58.87186407943193
 31
0.0
  0
LINE
  5
5BA6
330
5A94
100
AcDbEntity
  8
CONTINUOUS1
100
AcDbLine
 10
60.97521764692839
 20
36.11519339853427
 30
0.0
 11
60.97521764692837
 21
35.86808661742448
 31
0.0
  0
LINE
  5
5BA7
330
5A94
100
AcDbEntity
  8
CONTINUOUS1
100
AcDbLine
 10
60.97521764692837
 20
63.28817882210429
 30
0.0
 11
60.97521764692834
 21
63.53528560321406
 31
0.0
  0
LINE
  5
5BA8
330
5A94
100
AcDbEntity
  8
CONTINUOUS1
100
AcDbLine
 10
56.34723079469717
 20
36.27463528986508
 30
0.0
 11
56.34723079469719
 21
36.02752850875531
 31
0.0
  0
LINE
  5
5BA9
330
5A94
100
AcDbEntity
  8
CONTINUOUS1
100
AcDbLine
 10
56.34723079469715
 20
63.12873693077346
 30
0.0
 11
56.34723079469717
 21
63.37584371188325
 31
0.0
  0
LINE
  5
5BAA
330
5A94
100
AcDbEntity
  8
CONTINUOUS1
100
AcDbLine
 10
58.525710444887
 20
40.65170849060252
 30
0.0
 11
58.52571044488701
 21
40.40460170949273
 31
0.0
  0
LINE
  5
5BAB
330
5A94
100
AcDbEntity
  8
CONTINUOUS1
100
AcDbLine
 10
58.52571044488698
 20
58.75166373003603
 30
0.0
 11
58.52571044488701
 21
58.99877051114582
 31
0.0
  0
LINE
  5
5BAC
330
5A94
100
AcDbEntity
  8
CONTINUOUS1
100
AcDbLine
 10
53.09392928841742
 20
40.53150814120665
 30
0.0
 11
52.84682250730762
 21
40.53150814120666
 31
0.0
  0
LINE
  5
5BAD
330
5A94
100
AcDbEntity
  8
CONTINUOUS1
100
AcDbLine
 10
53.0939292884174
 20
58.87186407943189
 30
0.0
 11
52.84682250730762
 21
58.87186407943188
 31
0.0
  0
LINE
  5
5BAE
330
5A94
100
AcDbEntity
  8
CONTINUOUS1
100
AcDbLine
 10
64.22851915320809
 20
40.53150814120665
 30
0.0
 11
64.47562593431789
 21
40.53150814120666
 31
0.0
  0
LINE
  5
5BAF
330
5A94
100
AcDbEntity
  8
CONTINUOUS1
100
AcDbLine
 10
64.22851915320809
 20
58.87186407943191
 30
0.0
 11
64.47562593431787
 21
58.87186407943189
 31
0.0
  0
LINE
  5
5BB0
330
5A94
100
AcDbEntity
  8
CONTINUOUS1
100
AcDbLine
 10
60.97521764692834
 20
36.27463528986508
 30
0.0
 11
60.97521764692833
 21
36.02752850875531
 31
0.0
  0
LINE
  5
5BB1
330
5A94
100
AcDbEntity
  8
CONTINUOUS1
100
AcDbLine
 10
60.97521764692833
 20
63.12873693077347
 30
0.0
 11
60.97521764692832
 21
63.37584371188325
 31
0.0
  0
LINE
  5
5BB2
330
5A94
100
AcDbEntity
  8
CONTINUOUS1
100
AcDbLine
 10
56.61825834654871
 20
37.6464296695132
 30
0.0
 11
56.61825834654873
 21
37.39932288840341
 31
0.0
  0
LINE
  5
5BB3
330
5A94
100
AcDbEntity
  8
CONTINUOUS1
100
AcDbLine
 10
56.61825834654869
 20
61.75694255112535
 30
0.0
 11
56.61825834654871
 21
62.00404933223513
 31
0.0
  0
LINE
  5
5BB4
330
5A94
100
AcDbEntity
  8
CONTINUOUS1
100
AcDbLine
 10
58.79673799673852
 20
42.02350287025064
 30
0.0
 11
58.79673799673856
 21
41.77639608914085
 31
0.0
  0
LINE
  5
5BB5
330
5A94
100
AcDbEntity
  8
CONTINUOUS1
100
AcDbLine
 10
58.79673799673852
 20
57.37986935038791
 30
0.0
 11
58.79673799673854
 21
57.6269761314977
 31
0.0
  0
LINE
  5
5BB6
330
5A94
100
AcDbEntity
  8
CONTINUOUS1
100
AcDbLine
 10
54.46572366806552
 20
40.80253569305819
 30
0.0
 11
54.21861688695575
 21
40.80253569305821
 31
0.0
  0
LINE
  5
5BB7
330
5A94
100
AcDbEntity
  8
CONTINUOUS1
100
AcDbLine
 10
54.46572366806551
 20
58.60083652758036
 30
0.0
 11
54.21861688695573
 21
58.60083652758034
 31
0.0
  0
LINE
  5
5BB8
330
5A94
100
AcDbEntity
  8
CONTINUOUS1
100
AcDbLine
 10
62.85672477355999
 20
40.80253569305819
 30
0.0
 11
63.10383155466976
 21
40.80253569305821
 31
0.0
  0
LINE
  5
5BB9
330
5A94
100
AcDbEntity
  8
CONTINUOUS1
100
AcDbLine
 10
62.85672477355999
 20
58.60083652758036
 30
0.0
 11
63.10383155466976
 21
58.60083652758034
 31
0.0
  0
LINE
  5
5BBA
330
5A94
100
AcDbEntity
  8
CONTINUOUS1
100
AcDbLine
 10
60.7041900950768
 20
37.6464296695132
 30
0.0
 11
60.70419009507678
 21
37.39932288840341
 31
0.0
  0
LINE
  5
5BBB
330
5A94
100
AcDbEntity
  8
CONTINUOUS1
100
AcDbLine
 10
60.70419009507678
 20
61.75694255112535
 30
0.0
 11
60.70419009507677
 21
62.00404933223514
 31
0.0
  0
LINE
  5
5BBC
330
5A94
100
AcDbEntity
  8
CONTINUOUS1
100
AcDbLine
 10
56.61825834654869
 20
36.11586878964651
 30
0.0
 11
56.61825834654869
 21
35.86876200853673
 31
0.0
  0
LINE
  5
5BBD
330
5A94
100
AcDbEntity
  8
CONTINUOUS1
100
AcDbLine
 10
56.61825834654866
 20
63.28750343099205
 30
0.0
 11
56.61825834654867
 21
63.53461021210183
 31
0.0
  0
LINE
  5
5BBE
330
5A94
100
AcDbEntity
  8
CONTINUOUS1
100
AcDbLine
 10
58.7967379967385
 20
40.49294199038395
 30
0.0
 11
58.79673799673852
 21
40.24583520927416
 31
0.0
  0
LINE
  5
5BBF
330
5A94
100
AcDbEntity
  8
CONTINUOUS1
100
AcDbLine
 10
58.7967379967385
 20
58.91043023025461
 30
0.0
 11
58.7967379967385
 21
59.15753701136439
 31
0.0
  0
LINE
  5
5BC0
330
5A94
100
AcDbEntity
  8
CONTINUOUS1
100
AcDbLine
 10
52.93516278819883
 20
40.80253569305816
 30
0.0
 11
52.68805600708905
 21
40.80253569305817
 31
0.0
  0
LINE
  5
5BC1
330
5A94
100
AcDbEntity
  8
CONTINUOUS1
100
AcDbLine
 10
52.93516278819883
 20
58.60083652758039
 30
0.0
 11
52.68805600708905
 21
58.60083652758039
 31
0.0
  0
LINE
  5
5BC2
330
5A94
100
AcDbEntity
  8
CONTINUOUS1
100
AcDbLine
 10
64.38728565342668
 20
40.80253569305816
 30
0.0
 11
64.63439243453646
 21
40.80253569305817
 31
0.0
  0
LINE
  5
5BC3
330
5A94
100
AcDbEntity
  8
CONTINUOUS1
100
AcDbLine
 10
64.38728565342668
 20
58.60083652758039
 30
0.0
 11
64.63439243453645
 21
58.60083652758039
 31
0.0
  0
LINE
  5
5BC4
330
5A94
100
AcDbEntity
  8
CONTINUOUS1
100
AcDbLine
 10
60.70419009507682
 20
36.11586878964651
 30
0.0
 11
60.70419009507682
 21
35.86876200853673
 31
0.0
  0
LINE
  5
5BC5
330
5A94
100
AcDbEntity
  8
CONTINUOUS1
100
AcDbLine
 10
60.70419009507682
 20
63.28750343099205
 30
0.0
 11
60.7041900950768
 21
63.53461021210183
 31
0.0
  0
LINE
  5
5BC6
330
5A94
100
AcDbEntity
  8
CONTINUOUS1
100
AcDbLine
 10
56.61825834654873
 20
36.27531068097733
 30
0.0
 11
56.61825834654874
 21
36.02820389986755
 31
0.0
  0
LINE
  5
5BC7
330
5A94
100
AcDbEntity
  8
CONTINUOUS1
100
AcDbLine
 10
56.61825834654871
 20
63.12806153966121
 30
0.0
 11
56.61825834654873
 21
63.37516832077099
 31
0.0
  0
LINE
  5
5BC8
330
5A94
100
AcDbEntity
  8
CONTINUOUS1
100
AcDbLine
 10
58.79673799673856
 20
40.65238388171476
 30
0.0
 11
58.79673799673857
 21
40.40527710060498
 31
0.0
  0
LINE
  5
5BC9
330
5A94
100
AcDbEntity
  8
CONTINUOUS1
100
AcDbLine
 10
58.79673799673854
 20
58.75098833892379
 30
0.0
 11
58.79673799673856
 21
58.99809512003357
 31
0.0
  0
LINE
  5
5BCA
330
5A94
100
AcDbEntity
  8
CONTINUOUS1
100
AcDbLine
 10
53.09460467952965
 20
40.80253569305821
 30
0.0
 11
52.84749789841987
 21
40.80253569305821
 31
0.0
  0
LINE
  5
5BCB
330
5A94
100
AcDbEntity
  8
CONTINUOUS1
100
AcDbLine
 10
53.09460467952964
 20
58.60083652758034
 30
0.0
 11
52.84749789841986
 21
58.60083652758032
 31
0.0
  0
LINE
  5
5BCC
330
5A94
100
AcDbEntity
  8
CONTINUOUS1
100
AcDbLine
 10
64.22784376209586
 20
40.80253569305821
 30
0.0
 11
64.47495054320564
 21
40.80253569305821
 31
0.0
  0
LINE
  5
5BCD
330
5A94
100
AcDbEntity
  8
CONTINUOUS1
100
AcDbLine
 10
64.22784376209586
 20
58.60083652758035
 30
0.0
 11
64.47495054320564
 21
58.60083652758034
 31
0.0
  0
LINE
  5
5BCE
330
5A94
100
AcDbEntity
  8
CONTINUOUS1
100
AcDbLine
 10
60.70419009507678
 20
36.27531068097733
 30
0.0
 11
60.70419009507677
 21
36.02820389986755
 31
0.0
  0
LINE
  5
5BCF
330
5A94
100
AcDbEntity
  8
CONTINUOUS1
100
AcDbLine
 10
60.70419009507677
 20
63.12806153966121
 30
0.0
 11
60.70419009507675
 21
63.37516832077099
 31
0.0
  0
LINE
  5
5BD0
330
5A94
100
AcDbEntity
  8
CONTINUOUS1
100
AcDbLine
 10
55.57033909223761
 20
35.62089383628356
 30
0.0
 11
55.38104431571143
 21
35.46205665911667
 31
0.0
  0
LINE
  5
5BD1
330
5A94
100
AcDbEntity
  8
CONTINUOUS1
100
AcDbLine
 10
55.5703390922376
 20
63.78247838435498
 30
0.0
 11
55.38104431571142
 21
63.94131556152186
 31
0.0
  0
LINE
  5
5BD2
330
5A94
100
AcDbEntity
  8
CONTINUOUS1
100
AcDbLine
 10
57.74881874242744
 20
39.99796703702099
 30
0.0
 11
57.55952396590126
 21
39.83912985985411
 31
0.0
  0
LINE
  5
5BD3
330
5A94
100
AcDbEntity
  8
CONTINUOUS1
100
AcDbLine
 10
57.74881874242743
 20
59.40540518361756
 30
0.0
 11
57.55952396590126
 21
59.56424236078444
 31
0.0
  0
LINE
  5
5BD4
330
5A94
100
AcDbEntity
  8
CONTINUOUS1
100
AcDbLine
 10
52.44018783483588
 20
39.7546164387471
 30
0.0
 11
52.28135065766899
 21
39.56532166222091
 31
0.0
  0
LINE
  5
5BD5
330
5A94
100
AcDbEntity
  8
CONTINUOUS1
100
AcDbLine
 10
52.44018783483586
 20
59.64875578189144
 30
0.0
 11
52.28135065766898
 21
59.83805055841762
 31
0.0
  0
LINE
  5
5BD6
330
5A94
100
AcDbEntity
  8
CONTINUOUS1
100
AcDbLine
 10
64.88226060678963
 20
39.7546164387471
 30
0.0
 11
65.04109778395651
 21
39.56532166222091
 31
0.0
  0
LINE
  5
5BD7
330
5A94
100
AcDbEntity
  8
CONTINUOUS1
100
AcDbLine
 10
64.88226060678963
 20
59.64875578189147
 30
0.0
 11
65.0410977839565
 21
59.83805055841764
 31
0.0
  0
LINE
  5
5BD8
330
5A94
100
AcDbEntity
  8
CONTINUOUS1
100
AcDbLine
 10
61.75210934938789
 20
35.62089383628356
 30
0.0
 11
61.94140412591406
 21
35.46205665911667
 31
0.0
  0
LINE
  5
5BD9
330
5A94
100
AcDbEntity
  8
CONTINUOUS1
100
AcDbLine
 10
61.75210934938786
 20
63.78247838435498
 30
0.0
 11
61.94140412591406
 21
63.94131556152188
 31
0.0
  0
LINE
  5
5BDA
330
5A94
100
AcDbEntity
  8
CONTINUOUS1
100
AcDbLine
 10
57.39515004900827
 20
35.62089383628356
 30
0.0
 11
57.58444482553445
 21
35.46205665911667
 31
0.0
  0
LINE
  5
5BDB
330
5A94
100
AcDbEntity
  8
CONTINUOUS1
100
AcDbLine
 10
57.39515004900825
 20
63.78247838435498
 30
0.0
 11
57.58444482553443
 21
63.94131556152188
 31
0.0
  0
LINE
  5
5BDC
330
5A94
100
AcDbEntity
  8
CONTINUOUS1
100
AcDbLine
 10
59.5736296991981
 20
39.99796703702099
 30
0.0
 11
59.76292447572427
 21
39.83912985985411
 31
0.0
  0
LINE
  5
5BDD
330
5A94
100
AcDbEntity
  8
CONTINUOUS1
100
AcDbLine
 10
59.57362969919808
 20
59.40540518361756
 30
0.0
 11
59.76292447572426
 21
59.56424236078444
 31
0.0
  0
LINE
  5
5BDE
330
5A94
100
AcDbEntity
  8
CONTINUOUS1
100
AcDbLine
 10
52.44018783483588
 20
41.57942739551774
 30
0.0
 11
52.28135065766899
 21
41.76872217204392
 31
0.0
  0
LINE
  5
5BDF
330
5A94
100
AcDbEntity
  8
CONTINUOUS1
100
AcDbLine
 10
52.44018783483586
 20
57.8239448251208
 30
0.0
 11
52.28135065766898
 21
57.63465004859462
 31
0.0
  0
LINE
  5
5BE0
330
5A94
100
AcDbEntity
  8
CONTINUOUS1
100
AcDbLine
 10
64.88226060678963
 20
41.57942739551774
 30
0.0
 11
65.04109778395651
 21
41.76872217204392
 31
0.0
  0
LINE
  5
5BE1
330
5A94
100
AcDbEntity
  8
CONTINUOUS1
100
AcDbLine
 10
64.88226060678963
 20
57.82394482512081
 30
0.0
 11
65.0410977839565
 21
57.63465004859464
 31
0.0
  0
LINE
  5
5BE2
330
5A94
100
AcDbEntity
  8
CONTINUOUS1
100
AcDbLine
 10
59.92729839261724
 20
35.62089383628356
 30
0.0
 11
59.73800361609106
 21
35.46205665911667
 31
0.0
  0
LINE
  5
5BE3
330
5A94
100
AcDbEntity
  8
CONTINUOUS1
100
AcDbLine
 10
59.92729839261723
 20
63.78247838435498
 30
0.0
 11
59.73800361609105
 21
63.94131556152188
 31
0.0
  0
LINE
  5
5BE4
330
5A94
100
AcDbEntity
  8
CONTINUOUS1
100
AcDbLine
 10
55.84577878264278
 20
36.09223972606422
 30
0.0
 11
55.65648400611661
 21
35.93340254889734
 31
0.0
  0
LINE
  5
5BE5
330
5A94
100
AcDbEntity
  8
CONTINUOUS1
100
AcDbLine
 10
55.84577878264278
 20
63.31113249457434
 30
0.0
 11
55.65648400611658
 21
63.4699696717412
 31
0.0
  0
LINE
  5
5BE6
330
5A94
100
AcDbEntity
  8
CONTINUOUS1
100
AcDbLine
 10
58.02425843283263
 20
40.46931292680165
 30
0.0
 11
57.83496365630643
 21
40.31047574963477
 31
0.0
  0
LINE
  5
5BE7
330
5A94
100
AcDbEntity
  8
CONTINUOUS1
100
AcDbLine
 10
58.02425843283259
 20
58.9340592938369
 30
0.0
 11
57.83496365630643
 21
59.09289647100377
 31
0.0
  0
LINE
  5
5BE8
330
5A94
100
AcDbEntity
  8
CONTINUOUS1
100
AcDbLine
 10
52.91153372461653
 20
40.03005612915226
 30
0.0
 11
52.75269654744966
 21
39.84076135262609
 31
0.0
  0
LINE
  5
5BE9
330
5A94
100
AcDbEntity
  8
CONTINUOUS1
100
AcDbLine
 10
52.91153372461653
 20
59.37331609148627
 30
0.0
 11
52.75269654744966
 21
59.56261086801245
 31
0.0
  0
LINE
  5
5BEA
330
5A94
100
AcDbEntity
  8
CONTINUOUS1
100
AcDbLine
 10
64.41091471700898
 20
40.03005612915226
 30
0.0
 11
64.56975189417585
 21
39.84076135262609
 31
0.0
  0
LINE
  5
5BEB
330
5A94
100
AcDbEntity
  8
CONTINUOUS1
100
AcDbLine
 10
64.41091471700897
 20
59.37331609148629
 30
0.0
 11
64.56975189417583
 21
59.56261086801247
 31
0.0
  0
LINE
  5
5BEC
330
5A94
100
AcDbEntity
  8
CONTINUOUS1
100
AcDbLine
 10
61.47666965898273
 20
36.09223972606422
 30
0.0
 11
61.66596443550891
 21
35.93340254889734
 31
0.0
  0
LINE
  5
5BED
330
5A94
100
AcDbEntity
  8
CONTINUOUS1
100
AcDbLine
 10
61.4766696589827
 20
63.31113249457434
 30
0.0
 11
61.6659644355089
 21
63.46996967174121
 31
0.0
  0
LINE
  5
5BEE
330
5A94
100
AcDbEntity
  8
CONTINUOUS1
100
AcDbLine
 10
57.1197103586031
 20
36.09223972606422
 30
0.0
 11
57.30900513512928
 21
35.93340254889734
 31
0.0
  0
LINE
  5
5BEF
330
5A94
100
AcDbEntity
  8
CONTINUOUS1
100
AcDbLine
 10
57.11971035860308
 20
63.31113249457434
 30
0.0
 11
57.30900513512927
 21
63.46996967174121
 31
0.0
  0
LINE
  5
5BF0
330
5A94
100
AcDbEntity
  8
CONTINUOUS1
100
AcDbLine
 10
59.29819000879293
 20
40.46931292680165
 30
0.0
 11
59.48748478531911
 21
40.31047574963477
 31
0.0
  0
LINE
  5
5BF1
330
5A94
100
AcDbEntity
  8
CONTINUOUS1
100
AcDbLine
 10
59.29819000879291
 20
58.9340592938369
 30
0.0
 11
59.4874847853191
 21
59.09289647100377
 31
0.0
  0
LINE
  5
5BF2
330
5A94
100
AcDbEntity
  8
CONTINUOUS1
100
AcDbLine
 10
52.91153372461653
 20
41.30398770511257
 30
0.0
 11
52.75269654744966
 21
41.49328248163876
 31
0.0
  0
LINE
  5
5BF3
330
5A94
100
AcDbEntity
  8
CONTINUOUS1
100
AcDbLine
 10
52.91153372461653
 20
58.09938451552597
 30
0.0
 11
52.75269654744966
 21
57.91008973899978
 31
0.0
  0
LINE
  5
5BF4
330
5A94
100
AcDbEntity
  8
CONTINUOUS1
100
AcDbLine
 10
64.41091471700898
 20
41.30398770511257
 30
0.0
 11
64.56975189417585
 21
41.49328248163876
 31
0.0
  0
LINE
  5
5BF5
330
5A94
100
AcDbEntity
  8
CONTINUOUS1
100
AcDbLine
 10
64.41091471700897
 20
58.09938451552598
 30
0.0
 11
64.56975189417583
 21
57.9100897389998
 31
0.0
  0
LINE
  5
5BF6
330
5A94
100
AcDbEntity
  8
CONTINUOUS1
100
AcDbLine
 10
60.20273808302241
 20
36.09223972606422
 30
0.0
 11
60.01344330649622
 21
35.93340254889734
 31
0.0
  0
LINE
  5
5BF7
330
5A94
100
AcDbEntity
  8
CONTINUOUS1
100
AcDbLine
 10
60.20273808302239
 20
63.31113249457434
 30
0.0
 11
60.01344330649621
 21
63.46996967174121
 31
0.0
  0
LINE
  5
5BF8
330
5A94
100
AcDbEntity
  8
CONTINUOUS1
100
AcDbLine
 10
55.42058491659308
 20
35.88487686075529
 30
0.0
 11
55.2312901400669
 21
35.72603968358842
 31
0.0
  0
LINE
  5
5BF9
330
5A94
100
AcDbEntity
  8
CONTINUOUS1
100
AcDbLine
 10
55.42058491659307
 20
63.51849535988325
 30
0.0
 11
55.23129014006689
 21
63.67733253705011
 31
0.0
  0
LINE
  5
5BFA
330
5A94
100
AcDbEntity
  8
CONTINUOUS1
100
AcDbLine
 10
57.59906456678291
 20
40.26195006149273
 30
0.0
 11
57.40976979025674
 21
40.10311288432585
 31
0.0
  0
LINE
  5
5BFB
330
5A94
100
AcDbEntity
  8
CONTINUOUS1
100
AcDbLine
 10
57.59906456678291
 20
59.14142215914582
 30
0.0
 11
57.40976979025671
 21
59.30025933631269
 31
0.0
  0
LINE
  5
5BFC
330
5A94
100
AcDbEntity
  8
CONTINUOUS1
100
AcDbLine
 10
52.70417085930763
 20
39.60486226310257
 30
0.0
 11
52.54533368214075
 21
39.41556748657639
 31
0.0
  0
LINE
  5
5BFD
330
5A94
100
AcDbEntity
  8
CONTINUOUS1
100
AcDbLine
 10
52.70417085930761
 20
59.79850995753598
 30
0.0
 11
52.54533368214072
 21
59.98780473406217
 31
0.0
  0
LINE
  5
5BFE
330
5A94
100
AcDbEntity
  8
CONTINUOUS1
100
AcDbLine
 10
64.61827758231788
 20
39.60486226310257
 30
0.0
 11
64.77711475948476
 21
39.41556748657639
 31
0.0
  0
LINE
  5
5BFF
330
5A94
100
AcDbEntity
  8
CONTINUOUS1
100
AcDbLine
 10
64.61827758231788
 20
59.79850995753599
 30
0.0
 11
64.77711475948476
 21
59.98780473406217
 31
0.0
  0
LINE
  5
5C00
330
5A94
100
AcDbEntity
  8
CONTINUOUS1
100
AcDbLine
 10
61.90186352503243
 20
35.88487686075529
 30
0.0
 11
62.09115830155861
 21
35.72603968358842
 31
0.0
  0
LINE
  5
5C01
330
5A94
100
AcDbEntity
  8
CONTINUOUS1
100
AcDbLine
 10
61.90186352503241
 20
63.51849535988326
 30
0.0
 11
62.09115830155858
 21
63.67733253705011
 31
0.0
  0
LINE
  5
5C02
330
5A94
100
AcDbEntity
  8
CONTINUOUS1
100
AcDbLine
 10
57.5449042246528
 20
35.88487686075529
 30
0.0
 11
57.73419900117898
 21
35.72603968358842
 31
0.0
  0
LINE
  5
5C03
330
5A94
100
AcDbEntity
  8
CONTINUOUS1
100
AcDbLine
 10
57.54490422465278
 20
63.51849535988325
 30
0.0
 11
57.73419900117895
 21
63.67733253705011
 31
0.0
  0
LINE
  5
5C04
330
5A94
100
AcDbEntity
  8
CONTINUOUS1
100
AcDbLine
 10
59.72338387484263
 20
40.26195006149273
 30
0.0
 11
59.9126786513688
 21
40.10311288432585
 31
0.0
  0
LINE
  5
5C05
330
5A94
100
AcDbEntity
  8
CONTINUOUS1
100
AcDbLine
 10
59.72338387484263
 20
59.14142215914582
 30
0.0
 11
59.9126786513688
 21
59.30025933631269
 31
0.0
  0
LINE
  5
5C06
330
5A94
100
AcDbEntity
  8
CONTINUOUS1
100
AcDbLine
 10
52.70417085930763
 20
41.72918157116228
 30
0.0
 11
52.54533368214075
 21
41.91847634768845
 31
0.0
  0
LINE
  5
5C07
330
5A94
100
AcDbEntity
  8
CONTINUOUS1
100
AcDbLine
 10
52.70417085930761
 20
57.67419064947628
 30
0.0
 11
52.54533368214073
 21
57.48489587295009
 31
0.0
  0
LINE
  5
5C08
330
5A94
100
AcDbEntity
  8
CONTINUOUS1
100
AcDbLine
 10
64.61827758231788
 20
41.72918157116228
 30
0.0
 11
64.77711475948476
 21
41.91847634768845
 31
0.0
  0
LINE
  5
5C09
330
5A94
100
AcDbEntity
  8
CONTINUOUS1
100
AcDbLine
 10
64.61827758231788
 20
57.67419064947628
 30
0.0
 11
64.77711475948476
 21
57.48489587295011
 31
0.0
  0
LINE
  5
5C0A
330
5A94
100
AcDbEntity
  8
CONTINUOUS1
100
AcDbLine
 10
59.77754421697271
 20
35.88487686075529
 30
0.0
 11
59.58824944044653
 21
35.72603968358842
 31
0.0
  0
LINE
  5
5C0B
330
5A94
100
AcDbEntity
  8
CONTINUOUS1
100
AcDbLine
 10
59.7775442169727
 20
63.51849535988325
 30
0.0
 11
59.58824944044652
 21
63.67733253705011
 31
0.0
  0
LINE
  5
5C0C
330
5A94
100
AcDbEntity
  8
CONTINUOUS1
100
AcDbLine
 10
55.69602460699825
 20
36.35622275053596
 30
0.0
 11
55.50672983047206
 21
36.19738557336908
 31
0.0
  0
LINE
  5
5C0D
330
5A94
100
AcDbEntity
  8
CONTINUOUS1
100
AcDbLine
 10
55.69602460699823
 20
63.04714947010258
 30
0.0
 11
55.50672983047206
 21
63.20598664726947
 31
0.0
  0
LINE
  5
5C0E
330
5A94
100
AcDbEntity
  8
CONTINUOUS1
100
AcDbLine
 10
57.87450425718808
 20
40.73329595127339
 30
0.0
 11
57.68520948066191
 21
40.57445877410652
 31
0.0
  0
LINE
  5
5C0F
330
5A94
100
AcDbEntity
  8
CONTINUOUS1
100
AcDbLine
 10
57.87450425718808
 20
58.67007626936516
 30
0.0
 11
57.68520948066189
 21
58.82891344653203
 31
0.0
  0
LINE
  5
5C10
330
5A94
100
AcDbEntity
  8
CONTINUOUS1
100
AcDbLine
 10
53.17551674908829
 20
39.88030195350773
 30
0.0
 11
53.0166795719214
 21
39.69100717698156
 31
0.0
  0
LINE
  5
5C11
330
5A94
100
AcDbEntity
  8
CONTINUOUS1
100
AcDbLine
 10
53.17551674908827
 20
59.52307026713082
 30
0.0
 11
53.0166795719214
 21
59.71236504365699
 31
0.0
  0
LINE
  5
5C12
330
5A94
100
AcDbEntity
  8
CONTINUOUS1
100
AcDbLine
 10
64.14693169253722
 20
39.88030195350773
 30
0.0
 11
64.30576886970411
 21
39.69100717698156
 31
0.0
  0
LINE
  5
5C13
330
5A94
100
AcDbEntity
  8
CONTINUOUS1
100
AcDbLine
 10
64.14693169253721
 20
59.52307026713082
 30
0.0
 11
64.3057688697041
 21
59.712365043657
 31
0.0
  0
LINE
  5
5C14
330
5A94
100
AcDbEntity
  8
CONTINUOUS1
100
AcDbLine
 10
61.62642383462726
 20
36.35622275053596
 30
0.0
 11
61.81571861115343
 21
36.19738557336908
 31
0.0
  0
LINE
  5
5C15
330
5A94
100
AcDbEntity
  8
CONTINUOUS1
100
AcDbLine
 10
61.62642383462724
 20
63.0471494701026
 30
0.0
 11
61.81571861115341
 21
63.20598664726947
 31
0.0
  0
LINE
  5
5C16
330
5A94
100
AcDbEntity
  8
CONTINUOUS1
100
AcDbLine
 10
57.26946453424763
 20
36.35622275053596
 30
0.0
 11
57.45875931077382
 21
36.19738557336908
 31
0.0
  0
LINE
  5
5C17
330
5A94
100
AcDbEntity
  8
CONTINUOUS1
100
AcDbLine
 10
57.26946453424762
 20
63.04714947010258
 30
0.0
 11
57.45875931077378
 21
63.20598664726947
 31
0.0
  0
LINE
  5
5C18
330
5A94
100
AcDbEntity
  8
CONTINUOUS1
100
AcDbLine
 10
59.44794418443746
 20
40.73329595127339
 30
0.0
 11
59.63723896096363
 21
40.57445877410652
 31
0.0
  0
LINE
  5
5C19
330
5A94
100
AcDbEntity
  8
CONTINUOUS1
100
AcDbLine
 10
59.44794418443746
 20
58.67007626936516
 30
0.0
 11
59.63723896096363
 21
58.82891344653203
 31
0.0
  0
LINE
  5
5C1A
330
5A94
100
AcDbEntity
  8
CONTINUOUS1
100
AcDbLine
 10
53.17551674908829
 20
41.45374188075711
 30
0.0
 11
53.0166795719214
 21
41.64303665728328
 31
0.0
  0
LINE
  5
5C1B
330
5A94
100
AcDbEntity
  8
CONTINUOUS1
100
AcDbLine
 10
53.17551674908827
 20
57.94963033988143
 30
0.0
 11
53.0166795719214
 21
57.76033556335526
 31
0.0
  0
LINE
  5
5C1C
330
5A94
100
AcDbEntity
  8
CONTINUOUS1
100
AcDbLine
 10
64.14693169253722
 20
41.45374188075711
 30
0.0
 11
64.30576886970411
 21
41.64303665728328
 31
0.0
  0
LINE
  5
5C1D
330
5A94
100
AcDbEntity
  8
CONTINUOUS1
100
AcDbLine
 10
64.14693169253721
 20
57.94963033988144
 30
0.0
 11
64.3057688697041
 21
57.76033556335527
 31
0.0
  0
LINE
  5
5C1E
330
5A94
100
AcDbEntity
  8
CONTINUOUS1
100
AcDbLine
 10
60.05298390737788
 20
36.35622275053596
 30
0.0
 11
59.86368913085169
 21
36.19738557336908
 31
0.0
  0
LINE
  5
5C1F
330
5A94
100
AcDbEntity
  8
CONTINUOUS1
100
AcDbLine
 10
60.05298390737786
 20
63.0471494701026
 30
0.0
 11
59.86368913085169
 21
63.20598664726947
 31
0.0
  0
HATCH
  5
5C20
330
5A94
100
AcDbEntity
  8
TEXT1
100
AcDbHatch
 10
0.0
 20
0.0
 30
0.0
210
0.0
220
0.0
230
1.0
  2
SOLID
 70
     1
 71
     1
 91
        1
 92
        7
 72
     0
 73
     1
 93
        3
 10
2.821865448737142
 20
1.691870263160661
 10
3.621865448737139
 20
1.691870263160661
 10
3.221865448737133
 20
2.491870263160659
 97
        1
330
5B08
 75
     0
 76
     1
 47
0.0043232999412327
 98
        1
 10
3.141199103305666
 20
1.957465458051326
  0
HATCH
  5
5C21
330
5A94
100
AcDbEntity
  8
TEXT1
100
AcDbHatch
 10
0.0
 20
0.0
 30
0.0
210
0.0
220
0.0
230
1.0
  2
SOLID
 70
     1
 71
     1
 91
        1
 92
        7
 72
     0
 73
     1
 93
        3
 10
128.5643839277556
 20
18.94895178149335
 10
128.1643839277556
 20
18.14895178149335
 10
128.9643839277555
 20
18.14895178149334
 97
        1
330
5B09
 75
     0
 76
     1
 47
0.0078842806764744
 98
        1
 10
128.6058150092452
 20
18.4228796326499
  0
DIMENSION
  5
5C22
330
5A94
100
AcDbEntity
  8
DIM
100
AcDbDimension
  2
*D28
 10
62.44122422081275
 20
31.31550913108953
 30
0.0
 11
64.56622422081276
 21
31.31550913108953
 31
0.0
 70
    32
  3
SCHNEIDERELECTRIC_DUAL_BEL
100
AcDbAlignedDimension
 13
66.69122422081276
 23
38.14168611031927
 33
0.0
 14
62.44122422081275
 24
33.89168611031927
 34
0.0
100
AcDbRotatedDimension
1001
ACAD
1000
DSTYLE
1002
{
1070
    40
1040
8.0
1002
}
  0
DIMENSION
  5
5C23
330
5A94
100
AcDbEntity
  8
DIM
100
AcDbDimension
  2
*D29
 10
54.88122422081275
 20
31.31550913108953
 30
0.0
 11
58.66122422081275
 21
31.31550913108953
 31
0.0
 70
    32
  3
SCHNEIDERELECTRIC_DUAL_BEL
100
AcDbAlignedDimension
 13
62.44122422081275
 23
33.89168611031927
 33
0.0
 14
54.88122422081275
 24
33.89168611031927
 34
0.0
100
AcDbRotatedDimension
1001
ACAD
1000
DSTYLE
1002
{
1070
    40
1040
8.0
1002
}
  0
DIMENSION
  5
5C24
330
5A94
100
AcDbEntity
  8
DIM
100
AcDbDimension
  2
*D30
 10
56.00122422081276
 20
44.19550993992014
 30
0.0
 11
58.66122422081276
 21
44.19550993992014
 31
0.0
 70
   160
  3
SCHNEIDERELECTRIC_DUAL_BEL
100
AcDbAlignedDimension
 13
61.32122422081277
 23
40.20168611031927
 33
0.0
 14
56.00122422081276
 24
40.20168611031926
 34
0.0
100
AcDbRotatedDimension
1001
ACAD
1000
DSTYLE
1002
{
1070
    40
1040
8.0
1002
}
  0
DIMENSION
  5
5C25
330
5A94
100
AcDbEntity
  8
DIM
100
AcDbDimension
  2
*D31
 10
54.88122422081275
 20
47.36561694365896
 30
0.0
 11
52.22217660176514
 21
47.36561694365896
 31
0.0
 70
    32
  3
SCHNEIDERELECTRIC_DUAL_BEL
100
AcDbAlignedDimension
 13
56.00122422081276
 23
40.20168611031926
 33
0.0
 14
54.88122422081275
 24
47.36561694365896
 34
0.0
100
AcDbRotatedDimension
1001
ACAD
1000
DSTYLE
1002
{
1070
    40
1040
8.0
1002
}
  0
DIMENSION
  5
5C26
330
5A94
100
AcDbEntity
  8
DIM
100
AcDbDimension
  2
*D32
 10
45.77690769478453
 20
59.20168611031928
 30
0.0
 11
45.77690769478452
 21
49.70168611031929
 31
0.0
 70
    32
  3
SCHNEIDERELECTRIC_DUAL_BEL
100
AcDbAlignedDimension
 13
56.00122422081274
 23
40.20168611031927
 33
0.0
 14
56.00122422081274
 24
59.20168611031927
 34
0.0
 50
90.0
100
AcDbRotatedDimension
1001
ACAD
1000
DSTYLE
1002
{
1070
    40
1040
8.0
1002
}
  0
DIMENSION
  5
5C27
330
5A94
100
AcDbEntity
  8
DIM
100
AcDbDimension
  2
*D33
 10
42.31619338641418
 20
38.14168611031927
 30
0.0
 11
42.31619338641418
 21
52.68835277698594
 31
0.0
 70
   160
  3
SCHNEIDERELECTRIC_DUAL_BEL
100
AcDbAlignedDimension
 13
50.63122422081275
 23
61.26168611031928
 33
0.0
 14
50.63122422081275
 24
38.14168611031927
 34
0.0
 50
90.0
100
AcDbRotatedDimension
1001
ACAD
1000
DSTYLE
1002
{
1070
    40
1040
8.0
1002
}
  0
DIMENSION
  5
5C28
330
5A94
100
AcDbEntity
  8
DIM
100
AcDbDimension
  2
*D34
 10
45.77690769478453
 20
38.14168611031927
 30
0.0
 11
43.67786007573691
 21
36.20976375508577
 31
0.0
 70
   160
  3
SCHNEIDERELECTRIC_DUAL_BEL
100
AcDbAlignedDimension
 13
56.00122422081276
 23
40.20168611031926
 33
0.0
 14
50.63122422081275
 24
38.14168611031927
 34
0.0
 50
90.0
100
AcDbRotatedDimension
1001
ACAD
1000
DSTYLE
1002
{
1070
    40
1040
8.0
1002
}
  0
TEXT
  5
5C29
330
5A94
100
AcDbEntity
  8
TEXT1
100
AcDbText
 10
102.1128144463323
 20
10.98771749261376
 30
0.0
 40
0.6599999952504016
  1
65,000
  7
ROMANS
 72
     1
 11
103.8571001480655
 21
11.31771749023896
 31
0.0
100
AcDbText
 73
     2
  0
TEXT
  5
5C2A
330
5A94
100
AcDbEntity
  8
TEXT1
100
AcDbText
 10
102.1285287319335
 20
12.18771749261372
 30
0.0
 40
0.6599999952504016
  1
25,000
  7
ROMANS
 72
     1
 11
103.8571001480655
 21
12.51771749023893
 31
0.0
100
AcDbText
 73
     2
  0
TEXT
  5
5C2B
330
5A94
100
AcDbEntity
  8
TEXT1
100
AcDbText
 10
101.7671001631059
 20
9.787717492613793
 30
0.0
 40
0.6599999952504016
  1
100,000
  7
ROMANS
 72
     1
 11
103.8571001480655
 21
10.11771749023899
 31
0.0
100
AcDbText
 73
     2
  0
TEXT
  5
5C2C
330
5A94
100
AcDbEntity
  8
TEXT1
100
AcDbText
 10
95.68499665738093
 20
9.787717492613793
 30
0.0
 40
0.6599999952504016
  1
QJL
  7
ROMANS
 72
     1
 11
96.58071093664933
 21
10.11771749023899
 31
0.0
100
AcDbText
 73
     2
  0
TEXT
  5
5C2D
330
5A94
100
AcDbEntity
  8
TEXT1
100
AcDbText
 10
95.60642522937492
 20
10.98771749261376
 30
0.0
 40
0.6599999952504016
  1
QGL
  7
ROMANS
 72
     1
 11
96.58071093664933
 21
11.31771749023896
 31
0.0
100
AcDbText
 73
     2
  0
TEXT
  5
5C2E
330
5A94
100
AcDbEntity
  8
TEXT1
100
AcDbText
 10
95.60642522937492
 20
12.18771749261372
 30
0.0
 40
0.6599999952504016
  1
QDL
  7
ROMANS
 72
     1
 11
96.58071093664933
 21
12.51771749023893
 31
0.0
100
AcDbText
 73
     2
  0
LINE
  5
5C2F
330
5A94
100
AcDbEntity
  8
CONTINUOUS1
100
AcDbLine
 10
93.15275393830109
 20
14.53943545350036
 30
0.0
 11
107.7690241824226
 21
14.53943545350037
 31
0.0
  0
LINE
  5
5C30
330
5A94
100
AcDbEntity
  8
CONTINUOUS1
100
AcDbLine
 10
82.99748891739591
 20
14.53943545350036
 30
0.0
 11
77.50429392008527
 21
14.53943545350036
 31
0.0
  0
TEXT
  5
5C31
330
5A94
100
AcDbEntity
  8
TEXT1
100
AcDbText
 10
77.95660572096538
 20
11.58771749261371
 30
0.0
 40
0.6599999952504016
  1
70-225A
  7
ROMANS
 72
     1
 11
80.2508914187406
 21
11.91771749023891
 31
0.0
100
AcDbText
 73
     2
  0
ENDBLK
  5
5C33
330
5A94
100
AcDbEntity
  8
0
100
AcDbBlockEnd
  0
ENDSEC
  0
SECTION
  2
ENTITIES
  0
INSERT
  5
E46
330
1F
100
AcDbEntity
  8
0
100
AcDbBlockReference
  2
SETUP
 10
6.725780313066863
 20
5.07702380357103
 30
0.0
  0
INSERT
  5
1530
330
1F
100
AcDbEntity
  8
0
100
AcDbBlockReference
  2
MEDCLUMP_DMS_1142_
 10
0.7585923366532589
 20
-1.009653345009568
 30
0.0
  0
INSERT
  5
1531
330
1F
100
AcDbEntity
  8
0
100
AcDbBlockReference
  2
MEDCLUMP_DMS_1450_
 10
0.7585923366532589
 20
-1.009653345009568
 30
0.0
  0
INSERT
  5
1532
330
1F
100
AcDbEntity
  8
0
100
AcDbBlockReference
  2
MEDCLUMP_DMS_1474_
 10
0.7585923366532589
 20
-1.009653345009568
 30
0.0
  0
INSERT
  5
1533
330
1F
100
AcDbEntity
  8
0
  6
CONTINUOUS
100
AcDbBlockReference
  2
SETUP
 10
36.22102307275557
 20
9.463835136766618
 30
0.0
  0
MTEXT
  5
18F0
330
1F
100
AcDbEntity
  8
0
100
AcDbMText
 10
0.7015888475680973
 20
9.890340654990433
 30
0.0
 40
0.2
 41
0.0
 71
     9
 72
     1
  1

  7
ROMANS
1001
ACAD
1000
MTEXTBEGIN
1070
    73
1070
     1
1070
    44
1040
1.0
1070
    74
1070
     0
1000
MTEXTEND
  0
MTEXT
  5
1936
330
1F
100
AcDbEntity
  8
0
100
AcDbMText
 10
189.0712362786796
 20
218.2169687499913
 30
0.0
 40
0.2
 41
81.2324
 71
     1
 72
     5
  1

  7
ROMANS
1001
ACAD
1000
MTEXTBEGIN
1070
    73
1070
     1
1070
    44
1040
1.0
1070
    74
1070
     0
1000
MTEXTEND
  0
MTEXT
  5
193C
330
1F
100
AcDbEntity
  8
0
100
AcDbMText
 10
53.63297733665327
 20
253.4090946549904
 30
0.0
 40
0.2
 41
0.0
 71
     9
 72
     1
  1

  7
ROMANS
1001
ACAD
1000
MTEXTBEGIN
1070
    73
1070
     1
1070
    44
1040
1.0
1070
    74
1070
     0
1000
MTEXTEND
  0
MTEXT
  5
193E
330
1F
100
AcDbEntity
  8
0
100
AcDbMText
 10
118.3282833366532
 20
200.6117216549904
 30
0.0
 40
0.2
 41
0.0
 71
     1
 72
     1
  1

  7
ROMANS
1001
ACAD
1000
MTEXTBEGIN
1070
    73
1070
     1
1070
    44
1040
1.0
1070
    74
1070
     0
1000
MTEXTEND
  0
MTEXT
  5
1940
330
1F
100
AcDbEntity
  8
0
100
AcDbMText
 10
137.7927023366533
 20
240.1654046549904
 30
0.0
 40
0.2
 41
0.0
 71
     1
 72
     1
  1

  7
ROMANS
1001
ACAD
1000
MTEXTBEGIN
1070
    73
1070
     1
1070
    44
1040
1.0
1070
    74
1070
     0
1000
MTEXTEND
  0
MTEXT
  5
1942
330
1F
100
AcDbEntity
  8
0
100
AcDbMText
 10
118.3282833366532
 20
249.3791286549903
 30
0.0
 40
0.2
 41
0.0
 71
     1
 72
     1
  1

  7
ROMANS
1001
ACAD
1000
MTEXTBEGIN
1070
    73
1070
     1
1070
    44
1040
1.0
1070
    74
1070
     0
1000
MTEXTEND
  0
MTEXT
  5
1944
330
1F
100
AcDbEntity
  8
0
100
AcDbMText
 10
137.5565703366532
 20
260.8364576549904
 30
0.0
 40
0.2
 41
0.0
 71
     1
 72
     1
  1

  7
ROMANS
1001
ACAD
1000
MTEXTBEGIN
1070
    73
1070
     1
1070
    44
1040
1.0
1070
    74
1070
     0
1000
MTEXTEND
  0
MTEXT
  5
1946
330
1F
100
AcDbEntity
  8
0
100
AcDbMText
 10
51.03124833665328
 20
95.94974065499044
 30
0.0
 40
0.2
 41
0.0
 71
     9
 72
     1
  1

  7
ROMANS
1001
ACAD
1000
MTEXTBEGIN
1070
    73
1070
     1
1070
    44
1040
1.0
1070
    74
1070
     0
1000
MTEXTEND
  0
MTEXT
  5
1948
330
1F
100
AcDbEntity
  8
0
100
AcDbMText
 10
53.26940633665328
 20
73.81266465499045
 30
0.0
 40
0.2
 41
0.0
 71
     9
 72
     1
  1

  7
ROMANS
1001
ACAD
1000
MTEXTBEGIN
1070
    73
1070
     1
1070
    44
1040
1.0
1070
    74
1070
     0
1000
MTEXTEND
  0
MTEXT
  5
194A
330
1F
100
AcDbEntity
  8
0
100
AcDbMText
 10
113.3234768366532
 20
81.84958465499041
 30
0.0
 40
0.2
 41
0.0
 71
     1
 72
     1
  1

  7
ROMANS
1001
ACAD
1000
MTEXTBEGIN
1070
    73
1070
     1
1070
    44
1040
1.0
1070
    74
1070
     0
1000
MTEXTEND
  0
MTEXT
  5
194C
330
1F
100
AcDbEntity
  8
0
100
AcDbMText
 10
116.3397238366532
 20
110.8464486549904
 30
0.0
 40
0.2
 41
0.0
 71
     1
 72
     1
  1

  7
ROMANS
1001
ACAD
1000
MTEXTBEGIN
1070
    73
1070
     1
1070
    44
1040
1.0
1070
    74
1070
     0
1000
MTEXTEND
  0
MTEXT
  5
194E
330
1F
100
AcDbEntity
  8
0
100
AcDbMText
 10
364.0419983366533
 20
258.0089236549903
 30
0.0
 40
0.2
 41
0.0
 71
     9
 72
     1
  1

  7
ROMANS
1001
ACAD
1000
MTEXTBEGIN
1070
    73
1070
     1
1070
    44
1040
1.0
1070
    74
1070
     0
1000
MTEXTEND
  0
MTEXT
  5
1950
330
1F
100
AcDbEntity
  8
0
100
AcDbMText
 10
374.1704245970126
 20
179.7432640415952
 30
0.0
 40
0.2
 41
0.0
 71
     9
 72
     1
  1

  7
ROMANS
1001
ACAD
1000
MTEXTBEGIN
1070
    73
1070
     1
1070
    44
1040
1.0
1070
    74
1070
     0
1000
MTEXTEND
  0
MTEXT
  5
1952
330
1F
100
AcDbEntity
  8
0
100
AcDbMText
 10
213.6848731135625
 20
114.1031580866561
 30
0.0
 40
0.2
 41
0.0
 71
     9
 72
     1
  1

  7
ROMANS
1001
ACAD
1000
MTEXTBEGIN
1070
    73
1070
     1
1070
    44
1040
1.0
1070
    74
1070
     0
1000
MTEXTEND
  0
MTEXT
  5
1954
330
1F
100
AcDbEntity
  8
0
100
AcDbMText
 10
261.5481263366532
 20
115.8823886549904
 30
0.0
 40
0.2
 41
0.0
 71
     1
 72
     1
  1

  7
ROMANS
1001
ACAD
1000
MTEXTBEGIN
1070
    73
1070
     1
1070
    44
1040
1.0
1070
    74
1070
     0
1000
MTEXTEND
  0
MTEXT
  5
1956
330
1F
100
AcDbEntity
  8
0
100
AcDbMText
 10
259.7213143366532
 20
106.5069966549904
 30
0.0
 40
0.2
 41
0.0
 71
     1
 72
     1
  1

  7
ROMANS
1001
ACAD
1000
MTEXTBEGIN
1070
    73
1070
     1
1070
    44
1040
1.0
1070
    74
1070
     0
1000
MTEXTEND
  0
MTEXT
  5
1958
330
1F
100
AcDbEntity
  8
0
100
AcDbMText
 10
295.7667253366532
 20
94.50920565499044
 30
0.0
 40
0.2
 41
0.0
 71
     1
 72
     1
  1

  7
ROMANS
1001
ACAD
1000
MTEXTBEGIN
1070
    73
1070
     1
1070
    44
1040
1.0
1070
    74
1070
     0
1000
MTEXTEND
  0
MTEXT
  5
195A
330
1F
100
AcDbEntity
  8
0
100
AcDbMText
 10
294.2892032198323
 20
72.69888765499043
 30
0.0
 40
0.2
 41
0.0
 71
     1
 72
     1
  1

  7
ROMANS
1001
ACAD
1000
MTEXTBEGIN
1070
    73
1070
     1
1070
    44
1040
1.0
1070
    74
1070
     0
1000
MTEXTEND
  0
MTEXT
  5
195C
330
1F
100
AcDbEntity
  8
0
100
AcDbMText
 10
255.9529913366533
 20
161.9187166549904
 30
0.0
 40
0.2
 41
0.0
 71
     1
 72
     1
  1

  7
ROMANS
1001
ACAD
1000
MTEXTBEGIN
1070
    73
1070
     1
1070
    44
1040
1.0
1070
    74
1070
     0
1000
MTEXTEND
  0
MTEXT
  5
195E
330
1F
100
AcDbEntity
  8
0
100
AcDbMText
 10
219.0826773366533
 20
140.8776966549904
 30
0.0
 40
0.2
 41
0.0
 71
     1
 72
     1
  1

  7
ROMANS
1001
ACAD
1000
MTEXTBEGIN
1070
    73
1070
     1
1070
    44
1040
1.0
1070
    74
1070
     0
1000
MTEXTEND
  0
MTEXT
  5
1960
330
1F
100
AcDbEntity
  8
0
100
AcDbMText
 10
271.5200623366533
 20
48.93008765499044
 30
0.0
 40
0.2
 41
0.0
 71
     1
 72
     1
  1

  7
ROMANS
1001
ACAD
1000
MTEXTBEGIN
1070
    73
1070
     1
1070
    44
1040
1.0
1070
    74
1070
     0
1000
MTEXTEND
  0
MTEXT
  5
1962
330
1F
100
AcDbEntity
  8
0
100
AcDbMText
 10
269.1739133366532
 20
35.87993365499044
 30
0.0
 40
0.2
 41
0.0
 71
     1
 72
     1
  1

  7
ROMANS
1001
ACAD
1000
MTEXTBEGIN
1070
    73
1070
     1
1070
    44
1040
1.0
1070
    74
1070
     0
1000
MTEXTEND
  0
LWPOLYLINE
  5
1C30
330
1F
100
AcDbEntity
  8
VIEWPORT
100
AcDbPolyline
 90
        6
 70
     1
 43
0.0
 10
131.200008
 20
82.0
 10
131.200008
 20
7.296016000000008
 10
64.01968799999997
 20
7.296016000000008
 10
64.01968799999997
 20
0.0
 10
0.0
 20
0.0
 10
0.0
 20
82.0
1001
GENIUS_GENOREF_13
1005
0
1005
0
1005
0
1005
0
1005
0
1005
0
1005
0
1005
0
  0
VIEWPORT
  5
1C31
330
1F
100
AcDbEntity
  8
VIEWPORT
100
AcDbViewport
 10
65.60000400000001
 20
41.0
 30
0.0
 40
131.200008
 41
82.0
 69
     0
1001
ACAD
1000
MVIEW
1002
{
1070
    16
1010
0.0
1020
0.0
1030
0.0
1010
0.0
1020
0.0
1030
1.0
1040
0.0
1040
133.2499998667499
1040
2683.27431646614
1040
1656.609511129782
1040
50.0
1040
0.0
1040
0.0
1070
     0
1070
   100
1070
     1
1070
     2
1070
     0
1070
     0
1070
     0
1070
     0
1040
0.0
1040
0.0
1040
0.0
1040
0.5
1040
0.5
1040
0.5
1040
0.5
1070
     0
1002
{
1002
}
1002
}
1001
GENIUS_GENOREF_13
1005
0
1005
0
1005
0
1005
0
1005
0
1005
0
1005
0
1005
0
1001
GENIUS_GENSCREG_15
1000
PF
1040
0.0
1000
DF
1040
0.0
1000
MIN
1011
-792.4212355528315
1021
-489.4241464725102
1031
0.0
1000
MAX
1011
-661.2212275528314
1021
-407.4241464725103
1031
0.0
1000
FLAGS
1070
     2
  0
INSERT
  5
31FF
330
1F
100
AcDbEntity
  8
0
100
AcDbBlockReference
  2
0SETUP
 10
6.978999856125817
 20
3.591539568616315
 30
0.0
  0
LWPOLYLINE
  5
4E9D
330
1F
100
AcDbEntity
  8
DIM
100
AcDbPolyline
 90
        3
 70
   128
 43
0.0
 10
41.88075140707025
 20
64.82076583754928
 10
39.07001980016889
 20
68.52676184667505
 10
38.07001980016888
 20
68.52676184667505
  0
INSERT
  5
4E9E
330
1F
100
AcDbEntity
  8
DIM
100
AcDbBlockReference
  2
M_PFN_101
 10
41.88075140707025
 20
64.82076583754928
 30
0.0
 41
8.000000000000001
 42
8.0
 43
8.0
 50
127.1777029052719
  0
TEXT
  5
4ECB
330
1F
100
AcDbEntity
  8
TEXT1
100
AcDbText
 10
30.22830593751355
 20
45.41930951127222
 30
0.0
 40
0.8
  1
A,B
  7
ROMANS
 72
     1
 11
31.12354403275165
 21
45.81930951127222
 31
0.0
100
AcDbText
 73
     2
  0
TEXT
  5
4ECD
330
1F
100
AcDbEntity
  8
TEXT1
100
AcDbText
 10
57.56198103450979
 20
33.48739071350452
 30
0.0
 40
0.8
  1
D,E,F,G
  7
ROMANS
 72
     1
 11
59.65721912974789
 21
33.88739071350452
 31
0.0
100
AcDbText
 73
     2
  0
LWPOLYLINE
  5
4EDD
330
1F
100
AcDbEntity
  8
DIM
100
AcDbPolyline
 90
        3
 70
   128
 43
0.0
 10
42.58423415679118
 20
59.45951268766919
 10
50.42462461786294
 20
66.82677177432923
 10
51.42462461786294
 20
66.82677177432923
  0
INSERT
  5
4EDE
330
1F
100
AcDbEntity
  8
DIM
100
AcDbBlockReference
  2
M_PFN_101
 10
42.58423415679118
 20
59.45951268766919
 30
0.0
 41
7.999999999999998
 42
8.0
 43
8.0
 50
43.21802247356386
  0
LWPOLYLINE
  5
4EE1
330
1F
100
AcDbEntity
  8
TEXT1
100
AcDbPolyline
 90
        3
 70
   128
 43
0.0
 10
49.26612077877442
 20
40.20592862048971
 10
55.69995649009308
 20
33.83371527133881
 10
56.69995649009308
 20
33.83371527133881
  0
INSERT
  5
4EE2
330
1F
100
AcDbEntity
  8
TEXT1
100
AcDbBlockReference
  2
M_PFN_101
 10
49.26612077877442
 20
40.20592862048971
 30
0.0
 41
8.000000000000001
 42
8.0
 43
8.0
 50
315.2757036154022
  0
LWPOLYLINE
  5
4EE7
330
1F
100
AcDbEntity
  8
TEXT1
100
AcDbPolyline
 90
        3
 70
   128
 43
0.0
 10
32.43850202857831
 20
45.81812001538786
 10
33.43850202857831
 20
45.81812001538787
 10
36.8121058729306
 20
43.38381073073826
  0
INSERT
  5
4EE8
330
1F
100
AcDbEntity
  8
TEXT1
100
AcDbBlockReference
  2
M_PFN_100
 10
36.8121058729306
 20
43.38381073073826
 30
0.0
 41
8.000000000000003
 42
8.0
 43
8.0
 50
324.1867133969004
  0
LWPOLYLINE
  5
4EE9
330
1F
100
AcDbEntity
  8
DIM
100
AcDbPolyline
 90
        3
 70
   128
 43
0.0
 10
42.36741796174157
 20
37.25285859789756
 10
37.06590105402233
 20
32.18969139212275
 10
36.06590105402232
 20
32.18969139212275
  0
INSERT
  5
4EEA
330
1F
100
AcDbEntity
  8
DIM
100
AcDbBlockReference
  2
M_PFN_100
 10
42.36741796174157
 20
37.25285859789756
 30
0.0
 41
7.999999999999994
 42
8.0
 43
8.0
 50
38.78131570608741
  0
TEXT
  5
4F16
330
1F
100
AcDbEntity
  8
DIM
100
AcDbText
 10
52.04736513640347
 20
65.15199453537445
 30
0.0
 40
0.6400000000000001
  1
[7]
  7
ROMANS
 11
52.04736513640347
 21
65.47199453537444
 31
0.0
100
AcDbText
 73
     2
  0
TEXT
  5
4F17
330
1F
100
AcDbEntity
  8
DIM
100
AcDbText
 10
51.63253019094383
 20
66.33476137996743
 30
0.0
 40
0.8
  1
.28 DIA (3 HOLES)
  7
ROMANS
 11
51.63253019094383
 21
66.73476137996743
 31
0.0
100
AcDbText
 73
     2
  0
TEXT
  5
4F18
330
1F
100
AcDbEntity
  8
DIM
100
AcDbText
 10
26.58510136154595
 20
66.90964931572146
 30
0.0
 40
0.6400000000000001
  1
[64]
  7
ROMANS
 11
26.58510136154595
 21
67.22964931572146
 31
0.0
100
AcDbText
 73
     2
  0
TEXT
  5
4F19
330
1F
100
AcDbEntity
  8
DIM
100
AcDbText
 10
26.23641961890561
 20
68.09241616031444
 30
0.0
 40
0.8
  1
2.50 HUB MAXIMUM
  7
ROMANS
 11
26.23641961890561
 21
68.49241616031445
 31
0.0
100
AcDbText
 73
     2
  0
TEXT
  5
4F1B
330
1F
100
AcDbEntity
  8
DIM
100
AcDbText
 10
24.04674383160894
 20
30.46215674167091
 30
0.0
 40
0.6400000000000001
  1
[11]
  7
ROMANS
 11
24.04674383160894
 21
30.78215674167091
 31
0.0
100
AcDbText
 73
     2
  0
TEXT
  5
4F1D
330
1F
100
AcDbEntity
  8
DIM
100
AcDbText
 10
23.76421529178796
 20
31.6449235862639
 30
0.0
 40
0.8
  1
.44 DIA (3 HOLES)
  7
ROMANS
 11
23.76421529178796
 21
32.0449235862639
 31
0.0
100
AcDbText
 73
     2
  0
TEXT
  5
4F1E
330
1F
100
AcDbEntity
  8
TEXT1
100
AcDbText
 10
114.5762061453963
 20
78.27981647949214
 30
0.0
 40
0.6400000000000001
  1
KNOCKOUTS
  7
ROMANS
 72
     1
 11
117.4409680501582
 21
78.59981647949213
 31
0.0
100
AcDbText
 73
     2
  0
LINE
  5
4F1F
330
1F
100
AcDbEntity
  8
CONTINUOUS1
100
AcDbLine
 10
105.6821661374259
 20
74.39981647949217
 30
0.0
 11
129.1997699628906
 21
74.39981647949217
 31
0.0
  0
LINE
  5
4F20
330
1F
100
AcDbEntity
  8
CONTINUOUS1
100
AcDbLine
 10
105.6821661374259
 20
75.99981647949217
 30
0.0
 11
129.1997699628906
 21
75.99981647949217
 31
0.0
  0
TEXT
  5
4F21
330
1F
100
AcDbEntity
  8
TEXT1
100
AcDbText
 10
116.692820789032
 20
74.87981647949219
 30
0.0
 40
0.6400000000000001
  1
1.25
  7
ROMANS
 72
     1
 11
117.805201741413
 21
75.19981647949219
 31
0.0
100
AcDbText
 73
     2
  0
TEXT
  5
4F22
330
1F
100
AcDbEntity
  8
TEXT1
100
AcDbText
 10
123.2497169155907
 20
74.87981647949219
 30
0.0
 40
0.6400000000000001
  1
2.00
  7
ROMANS
 72
     1
 11
124.3163835822573
 21
75.19981647949219
 31
0.0
100
AcDbText
 73
     2
  0
TEXT
  5
4F23
330
1F
100
AcDbEntity
  8
TEXT1
100
AcDbText
 10
126.5053078360128
 20
74.87981647949222
 30
0.0
 40
0.6400000000000001
  1
2.50
  7
ROMANS
 72
     1
 11
127.5719745026795
 21
75.19981647949221
 31
0.0
100
AcDbText
 73
     2
  0
TEXT
  5
4F24
330
1F
100
AcDbEntity
  8
TEXT1
100
AcDbText
 10
119.9484117094542
 20
74.87981647949219
 30
0.0
 40
0.6400000000000001
  1
1.50
  7
ROMANS
 72
     1
 11
121.0607926618351
 21
75.19981647949219
 31
0.0
100
AcDbText
 73
     2
  0
TEXT
  5
4F25
330
1F
100
AcDbEntity
  8
TEXT1
100
AcDbText
 10
117.4699636461749
 20
76.47981647949219
 30
0.0
 40
0.6400000000000001
  1
D
  7
ROMANS
 72
     1
 11
117.805201741413
 21
76.79981647949218
 31
0.0
100
AcDbText
 73
     2
  0
TEXT
  5
4F26
330
1F
100
AcDbEntity
  8
TEXT1
100
AcDbText
 10
123.9963835822573
 20
76.47981647949219
 30
0.0
 40
0.6400000000000001
  1
F
  7
ROMANS
 72
     1
 11
124.3163835822573
 21
76.79981647949218
 31
0.0
100
AcDbText
 73
     2
  0
TEXT
  5
4F27
330
1F
100
AcDbEntity
  8
TEXT1
100
AcDbText
 10
127.2519745026795
 20
76.47981647949221
 30
0.0
 40
0.6400000000000001
  1
G
  7
ROMANS
 72
     1
 11
127.5719745026795
 21
76.79981647949221
 31
0.0
100
AcDbText
 73
     2
  0
TEXT
  5
4F28
330
1F
100
AcDbEntity
  8
TEXT1
100
AcDbText
 10
120.7407926618351
 20
76.47981647949219
 30
0.0
 40
0.6400000000000001
  1
E
  7
ROMANS
 72
     1
 11
121.0607926618351
 21
76.79981647949218
 31
0.0
100
AcDbText
 73
     2
  0
TEXT
  5
4F29
330
1F
100
AcDbEntity
  8
TEXT1
100
AcDbText
 10
117.1956779318891
 20
73.27981647949219
 30
0.0
 40
0.6400000000000001
  1
32
  7
ROMANS
 72
     1
 11
117.805201741413
 21
73.59981647949219
 31
0.0
100
AcDbText
 73
     2
  0
TEXT
  5
4F2A
330
1F
100
AcDbEntity
  8
TEXT1
100
AcDbText
 10
123.7982883441621
 20
73.27981647949219
 30
0.0
 40
0.6400000000000001
  1
51
  7
ROMANS
 72
     1
 11
124.3163835822573
 21
73.59981647949219
 31
0.0
100
AcDbText
 73
     2
  0
TEXT
  5
4F2B
330
1F
100
AcDbEntity
  8
TEXT1
100
AcDbText
 10
126.9319745026795
 20
73.27981647949222
 30
0.0
 40
0.6400000000000001
  1
64
  7
ROMANS
 72
     1
 11
127.5719745026795
 21
73.59981647949222
 31
0.0
100
AcDbText
 73
     2
  0
TEXT
  5
4F2C
330
1F
100
AcDbEntity
  8
TEXT1
100
AcDbText
 10
120.4512688523113
 20
73.27981647949219
 30
0.0
 40
0.6400000000000001
  1
38
  7
ROMANS
 72
     1
 11
121.0607926618351
 21
73.59981647949219
 31
0.0
100
AcDbText
 73
     2
  0
TEXT
  5
4F2D
330
1F
100
AcDbEntity
  8
TEXT1
100
AcDbText
 10
114.024263424059
 20
74.87981647949216
 30
0.0
 40
0.6400000000000001
  1
.75
  7
ROMANS
 72
     1
 11
114.8014062812019
 21
75.19981647949215
 31
0.0
100
AcDbText
 73
     2
  0
TEXT
  5
4F2E
330
1F
100
AcDbEntity
  8
TEXT1
100
AcDbText
 10
114.4661681859638
 20
76.47981647949215
 30
0.0
 40
0.6400000000000001
  1
B
  7
ROMANS
 72
     1
 11
114.8014062812019
 21
76.79981647949215
 31
0.0
100
AcDbText
 73
     2
  0
TEXT
  5
4F2F
330
1F
100
AcDbEntity
  8
TEXT1
100
AcDbText
 10
114.1614062812019
 20
73.27981647949217
 30
0.0
 40
0.6400000000000001
  1
19
  7
ROMANS
 72
     1
 11
114.8014062812019
 21
73.59981647949216
 31
0.0
100
AcDbText
 73
     2
  0
TEXT
  5
4F30
330
1F
100
AcDbEntity
  8
TEXT1
100
AcDbText
 10
111.272263424059
 20
74.87981647949216
 30
0.0
 40
0.6400000000000001
  1
.50
  7
ROMANS
 72
     1
 11
112.0494062812019
 21
75.19981647949215
 31
0.0
100
AcDbText
 73
     2
  0
TEXT
  5
4F31
330
1F
100
AcDbEntity
  8
TEXT1
100
AcDbText
 10
111.7751205669161
 20
76.47981647949215
 30
0.0
 40
0.6400000000000001
  1
A
  7
ROMANS
 72
     1
 11
112.0494062812019
 21
76.79981647949215
 31
0.0
100
AcDbText
 73
     2
  0
TEXT
  5
4F32
330
1F
100
AcDbEntity
  8
TEXT1
100
AcDbText
 10
111.3941681859638
 20
73.27981647949217
 30
0.0
 40
0.6400000000000001
  1
13
  7
ROMANS
 72
     1
 11
112.0494062812019
 21
73.59981647949216
 31
0.0
100
AcDbText
 73
     2
  0
TEXT
  5
4F33
330
1F
100
AcDbEntity
  8
TEXT1
100
AcDbText
 10
107.7011093484364
 20
74.87981647949216
 30
0.0
 40
0.6400000000000001
  1
IN
  7
ROMANS
 72
     1
 11
108.1582522055793
 21
75.19981647949215
 31
0.0
100
AcDbText
 73
     2
  0
TEXT
  5
4F34
330
1F
100
AcDbEntity
  8
TEXT1
100
AcDbText
 10
107.4268236341507
 20
73.27981647949217
 30
0.0
 40
0.6400000000000001
  1
MM
  7
ROMANS
 72
     1
 11
108.1582522055793
 21
73.59981647949216
 31
0.0
100
AcDbText
 73
     2
  0
TEXT
  5
4F35
330
1F
100
AcDbEntity
  8
TEXT1
100
AcDbText
 10
106.2687283960555
 20
76.47981647949215
 30
0.0
 40
0.6400000000000001
  1
SYMBOL
  7
ROMANS
 72
     1
 11
108.1582522055793
 21
76.79981647949215
 31
0.0
100
AcDbText
 73
     2
  0
LINE
  5
4F36
330
1F
100
AcDbEntity
  8
CONTINUOUS1
100
AcDbLine
 10
110.6734062812018
 20
77.5998164794921
 30
0.0
 11
110.6734062812019
 21
72.79981647949218
 31
0.0
  0
LINE
  5
4F37
330
1F
100
AcDbEntity
  8
CONTINUOUS1
100
AcDbLine
 10
113.4254062812019
 20
77.59981647949207
 30
0.0
 11
113.4254062812019
 21
72.79981647949218
 31
0.0
  0
LINE
  5
4F38
330
1F
100
AcDbEntity
  8
CONTINUOUS1
100
AcDbLine
 10
116.1774062812019
 20
77.59981647949207
 30
0.0
 11
116.1774062812019
 21
72.79981647949218
 31
0.0
  0
LINE
  5
4F39
330
1F
100
AcDbEntity
  8
CONTINUOUS1
100
AcDbLine
 10
119.4329972016241
 20
77.59981647949207
 30
0.0
 11
119.4329972016241
 21
72.79981647949218
 31
0.0
  0
LINE
  5
4F3A
330
1F
100
AcDbEntity
  8
CONTINUOUS1
100
AcDbLine
 10
122.6885881220462
 20
77.59981647949207
 30
0.0
 11
122.6885881220462
 21
72.79981647949218
 31
0.0
  0
LINE
  5
4F3B
330
1F
100
AcDbEntity
  8
CONTINUOUS1
100
AcDbLine
 10
125.9441790424684
 20
77.59981647949207
 30
0.0
 11
125.9441790424684
 21
72.79981647949218
 31
0.0
  0
LWPOLYLINE
  5
4F3C
330
1F
100
AcDbEntity
  8
CONTINUOUS1
100
AcDbPolyline
 90
        4
 70
   129
 43
0.0
 10
129.1997699628906
 20
72.7998164794922
 10
105.6821661374259
 20
72.7998164794922
 10
105.6821661374259
 20
79.59981647949216
 10
129.1997699628906
 20
79.59981647949216
  0
LWPOLYLINE
  5
4F3D
330
1F
100
AcDbEntity
  8
CONTINUOUS1
100
AcDbPolyline
 90
        4
 70
   129
 43
0.0
 10
105.6821661374259
 20
77.59981647949216
 10
129.1997699628906
 20
77.59981647949216
 10
129.1997699628906
 20
79.59981647949216
 10
105.6821661374259
 20
79.59981647949216
  0
LINE
  5
4F3F
330
1F
100
AcDbEntity
  8
CONTINUOUS1
100
AcDbLine
 10
37.14950180737402
 20
43.12237141829219
 30
0.0
 11
37.35653305737445
 21
43.12237141829219
 31
0.0
  0
LINE
  5
4F41
330
1F
100
AcDbEntity
  8
CONTINUOUS1
100
AcDbLine
 10
37.35653305737445
 20
42.95533716470839
 30
0.0
 11
37.14950180737402
 21
42.9553371647084
 31
0.0
  0
LWPOLYLINE
  5
4F44
330
1F
100
AcDbEntity
  8
CONTINUOUS1
100
AcDbPolyline
 90
       12
 70
   129
 43
0.0
 10
38.76311910851413
 20
66.13568611031933
 10
38.76311910851413
 20
61.38568611031933
 10
34.01311910851413
 20
61.38568611031933
 10
34.01311910851413
 20
38.14568611031933
 10
38.76311910851413
 20
38.14568611031933
 10
38.76311910851413
 20
33.89168611031934
 10
46.32311910851413
 20
33.89168611031934
 10
46.32311910851413
 20
38.14568611031933
 10
51.07311910851414
 20
38.14568611031933
 10
51.07311910851414
 20
61.38568611031933
 10
46.32311910851413
 20
61.38568611031933
 10
46.32311910851413
 20
66.13568611031933
  0
LWPOLYLINE
  5
4F45
330
1F
100
AcDbEntity
  8
HIDDEN1
100
AcDbPolyline
 90
        4
 70
   129
 43
0.0
 10
38.76311910851413
 20
61.38568611031933
 10
46.32311910851413
 20
61.38568611031933
 10
46.32311910851413
 20
38.14568611031933
 10
38.76311910851413
 20
38.14568611031932
  0
CIRCLE
  5
4F49
330
1F
100
AcDbEntity
  8
CONTINUOUS1
100
AcDbCircle
 10
42.54311910851413
 20
59.32568611031932
 30
0.0
 40
0.1400000000000148
  0
LWPOLYLINE
  5
4F4C
330
1F
100
AcDbEntity
  8
CONTINUOUS1
100
AcDbPolyline
 90
       17
 70
   128
 43
0.0
 10
37.3247590483606
 20
43.12237141829219
 10
37.30452040988257
 20
43.18501603316791
 10
37.22198282095402
 20
43.30635821326567
 10
37.09518000241844
 20
43.38832290455747
 10
36.95917747123653
 20
43.41385429150029
 10
36.8121058729306
 20
43.38381073073826
 10
36.6878693989225
 20
43.29773057449517
 10
36.61030733100655
 20
43.17638474360423
 10
36.58417747123653
 20
43.03885429150029
 10
36.61369603139695
 20
42.89302022577361
 10
36.69881583729278
 20
42.76897131765765
 10
36.82061357736552
 20
42.69039332192794
 10
36.95917747123653
 20
42.66385429150028
 10
37.10839001892095
 20
42.69481851485267
 10
37.23016134272343
 20
42.77963866428238
 10
37.30880042324668
 20
42.90324901347724
 10
37.32475904836053
 20
42.95533716470839
  0
LWPOLYLINE
  5
4F4E
330
1F
100
AcDbEntity
  8
CONTINUOUS1
100
AcDbPolyline
 90
       16
 70
   128
 43
0.0
 10
37.19481467019422
 20
43.12237141829219
 10
37.1883755752199
 20
43.13869531077804
 10
37.13574336762255
 20
43.21584153463776
 10
37.05593583188192
 20
43.26937071097016
 10
36.95917747123653
 20
43.28885429150028
 10
36.85877023669942
 20
43.26780491336581
 10
36.7818779098163
 20
43.21510656955704
 10
36.72694960971691
 20
43.13142977601983
 10
36.70917747123652
 20
43.03885429150029
 10
36.73119142692363
 20
42.93627571869605
 10
36.78289754910462
 20
42.86158221515107
 10
36.86605730110682
 20
42.80684430482943
 10
36.95917747123653
 20
42.78885429150029
 10
37.0610473501275
 20
42.81055070463679
 10
37.14031790222971
 20
42.86655181252913
 10
37.19481467019349
 20
42.9553371647084
  0
CIRCLE
  5
4F4F
330
1F
100
AcDbEntity
  8
CONTINUOUS1
100
AcDbCircle
 10
39.88311910851415
 20
39.52568611031934
 30
0.0
 40
0.1400000000000006
  0
CIRCLE
  5
4F50
330
1F
100
AcDbEntity
  8
CONTINUOUS1
100
AcDbCircle
 10
45.20311910851414
 20
39.52568611031934
 30
0.0
 40
0.1400000000000006
  0
CIRCLE
  5
4F51
330
1F
100
AcDbEntity
  8
CONTINUOUS1
100
AcDbCircle
 10
42.54311910851413
 20
63.76068611031932
 30
0.0
 40
1.25
  0
CIRCLE
  5
4F53
330
1F
100
AcDbEntity
  8
CONTINUOUS1
100
AcDbCircle
 10
42.54311910851413
 20
37.38525613194866
 30
0.0
 40
0.2200000000000131
  0
CIRCLE
  5
4F54
330
1F
100
AcDbEntity
  8
CONTINUOUS1
100
AcDbCircle
 10
40.6357415313881
 20
63.76068611031932
 30
0.0
 40
0.2199999999999989
  0
CIRCLE
  5
4F55
330
1F
100
AcDbEntity
  8
CONTINUOUS1
100
AcDbCircle
 10
44.45049668564017
 20
63.76068611031932
 30
0.0
 40
0.2200000000000131
  0
LWPOLYLINE
  5
4F58
330
1F
100
AcDbEntity
  8
CONTINUOUS1
100
AcDbPolyline
 90
        7
 70
   128
 43
0.0
 10
40.50015323425007
 20
37.52823174837572
 10
40.7108437552699
 20
37.48824820165428
 10
41.02262267452675
 20
37.28724296463596
 10
41.22832843334555
 20
36.99244102978306
 10
41.30963945832488
 20
36.60894871639492
 10
41.24708142730044
 20
36.27083457680515
 10
41.25112973002979
 20
36.27784644281681
  0
LWPOLYLINE
  5
4F5B
330
1F
100
AcDbEntity
  8
CONTINUOUS1
100
AcDbPolyline
 90
        7
 70
   128
 43
0.0
 10
42.6786328844399
 20
41.90530494911316
 10
42.88932340545975
 20
41.86532140239171
 10
43.20110232471658
 20
41.66431616537338
 10
43.40680808353536
 20
41.36951423052049
 10
43.48811910851472
 20
40.98602191713236
 10
43.42556107749027
 20
40.64790777754258
 10
43.42960938021962
 20
40.65491964355423
  0
LWPOLYLINE
  5
4F5E
330
1F
100
AcDbEntity
  8
CONTINUOUS1
100
AcDbPolyline
 90
        7
 70
   128
 43
0.0
 10
38.22542063462938
 20
40.80653569305822
 10
38.18543708790793
 20
41.01722621407806
 10
37.9844318508896
 20
41.3290051333349
 10
37.68962991603669
 20
41.53471089215369
 10
37.30613760264856
 20
41.61602191713304
 10
36.96802346305879
 20
41.55346388610859
 10
36.97503532907045
 20
41.55751218883794
  0
LWPOLYLINE
  5
4F61
330
1F
100
AcDbEntity
  8
CONTINUOUS1
100
AcDbPolyline
 90
        7
 70
   128
 43
0.0
 10
46.86081758239891
 20
40.80653569305822
 10
46.90080112912035
 20
41.01722621407806
 10
47.10180636613867
 20
41.3290051333349
 10
47.39660830099157
 20
41.53471089215369
 10
47.7801006143797
 20
41.61602191713304
 10
48.11821475396948
 20
41.55346388610859
 10
48.11120288795783
 20
41.55751218883794
  0
LWPOLYLINE
  5
4F64
330
1F
100
AcDbEntity
  8
CONTINUOUS1
100
AcDbPolyline
 90
        7
 70
   128
 43
0.0
 10
44.5860849827782
 20
37.52823174837572
 10
44.37539446175835
 20
37.48824820165428
 10
44.06361554250152
 20
37.28724296463596
 10
43.85790978368274
 20
36.99244102978306
 10
43.77659875870338
 20
36.60894871639492
 10
43.83915678972783
 20
36.27083457680515
 10
43.83510848699849
 20
36.27784644281681
  0
LWPOLYLINE
  5
4F67
330
1F
100
AcDbEntity
  8
CONTINUOUS1
100
AcDbPolyline
 90
        6
 70
   128
 43
0.0
 10
39.48563218670457
 20
36.2821667549306
 10
39.41963945832373
 20
36.60894871639492
 10
39.48873986666133
 20
36.96366678095543
 10
39.68661844106611
 20
37.26721348087583
 10
39.9932152764215
 20
37.47789582473857
 10
40.22912568239854
 20
37.52620088784613
  0
LWPOLYLINE
  5
4F6A
330
1F
100
AcDbEntity
  8
CONTINUOUS1
100
AcDbPolyline
 90
        6
 70
   128
 43
0.0
 10
41.6641118368944
 20
40.65923995566802
 10
41.59811910851355
 20
40.98602191713236
 10
41.66721951685116
 20
41.34073998169286
 10
41.86509809125593
 20
41.64428668161327
 10
42.17169492661134
 20
41.854969025476
 10
42.40760533258837
 20
41.90327408858355
  0
LWPOLYLINE
  5
4F6D
330
1F
100
AcDbEntity
  8
CONTINUOUS1
100
AcDbPolyline
 90
        6
 70
   128
 43
0.0
 10
36.97935564118424
 20
39.79201464551272
 10
37.30613760264856
 20
39.72602191713189
 10
37.66085566720909
 20
39.79512232546948
 10
37.96440236712948
 20
39.99300089987426
 10
38.17508471099222
 20
40.29959773522967
 10
38.22338977409977
 20
40.53550814120669
  0
LWPOLYLINE
  5
4F70
330
1F
100
AcDbEntity
  8
CONTINUOUS1
100
AcDbPolyline
 90
        6
 70
   128
 43
0.0
 10
48.10688257584404
 20
39.79201464551272
 10
47.7801006143797
 20
39.72602191713189
 10
47.42538254981918
 20
39.79512232546948
 10
47.1218358498988
 20
39.99300089987426
 10
46.91115350603605
 20
40.29959773522967
 10
46.86284844292851
 20
40.53550814120669
  0
LWPOLYLINE
  5
4F73
330
1F
100
AcDbEntity
  8
CONTINUOUS1
100
AcDbPolyline
 90
        6
 70
   128
 43
0.0
 10
45.60060603032371
 20
36.2821667549306
 10
45.66659875870453
 20
36.60894871639492
 10
45.59749835036694
 20
36.96366678095543
 10
45.39961977596216
 20
37.26721348087583
 10
45.09302294060677
 20
37.47789582473857
 10
44.85711253462973
 20
37.52620088784613
  0
LWPOLYLINE
  5
4F76
330
1F
100
AcDbEntity
  8
CONTINUOUS1
100
AcDbPolyline
 90
        9
 70
   128
 43
0.0
 10
40.22912568239852
 20
35.99564000797943
 10
40.08629022138541
 20
36.02965975340993
 10
39.82141566269899
 20
36.19703702817983
 10
39.63763616516394
 20
36.46665870204075
 10
39.57862221758777
 20
36.7657645719663
 10
39.63495795762115
 20
37.05826256332253
 10
39.80019073214751
 20
37.31337556874006
 10
40.06077301947917
 20
37.49165582912187
 10
40.2291256823985
 20
37.53487113712664
  0
LWPOLYLINE
  5
4F79
330
1F
100
AcDbEntity
  8
CONTINUOUS1
100
AcDbPolyline
 90
        9
 70
   128
 43
0.0
 10
42.40760533258835
 20
40.37271320871687
 10
42.26476987157524
 20
40.40673295414737
 10
41.99989531288882
 20
40.57411022891726
 10
41.81611581535375
 20
40.84373190277818
 10
41.7571018677776
 20
41.14283777270373
 10
41.81343760781098
 20
41.43533576405995
 10
41.97867038233733
 20
41.6904487694775
 10
42.23925266966898
 20
41.8687290298593
 10
42.40760533258833
 20
41.91194433786407
  0
LWPOLYLINE
  5
4F7C
330
1F
100
AcDbEntity
  8
CONTINUOUS1
100
AcDbPolyline
 90
        9
 70
   128
 43
0.0
 10
36.69282889423309
 20
40.53550814120668
 10
36.72684863966358
 20
40.39267268019357
 10
36.89422591443348
 20
40.12779812150714
 10
37.1638475882944
 20
39.94401862397208
 10
37.46295345821994
 20
39.88500467639592
 10
37.75545144957618
 20
39.94134041642929
 10
38.01056445499371
 20
40.10657319095566
 10
38.18884471537552
 20
40.36715547828731
 10
38.23206002338028
 20
40.53550814120665
  0
LWPOLYLINE
  5
4F7F
330
1F
100
AcDbEntity
  8
CONTINUOUS1
100
AcDbPolyline
 90
        9
 70
   128
 43
0.0
 10
48.39340932279519
 20
40.53550814120668
 10
48.3593895773647
 20
40.39267268019357
 10
48.1920123025948
 20
40.12779812150714
 10
47.92239062873387
 20
39.94401862397208
 10
47.62328475880832
 20
39.88500467639592
 10
47.3307867674521
 20
39.94134041642929
 10
47.07567376203456
 20
40.10657319095566
 10
46.89739350165275
 20
40.36715547828731
 10
46.85417819364798
 20
40.53550814120665
  0
LWPOLYLINE
  5
4F82
330
1F
100
AcDbEntity
  8
CONTINUOUS1
100
AcDbPolyline
 90
        9
 70
   128
 43
0.0
 10
44.85711253462976
 20
35.99564000797943
 10
44.99994799564286
 20
36.02965975340993
 10
45.2648225543293
 20
36.19703702817983
 10
45.44860205186433
 20
36.46665870204075
 10
45.5076159994405
 20
36.7657645719663
 10
45.45128025940712
 20
37.05826256332253
 10
45.28604748488075
 20
37.31337556874006
 10
45.0254651975491
 20
37.49165582912187
 10
44.85711253462977
 20
37.53487113712664
  0
LWPOLYLINE
  5
4F85
330
1F
100
AcDbEntity
  8
CONTINUOUS1
100
AcDbPolyline
 90
        9
 70
   128
 43
0.0
 10
40.5001532342501
 20
35.99608290028773
 10
40.67633554571346
 20
36.04193866675543
 10
40.93214956549078
 20
36.21825266211653
 10
41.10095432037264
 20
36.48260731756795
 10
41.15362221758869
 20
36.7657645719663
 10
41.08484880115142
 20
37.08761600986982
 10
40.9063601799142
 20
37.33873856270482
 10
40.64413555114344
 20
37.50255819053684
 10
40.50015323425007
 20
37.53666327551861
  0
LWPOLYLINE
  5
4F88
330
1F
100
AcDbEntity
  8
CONTINUOUS1
100
AcDbPolyline
 90
        9
 70
   128
 43
0.0
 10
42.67863288443993
 20
40.37315610102516
 10
42.85481519590329
 20
40.41901186749286
 10
43.11062921568061
 20
40.59532586285397
 10
43.27943397056247
 20
40.85968051830539
 10
43.33210186777853
 20
41.14283777270373
 10
43.26332845134125
 20
41.46468921060725
 10
43.08483983010403
 20
41.71581176344225
 10
42.82261520133327
 20
41.87963139127427
 10
42.6786328844399
 20
41.91373647625605
  0
LWPOLYLINE
  5
4F8B
330
1F
100
AcDbEntity
  8
CONTINUOUS1
100
AcDbPolyline
 90
        9
 70
   128
 43
0.0
 10
36.69327178654139
 20
40.80653569305826
 10
36.73912755300908
 20
40.98271800452162
 10
36.91544154837018
 20
41.23853202429893
 10
37.17979620382161
 20
41.4073367791808
 10
37.46295345821994
 20
41.46000467639684
 10
37.78480489612346
 20
41.39123125995957
 10
38.03592744895846
 20
41.21274263872236
 10
38.19974707679048
 20
40.9505180099516
 10
38.23385216177226
 20
40.80653569305822
  0
LWPOLYLINE
  5
4F8E
330
1F
100
AcDbEntity
  8
CONTINUOUS1
100
AcDbPolyline
 90
        9
 70
   128
 43
0.0
 10
48.3929664304869
 20
40.80653569305826
 10
48.34711066401919
 20
40.98271800452162
 10
48.1707966686581
 20
41.23853202429893
 10
47.90644201320667
 20
41.4073367791808
 10
47.62328475880832
 20
41.46000467639684
 10
47.3014333209048
 20
41.39123125995957
 10
47.05031076806982
 20
41.21274263872236
 10
46.88649114023779
 20
40.9505180099516
 10
46.85238605525602
 20
40.80653569305822
  0
LWPOLYLINE
  5
4F91
330
1F
100
AcDbEntity
  8
CONTINUOUS1
100
AcDbPolyline
 90
        9
 70
   128
 43
0.0
 10
44.58608498277818
 20
35.99608290028773
 10
44.40990267131479
 20
36.04193866675543
 10
44.15408865153749
 20
36.21825266211653
 10
43.98528389665563
 20
36.48260731756795
 10
43.93261599943959
 20
36.7657645719663
 10
44.00138941587686
 20
37.08761600986982
 10
44.17987803711407
 20
37.33873856270482
 10
44.44210266588483
 20
37.50255819053684
 10
44.58608498277821
 20
37.53666327551861
  0
LWPOLYLINE
  5
4F94
330
1F
100
AcDbEntity
  8
CONTINUOUS1
100
AcDbPolyline
 90
       17
 70
   128
 43
0.0
 10
40.22912568239855
 20
36.15508189931026
 10
40.14027209012768
 20
36.17763897319793
 10
39.93082721601104
 20
36.31033262139359
 10
39.78795508830379
 20
36.515519151198
 10
39.7361222175879
 20
36.7657645719663
 10
39.78196574259394
 20
37.00169085859572
 10
39.91869182692507
 20
37.20928012469422
 10
40.11510630451566
 20
37.343597602681
 10
40.36612221758836
 20
37.39576457196676
 10
40.58399394973252
 20
37.35689223020362
 10
40.7993089303553
 20
37.22320229656148
 10
40.94766701466596
 20
37.00805705842143
 10
40.99612221758886
 20
36.7657645719663
 10
40.95440085783979
 20
36.54031337674978
 10
40.81901836494012
 20
36.32783183773125
 10
40.621809532055
 20
36.18998336593272
 10
40.50015323425012
 20
36.1557572904225
  0
LWPOLYLINE
  5
4F97
330
1F
100
AcDbEntity
  8
CONTINUOUS1
100
AcDbPolyline
 90
       17
 70
   128
 43
0.0
 10
42.40760533258838
 20
40.53215510004768
 10
42.31875174031751
 20
40.55471217393536
 10
42.10930686620085
 20
40.68740582213102
 10
41.9664347384936
 20
40.89259235193543
 10
41.91460186777772
 20
41.14283777270373
 10
41.96044539278377
 20
41.37876405933315
 10
42.09717147711489
 20
41.58635332543165
 10
42.29358595470549
 20
41.72067080341843
 10
42.54460186777817
 20
41.77283777270418
 10
42.76247359992235
 20
41.73396543094106
 10
42.97778858054513
 20
41.60027549729891
 10
43.12614666485579
 20
41.38513025915886
 10
43.17460186777871
 20
41.14283777270373
 10
43.13288050802962
 20
40.91738657748722
 10
42.99749801512994
 20
40.70490503846868
 10
42.80028918224483
 20
40.56705656667015
 10
42.67863288443995
 20
40.53283049115993
  0
LWPOLYLINE
  5
4F9A
330
1F
100
AcDbEntity
  8
CONTINUOUS1
100
AcDbPolyline
 90
       17
 70
   128
 43
0.0
 10
36.8522707855639
 20
40.53550814120671
 10
36.87482785945158
 20
40.44665454893583
 10
37.00752150764724
 20
40.23720967481918
 10
37.21270803745166
 20
40.09433754711193
 10
37.46295345821994
 20
40.04250467639604
 10
37.69887974484937
 20
40.08834820140208
 10
37.90646901094786
 20
40.22507428573321
 10
38.04078648893465
 20
40.42148876332382
 10
38.0929534582204
 20
40.6725046763965
 10
38.05408111645727
 20
40.89037640854068
 10
37.92039118281513
 20
41.10569138916345
 10
37.70524594467508
 20
41.25404947347411
 10
37.46295345821994
 20
41.30250467639701
 10
37.23750226300345
 20
41.26078331664795
 10
37.02502072398491
 20
41.12540082374827
 10
36.88717225218637
 20
40.92819199086316
 10
36.85294617667615
 20
40.80653569305827
  0
LWPOLYLINE
  5
4F9D
330
1F
100
AcDbEntity
  8
CONTINUOUS1
100
AcDbPolyline
 90
       17
 70
   128
 43
0.0
 10
48.23396743146438
 20
40.53550814120671
 10
48.21141035757669
 20
40.44665454893583
 10
48.07871670938104
 20
40.23720967481918
 10
47.87353017957663
 20
40.09433754711193
 10
47.62328475880832
 20
40.04250467639604
 10
47.3873584721789
 20
40.08834820140208
 10
47.1797692060804
 20
40.22507428573321
 10
47.04545172809362
 20
40.42148876332382
 10
46.99328475880787
 20
40.6725046763965
 10
47.03215710057101
 20
40.89037640854068
 10
47.16584703421314
 20
41.10569138916345
 10
47.38099227235319
 20
41.25404947347411
 10
47.62328475880832
 20
41.30250467639701
 10
47.84873595402484
 20
41.26078331664795
 10
48.06121749304338
 20
41.12540082374827
 10
48.19906596484191
 20
40.92819199086316
 10
48.23329204035212
 20
40.80653569305827
  0
LWPOLYLINE
  5
4FA0
330
1F
100
AcDbEntity
  8
CONTINUOUS1
100
AcDbPolyline
 90
       17
 70
   128
 43
0.0
 10
44.85711253462972
 20
36.15508189931026
 10
44.9459661269006
 20
36.17763897319793
 10
45.15541100101724
 20
36.31033262139359
 10
45.29828312872449
 20
36.515519151198
 10
45.35011599944039
 20
36.7657645719663
 10
45.30427247443434
 20
37.00169085859572
 10
45.16754639010321
 20
37.20928012469422
 10
44.97113191251261
 20
37.343597602681
 10
44.72011599943992
 20
37.39576457196676
 10
44.50224426729573
 20
37.35689223020362
 10
44.28692928667298
 20
37.22320229656148
 10
44.13857120236231
 20
37.00805705842143
 10
44.09011599943942
 20
36.7657645719663
 10
44.13183735918846
 20
36.54031337674978
 10
44.26721985208816
 20
36.32783183773125
 10
44.46442868497327
 20
36.18998336593272
 10
44.58608498277818
 20
36.1557572904225
  0
LWPOLYLINE
  5
4FA3
330
1F
100
AcDbEntity
  8
CONTINUOUS1
100
AcDbPolyline
 90
        7
 70
   128
 43
0.0
 10
39.63302628208107
 20
36.01682113748084
 10
39.7078741547336
 20
35.92947514369299
 10
40.00995884192174
 20
35.73303396006915
 10
40.36463945832433
 20
35.66394871639429
 10
40.74439899871187
 20
35.74361196605686
 10
41.05139972152599
 20
35.95980671275615
 10
41.09748416111801
 20
36.01611011529533
  0
LWPOLYLINE
  5
4FA6
330
1F
100
AcDbEntity
  8
CONTINUOUS1
100
AcDbPolyline
 90
        7
 70
   128
 43
0.0
 10
41.8115059322709
 20
40.39389433821827
 10
41.88635380492343
 20
40.30654834443041
 10
42.18843849211157
 20
40.11010716080657
 10
42.54311910851416
 20
40.04102191713172
 10
42.9228786489017
 20
40.1206851667943
 10
43.22987937171582
 20
40.33687991349359
 10
43.27596381130784
 20
40.39318331603275
  0
LWPOLYLINE
  5
4FA9
330
1F
100
AcDbEntity
  8
CONTINUOUS1
100
AcDbPolyline
 90
        7
 70
   128
 43
0.0
 10
36.71401002373448
 20
39.93940874088923
 10
36.62666402994664
 20
40.01425661354175
 10
36.4302228463228
 20
40.3163413007299
 10
36.36113760264794
 20
40.67102191713248
 10
36.44080085231051
 20
41.05078145752002
 10
36.6569955990098
 20
41.35778218033414
 10
36.71329900154897
 20
41.40386661992617
  0
LWPOLYLINE
  5
4FAC
330
1F
100
AcDbEntity
  8
CONTINUOUS1
100
AcDbPolyline
 90
        7
 70
   128
 43
0.0
 10
48.3722281932938
 20
39.93940874088923
 10
48.45957418708164
 20
40.01425661354175
 10
48.65601537070549
 20
40.3163413007299
 10
48.72510061438034
 20
40.67102191713248
 10
48.64543736471777
 20
41.05078145752002
 10
48.42924261801847
 20
41.35778218033414
 10
48.37293921547931
 20
41.40386661992617
  0
LWPOLYLINE
  5
4FAF
330
1F
100
AcDbEntity
  8
CONTINUOUS1
100
AcDbPolyline
 90
        7
 70
   128
 43
0.0
 10
45.45321193494721
 20
36.01682113748084
 10
45.37836406229468
 20
35.92947514369299
 10
45.07627937510654
 20
35.73303396006915
 10
44.72159875870396
 20
35.66394871639429
 10
44.34183921831642
 20
35.74361196605686
 10
44.03483849550228
 20
35.95980671275615
 10
43.98875405591025
 20
36.01611011529533
  0
LWPOLYLINE
  5
4FB2
330
1F
100
AcDbEntity
  8
CONTINUOUS1
100
AcDbPolyline
 90
        7
 70
   128
 43
0.0
 10
40.50015323425009
 20
37.52813428105246
 10
40.8278723816101
 20
37.46570605423652
 10
41.24741894457712
 20
37.19300398647161
 10
41.52453804654302
 20
36.78612273546705
 10
41.62463945832477
 20
36.29394871639503
 10
41.5394797943886
 20
35.83859151072281
 10
41.52235640860588
 20
35.80893293654965
  0
LWPOLYLINE
  5
4FB5
330
1F
100
AcDbEntity
  8
CONTINUOUS1
100
AcDbPolyline
 90
        7
 70
   128
 43
0.0
 10
42.67863288443992
 20
41.90520748178989
 10
43.00635203179993
 20
41.84277925497395
 10
43.42589859476695
 20
41.57007718720904
 10
43.70301769673285
 20
41.16319593620448
 10
43.80311910851459
 20
40.67102191713247
 10
43.71795944457843
 20
40.21566471146024
 10
43.70083605879571
 20
40.18600613728708
  0
LWPOLYLINE
  5
4FB8
330
1F
100
AcDbEntity
  8
CONTINUOUS1
100
AcDbPolyline
 90
        7
 70
   128
 43
0.0
 10
38.22532316730611
 20
40.80653569305824
 10
38.16289494049017
 20
41.13425484041825
 10
37.89019287272526
 20
41.55380140338528
 10
37.4833116217207
 20
41.83092050535118
 10
36.99113760264868
 20
41.93102191713292
 10
36.53578039697646
 20
41.84586225319676
 10
36.50612182280329
 20
41.82873886741404
  0
LWPOLYLINE
  5
4FBB
330
1F
100
AcDbEntity
  8
CONTINUOUS1
100
AcDbPolyline
 90
        7
 70
   128
 43
0.0
 10
46.86091504972217
 20
40.80653569305824
 10
46.9233432765381
 20
41.13425484041825
 10
47.19604534430302
 20
41.55380140338528
 10
47.60292659530757
 20
41.83092050535118
 10
48.09510061437959
 20
41.93102191713292
 10
48.55045782005183
 20
41.84586225319676
 10
48.58011639422497
 20
41.82873886741404
  0
LWPOLYLINE
  5
4FBE
330
1F
100
AcDbEntity
  8
CONTINUOUS1
100
AcDbPolyline
 90
        7
 70
   128
 43
0.0
 10
44.58608498277818
 20
37.52813428105246
 10
44.25836583541818
 20
37.46570605423652
 10
43.83881927245115
 20
37.19300398647161
 10
43.56170017048524
 20
36.78612273546705
 10
43.46159875870351
 20
36.29394871639503
 10
43.54675842263968
 20
35.83859151072281
 10
43.56388180842239
 20
35.80893293654965
  0
LWPOLYLINE
  5
4FC1
330
1F
100
AcDbEntity
  8
CONTINUOUS1
100
AcDbPolyline
 90
        6
 70
   128
 43
0.0
 10
39.20419879273893
 20
35.80305416391247
 10
39.10463945832387
 20
36.29394871639503
 10
39.18980494450092
 20
36.74932094340347
 10
39.46014889205916
 20
37.17115839232128
 10
39.881876932298
 20
37.45779593294279
 10
40.22912568239853
 20
37.52695816503949
  0
LWPOLYLINE
  5
4FC4
330
1F
100
AcDbEntity
  8
CONTINUOUS1
100
AcDbPolyline
 90
        6
 70
   128
 43
0.0
 10
41.38267844292876
 20
40.1801273646499
 10
41.2831191085137
 20
40.67102191713247
 10
41.36828459469074
 20
41.12639414414089
 10
41.63862854224899
 20
41.54823159305871
 10
42.06035658248782
 20
41.83486913368022
 10
42.40760533258836
 20
41.90403136577692
  0
LWPOLYLINE
  5
4FC7
330
1F
100
AcDbEntity
  8
CONTINUOUS1
100
AcDbPolyline
 90
        6
 70
   128
 43
0.0
 10
36.50024305016612
 20
39.51058125154709
 10
36.99113760264868
 20
39.41102191713202
 10
37.44650982965711
 20
39.49618740330906
 10
37.86834727857493
 20
39.76653135086731
 10
38.15498481919644
 20
40.18825939110614
 10
38.22414705129314
 20
40.53550814120668
  0
LWPOLYLINE
  5
4FCA
330
1F
100
AcDbEntity
  8
CONTINUOUS1
100
AcDbPolyline
 90
        6
 70
   128
 43
0.0
 10
48.58599516686215
 20
39.51058125154709
 10
48.09510061437959
 20
39.41102191713202
 10
47.63972838737116
 20
39.49618740330906
 10
47.21789093845337
 20
39.76653135086731
 10
46.93125339783185
 20
40.18825939110614
 10
46.86209116573515
 20
40.53550814120668
  0
LWPOLYLINE
  5
4FCD
330
1F
100
AcDbEntity
  8
CONTINUOUS1
100
AcDbPolyline
 90
        6
 70
   128
 43
0.0
 10
45.88203942428934
 20
35.80305416391247
 10
45.98159875870442
 20
36.29394871639503
 10
45.89643327252737
 20
36.74932094340347
 10
45.62608932496911
 20
37.17115839232128
 10
45.20436128473029
 20
37.45779593294279
 10
44.85711253462975
 20
37.52695816503949
  0
LWPOLYLINE
  5
4FD0
330
1F
100
AcDbEntity
  8
CONTINUOUS1
100
AcDbPolyline
 90
        7
 70
   128
 43
0.0
 10
39.35758659167591
 20
35.54547524770017
 10
39.49112090428107
 20
35.38589291648873
 10
39.89954616168155
 20
35.12292855200021
 10
40.3646394583243
 20
35.03394871639459
 10
40.85108837557977
 20
35.13163746251238
 10
41.26732710649346
 20
35.41488386677125
 10
41.37260223296135
 20
35.5449499120779
  0
LWPOLYLINE
  5
4FD3
330
1F
100
AcDbEntity
  8
CONTINUOUS1
100
AcDbPolyline
 90
        7
 70
   128
 43
0.0
 10
41.53606624186574
 20
39.9225484484376
 10
41.6696005544709
 20
39.76296611722616
 10
42.07802581187138
 20
39.50000175273764
 10
42.54311910851413
 20
39.41102191713202
 10
43.0295680257696
 20
39.50871066324981
 10
43.44580675668331
 20
39.79195706750868
 10
43.5510818831512
 20
39.92202311281533
  0
LWPOLYLINE
  5
4FD6
330
1F
100
AcDbEntity
  8
CONTINUOUS1
100
AcDbPolyline
 90
        7
 70
   128
 43
0.0
 10
36.24266413395382
 20
39.66396905048406
 10
36.08308180274238
 20
39.79750336308923
 10
35.82011743825386
 20
40.20592862048971
 10
35.73113760264824
 20
40.67102191713246
 10
35.82882634876602
 20
41.15747083438792
 10
36.1120727530249
 20
41.57370956530162
 10
36.24213879833155
 20
41.6789846917695
  0
LWPOLYLINE
  5
4FD9
330
1F
100
AcDbEntity
  8
CONTINUOUS1
100
AcDbPolyline
 90
        7
 70
   128
 43
0.0
 10
48.84357408307446
 20
39.66396905048406
 10
49.00315641428591
 20
39.79750336308923
 10
49.26612077877442
 20
40.20592862048971
 10
49.35510061438003
 20
40.67102191713246
 10
49.25741186826225
 20
41.15747083438792
 10
48.97416546400338
 20
41.57370956530162
 10
48.84409941869673
 20
41.6789846917695
  0
LWPOLYLINE
  5
4FDC
330
1F
100
AcDbEntity
  8
CONTINUOUS1
100
AcDbPolyline
 90
        7
 70
   128
 43
0.0
 10
45.72865162535237
 20
35.54547524770017
 10
45.5951173127472
 20
35.38589291648873
 10
45.18669205534672
 20
35.12292855200021
 10
44.72159875870397
 20
35.03394871639459
 10
44.23514984144851
 20
35.13163746251238
 10
43.81891111053479
 20
35.41488386677125
 10
43.71363598406692
 20
35.5449499120779
  0
LINE
  5
4FDF
330
1F
100
AcDbEntity
  8
CONTINUOUS1
100
AcDbLine
 10
40.22912568239854
 20
37.64975427840102
 30
0.0
 11
40.22912568239855
 21
37.40264749729123
 31
0.0
  0
LINE
  5
4FE2
330
1F
100
AcDbEntity
  8
CONTINUOUS1
100
AcDbLine
 10
42.40760533258837
 20
42.02682747913845
 30
0.0
 11
42.40760533258838
 21
41.77972069802867
 31
0.0
  0
LINE
  5
4FE5
330
1F
100
AcDbEntity
  8
CONTINUOUS1
100
AcDbLine
 10
38.34694316465467
 20
40.53550814120669
 30
0.0
 11
38.09983638354488
 21
40.5355081412067
 31
0.0
  0
LINE
  5
4FE8
330
1F
100
AcDbEntity
  8
CONTINUOUS1
100
AcDbLine
 10
46.7392950523736
 20
40.53550814120669
 30
0.0
 11
46.9864018334834
 21
40.5355081412067
 31
0.0
  0
LINE
  5
4FEB
330
1F
100
AcDbEntity
  8
CONTINUOUS1
100
AcDbLine
 10
44.85711253462973
 20
37.64975427840102
 30
0.0
 11
44.85711253462973
 21
37.40264749729123
 31
0.0
  0
LINE
  5
4FEE
330
1F
100
AcDbEntity
  8
CONTINUOUS1
100
AcDbLine
 10
40.22912568239852
 20
36.11919339853432
 30
0.0
 11
40.22912568239853
 21
35.87208661742454
 31
0.0
  0
LINE
  5
4FF1
330
1F
100
AcDbEntity
  8
CONTINUOUS1
100
AcDbLine
 10
42.40760533258833
 20
40.49626659927176
 30
0.0
 11
42.40760533258836
 21
40.24915981816198
 31
0.0
  0
LINE
  5
4FF4
330
1F
100
AcDbEntity
  8
CONTINUOUS1
100
AcDbLine
 10
36.81638228478798
 20
40.53550814120666
 30
0.0
 11
36.5692755036782
 21
40.53550814120668
 31
0.0
  0
LINE
  5
4FF7
330
1F
100
AcDbEntity
  8
CONTINUOUS1
100
AcDbLine
 10
48.2698559322403
 20
40.53550814120666
 30
0.0
 11
48.51696271335008
 21
40.53550814120668
 31
0.0
  0
LINE
  5
4FFA
330
1F
100
AcDbEntity
  8
CONTINUOUS1
100
AcDbLine
 10
44.85711253462976
 20
36.11919339853432
 30
0.0
 11
44.85711253462975
 21
35.87208661742454
 31
0.0
  0
LINE
  5
4FFD
330
1F
100
AcDbEntity
  8
CONTINUOUS1
100
AcDbLine
 10
40.22912568239855
 20
36.27863528986515
 30
0.0
 11
40.22912568239857
 21
36.03152850875536
 31
0.0
  0
LINE
  5
5000
330
1F
100
AcDbEntity
  8
CONTINUOUS1
100
AcDbLine
 10
42.40760533258838
 20
40.65570849060257
 30
0.0
 11
42.4076053325884
 21
40.40860170949279
 31
0.0
  0
LINE
  5
5003
330
1F
100
AcDbEntity
  8
CONTINUOUS1
100
AcDbLine
 10
36.97582417611879
 20
40.5355081412067
 30
0.0
 11
36.72871739500901
 21
40.53550814120671
 31
0.0
  0
LINE
  5
5006
330
1F
100
AcDbEntity
  8
CONTINUOUS1
100
AcDbLine
 10
48.11041404090949
 20
40.5355081412067
 30
0.0
 11
48.35752082201927
 21
40.53550814120671
 31
0.0
  0
LINE
  5
5009
330
1F
100
AcDbEntity
  8
CONTINUOUS1
100
AcDbLine
 10
44.85711253462973
 20
36.27863528986515
 30
0.0
 11
44.85711253462972
 21
36.03152850875536
 31
0.0
  0
LINE
  5
500C
330
1F
100
AcDbEntity
  8
CONTINUOUS1
100
AcDbLine
 10
40.50015323425009
 20
37.65042966951325
 30
0.0
 11
40.5001532342501
 21
37.40332288840348
 31
0.0
  0
LINE
  5
500F
330
1F
100
AcDbEntity
  8
CONTINUOUS1
100
AcDbLine
 10
42.67863288443992
 20
42.02750287025069
 30
0.0
 11
42.67863288443993
 21
41.7803960891409
 31
0.0
  0
LINE
  5
5012
330
1F
100
AcDbEntity
  8
CONTINUOUS1
100
AcDbLine
 10
38.3476185557669
 20
40.80653569305824
 30
0.0
 11
38.10051177465712
 21
40.80653569305826
 31
0.0
  0
LINE
  5
5015
330
1F
100
AcDbEntity
  8
CONTINUOUS1
100
AcDbLine
 10
46.73861966126136
 20
40.80653569305824
 30
0.0
 11
46.98572644237114
 21
40.80653569305826
 31
0.0
  0
LINE
  5
5018
330
1F
100
AcDbEntity
  8
CONTINUOUS1
100
AcDbLine
 10
44.58608498277818
 20
37.65042966951325
 30
0.0
 11
44.58608498277818
 21
37.40332288840348
 31
0.0
  0
LINE
  5
501B
330
1F
100
AcDbEntity
  8
CONTINUOUS1
100
AcDbLine
 10
40.50015323425006
 20
36.11986878964656
 30
0.0
 11
40.50015323425007
 21
35.87276200853679
 31
0.0
  0
LINE
  5
501E
330
1F
100
AcDbEntity
  8
CONTINUOUS1
100
AcDbLine
 10
42.67863288443989
 20
40.496941990384
 30
0.0
 11
42.6786328844399
 21
40.24983520927421
 31
0.0
  0
LINE
  5
5021
330
1F
100
AcDbEntity
  8
CONTINUOUS1
100
AcDbLine
 10
36.81705767590023
 20
40.80653569305822
 30
0.0
 11
36.56995089479043
 21
40.80653569305822
 31
0.0
  0
LINE
  5
5024
330
1F
100
AcDbEntity
  8
CONTINUOUS1
100
AcDbLine
 10
48.26918054112806
 20
40.80653569305822
 30
0.0
 11
48.51628732223784
 21
40.80653569305822
 31
0.0
  0
LINE
  5
5027
330
1F
100
AcDbEntity
  8
CONTINUOUS1
100
AcDbLine
 10
44.58608498277821
 20
36.11986878964656
 30
0.0
 11
44.5860849827782
 21
35.87276200853679
 31
0.0
  0
LINE
  5
502A
330
1F
100
AcDbEntity
  8
CONTINUOUS1
100
AcDbLine
 10
40.5001532342501
 20
36.27931068097739
 30
0.0
 11
40.50015323425012
 21
36.0322038998676
 31
0.0
  0
LINE
  5
502D
330
1F
100
AcDbEntity
  8
CONTINUOUS1
100
AcDbLine
 10
42.67863288443993
 20
40.65638388171481
 30
0.0
 11
42.67863288443996
 21
40.40927710060503
 31
0.0
  0
LINE
  5
5030
330
1F
100
AcDbEntity
  8
CONTINUOUS1
100
AcDbLine
 10
36.97649956723104
 20
40.80653569305826
 30
0.0
 11
36.72939278612125
 21
40.80653569305827
 31
0.0
  0
LINE
  5
5033
330
1F
100
AcDbEntity
  8
CONTINUOUS1
100
AcDbLine
 10
48.10973864979725
 20
40.80653569305826
 30
0.0
 11
48.35684543090703
 21
40.80653569305827
 31
0.0
  0
LINE
  5
5036
330
1F
100
AcDbEntity
  8
CONTINUOUS1
100
AcDbLine
 10
44.58608498277818
 20
36.27931068097739
 30
0.0
 11
44.58608498277816
 21
36.0322038998676
 31
0.0
  0
LINE
  5
5039
330
1F
100
AcDbEntity
  8
CONTINUOUS1
100
AcDbLine
 10
39.45223397993901
 20
35.62489383628361
 30
0.0
 11
39.26293920341282
 21
35.46605665911673
 31
0.0
  0
LINE
  5
503C
330
1F
100
AcDbEntity
  8
CONTINUOUS1
100
AcDbLine
 10
41.63071363012884
 20
40.00196703702104
 30
0.0
 11
41.44141885360265
 21
39.84312985985416
 31
0.0
  0
LINE
  5
503F
330
1F
100
AcDbEntity
  8
CONTINUOUS1
100
AcDbLine
 10
36.32208272253726
 20
39.75861643874715
 30
0.0
 11
36.16324554537039
 21
39.56932166222097
 31
0.0
  0
LINE
  5
5042
330
1F
100
AcDbEntity
  8
CONTINUOUS1
100
AcDbLine
 10
48.76415549449102
 20
39.75861643874715
 30
0.0
 11
48.92299267165789
 21
39.56932166222097
 31
0.0
  0
LINE
  5
5045
330
1F
100
AcDbEntity
  8
CONTINUOUS1
100
AcDbLine
 10
45.63400423708927
 20
35.62489383628361
 30
0.0
 11
45.82329901361545
 21
35.46605665911673
 31
0.0
  0
LINE
  5
5048
330
1F
100
AcDbEntity
  8
CONTINUOUS1
100
AcDbLine
 10
41.27704493670964
 20
35.62489383628361
 30
0.0
 11
41.46633971323582
 21
35.46605665911673
 31
0.0
  0
LINE
  5
504B
330
1F
100
AcDbEntity
  8
CONTINUOUS1
100
AcDbLine
 10
43.45552458689946
 20
40.00196703702104
 30
0.0
 11
43.64481936342565
 21
39.84312985985416
 31
0.0
  0
LINE
  5
504E
330
1F
100
AcDbEntity
  8
CONTINUOUS1
100
AcDbLine
 10
36.32208272253726
 20
41.5834273955178
 30
0.0
 11
36.16324554537039
 21
41.77272217204397
 31
0.0
  0
LINE
  5
5051
330
1F
100
AcDbEntity
  8
CONTINUOUS1
100
AcDbLine
 10
48.76415549449102
 20
41.5834273955178
 30
0.0
 11
48.92299267165789
 21
41.77272217204397
 31
0.0
  0
LINE
  5
5054
330
1F
100
AcDbEntity
  8
CONTINUOUS1
100
AcDbLine
 10
43.80919328031862
 20
35.62489383628361
 30
0.0
 11
43.61989850379245
 21
35.46605665911673
 31
0.0
  0
LINE
  5
5057
330
1F
100
AcDbEntity
  8
CONTINUOUS1
100
AcDbLine
 10
39.72767367034417
 20
36.09623972606427
 30
0.0
 11
39.53837889381799
 21
35.93740254889739
 31
0.0
  0
LINE
  5
505A
330
1F
100
AcDbEntity
  8
CONTINUOUS1
100
AcDbLine
 10
41.906153320534
 20
40.4733129268017
 30
0.0
 11
41.71685854400782
 21
40.31447574963483
 31
0.0
  0
LINE
  5
505D
330
1F
100
AcDbEntity
  8
CONTINUOUS1
100
AcDbLine
 10
36.79342861231792
 20
40.03405612915232
 30
0.0
 11
36.63459143515105
 21
39.84476135262614
 31
0.0
  0
LINE
  5
5060
330
1F
100
AcDbEntity
  8
CONTINUOUS1
100
AcDbLine
 10
48.29280960471035
 20
40.03405612915232
 30
0.0
 11
48.45164678187723
 21
39.84476135262614
 31
0.0
  0
LINE
  5
5063
330
1F
100
AcDbEntity
  8
CONTINUOUS1
100
AcDbLine
 10
45.35856454668411
 20
36.09623972606427
 30
0.0
 11
45.5478593232103
 21
35.93740254889739
 31
0.0
  0
LINE
  5
5066
330
1F
100
AcDbEntity
  8
CONTINUOUS1
100
AcDbLine
 10
41.00160524630448
 20
36.09623972606427
 30
0.0
 11
41.19090002283066
 21
35.93740254889739
 31
0.0
  0
LINE
  5
5069
330
1F
100
AcDbEntity
  8
CONTINUOUS1
100
AcDbLine
 10
43.18008489649431
 20
40.4733129268017
 30
0.0
 11
43.36937967302048
 21
40.31447574963483
 31
0.0
  0
LINE
  5
506C
330
1F
100
AcDbEntity
  8
CONTINUOUS1
100
AcDbLine
 10
36.79342861231792
 20
41.30798770511263
 30
0.0
 11
36.63459143515105
 21
41.49728248163881
 31
0.0
  0
LINE
  5
506F
330
1F
100
AcDbEntity
  8
CONTINUOUS1
100
AcDbLine
 10
48.29280960471035
 20
41.30798770511263
 30
0.0
 11
48.45164678187723
 21
41.49728248163881
 31
0.0
  0
LINE
  5
5072
330
1F
100
AcDbEntity
  8
CONTINUOUS1
100
AcDbLine
 10
44.0846329707238
 20
36.09623972606427
 30
0.0
 11
43.89533819419762
 21
35.93740254889739
 31
0.0
  0
LINE
  5
5075
330
1F
100
AcDbEntity
  8
CONTINUOUS1
100
AcDbLine
 10
39.30247980429447
 20
35.88887686075536
 30
0.0
 11
39.11318502776829
 21
35.73003968358848
 31
0.0
  0
LINE
  5
5078
330
1F
100
AcDbEntity
  8
CONTINUOUS1
100
AcDbLine
 10
41.48095945448429
 20
40.26595006149278
 30
0.0
 11
41.29166467795812
 21
40.10711288432591
 31
0.0
  0
LINE
  5
507B
330
1F
100
AcDbEntity
  8
CONTINUOUS1
100
AcDbLine
 10
36.586065747009
 20
39.60886226310262
 30
0.0
 11
36.42722856984212
 21
39.41956748657645
 31
0.0
  0
LINE
  5
507E
330
1F
100
AcDbEntity
  8
CONTINUOUS1
100
AcDbLine
 10
48.50017247001926
 20
39.60886226310262
 30
0.0
 11
48.65900964718615
 21
39.41956748657645
 31
0.0
  0
LINE
  5
5081
330
1F
100
AcDbEntity
  8
CONTINUOUS1
100
AcDbLine
 10
45.7837584127338
 20
35.88887686075536
 30
0.0
 11
45.97305318925998
 21
35.73003968358848
 31
0.0
  0
LINE
  5
5084
330
1F
100
AcDbEntity
  8
CONTINUOUS1
100
AcDbLine
 10
41.42679911235418
 20
35.88887686075536
 30
0.0
 11
41.61609388888035
 21
35.73003968358848
 31
0.0
  0
LINE
  5
5087
330
1F
100
AcDbEntity
  8
CONTINUOUS1
100
AcDbLine
 10
43.60527876254401
 20
40.26595006149278
 30
0.0
 11
43.7945735390702
 21
40.10711288432591
 31
0.0
  0
LINE
  5
508A
330
1F
100
AcDbEntity
  8
CONTINUOUS1
100
AcDbLine
 10
36.586065747009
 20
41.73318157116233
 30
0.0
 11
36.42722856984212
 21
41.9224763476885
 31
0.0
  0
LINE
  5
508D
330
1F
100
AcDbEntity
  8
CONTINUOUS1
100
AcDbLine
 10
48.50017247001926
 20
41.73318157116233
 30
0.0
 11
48.65900964718615
 21
41.9224763476885
 31
0.0
  0
LINE
  5
5090
330
1F
100
AcDbEntity
  8
CONTINUOUS1
100
AcDbLine
 10
43.65943910467409
 20
35.88887686075536
 30
0.0
 11
43.47014432814792
 21
35.73003968358848
 31
0.0
  0
LINE
  5
5093
330
1F
100
AcDbEntity
  8
CONTINUOUS1
100
AcDbLine
 10
39.57791949469964
 20
36.36022275053602
 30
0.0
 11
39.38862471817346
 21
36.20138557336914
 31
0.0
  0
LINE
  5
5096
330
1F
100
AcDbEntity
  8
CONTINUOUS1
100
AcDbLine
 10
41.75639914488947
 20
40.73729595127345
 30
0.0
 11
41.56710436836329
 21
40.57845877410657
 31
0.0
  0
LINE
  5
5099
330
1F
100
AcDbEntity
  8
CONTINUOUS1
100
AcDbLine
 10
37.05741163678966
 20
39.88430195350779
 30
0.0
 11
36.89857445962279
 21
39.69500717698161
 31
0.0
  0
LINE
  5
509C
330
1F
100
AcDbEntity
  8
CONTINUOUS1
100
AcDbLine
 10
48.02882658023861
 20
39.88430195350779
 30
0.0
 11
48.18766375740549
 21
39.69500717698161
 31
0.0
  0
LINE
  5
509F
330
1F
100
AcDbEntity
  8
CONTINUOUS1
100
AcDbLine
 10
45.50831872232864
 20
36.36022275053602
 30
0.0
 11
45.69761349885482
 21
36.20138557336914
 31
0.0
  0
LINE
  5
50A2
330
1F
100
AcDbEntity
  8
CONTINUOUS1
100
AcDbLine
 10
41.15135942194902
 20
36.36022275053602
 30
0.0
 11
41.34065419847519
 21
36.20138557336914
 31
0.0
  0
LINE
  5
50A5
330
1F
100
AcDbEntity
  8
CONTINUOUS1
100
AcDbLine
 10
43.32983907213884
 20
40.73729595127345
 30
0.0
 11
43.51913384866501
 21
40.57845877410657
 31
0.0
  0
LINE
  5
50A8
330
1F
100
AcDbEntity
  8
CONTINUOUS1
100
AcDbLine
 10
37.05741163678966
 20
41.45774188075717
 30
0.0
 11
36.89857445962279
 21
41.64703665728334
 31
0.0
  0
LINE
  5
50AB
330
1F
100
AcDbEntity
  8
CONTINUOUS1
100
AcDbLine
 10
48.02882658023861
 20
41.45774188075717
 30
0.0
 11
48.18766375740549
 21
41.64703665728334
 31
0.0
  0
LINE
  5
50AE
330
1F
100
AcDbEntity
  8
CONTINUOUS1
100
AcDbLine
 10
43.93487879507925
 20
36.36022275053602
 30
0.0
 11
43.74558401855309
 21
36.20138557336914
 31
0.0
  0
DIMENSION
  5
514F
330
1F
100
AcDbEntity
  8
DIM
100
AcDbDimension
  2
*D13
 10
53.84121390171299
 20
61.38568611031931
 30
0.0
 11
55.9402615207606
 21
62.79149943216122
 31
0.0
 70
   160
  3
SCHNEIDERELECTRIC_DUAL_BEL
100
AcDbAlignedDimension
 13
42.54311910851413
 23
59.32568611031931
 33
0.0
 14
51.07311910851412
 24
61.38568611031931
 34
0.0
 50
90.0
100
AcDbRotatedDimension
1001
ACAD
1000
DSTYLE
1002
{
1070
    40
1040
8.0
1002
}
  0
DIMENSION
  5
515D
330
1F
100
AcDbEntity
  8
DIM
100
AcDbDimension
  2
*D14
 10
38.76311910851413
 20
57.32433220607203
 30
0.0
 11
40.65311910851413
 21
57.32433220607203
 31
0.0
 70
    32
  3
SCHNEIDERELECTRIC_DUAL_BEL
100
AcDbAlignedDimension
 13
42.54311910851413
 23
59.32568611031931
 33
0.0
 14
38.76311910851413
 24
57.32433220607203
 34
0.0
100
AcDbRotatedDimension
1001
ACAD
1000
DSTYLE
1002
{
1070
    40
1040
8.0
1002
}
  0
DIMENSION
  5
5175
330
1F
100
AcDbEntity
  8
DIM
100
AcDbDimension
  2
*D15
 10
56.93488034444115
 20
38.14568611031933
 30
0.0
 11
56.93488034444114
 21
52.75235277698596
 31
0.0
 70
   160
  3
SCHNEIDERELECTRIC_DUAL_BEL
100
AcDbAlignedDimension
 13
51.13561910851412
 23
61.38568611031931
 33
0.0
 14
51.13561910851412
 24
38.14568611031933
 34
0.0
 50
90.0
100
AcDbRotatedDimension
1001
ACAD
1000
DSTYLE
1002
{
1070
    40
1040
8.0
1002
}
  0
DIMENSION
  5
5183
330
1F
100
AcDbEntity
  8
DIM
100
AcDbDimension
  2
*D16
 10
53.84121390171299
 20
39.52568611031933
 30
0.0
 11
53.84121390171298
 21
49.42568611031934
 31
0.0
 70
    32
  3
SCHNEIDERELECTRIC_DUAL_BEL
100
AcDbAlignedDimension
 13
42.54311910851413
 23
59.32568611031931
 33
0.0
 14
45.20311910851414
 24
39.52568611031934
 34
0.0
 50
90.0
100
AcDbRotatedDimension
1001
ACAD
1000
DSTYLE
1002
{
1070
    40
1040
8.0
1002
}
  0
DIMENSION
  5
5191
330
1F
100
AcDbEntity
  8
DIM
100
AcDbDimension
  2
*D17
 10
39.88311910851415
 20
44.16287287647718
 30
0.0
 11
42.54311910851415
 21
44.16287287647718
 31
0.0
 70
   160
  3
SCHNEIDERELECTRIC_DUAL_BEL
100
AcDbAlignedDimension
 13
45.20311910851414
 23
39.52568611031934
 33
0.0
 14
39.88311910851415
 24
39.52568611031934
 34
0.0
100
AcDbRotatedDimension
1001
ACAD
1000
DSTYLE
1002
{
1070
    40
1040
8.0
1002
}
  0
DIMENSION
  5
519F
330
1F
100
AcDbEntity
  8
DIM
100
AcDbDimension
  2
*D18
 10
38.76311910851413
 20
47.30561694365901
 30
0.0
 11
36.10407148946651
 21
47.30561694365901
 31
0.0
 70
    32
  3
SCHNEIDERELECTRIC_DUAL_BEL
100
AcDbAlignedDimension
 13
39.88311910851415
 23
39.52568611031934
 33
0.0
 14
38.76311910851413
 24
47.30561694365901
 34
0.0
100
AcDbRotatedDimension
1001
ACAD
1000
DSTYLE
1002
{
1070
    40
1040
8.0
1002
}
  0
DIMENSION
  5
51B6
330
1F
100
AcDbEntity
  8
DIM
100
AcDbDimension
  2
*D19
 10
46.32311910851413
 20
31.31550913108953
 30
0.0
 11
48.69811910851414
 21
31.31550913108953
 31
0.0
 70
    32
  3
SCHNEIDERELECTRIC_DUAL_BEL
100
AcDbAlignedDimension
 13
51.07311910851414
 23
38.14568611031933
 33
0.0
 14
46.32311910851413
 24
33.89168611031934
 34
0.0
100
AcDbRotatedDimension
1001
ACAD
1000
DSTYLE
1002
{
1070
    40
1040
8.0
1002
}
  0
DIMENSION
  5
51C4
330
1F
100
AcDbEntity
  8
DIM
100
AcDbDimension
  2
*D20
 10
38.76311910851413
 20
31.31550913108953
 30
0.0
 11
42.54311910851413
 21
31.31550913108953
 31
0.0
 70
    32
  3
SCHNEIDERELECTRIC_DUAL_BEL
100
AcDbAlignedDimension
 13
46.32311910851413
 23
33.89168611031934
 33
0.0
 14
38.76311910851413
 24
33.89168611031934
 34
0.0
100
AcDbRotatedDimension
1001
ACAD
1000
DSTYLE
1002
{
1070
    40
1040
8.0
1002
}
  0
INSERT
  5
5C35
330
1F
100
AcDbEntity
  8
0
100
AcDbBlockReference
  2
SETUP
 10
140.5500963666992
 20
12.40941792994582
 30
0.0
  0
INSERT
  5
5C36
330
1F
100
AcDbEntity
  8
0
100
AcDbBlockReference
  2
MEDCLUMP_DMS_1142_
 10
134.5829083902856
 20
6.322740781365226
 30
0.0
  0
INSERT
  5
5C37
330
1F
100
AcDbEntity
  8
0
100
AcDbBlockReference
  2
MEDCLUMP_DMS_1450_
 10
134.5829083902856
 20
6.322740781365226
 30
0.0
  0
INSERT
  5
5C38
330
1F
100
AcDbEntity
  8
0
100
AcDbBlockReference
  2
MEDCLUMP_DMS_1474_
 10
134.5829083902856
 20
6.322740781365226
 30
0.0
  0
INSERT
  5
5C39
330
1F
100
AcDbEntity
  8
0
  6
CONTINUOUS
100
AcDbBlockReference
  2
SETUP
 10
170.0453391263879
 20
16.79622926314141
 30
0.0
  0
MTEXT
  5
5C3A
330
1F
100
AcDbEntity
  8
0
100
AcDbMText
 10
134.5259049012005
 20
17.22273478136522
 30
0.0
 40
0.2
 41
0.0
 71
     9
 72
     1
  1

  7
ROMANS
1001
ACAD
1000
MTEXTBEGIN
1070
    73
1070
     1
1070
    44
1040
1.0
1070
    74
1070
     0
1000
MTEXTEND
  0
MTEXT
  5
5C3B
330
1F
100
AcDbEntity
  8
0
100
AcDbMText
 10
322.895552332312
 20
225.5493628763661
 30
0.0
 40
0.2
 41
81.2324
 71
     1
 72
     5
  1

  7
ROMANS
1001
ACAD
1000
MTEXTBEGIN
1070
    73
1070
     1
1070
    44
1040
1.0
1070
    74
1070
     0
1000
MTEXTEND
  0
MTEXT
  5
5C3C
330
1F
100
AcDbEntity
  8
0
100
AcDbMText
 10
187.4572933902856
 20
260.7414887813652
 30
0.0
 40
0.2
 41
0.0
 71
     9
 72
     1
  1

  7
ROMANS
1001
ACAD
1000
MTEXTBEGIN
1070
    73
1070
     1
1070
    44
1040
1.0
1070
    74
1070
     0
1000
MTEXTEND
  0
MTEXT
  5
5C3D
330
1F
100
AcDbEntity
  8
0
100
AcDbMText
 10
252.1525993902856
 20
207.9441157813652
 30
0.0
 40
0.2
 41
0.0
 71
     1
 72
     1
  1

  7
ROMANS
1001
ACAD
1000
MTEXTBEGIN
1070
    73
1070
     1
1070
    44
1040
1.0
1070
    74
1070
     0
1000
MTEXTEND
  0
MTEXT
  5
5C3E
330
1F
100
AcDbEntity
  8
0
100
AcDbMText
 10
271.6170183902856
 20
247.4977987813652
 30
0.0
 40
0.2
 41
0.0
 71
     1
 72
     1
  1

  7
ROMANS
1001
ACAD
1000
MTEXTBEGIN
1070
    73
1070
     1
1070
    44
1040
1.0
1070
    74
1070
     0
1000
MTEXTEND
  0
MTEXT
  5
5C3F
330
1F
100
AcDbEntity
  8
0
100
AcDbMText
 10
252.1525993902856
 20
256.7115227813651
 30
0.0
 40
0.2
 41
0.0
 71
     1
 72
     1
  1

  7
ROMANS
1001
ACAD
1000
MTEXTBEGIN
1070
    73
1070
     1
1070
    44
1040
1.0
1070
    74
1070
     0
1000
MTEXTEND
  0
MTEXT
  5
5C40
330
1F
100
AcDbEntity
  8
0
100
AcDbMText
 10
271.3808863902857
 20
268.1688517813652
 30
0.0
 40
0.2
 41
0.0
 71
     1
 72
     1
  1

  7
ROMANS
1001
ACAD
1000
MTEXTBEGIN
1070
    73
1070
     1
1070
    44
1040
1.0
1070
    74
1070
     0
1000
MTEXTEND
  0
MTEXT
  5
5C41
330
1F
100
AcDbEntity
  8
0
100
AcDbMText
 10
184.8555643902856
 20
103.2821347813652
 30
0.0
 40
0.2
 41
0.0
 71
     9
 72
     1
  1

  7
ROMANS
1001
ACAD
1000
MTEXTBEGIN
1070
    73
1070
     1
1070
    44
1040
1.0
1070
    74
1070
     0
1000
MTEXTEND
  0
MTEXT
  5
5C42
330
1F
100
AcDbEntity
  8
0
100
AcDbMText
 10
187.0937223902856
 20
81.14505878136524
 30
0.0
 40
0.2
 41
0.0
 71
     9
 72
     1
  1

  7
ROMANS
1001
ACAD
1000
MTEXTBEGIN
1070
    73
1070
     1
1070
    44
1040
1.0
1070
    74
1070
     0
1000
MTEXTEND
  0
MTEXT
  5
5C43
330
1F
100
AcDbEntity
  8
0
100
AcDbMText
 10
247.1477928902856
 20
89.18197878136522
 30
0.0
 40
0.2
 41
0.0
 71
     1
 72
     1
  1

  7
ROMANS
1001
ACAD
1000
MTEXTBEGIN
1070
    73
1070
     1
1070
    44
1040
1.0
1070
    74
1070
     0
1000
MTEXTEND
  0
MTEXT
  5
5C44
330
1F
100
AcDbEntity
  8
0
100
AcDbMText
 10
250.1640398902856
 20
118.1788427813652
 30
0.0
 40
0.2
 41
0.0
 71
     1
 72
     1
  1

  7
ROMANS
1001
ACAD
1000
MTEXTBEGIN
1070
    73
1070
     1
1070
    44
1040
1.0
1070
    74
1070
     0
1000
MTEXTEND
  0
MTEXT
  5
5C45
330
1F
100
AcDbEntity
  8
0
100
AcDbMText
 10
497.8663143902856
 20
265.3413177813652
 30
0.0
 40
0.2
 41
0.0
 71
     9
 72
     1
  1

  7
ROMANS
1001
ACAD
1000
MTEXTBEGIN
1070
    73
1070
     1
1070
    44
1040
1.0
1070
    74
1070
     0
1000
MTEXTEND
  0
MTEXT
  5
5C46
330
1F
100
AcDbEntity
  8
0
100
AcDbMText
 10
507.994740650645
 20
187.07565816797
 30
0.0
 40
0.2
 41
0.0
 71
     9
 72
     1
  1

  7
ROMANS
1001
ACAD
1000
MTEXTBEGIN
1070
    73
1070
     1
1070
    44
1040
1.0
1070
    74
1070
     0
1000
MTEXTEND
  0
MTEXT
  5
5C47
330
1F
100
AcDbEntity
  8
0
100
AcDbMText
 10
347.5091891671949
 20
121.4355522130309
 30
0.0
 40
0.2
 41
0.0
 71
     9
 72
     1
  1

  7
ROMANS
1001
ACAD
1000
MTEXTBEGIN
1070
    73
1070
     1
1070
    44
1040
1.0
1070
    74
1070
     0
1000
MTEXTEND
  0
MTEXT
  5
5C48
330
1F
100
AcDbEntity
  8
0
100
AcDbMText
 10
395.3724423902857
 20
123.2147827813652
 30
0.0
 40
0.2
 41
0.0
 71
     1
 72
     1
  1

  7
ROMANS
1001
ACAD
1000
MTEXTBEGIN
1070
    73
1070
     1
1070
    44
1040
1.0
1070
    74
1070
     0
1000
MTEXTEND
  0
MTEXT
  5
5C49
330
1F
100
AcDbEntity
  8
0
100
AcDbMText
 10
393.5456303902856
 20
113.8393907813652
 30
0.0
 40
0.2
 41
0.0
 71
     1
 72
     1
  1

  7
ROMANS
1001
ACAD
1000
MTEXTBEGIN
1070
    73
1070
     1
1070
    44
1040
1.0
1070
    74
1070
     0
1000
MTEXTEND
  0
MTEXT
  5
5C4A
330
1F
100
AcDbEntity
  8
0
100
AcDbMText
 10
429.5910413902856
 20
101.8415997813652
 30
0.0
 40
0.2
 41
0.0
 71
     1
 72
     1
  1

  7
ROMANS
1001
ACAD
1000
MTEXTBEGIN
1070
    73
1070
     1
1070
    44
1040
1.0
1070
    74
1070
     0
1000
MTEXTEND
  0
MTEXT
  5
5C4B
330
1F
100
AcDbEntity
  8
0
100
AcDbMText
 10
428.1135192734647
 20
80.03128178136522
 30
0.0
 40
0.2
 41
0.0
 71
     1
 72
     1
  1

  7
ROMANS
1001
ACAD
1000
MTEXTBEGIN
1070
    73
1070
     1
1070
    44
1040
1.0
1070
    74
1070
     0
1000
MTEXTEND
  0
MTEXT
  5
5C4C
330
1F
100
AcDbEntity
  8
0
100
AcDbMText
 10
389.7773073902857
 20
169.2511107813652
 30
0.0
 40
0.2
 41
0.0
 71
     1
 72
     1
  1

  7
ROMANS
1001
ACAD
1000
MTEXTBEGIN
1070
    73
1070
     1
1070
    44
1040
1.0
1070
    74
1070
     0
1000
MTEXTEND
  0
MTEXT
  5
5C4D
330
1F
100
AcDbEntity
  8
0
100
AcDbMText
 10
352.9069933902857
 20
148.2100907813652
 30
0.0
 40
0.2
 41
0.0
 71
     1
 72
     1
  1

  7
ROMANS
1001
ACAD
1000
MTEXTBEGIN
1070
    73
1070
     1
1070
    44
1040
1.0
1070
    74
1070
     0
1000
MTEXTEND
  0
MTEXT
  5
5C4E
330
1F
100
AcDbEntity
  8
0
100
AcDbMText
 10
405.3443783902856
 20
56.26248178136524
 30
0.0
 40
0.2
 41
0.0
 71
     1
 72
     1
  1

  7
ROMANS
1001
ACAD
1000
MTEXTBEGIN
1070
    73
1070
     1
1070
    44
1040
1.0
1070
    74
1070
     0
1000
MTEXTEND
  0
MTEXT
  5
5C4F
330
1F
100
AcDbEntity
  8
0
100
AcDbMText
 10
402.9982293902856
 20
43.21232778136524
 30
0.0
 40
0.2
 41
0.0
 71
     1
 72
     1
  1

  7
ROMANS
1001
ACAD
1000
MTEXTBEGIN
1070
    73
1070
     1
1070
    44
1040
1.0
1070
    74
1070
     0
1000
MTEXTEND
  0
INSERT
  5
5C52
330
1F
100
AcDbEntity
  8
0
100
AcDbBlockReference
  2
0SETUP
 10
140.8033159097582
 20
10.92393369499111
 30
0.0
  0
TEXT
  5
5C53
330
1F
100
AcDbEntity
  8
TEXT1
100
AcDbText
 10
78.56946285941218
 20
20.68858414904539
 30
0.0
 40
0.6599999952504016
  1
RATING
  7
ROMANS
 72
     1
 11
80.2508914187406
 21
21.01858414667059
 31
0.0
100
AcDbText
 73
     2
  0
TEXT
  5
5C54
330
1F
100
AcDbEntity
  8
TEXT1
100
AcDbText
 10
110.6939488068157
 20
19.51904523686832
 30
0.0
 40
0.6599999952504016
  1
AWG
  7
ROMANS
 72
     1
 11
111.6525202284889
 21
19.84904523449352
 31
0.0
100
AcDbText
 73
     2
  0
TEXT
  5
5C55
330
1F
100
AcDbEntity
  8
TEXT1
100
AcDbText
 10
110.1282345251725
 20
18.47404523686831
 30
0.0
 40
0.6599999952504016
  1
AL/CU
  7
ROMANS
 72
     1
 11
111.6525202284889
 21
18.80404523449351
 31
0.0
100
AcDbText
 73
     2
  0
TEXT
  5
5C56
330
1F
100
AcDbEntity
  8
TEXT1
100
AcDbText
 10
108.1325202538201
 20
21.60904523686832
 30
0.0
 40
0.6599999952504016
  1
TERMINAL LUG
  7
ROMANS
 72
     1
 11
111.6525202284889
 21
21.93904523449352
 31
0.0
100
AcDbText
 73
     2
  0
TEXT
  5
5C57
330
1F
100
AcDbEntity
  8
TEXT1
100
AcDbText
 10
94.46873353690179
 20
24.15534282938901
 30
0.0
 40
0.6599999952504016
  1
CIRCUIT BREAKER (ORDER SEPARATELY)
  7
ROMANS
 72
     1
 11
104.4944477504674
 21
24.48534282701421
 31
0.0
100
AcDbText
 73
     2
  0
TEXT
  5
5C58
330
1F
100
AcDbEntity
  8
TEXT1
100
AcDbText
 10
101.3311132150513
 20
22.05645905749267
 30
0.0
 40
0.6599999952504016
  1
UL LISTED
  7
ROMANS
 72
     1
 11
103.8768274824457
 21
22.38645905511787
 31
0.0
100
AcDbText
 73
     2
  0
TEXT
  5
5C59
330
1F
100
AcDbEntity
  8
TEXT1
100
AcDbText
 10
94.47869237542533
 20
20.54027723090118
 30
0.0
 40
0.6599999952504016
  1
CATALOG
  7
ROMANS
 72
     1
 11
96.56869236038495
 21
20.87027722852638
 31
0.0
100
AcDbText
 73
     2
  0
TEXT
  5
5C5A
330
1F
100
AcDbEntity
  8
TEXT1
100
AcDbText
 10
117.4021788687437
 20
24.14645706431334
 30
0.0
 40
0.6599999952504016
  1
NEUTRAL ASSEMBLY
  7
ROMANS
 72
     1
 11
122.3678931187229
 21
24.47645706193854
 31
0.0
100
AcDbText
 73
     2
  0
TEXT
  5
5C5B
330
1F
100
AcDbEntity
  8
TEXT1
100
AcDbText
 10
118.8478931440541
 20
23.101458060903
 30
0.0
 40
0.6599999952504016
  1
TERMINAL LUG
  7
ROMANS
 72
     1
 11
122.3678931187229
 21
23.4314580585282
 31
0.0
100
AcDbText
 73
     2
  0
TEXT
  5
5C5C
330
1F
100
AcDbEntity
  8
TEXT1
100
AcDbText
 10
119.8536074225309
 20
22.05645905749265
 30
0.0
 40
0.6599999952504016
  1
WIRE SIZE
  7
ROMANS
 72
     1
 11
122.3678931187229
 21
22.38645905511785
 31
0.0
100
AcDbText
 73
     2
  0
TEXT
  5
5C5D
330
1F
100
AcDbEntity
  8
TEXT1
100
AcDbText
 10
121.4093216970497
 20
21.01146005408232
 30
0.0
 40
0.6599999952504016
  1
AWG
  7
ROMANS
 72
     1
 11
122.3678931187229
 21
21.34146005170752
 31
0.0
100
AcDbText
 73
     2
  0
TEXT
  5
5C5E
330
1F
100
AcDbEntity
  8
TEXT1
100
AcDbText
 10
116.7833832836734
 20
19.15807626745524
 30
0.0
 40
0.6599999952504016
  1
NEUTRAL
  7
ROMANS
 72
     1
 11
118.951954696639
 21
19.48807626508044
 31
0.0
100
AcDbText
 73
     2
  0
TEXT
  5
5C5F
330
1F
100
AcDbEntity
  8
TEXT1
100
AcDbText
 10
78.34946286099539
 20
21.73358414904539
 30
0.0
 40
0.6599999952504016
  1
AMPERE
  7
ROMANS
 72
     1
 11
80.2508914187406
 21
22.06358414667059
 31
0.0
100
AcDbText
 73
     2
  0
TEXT
  5
5C60
330
1F
100
AcDbEntity
  8
TEXT1
100
AcDbText
 10
109.1382345322969
 20
20.56404523686831
 30
0.0
 40
0.6599999952504016
  1
WIRE SIZE
  7
ROMANS
 72
     1
 11
111.6525202284889
 21
20.89404523449351
 31
0.0
100
AcDbText
 73
     2
  0
TEXT
  5
5C61
330
1F
100
AcDbEntity
  8
TEXT1
100
AcDbText
 10
72.72272766351673
 20
21.16646105067198
 30
0.0
 40
0.6599999952504016
  1
SERVICE
  7
ROMANS
 72
     1
 11
74.71844193486913
 21
21.49646104829718
 31
0.0
100
AcDbText
 73
     2
  0
TEXT
  5
5C62
330
1F
100
AcDbEntity
  8
TEXT1
100
AcDbText
 10
100.4511132213841
 20
21.01146005408233
 30
0.0
 40
0.6599999952504016
  1
INTERRUPTING
  7
ROMANS
 72
     1
 11
103.8768274824457
 21
21.34146005170753
 31
0.0
100
AcDbText
 73
     2
  0
TEXT
  5
5C63
330
1F
100
AcDbEntity
  8
TEXT1
100
AcDbText
 10
101.3939703574561
 20
18.92146204726165
 30
0.0
 40
0.6599999952504016
  1
RMS SYM.
  7
ROMANS
 72
     1
 11
103.8768274824457
 21
19.25146204488685
 31
0.0
100
AcDbText
 73
     2
  0
TEXT
  5
5C64
330
1F
100
AcDbEntity
  8
TEXT1
100
AcDbText
 10
101.6768274982777
 20
17.87646304385131
 30
0.0
 40
0.6599999952504016
  1
AMPERES
  7
ROMANS
 72
     1
 11
103.8768274824457
 21
18.20646304147651
 31
0.0
100
AcDbText
 73
     2
  0
TEXT
  5
5C65
330
1F
100
AcDbEntity
  8
TEXT1
100
AcDbText
 10
102.1953989231173
 20
19.96646105067199
 30
0.0
 40
0.6599999952504016
  1
RATING
  7
ROMANS
 72
     1
 11
103.8768274824457
 21
20.29646104829719
 31
0.0
100
AcDbText
 73
     2
  0
TEXT
  5
5C66
330
1F
100
AcDbEntity
  8
TEXT1
100
AcDbText
 10
94.52583523222894
 20
19.49527822749084
 30
0.0
 40
0.6599999952504016
  1
NUMBER
  7
ROMANS
 72
     1
 11
96.56869236038495
 21
19.82527822511604
 31
0.0
100
AcDbText
 73
     2
  0
TEXT
  5
5C67
330
1F
100
AcDbEntity
  8
TEXT1
100
AcDbText
 10
116.3905261436434
 20
18.1130772640449
 30
0.0
 40
0.6599999952504016
  1
TERMINALS
  7
ROMANS
 72
     1
 11
118.951954696639
 21
18.4430772616701
 31
0.0
100
AcDbText
 73
     2
  0
TEXT
  5
5C68
330
1F
100
AcDbEntity
  8
TEXT1
100
AcDbText
 10
95.62213951497612
 20
16.2311534191366
 30
0.0
 40
0.6599999952504016
  1
Q2L
  7
ROMANS
 72
     1
 11
96.58071093664933
 21
16.5611534167618
 31
0.0
100
AcDbText
 73
     2
  0
TEXT
  5
5C69
330
1F
100
AcDbEntity
  8
TEXT1
100
AcDbText
 10
95.60642522937492
 20
13.38771749261369
 30
0.0
 40
0.6599999952504016
  1
QBL
  7
ROMANS
 72
     1
 11
96.58071093664933
 21
13.71771749023889
 31
0.0
100
AcDbText
 73
     2
  0
TEXT
  5
5C6A
330
1F
100
AcDbEntity
  8
TEXT1
100
AcDbText
 10
94.91499666292211
 20
15.03115341913663
 30
0.0
 40
0.6599999952504016
  1
Q2L-H
  7
ROMANS
 72
     1
 11
96.58071093664933
 21
15.36115341676183
 31
0.0
100
AcDbText
 73
     2
  0
TEXT
  5
5C6B
330
1F
100
AcDbEntity
  8
TEXT1
100
AcDbText
 10
123.0457187912147
 20
11.80943545587516
 30
0.0
 40
0.6599999952504016
  1
14-1/0 CU
  7
ROMANS
 72
     1
 11
126.0942901978475
 21
12.13943545350036
 31
0.0
100
AcDbText
 73
     2
  0
TEXT
  5
5C6C
330
1F
100
AcDbEntity
  8
TEXT1
100
AcDbText
 10
123.1242902192206
 20
14.20943545587509
 30
0.0
 40
0.6599999952504016
  1
12-1/0 AL
  7
ROMANS
 72
     1
 11
126.0942901978475
 21
14.53943545350029
 31
0.0
100
AcDbText
 73
     2
  0
TEXT
  5
5C6D
330
1F
100
AcDbEntity
  8
TEXT1
100
AcDbText
 10
125.100002918949
 20
13.00943545587512
 30
0.0
 40
0.6599999952504016
  1
OR
  7
ROMANS
 72
     1
 11
125.7757171998006
 21
13.33943545350033
 31
0.0
100
AcDbText
 73
     2
  0
TEXT
  5
5C6E
330
1F
100
AcDbEntity
  8
TEXT1
100
AcDbText
 10
117.4195546523165
 20
12.45191530473683
 30
0.0
 40
0.6599999952504016
  1
AL/CU
  7
ROMANS
 72
     1
 11
118.9438403556329
 21
12.78191530236203
 31
0.0
100
AcDbText
 73
     2
  0
TEXT
  5
5C6F
330
1F
100
AcDbEntity
  8
TEXT1
100
AcDbText
 10
117.2781260819057
 20
13.6519153047368
 30
0.0
 40
0.6599999952504016
  1
4-250
  7
ROMANS
 72
     1
 11
118.9438403556329
 21
13.981915302362
 31
0.0
100
AcDbText
 73
     2
  0
TEXT
  5
5C70
330
1F
100
AcDbEntity
  8
TEXT1
100
AcDbText
 10
102.0813858751299
 20
16.2311534191366
 30
0.0
 40
0.6599999952504016
  1
10,000
  7
ROMANS
 72
     1
 11
103.8571001480655
 21
16.5611534167618
 31
0.0
100
AcDbText
 73
     2
  0
TEXT
  5
5C71
330
1F
100
AcDbEntity
  8
TEXT1
100
AcDbText
 10
102.0813858751299
 20
13.38771749261369
 30
0.0
 40
0.6599999952504016
  1
10,000
  7
ROMANS
 72
     1
 11
103.8571001480655
 21
13.71771749023889
 31
0.0
100
AcDbText
 73
     2
  0
TEXT
  5
5C72
330
1F
100
AcDbEntity
  8
TEXT1
100
AcDbText
 10
102.1285287319335
 20
15.03115341913663
 30
0.0
 40
0.6599999952504016
  1
22,000
  7
ROMANS
 72
     1
 11
103.8571001480655
 21
15.36115341676183
 31
0.0
100
AcDbText
 73
     2
  0
TEXT
  5
5C73
330
1F
100
AcDbEntity
  8
TEXT1
100
AcDbText
 10
84.7436928803941
 20
13.00943545587517
 30
0.0
 40
0.6599999952504016
  1
Q2-2200NRB
  7
ROMANS
 72
     1
 11
88.07512142784849
 21
13.33943545350037
 31
0.0
100
AcDbText
 73
     2
  0
TEXT
  5
5C74
330
1F
100
AcDbEntity
  8
TEXT1
100
AcDbText
 10
77.59517715213779
 20
15.63115341913662
 30
0.0
 40
0.6599999952504016
  1
100-200A
  7
ROMANS
 72
     1
 11
80.2508914187406
 21
15.96115341676182
 31
0.0
100
AcDbText
 73
     2
  0
TEXT
  5
5C75
330
1F
100
AcDbEntity
  8
TEXT1
100
AcDbText
 10
72.85973760225823
 20
11.34234003313037
 30
0.0
 40
0.6599999952504016
  1
240VAC
  7
ROMANS
 72
     1
 11
74.69830901759863
 21
11.67234003075557
 31
0.0
100
AcDbText
 73
     2
  0
TEXT
  5
5C76
330
1F
100
AcDbEntity
  8
TEXT1
100
AcDbText
 10
109.3153499347598
 20
13.11866376772673
 30
0.0
 40
0.6599999952504016
  1
 4-300
  7
ROMANS
 72
     1
 11
111.6410642037374
 21
13.44866376535193
 31
0.0
100
AcDbText
 73
     2
  0
TEXT
  5
5C77
330
1F
100
AcDbEntity
  8
TEXT1
100
AcDbText
 10
109.0785286106344
 20
13.11866376772673
 30
0.0
 40
0.6599999952504016
  1
#
  7
ROMANS
 72
     1
 11
109.4085286082596
 21
13.44866376535193
 31
0.0
100
AcDbText
 73
     2
  0
TEXT
  5
5C78
330
1F
100
AcDbEntity
  8
TEXT1
100
AcDbText
 10
116.5614155456908
 20
13.6519153047368
 30
0.0
 40
0.6599999952504016
  1
#
  7
ROMANS
 72
     1
 11
116.891415543316
 21
13.981915302362
 31
0.0
100
AcDbText
 73
     2
  0
TEXT
  5
5C79
330
1F
100
AcDbEntity
  8
TEXT1
100
AcDbText
 10
122.5426435098536
 20
14.20943545587511
 30
0.0
 40
0.6599999952504016
  1
#
  7
ROMANS
 72
     1
 11
122.8726435074788
 21
14.53943545350031
 31
0.0
100
AcDbText
 73
     2
  0
TEXT
  5
5C7A
330
1F
100
AcDbEntity
  8
TEXT1
100
AcDbText
 10
122.5426435098536
 20
11.80943545587518
 30
0.0
 40
0.6599999952504016
  1
#
  7
ROMANS
 72
     1
 11
122.8726435074788
 21
12.13943545350038
 31
0.0
100
AcDbText
 73
     2
  0
LINE
  5
5C7D
330
1F
100
AcDbEntity
  8
CONTINUOUS1
100
AcDbLine
 10
71.87261459378942
 20
17.38287138002327
 30
0.0
 11
129.1997699628906
 21
17.38287138002326
 31
0.0
  0
LINE
  5
5C7E
330
1F
100
AcDbEntity
  8
CONTINUOUS1
100
AcDbLine
 10
115.5360162745552
 20
20.45146204488683
 30
0.0
 11
129.1877513866262
 21
20.45146204488684
 31
0.0
  0
LINE
  5
5C7F
330
1F
100
AcDbEntity
  8
HIDDEN1
100
AcDbLine
 10
75.09423177271668
 20
13.80832965943304
 30
0.0
 11
76.18895177271667
 21
13.80832965943304
 31
0.0
  0
LWPOLYLINE
  5
5C80
330
1F
100
AcDbEntity
  8
CONTINUOUS1
100
AcDbPolyline
 90
        4
 70
   129
 43
0.0
 10
72.77135540622473
 20
15.06087457663357
 10
73.87333630215938
 20
15.06087457663357
 10
73.87333630215938
 20
12.43223936086752
 10
72.77135540622473
 20
12.43223936086752
  0
TEXT
  5
5C81
330
1F
100
AcDbEntity
  8
TEXT1
100
AcDbText
 10
73.038682511429
 20
12.7856781101569
 30
0.0
 40
0.56
  1
N
  7
ROMANS
 72
     1
 11
73.33201584476234
 21
13.0656781101569
 31
0.0
100
AcDbText
 73
     2
  0
TEXT
  5
5C82
330
1F
100
AcDbEntity
  8
TEXT1
100
AcDbText
 10
73.038682511429
 20
13.4256781101569
 30
0.0
 40
0.56
  1
/
  7
ROMANS
 72
     1
 11
73.33201584476234
 21
13.7056781101569
 31
0.0
100
AcDbText
 73
     2
  0
TEXT
  5
5C83
330
1F
100
AcDbEntity
  8
TEXT1
100
AcDbText
 10
73.06534917809567
 20
14.06567811015692
 30
0.0
 40
0.56
  1
S
  7
ROMANS
 72
     1
 11
73.33201584476234
 21
14.34567811015692
 31
0.0
100
AcDbText
 73
     2
  0
CIRCLE
  5
5C84
330
1F
100
AcDbEntity
  8
CONTINUOUS1
100
AcDbCircle
 10
74.75185367006062
 20
15.03057549723056
 30
0.0
 40
0.229079082812258
  0
CIRCLE
  5
5C85
330
1F
100
AcDbEntity
  8
CONTINUOUS1
100
AcDbCircle
 10
74.75185367006062
 20
12.58607546492115
 30
0.0
 40
0.229079082812258
  0
LWPOLYLINE
  5
5C86
330
1F
100
AcDbEntity
  8
CONTINUOUS1
100
AcDbPolyline
 90
       11
 70
   128
 43
0.0
 10
74.73756801027059
 20
14.80194228418735
 10
74.73756801027059
 20
14.16875427492526
 10
74.87464589018983
 20
14.14025024468412
 10
74.99611875893544
 20
14.05578011046536
 10
75.06839296042787
 20
13.9427295470058
 10
75.0942653940088
 20
13.80832548107585
 10
75.06839296042787
 20
13.6739214151459
 10
74.99611875893544
 20
13.56087085168635
 10
74.87464589018983
 20
13.47640071746758
 10
74.73756801027059
 20
13.44789668722645
 10
74.73756801027059
 20
12.81470867794239
  0
LWPOLYLINE
  5
5C87
330
1F
100
AcDbEntity
  8
CONTINUOUS1
100
AcDbPolyline
 90
       11
 70
   128
 43
0.0
 10
75.83223289742218
 20
14.80194228418735
 10
75.83223289742218
 20
14.16875427492526
 10
75.96931077734146
 20
14.14025024468412
 10
76.09078364608703
 20
14.05578011046536
 10
76.16305784757947
 20
13.9427295470058
 10
76.1889302811604
 20
13.80832548107585
 10
76.16305784757947
 20
13.6739214151459
 10
76.09078364608703
 20
13.56087085168635
 10
75.96931077734146
 20
13.47640071746758
 10
75.83223289742218
 20
13.44789668722645
 10
75.83223289742218
 20
12.81470867794239
  0
CIRCLE
  5
5C88
330
1F
100
AcDbEntity
  8
CONTINUOUS1
100
AcDbCircle
 10
75.8465176715255
 20
15.03057549723056
 30
0.0
 40
0.2290790828122296
  0
CIRCLE
  5
5C89
330
1F
100
AcDbEntity
  8
CONTINUOUS1
100
AcDbCircle
 10
75.8465176715255
 20
12.58607546492115
 30
0.0
 40
0.2290790828122296
  0
TEXT
  5
5C92
330
1F
100
AcDbEntity
  8
TEXT1
100
AcDbText
 10
122.307203777893
 20
27.37723724382344
 30
0.0
 40
0.6400000000000001
  1
MILLIMETERS
  7
ROMANS
 11
122.307203777893
 21
27.69723724382344
 31
0.0
100
AcDbText
 73
     2
  0
TEXT
  5
5C93
330
1F
100
AcDbEntity
  8
TEXT1
100
AcDbText
 10
122.3604837785796
 20
28.49723724382345
 30
0.0
 40
0.8
  1
INCHES
  7
ROMANS
 11
122.3604837785796
 21
28.89723724382344
 31
0.0
100
AcDbText
 73
     2
  0
TEXT
  5
5C94
330
1F
100
AcDbEntity
  8
TEXT1
100
AcDbText
 10
112.9375653348998
 20
28.07640373247091
 30
0.0
 40
0.6400000000000001
  1
DUAL DIMENSIONS:
  7
ROMANS
 11
112.9375653348998
 21
28.39640373247091
 31
0.0
100
AcDbText
 73
     2
  0
TEXT
  5
5C95
330
1F
100
AcDbEntity
  8
TEXT1
100
AcDbText
 10
4.213121899230941
 20
1.679999999999985
 30
0.0
 40
0.6400000000000001
  1
EQUIPMENT GROUND KIT FACTORY INSTALLED.
  7
ROMANS
 11
4.213121899230941
 21
1.999999999999985
 31
0.0
100
AcDbText
 73
     2
  0
TEXT
  5
5C96
330
1F
100
AcDbEntity
  8
TEXT1
100
AcDbText
 10
4.213121899230941
 20
4.079999999999969
 30
0.0
 40
0.6400000000000001
  1
UL LISTED - FILE E-136861
  7
ROMANS
 11
4.213121899230941
 21
4.39999999999997
 31
0.0
100
AcDbText
 73
     2
  0
TEXT
  5
5C97
330
1F
100
AcDbEntity
  8
TEXT1
100
AcDbText
 10
122.4991563308634
 20
19.15807626745531
 30
0.0
 40
0.6599999952504016
  1
GROUNDING
  7
ROMANS
 72
     1
 11
125.3277277390794
 21
19.48807626508051
 31
0.0
100
AcDbText
 73
     2
  0
TEXT
  5
5C98
330
1F
100
AcDbEntity
  8
TEXT1
100
AcDbText
 10
122.7662991860838
 20
18.11307726404497
 30
0.0
 40
0.6599999952504016
  1
TERMINALS
  7
ROMANS
 72
     1
 11
125.3277277390794
 21
18.44307726167017
 31
0.0
100
AcDbText
 73
     2
  0
LWPOLYLINE
  5
5C99
330
1F
100
AcDbEntity
  8
CONTINUOUS1
100
AcDbPolyline
 90
        4
 70
   129
 43
0.0
 10
71.87261459378942
 20
25.68534282701421
 10
77.50429392008527
 20
25.68534282701421
 10
77.50429392008527
 20
9.295999526977507
 10
71.87261459378942
 20
9.295999526977507
  0
LWPOLYLINE
  5
5C9A
330
1F
100
AcDbEntity
  8
CONTINUOUS1
100
AcDbPolyline
 90
        4
 70
   129
 43
0.0
 10
77.50429392008527
 20
9.295999526977464
 10
82.99748891739591
 20
9.295999526977464
 10
82.99748891739591
 20
25.68534282701425
 10
77.50429392008527
 20
25.68534282701425
  0
LWPOLYLINE
  5
5C9B
330
1F
100
AcDbEntity
  8
CONTINUOUS1
100
AcDbPolyline
 90
        4
 70
   129
 43
0.0
 10
93.15275393830109
 20
9.295999526977524
 10
99.9846307824688
 20
9.295999526977524
 10
99.9846307824688
 20
23.28534282701423
 10
93.15275393830109
 20
23.28534282701423
  0
LWPOLYLINE
  5
5C9C
330
1F
100
AcDbEntity
  8
CONTINUOUS1
100
AcDbPolyline
 90
        4
 70
   129
 43
0.0
 10
99.9846307824688
 20
23.28534282701423
 10
107.7690241824226
 20
23.28534282701424
 10
107.7690241824226
 20
9.295999526977539
 10
99.9846307824688
 20
9.295999526977531
  0
LWPOLYLINE
  5
5C9D
330
1F
100
AcDbEntity
  8
CONTINUOUS1
100
AcDbPolyline
 90
        4
 70
   129
 43
0.0
 10
107.7690241824226
 20
9.295999526977539
 10
115.5360162745552
 20
9.295999526977539
 10
115.5360162745552
 20
23.28534282701422
 10
107.7690241824226
 20
23.28534282701422
  0
LWPOLYLINE
  5
5C9E
330
1F
100
AcDbEntity
  8
CONTINUOUS1
100
AcDbPolyline
 90
        4
 70
   129
 43
0.0
 10
115.5360162745552
 20
20.45146204488683
 10
122.3678931187229
 20
20.45146204488683
 10
122.3678931187229
 20
9.295999526977517
 10
115.5360162745552
 20
9.295999526977517
  0
LWPOLYLINE
  5
5C9F
330
1F
100
AcDbEntity
  8
CONTINUOUS1
100
AcDbPolyline
 90
        4
 70
   129
 43
0.0
 10
122.3678931187229
 20
9.295999526977517
 10
129.1997699628906
 20
9.295999526977517
 10
129.1997699628906
 20
20.45146204488684
 10
122.3678931187229
 20
20.45146204488684
  0
LWPOLYLINE
  5
5CA0
330
1F
100
AcDbEntity
  8
CONTINUOUS1
100
AcDbPolyline
 90
        4
 70
   129
 43
0.0
 10
129.1997699628906
 20
20.45146204488684
 10
115.5360162745552
 20
20.45146204488683
 10
115.5360162745552
 20
25.68534282701426
 10
129.1997699628906
 20
25.68534282701426
  0
LWPOLYLINE
  5
5CA1
330
1F
100
AcDbEntity
  8
CONTINUOUS1
100
AcDbPolyline
 90
        4
 70
   129
 43
0.0
 10
115.5360162745552
 20
25.68534282701421
 10
93.15275393830109
 20
25.68534282701421
 10
93.15275393830109
 20
23.28534282701423
 10
115.5360162745552
 20
23.28534282701423
  0
TEXT
  5
5CA2
330
1F
100
AcDbEntity
  8
TEXT1
100
AcDbText
 10
4.213121899230941
 20
6.479999999999957
 30
0.0
 40
0.6400000000000001
  1
NOTES:
  7
ROMANS
 11
4.213121899230941
 21
6.799999999999958
 31
0.0
100
AcDbText
 73
     2
  0
TEXT
  5
5CA3
330
1F
100
AcDbEntity
  8
TEXT1
100
AcDbText
 10
4.213121899230941
 20
5.279999999999962
 30
0.0
 40
0.6400000000000001
  1
FINISH - GRAY BAKED ENAMEL ELECTRODEPOSITED OVER CLEANED PHOSPATIZED STEEL.
  7
ROMANS
 11
4.213121899230941
 21
5.599999999999962
 31
0.0
100
AcDbText
 73
     2
  0
TEXT
  5
5CA4
330
1F
100
AcDbEntity
  8
TEXT1
100
AcDbText
 10
4.239620616603247
 20
2.879999999999978
 30
0.0
 40
0.6400000000000001
  1
NEUTRALS - INSULATED GROUNDABLE.
  7
ROMANS
 11
4.239620616603247
 21
3.199999999999977
 31
0.0
100
AcDbText
 73
     2
  0
TEXT
  5
5CA5
330
1F
100
AcDbEntity
  8
TEXT1
100
AcDbText
 10
84.30811151522979
 20
20.68858414904534
 30
0.0
 40
0.6599999952504016
  1
NEMA TYPE 3R
  7
ROMANS
 72
     1
 11
88.095254345119
 21
21.01858414667054
 31
0.0
100
AcDbText
 73
     2
  0
TEXT
  5
5CA6
330
1F
100
AcDbEntity
  8
TEXT1
100
AcDbText
 10
85.32954007930779
 20
21.73358315245568
 30
0.0
 40
0.6599999952504016
  1
RAINPROOF
  7
ROMANS
 72
     1
 11
88.095254345119
 21
22.06358315008088
 31
0.0
100
AcDbText
 73
     2
  0
LWPOLYLINE
  5
5CA7
330
1F
100
AcDbEntity
  8
CONTINUOUS1
100
AcDbPolyline
 90
        4
 70
   129
 43
0.0
 10
93.15275393830109
 20
25.6853428270142
 10
82.99748891739591
 20
25.68534282701419
 10
82.99748891739591
 20
9.295999526977464
 10
93.15275393830109
 20
9.295999526977468
  0
LWPOLYLINE
  5
5CA8
102
{ACAD_REACTORS
330
5DC0
102
}
330
1F
100
AcDbEntity
  8
TEXT1
100
AcDbPolyline
 90
        3
 70
   129
 43
0.0
 10
3.221865448737133
 20
2.491870263160659
 10
2.821865448737128
 20
1.691870263160662
 10
3.621865448737139
 20
1.691870263160662
  0
LWPOLYLINE
  5
5CA9
102
{ACAD_REACTORS
330
5DC1
102
}
330
1F
100
AcDbEntity
  8
TEXT1
100
AcDbPolyline
 90
        3
 70
   129
 43
0.0
 10
128.5643839277556
 20
18.94895178149335
 10
128.1643839277555
 20
18.14895178149335
 10
128.9643839277555
 20
18.14895178149335
  0
HATCH
  5
5DC0
330
1F
100
AcDbEntity
  8
TEXT1
100
AcDbHatch
 10
0.0
 20
0.0
 30
0.0
210
0.0
220
0.0
230
1.0
  2
SOLID
 70
     1
 71
     1
 91
        1
 92
        7
 72
     0
 73
     1
 93
        3
 10
2.821865448737128
 20
1.691870263160663
 10
3.62186544873714
 20
1.691870263160662
 10
3.221865448737133
 20
2.491870263160659
 97
        1
330
5CA8
 75
     0
 76
     1
 47
0.0043232999412327
 98
        1
 10
3.141199103305666
 20
1.957465458051327
  0
HATCH
  5
5DC1
330
1F
100
AcDbEntity
  8
TEXT1
100
AcDbHatch
 10
0.0
 20
0.0
 30
0.0
210
0.0
220
0.0
230
1.0
  2
SOLID
 70
     1
 71
     1
 91
        1
 92
        7
 72
     0
 73
     1
 93
        3
 10
128.5643839277556
 20
18.94895178149335
 10
128.1643839277555
 20
18.14895178149335
 10
128.9643839277556
 20
18.14895178149335
 97
        1
330
5CA9
 75
     0
 76
     1
 47
0.0078842806764744
 98
        1
 10
128.6058150092452
 20
18.4228796326499
  0
TEXT
  5
5DC9
330
1F
100
AcDbEntity
  8
TEXT1
100
AcDbText
 10
102.1128144463323
 20
10.98771749261376
 30
0.0
 40
0.6599999952504016
  1
65,000
  7
ROMANS
 72
     1
 11
103.8571001480655
 21
11.31771749023896
 31
0.0
100
AcDbText
 73
     2
  0
TEXT
  5
5DCA
330
1F
100
AcDbEntity
  8
TEXT1
100
AcDbText
 10
102.1285287319335
 20
12.18771749261372
 30
0.0
 40
0.6599999952504016
  1
25,000
  7
ROMANS
 72
     1
 11
103.8571001480655
 21
12.51771749023893
 31
0.0
100
AcDbText
 73
     2
  0
TEXT
  5
5DCB
330
1F
100
AcDbEntity
  8
TEXT1
100
AcDbText
 10
101.7671001631059
 20
9.787717492613793
 30
0.0
 40
0.6599999952504016
  1
100,000
  7
ROMANS
 72
     1
 11
103.8571001480655
 21
10.11771749023899
 31
0.0
100
AcDbText
 73
     2
  0
TEXT
  5
5DCC
330
1F
100
AcDbEntity
  8
TEXT1
100
AcDbText
 10
95.68499665738093
 20
9.787717492613793
 30
0.0
 40
0.6599999952504016
  1
QJL
  7
ROMANS
 72
     1
 11
96.58071093664933
 21
10.11771749023899
 31
0.0
100
AcDbText
 73
     2
  0
TEXT
  5
5DCD
330
1F
100
AcDbEntity
  8
TEXT1
100
AcDbText
 10
95.60642522937492
 20
10.98771749261376
 30
0.0
 40
0.6599999952504016
  1
QGL
  7
ROMANS
 72
     1
 11
96.58071093664933
 21
11.31771749023896
 31
0.0
100
AcDbText
 73
     2
  0
TEXT
  5
5DCE
330
1F
100
AcDbEntity
  8
TEXT1
100
AcDbText
 10
95.60642522937492
 20
12.18771749261372
 30
0.0
 40
0.6599999952504016
  1
QDL
  7
ROMANS
 72
     1
 11
96.58071093664933
 21
12.51771749023893
 31
0.0
100
AcDbText
 73
     2
  0
LINE
  5
5DCF
330
1F
100
AcDbEntity
  8
CONTINUOUS1
100
AcDbLine
 10
93.15275393830109
 20
14.53943545350036
 30
0.0
 11
107.7690241824226
 21
14.53943545350037
 31
0.0
  0
LINE
  5
5DD0
330
1F
100
AcDbEntity
  8
CONTINUOUS1
100
AcDbLine
 10
82.99748891739591
 20
14.53943545350036
 30
0.0
 11
77.50429392008527
 21
14.53943545350036
 31
0.0
  0
TEXT
  5
5DD1
330
1F
100
AcDbEntity
  8
TEXT1
100
AcDbText
 10
77.95660572096538
 20
11.58771749261371
 30
0.0
 40
0.6599999952504016
  1
70-225A
  7
ROMANS
 72
     1
 11
80.2508914187406
 21
11.91771749023891
 31
0.0
100
AcDbText
 73
     2
  0
VIEWPORT
  5
32
330
1B
100
AcDbEntity
 67
     1
  8
0
100
AcDbViewport
 10
8.200420715608064
 20
5.050021638051306
 30
0.0
 40
17.65101902097844
 41
10.48703575085027
 68
     1
 69
     1
1001
ACAD
1000
MVIEW
1002
{
1070
    16
1010
0.0
1020
0.0
1030
0.0
1010
0.0
1020
0.0
1030
1.0
1040
0.0
1040
10.48703575085027
1040
8.200420715608064
1040
5.050021638051306
1040
50.0
1040
0.0
1040
0.0
1070
     0
1070
   100
1070
     1
1070
     0
1070
     0
1070
     0
1070
     0
1070
     0
1040
0.0
1040
0.0
1040
0.0
1040
0.5
1040
0.5
1040
0.5
1040
0.5
1070
     0
1002
{
1002
}
1002
}
  0
LWPOLYLINE
  5
175
330
1B
100
AcDbEntity
 67
     1
  8
VIEWPORT
100
AcDbPolyline
 90
        6
 70
     1
 43
0.0
 10
16.40000099999999
 20
10.25
 10
16.40000099999999
 20
0.9120019999999993
 10
8.002461
 20
0.9120019999999993
 10
8.002461
 20
0.0
 10
0.0
 20
0.0
 10
0.0
 20
10.25
1001
GENIUS_GENOREF_13
1005
0
1005
0
1005
0
1005
0
1005
0
1005
0
1005
0
1005
0
  0
VIEWPORT
  5
177
330
1B
100
AcDbEntity
 67
     1
  8
VIEWPORT
100
AcDbViewport
 10
8.200000499999999
 20
5.125
 30
0.0
 40
16.40000099999999
 41
10.25
 68
     2
 69
     2
1001
ACAD
1000
MVIEW
1002
{
1070
    16
1010
0.0
1020
0.0
1030
0.0
1010
0.0
1020
0.0
1030
1.0
1040
0.0
1040
82.0
1040
65.59882245611923
1040
41.00053300515685
1040
50.0
1040
0.0
1040
0.0
1070
     0
1070
   100
1070
     1
1070
     2
1070
     0
1070
     0
1070
     0
1070
     0
1040
0.0
1040
0.0
1040
0.0
1040
0.5
1040
0.5
1040
0.5
1040
0.5
1070
     0
1002
{
1002
}
1002
}
1001
GENIUS_GENOREF_13
1005
0
1005
0
1005
0
1005
0
1005
0
1005
0
1005
0
1005
0
1001
GENIUS_GENSCREG_15
1000
PF
1040
0.0
1000
DF
1040
0.0
1000
MIN
1011
0.0
1021
0.0
1031
0.0
1000
MAX
1011
16.40000099999999
1021
10.25
1031
0.0
1000
FLAGS
1070
     2
  0
INSERT
  5
B2C
330
1B
100
AcDbEntity
 67
     1
  8
TITLEBLOCK
100
AcDbBlockReference
 66
     1
  2
TITLE-PAD
 10
0.0
 20
0.0
 30
0.0
  0
ATTRIB
  5
B2D
330
B2C
100
AcDbEntity
 67
     1
  8
TEXT1
 62
     0
100
AcDbText
 10
9.38279072989037
 20
0.7022079932209213
 30
0.0
 40
0.1
  1
QO LOAD CENTERS
  7
ROMANS
 72
     4
 11
10.10183834893798
 21
0.7474460884590166
 31
0.0
100
AcDbAttribute
  2
DESCRIPTION 1
 70
     0
  0
ATTRIB
  5
B2E
330
B2C
100
AcDbEntity
 67
     1
  8
TEXT1
 62
     0
100
AcDbText
 10
9.199457396557036
 20
0.5517231711406716
 30
0.0
 40
0.1
  1
RAINPROOF ENCLOSURE
  7
ROMANS
 72
     4
 11
10.10183834893798
 21
0.6017231711406717
 31
0.0
100
AcDbAttribute
  2
DESCRIPTION 2
 70
     0
  0
ATTRIB
  5
B2F
330
B2C
100
AcDbEntity
 67
     1
  8
TEXT1
 62
     0
100
AcDbText
 10
8.943743110842749
 20
0.4160002538223267
 30
0.0
 40
0.08
  1
ENCLOSED CIRCUIT BREAKER DEVICES
  7
ROMANS
 72
     4
 11
10.10183834893798
 21
0.4560002538223267
 31
0.0
100
AcDbAttribute
  2
DESCRIPTION 3
 70
     0
  0
ATTRIB
  5
B30
330
B2C
100
AcDbEntity
 67
     1
  8
TEXT1
 62
     0
100
AcDbText
 10
10.10183834893798
 20
0.3202773365039833
 30
0.0
 40
0.08
  1

  7
ROMANS
 72
     4
 11
10.10183834893798
 21
0.3202773365039833
 31
0.0
100
AcDbAttribute
  2
DESCRIPTION 4
 70
     0
  0
ATTRIB
  5
B31
330
B2C
100
AcDbEntity
 67
     1
  8
TEXT1
 62
     0
100
AcDbText
 10
10.10183834893798
 20
0.1845544191856399
 30
0.0
 40
0.08
  1

  7
ROMANS
 72
     4
 11
10.10183834893798
 21
0.1845544191856399
 31
0.0
100
AcDbAttribute
  2
DESCRIPTION 5
 70
     0
  0
ATTRIB
  5
B32
330
B2C
100
AcDbEntity
 67
     1
  8
TEXT1
 62
     0
100
AcDbText
 10
12.74772367103195
 20
0.096540546036505
 30
0.0
 40
0.12
  1
3287
 41
0.9512024731840066
  7
M_STANDARD
 11
12.74772367103195
 21
0.156540546036505
 31
0.0
100
AcDbAttribute
  2
DWGNO
 70
     0
 74
     2
  0
ATTRIB
  5
B33
330
B2C
100
AcDbEntity
 67
     1
  8
TEXT1
 62
     0
100
AcDbText
 10
16.06173121615992
 20
-0.1507193079929352
 30
0.0
 40
0.08
  1
3287
  7
ROMANS
 72
     2
 11
16.35506454949325
 21
-0.1107193079929352
 31
0.0
100
AcDbAttribute
  2
REF
 70
     0
 74
     2
  0
ATTRIB
  5
B34
330
B2C
100
AcDbEntity
 67
     1
  8
TEXT1
 62
     0
100
AcDbText
 10
0.0266402374038712
 20
-0.1507193079929352
 30
0.0
 40
0.08
  1
JANUARY 2003
  7
ROMANS
 11
0.0266402374038712
 21
-0.1107193079929352
 31
0.0
100
AcDbAttribute
  2
DATE
 70
     0
 74
     2
  0
SEQEND
  5
B35
330
B2C
100
AcDbEntity
 67
     1
  8
0
  0
INSERT
  5
1F0F
330
1B
100
AcDbEntity
 67
     1
  8
TEXT1
100
AcDbBlockReference
  2
SETUP
 10
9.58754191651014
 20
7.336334896320199
 30
0.0
  0
INSERT
  5
26A1
330
1B
100
AcDbEntity
 67
     1
  8
0
100
AcDbBlockReference
  2
0SETUP
 10
7.530327858815084
 20
3.737630459158452
 30
0.0
  0
ENDSEC
  0
SECTION
  2
OBJECTS
  0
DICTIONARY
  5
C
330
0
100
AcDbDictionary
  3
ACAD_GROUP
350
D
  3
ACAD_LAYOUT
350
1A
  3
ACAD_MLINESTYLE
350
17
  3
ACAD_PLOTSETTINGS
350
19
  3
ACAD_PLOTSTYLENAME
350
E
  3
ACDBHEADERROUNDTRIPXREC
350
5F75
  3
ACDBVARIABLEDICTIONARY
350
374
  3
ACMDICTIONARY
350
383
  3
AMG
350
36B
  3
AMGSNAPSETTINGS
350
399
  3
ASE_INDEX_DICTIONARY
350
6A
  3
DWGPROPS
350
D65
  0
DICTIONARY
  5
73
330
1F
100
AcDbDictionary
280
     1
  3
ACAD_INDEX
360
1C33
  3
ACAD_LAYOUTSELFREF
360
5F97
  0
DICTIONARY
  5
75
330
1B
100
AcDbDictionary
280
     1
  3
ACAD_LAYOUTSELFREF
360
5F96
  0
DICTIONARY
  5
D
102
{ACAD_REACTORS
330
C
102
}
330
C
100
AcDbDictionary
  0
DICTIONARY
  5
1A
102
{ACAD_REACTORS
330
C
102
}
330
C
100
AcDbDictionary
  0
DICTIONARY
  5
17
102
{ACAD_REACTORS
330
C
102
}
330
C
100
AcDbDictionary
  3
STANDARD
350
18
  0
DICTIONARY
  5
19
102
{ACAD_REACTORS
330
C
102
}
330
C
100
AcDbDictionary
  3
A_SIZE_PAPER
350
2FF
  3
B_SIZE_PAPER
350
2FD
  3
D_SIZE_PAPER
350
2FE
  0
ACDBDICTIONARYWDFLT
  5
E
102
{ACAD_REACTORS
330
C
102
}
330
C
100
AcDbDictionary
281
     1
  3
Normal
350
F
100
AcDbDictionaryWithDefault
340
F
  0
DICTIONARY
  5
5F75
102
{ACAD_REACTORS
330
C
102
}
330
C
100
AcDbDictionary
  3
CEPSNTYPE
350
5F7F
  3
DIMSTYLEDATA
350
5F83
  3
FINGERPRINTGUID
350
5F80
  3
HYPERLINKBASE
350
5F78
  3
INSUNITS
350
5F7E
  3
LAYOUTDICT
350
5F7A
  3
LWETCUNION
350
5F7D
  3
PLOTSETDICT
350
5F7B
  3
PLOTSTYLNAMDICT
350
5F7C
  3
PSVPSCALE
350
5F82
  3
PUCSBASE
350
5F86
  3
PUCSORGBACK
350
5F8C
  3
PUCSORGBOTTOM
350
5F88
  3
PUCSORGFRONT
350
5F8B
  3
PUCSORGLEFT
350
5F89
  3
PUCSORGRIGHT
350
5F8A
  3
PUCSORGTOP
350
5F87
  3
PUCSORTHOREF
350
5F84
  3
PUCSORTHOVIEW
350
5F85
  3
STYLESHEET
350
5F79
  3
TSTACKALIGN
350
5F76
  3
TSTACKSIZE
350
5F77
  3
UCSBASE
350
5F8F
  3
UCSORGBACK
350
5F95
  3
UCSORGBOTTOM
350
5F91
  3
UCSORGFRONT
350
5F94
  3
UCSORGLEFT
350
5F92
  3
UCSORGRIGHT
350
5F93
  3
UCSORGTOP
350
5F90
  3
UCSORTHOREF
350
5F8D
  3
UCSORTHOVIEW
350
5F8E
  3
VERSIONGUID
350
5F81
  0
DICTIONARY
  5
374
102
{ACAD_REACTORS
330
C
102
}
330
C
100
AcDbDictionary
  3
DIMASSOC
350
1EEC
  3
INDEXCTL
350
375
  0
DICTIONARY
  5
383
102
{ACAD_REACTORS
330
C
102
}
330
C
100
AcDbDictionary
  0
DICTIONARY
  5
36B
102
{ACAD_REACTORS
330
C
102
}
330
C
100
AcDbDictionary
  3
ACMGSETTINGS
350
36C
  0
DICTIONARY
  5
399
102
{ACAD_REACTORS
330
C
102
}
330
C
100
AcDbDictionary
  0
DICTIONARY
  5
6A
102
{ACAD_REACTORS
330
C
102
}
330
C
100
AcDbDictionary
  3
ASEBLOCKHIERARCHYINDEXRECORD
350
6C
1001
DCO15
1040
1379130883.247
  0
XRECORD
  5
D65
102
{ACAD_REACTORS
330
C
102
}
330
C
100
AcDbXrecord
  1
DWGPROPS COOKIE
  2

  3

  4

  6

  7

  8
mgp706
  9

300
AmdtFileType=84
301
=
302
=
303
=
304
=
305
=
306
=
307
=
308
=
309
=
 40
0.2109203356481482
 41
2451764.535041909
 42
2451851.599312743
  1

 90
        1
  0
DICTIONARY
  5
1C33
102
{ACAD_REACTORS
330
73
102
}
330
73
100
AcDbDictionary
  3
*A1
350
1C34
  0
XRECORD
  5
5F97
102
{ACAD_REACTORS
330
73
102
}
330
73
100
AcDbXrecord
340
1F
  0
XRECORD
  5
5F96
102
{ACAD_REACTORS
330
75
102
}
330
75
100
AcDbXrecord
340
1B
  0
MLINESTYLE
  5
18
102
{ACAD_REACTORS
330
17
102
}
330
17
100
AcDbMlineStyle
  2
STANDARD
 70
     0
  3

 62
   256
 51
90.0
 52
90.0
 71
     2
 49
0.5
 62
   256
  6
BYLAYER
 49
-0.5
 62
   256
  6
BYLAYER
  0
PLOTSETTINGS
  5
2FF
102
{ACAD_REACTORS
330
19
102
}
330
19
100
AcDbPlotSettings
  1
A Size Paper
  2
none_device
  4
ANSI_A_(8.50_x_11.00_Inches)
  6

 40
6.349999904632568
 41
19.04999923706054
 42
6.350006103515625
 43
19.04998779296875
 44
215.8999938964843
 45
279.3999938964843
 46
19.04999999999999
 47
-9.651999999999999
 48
0.0
 49
0.0
140
0.0
141
0.0
142
1.0
143
1.6
 70
   740
 72
     0
 73
     1
 74
     1
  7
monochrome.ctb
 75
     0
147
0.625
148
0.0034886547032954
149
0.0199946439100934
  0
PLOTSETTINGS
  5
2FD
102
{ACAD_REACTORS
330
19
102
}
330
19
100
AcDbPlotSettings
  1
B Size Paper
  2
none_device
  4
ANSI_B_(11.00_x_17.00_Inches)
  6

 40
6.349999904632568
 41
19.04999923706054
 42
6.350006103515625
 43
19.04998779296875
 44
279.3999938964843
 45
431.7999877929687
 46
1.27
 47
-11.43
 48
0.0
 49
0.0
140
0.0
141
0.0
142
1.0
143
1.0
 70
   756
 72
     0
 73
     1
 74
     1
  7
monochrome.ctb
 75
    16
147
1.0
148
0.0034886547032954
149
0.0199946439100934
  0
PLOTSETTINGS
  5
2FE
102
{ACAD_REACTORS
330
19
102
}
330
19
100
AcDbPlotSettings
  1
D Size Paper
  2
none_device
  4
ANSI_D_(22.00_x_34.00_Inches)
  6

 40
6.349999904632568
 41
19.04999923706054
 42
6.3499755859375
 43
19.04998779296875
 44
558.7999877929687
 45
863.5999755859375
 46
8.889999999999998
 47
-3.809999999999999
 48
0.0
 49
0.0
140
0.0
141
0.0
142
1.0
143
0.5
 70
   740
 72
     0
 73
     1
 74
     1
  7
monochrome.ctb
 75
     0
147
2.0
148
0.0034886547032954
149
0.0199946439100934
  0
ACDBPLACEHOLDER
  5
F
102
{ACAD_REACTORS
330
E
102
}
330
E
100
AcDbPlaceHolder
280
     0
  0
XRECORD
  5
5F7F
102
{ACAD_REACTORS
330
5F75
102
}
330
5F75
100
AcDbXrecord
 90
        0
  0
XRECORD
  5
5F83
102
{ACAD_REACTORS
330
5F75
102
}
330
5F75
100
AcDbXrecord
1000
DSTYLE
1002
{
1070
    79
 70
     1
1070
   148
 40
0.1
1070
   341
340
E0D
1070
   342
340
E0D
1070
   371
 70
    -1
1070
   372
 70
    -1
1002
}
  0
XRECORD
  5
5F80
102
{ACAD_REACTORS
330
5F75
102
}
330
5F75
100
AcDbXrecord
  1
{4E694E3A-6C64-11D4-81E3-0004AC4461C9}
  0
XRECORD
  5
5F78
102
{ACAD_REACTORS
330
5F75
102
}
330
5F75
100
AcDbXrecord
  1

  0
XRECORD
  5
5F7E
102
{ACAD_REACTORS
330
5F75
102
}
330
5F75
100
AcDbXrecord
 90
        1
  0
XRECORD
  5
5F7A
102
{ACAD_REACTORS
330
5F75
102
}
330
5F75
100
AcDbXrecord
340
1A
  0
XRECORD
  5
5F7D
102
{ACAD_REACTORS
330
5F75
102
}
330
5F75
100
AcDbXrecord
 90
    10269
  0
XRECORD
  5
5F7B
102
{ACAD_REACTORS
330
5F75
102
}
330
5F75
100
AcDbXrecord
340
19
  0
XRECORD
  5
5F7C
102
{ACAD_REACTORS
330
5F75
102
}
330
5F75
100
AcDbXrecord
340
E
  0
XRECORD
  5
5F82
102
{ACAD_REACTORS
330
5F75
102
}
330
5F75
100
AcDbXrecord
 40
1.0
  0
XRECORD
  5
5F86
102
{ACAD_REACTORS
330
5F75
102
}
330
5F75
100
AcDbXrecord
340
0
  0
XRECORD
  5
5F8C
102
{ACAD_REACTORS
330
5F75
102
}
330
5F75
100
AcDbXrecord
 10
0.0
 20
0.0
 30
0.0
  0
XRECORD
  5
5F88
102
{ACAD_REACTORS
330
5F75
102
}
330
5F75
100
AcDbXrecord
 10
0.0
 20
0.0
 30
0.0
  0
XRECORD
  5
5F8B
102
{ACAD_REACTORS
330
5F75
102
}
330
5F75
100
AcDbXrecord
 10
0.0
 20
0.0
 30
0.0
  0
XRECORD
  5
5F89
102
{ACAD_REACTORS
330
5F75
102
}
330
5F75
100
AcDbXrecord
 10
0.0
 20
0.0
 30
0.0
  0
XRECORD
  5
5F8A
102
{ACAD_REACTORS
330
5F75
102
}
330
5F75
100
AcDbXrecord
 10
0.0
 20
0.0
 30
0.0
  0
XRECORD
  5
5F87
102
{ACAD_REACTORS
330
5F75
102
}
330
5F75
100
AcDbXrecord
 10
0.0
 20
0.0
 30
0.0
  0
XRECORD
  5
5F84
102
{ACAD_REACTORS
330
5F75
102
}
330
5F75
100
AcDbXrecord
340
0
  0
XRECORD
  5
5F85
102
{ACAD_REACTORS
330
5F75
102
}
330
5F75
100
AcDbXrecord
 70
     0
  0
XRECORD
  5
5F79
102
{ACAD_REACTORS
330
5F75
102
}
330
5F75
100
AcDbXrecord
  1

  0
XRECORD
  5
5F76
102
{ACAD_REACTORS
330
5F75
102
}
330
5F75
100
AcDbXrecord
 90
        1
  0
XRECORD
  5
5F77
102
{ACAD_REACTORS
330
5F75
102
}
330
5F75
100
AcDbXrecord
 90
       70
  0
XRECORD
  5
5F8F
102
{ACAD_REACTORS
330
5F75
102
}
330
5F75
100
AcDbXrecord
340
0
  0
XRECORD
  5
5F95
102
{ACAD_REACTORS
330
5F75
102
}
330
5F75
100
AcDbXrecord
 10
0.0
 20
0.0
 30
0.0
  0
XRECORD
  5
5F91
102
{ACAD_REACTORS
330
5F75
102
}
330
5F75
100
AcDbXrecord
 10
0.0
 20
0.0
 30
0.0
  0
XRECORD
  5
5F94
102
{ACAD_REACTORS
330
5F75
102
}
330
5F75
100
AcDbXrecord
 10
0.0
 20
0.0
 30
0.0
  0
XRECORD
  5
5F92
102
{ACAD_REACTORS
330
5F75
102
}
330
5F75
100
AcDbXrecord
 10
0.0
 20
0.0
 30
0.0
  0
XRECORD
  5
5F93
102
{ACAD_REACTORS
330
5F75
102
}
330
5F75
100
AcDbXrecord
 10
0.0
 20
0.0
 30
0.0
  0
XRECORD
  5
5F90
102
{ACAD_REACTORS
330
5F75
102
}
330
5F75
100
AcDbXrecord
 10
0.0
 20
0.0
 30
0.0
  0
XRECORD
  5
5F8D
102
{ACAD_REACTORS
330
5F75
102
}
330
5F75
100
AcDbXrecord
340
0
  0
XRECORD
  5
5F8E
102
{ACAD_REACTORS
330
5F75
102
}
330
5F75
100
AcDbXrecord
 70
     0
  0
XRECORD
  5
5F81
102
{ACAD_REACTORS
330
5F75
102
}
330
5F75
100
AcDbXrecord
  1
{4A88EFB6-2C8D-11D7-B194-000347A366B5}
  0
DICTIONARYVAR
  5
1EEC
102
{ACAD_REACTORS
330
374
102
}
330
374
100
DictionaryVariables
280
     0
  1
1
  0
DICTIONARYVAR
  5
375
102
{ACAD_REACTORS
330
374
102
}
330
374
100
DictionaryVariables
280
     0
  1
1
  0
DICTIONARY
  5
36C
102
{ACAD_REACTORS
330
36B
102
}
330
36B
100
AcDbDictionary
  3
DWGSETTINGS
350
D51
  0
XRECORD
  5
6C
102
{ACAD_REACTORS
330
6A
102
}
330
6A
100
AcDbXrecord
  0
LAYER_INDEX
  5
1C34
102
{ACAD_REACTORS
330
1C33
102
}
330
1C33
100
AcDbIndex
 40
2452660.610896932
100
AcDbLayerIndex
  8
0
360
1C35
 90
       56
  8
CONTINUOUS2
360
1C36
 90
        0
  8
CONTINUOUS3
360
1C37
 90
        0
  8
TEXT1
360
1C38
 90
       94
  8
TITLEBLOCK
360
1C39
 90
        0
  8
VIEWPORT
360
1C3A
 90
        2
  8
CONTINUOUS1
360
1C3B
 90
      158
  8
DIM
360
1C3C
 90
       20
  8
HIDDEN1
360
1C3D
 90
        2
  8
Defpoints
360
1C3E
 90
        0
  0
XRECORD
  5
D51
102
{ACAD_REACTORS
330
36C
102
}
330
36C
100
AcDbXrecord
  1
VERSION
140
15.0
  1
PRODUCT
  2
AutoCAD Mechanical 2000
  0
IDBUFFER
  5
1C35
330
0
100
AcDbIdBuffer
330
E46
330
1530
330
1531
330
1532
330
1533
330
18F0
330
1936
330
193C
330
193E
330
1940
330
1942
330
1944
330
1946
330
1948
330
194A
330
194C
330
194E
330
1950
330
1952
330
1954
330
1956
330
1958
330
195A
330
195C
330
195E
330
1960
330
1962
330
31FF
330
5C35
330
5C36
330
5C37
330
5C38
330
5C39
330
5C3A
330
5C3B
330
5C3C
330
5C3D
330
5C3E
330
5C3F
330
5C40
330
5C41
330
5C42
330
5C43
330
5C44
330
5C45
330
5C46
330
5C47
330
5C48
330
5C49
330
5C4A
330
5C4B
330
5C4C
330
5C4D
330
5C4E
330
5C4F
330
5C52
  0
IDBUFFER
  5
1C36
330
0
100
AcDbIdBuffer
  0
IDBUFFER
  5
1C37
330
0
100
AcDbIdBuffer
  0
IDBUFFER
  5
1C38
330
0
100
AcDbIdBuffer
330
4ECB
330
4ECD
330
4EE1
330
4EE2
330
4EE7
330
4EE8
330
4F1E
330
4F21
330
4F22
330
4F23
330
4F24
330
4F25
330
4F26
330
4F27
330
4F28
330
4F29
330
4F2A
330
4F2B
330
4F2C
330
4F2D
330
4F2E
330
4F2F
330
4F30
330
4F31
330
4F32
330
4F33
330
4F34
330
4F35
330
5C53
330
5C54
330
5C55
330
5C56
330
5C57
330
5C58
330
5C59
330
5C5A
330
5C5B
330
5C5C
330
5C5D
330
5C5E
330
5C5F
330
5C60
330
5C61
330
5C62
330
5C63
330
5C64
330
5C65
330
5C66
330
5C67
330
5C68
330
5C69
330
5C6A
330
5C6B
330
5C6C
330
5C6D
330
5C6E
330
5C6F
330
5C70
330
5C71
330
5C72
330
5C73
330
5C74
330
5C75
330
5C76
330
5C77
330
5C78
330
5C79
330
5C7A
330
5C81
330
5C82
330
5C83
330
5C92
330
5C93
330
5C94
330
5C95
330
5C96
330
5C97
330
5C98
330
5CA2
330
5CA3
330
5CA4
330
5CA5
330
5CA6
330
5CA8
330
5CA9
330
5DC0
330
5DC1
330
5DC9
330
5DCA
330
5DCB
330
5DCC
330
5DCD
330
5DCE
330
5DD1
  0
IDBUFFER
  5
1C39
330
0
100
AcDbIdBuffer
  0
IDBUFFER
  5
1C3A
330
0
100
AcDbIdBuffer
330
1C30
330
1C31
  0
IDBUFFER
  5
1C3B
330
0
100
AcDbIdBuffer
330
4F1F
330
4F20
330
4F36
330
4F37
330
4F38
330
4F39
330
4F3A
330
4F3B
330
4F3C
330
4F3D
330
4F3F
330
4F41
330
4F44
330
4F49
330
4F4C
330
4F4E
330
4F4F
330
4F50
330
4F51
330
4F53
330
4F54
330
4F55
330
4F58
330
4F5B
330
4F5E
330
4F61
330
4F64
330
4F67
330
4F6A
330
4F6D
330
4F70
330
4F73
330
4F76
330
4F79
330
4F7C
330
4F7F
330
4F82
330
4F85
330
4F88
330
4F8B
330
4F8E
330
4F91
330
4F94
330
4F97
330
4F9A
330
4F9D
330
4FA0
330
4FA3
330
4FA6
330
4FA9
330
4FAC
330
4FAF
330
4FB2
330
4FB5
330
4FB8
330
4FBB
330
4FBE
330
4FC1
330
4FC4
330
4FC7
330
4FCA
330
4FCD
330
4FD0
330
4FD3
330
4FD6
330
4FD9
330
4FDC
330
4FDF
330
4FE2
330
4FE5
330
4FE8
330
4FEB
330
4FEE
330
4FF1
330
4FF4
330
4FF7
330
4FFA
330
4FFD
330
5000
330
5003
330
5006
330
5009
330
500C
330
500F
330
5012
330
5015
330
5018
330
501B
330
501E
330
5021
330
5024
330
5027
330
502A
330
502D
330
5030
330
5033
330
5036
330
5039
330
503C
330
503F
330
5042
330
5045
330
5048
330
504B
330
504E
330
5051
330
5054
330
5057
330
505A
330
505D
330
5060
330
5063
330
5066
330
5069
330
506C
330
506F
330
5072
330
5075
330
5078
330
507B
330
507E
330
5081
330
5084
330
5087
330
508A
330
508D
330
5090
330
5093
330
5096
330
5099
330
509C
330
509F
330
50A2
330
50A5
330
50A8
330
50AB
330
50AE
330
5C7D
330
5C7E
330
5C80
330
5C84
330
5C85
330
5C86
330
5C87
330
5C88
330
5C89
330
5C99
330
5C9A
330
5C9B
330
5C9C
330
5C9D
330
5C9E
330
5C9F
330
5CA0
330
5CA1
330
5CA7
330
5DCF
330
5DD0
  0
IDBUFFER
  5
1C3C
330
0
100
AcDbIdBuffer
330
4E9D
330
4E9E
330
4EDD
330
4EDE
330
4EE9
330
4EEA
330
4F16
330
4F17
330
4F18
330
4F19
330
4F1B
330
4F1D
330
514F
330
515D
330
5175
330
5183
330
5191
330
519F
330
51B6
330
51C4
  0
IDBUFFER
  5
1C3D
330
0
100
AcDbIdBuffer
330
4F45
330
5C7F
  0
IDBUFFER
  5
1C3E
330
0
100
AcDbIdBuffer
  0
ENDSEC
  0
EOF
