  0
SECTION
  2
HEADER
  9
$ACADVER
  1
AC1012
  9
$DWGCODEPAGE
  3
ANSI_1252
  9
$INSBASE
 10
0.0
 20
0.0
 30
0.0
  9
$EXTMIN
 10
-13.051725
 20
5.721084
 30
-0.001526
  9
$EXTMAX
 10
207.192639
 20
159.730484
 30
0.0
  9
$LIMMIN
 10
19.077216
 20
43.616976
  9
$LIMMAX
 10
194.084622
 20
146.65737
  9
$ORTHOMODE
 70
     1
  9
$REGENMODE
 70
     1
  9
$FILLMODE
 70
     1
  9
$QTEXTMODE
 70
     0
  9
$MIRRTEXT
 70
     1
  9
$DRAGMODE
 70
     2
  9
$LTSCALE
 40
10.0
  9
$OSMODE
 70
    39
  9
$ATTMODE
 70
     1
  9
$TEXTSIZE
 40
0.2
  9
$TRACEWID
 40
0.05
  9
$TEXTSTYLE
  7
STANDARD
  9
$CLAYER
  8
ALPHA
  9
$CELTYPE
  6
CONTINUOUS
  9
$CECOLOR
 62
   256
  9
$CELTSCALE
 40
1.0
  9
$DELOBJ
 70
     1
  9
$DISPSILH
 70
     0
  9
$DIMSCALE
 40
1.0
  9
$DIMASZ
 40
0.18
  9
$DIMEXO
 40
0.0625
  9
$DIMDLI
 40
0.38
  9
$DIMRND
 40
0.0
  9
$DIMDLE
 40
0.0
  9
$DIMEXE
 40
0.18
  9
$DIMTP
 40
0.0
  9
$DIMTM
 40
0.0
  9
$DIMTXT
 40
0.18
  9
$DIMCEN
 40
0.09
  9
$DIMTSZ
 40
0.0
  9
$DIMTOL
 70
     0
  9
$DIMLIM
 70
     0
  9
$DIMTIH
 70
     1
  9
$DIMTOH
 70
     1
  9
$DIMSE1
 70
     0
  9
$DIMSE2
 70
     0
  9
$DIMTAD
 70
     0
  9
$DIMZIN
 70
     0
  9
$DIMBLK
  1

  9
$DIMASO
 70
     1
  9
$DIMSHO
 70
     1
  9
$DIMPOST
  1

  9
$DIMAPOST
  1

  9
$DIMALT
 70
     0
  9
$DIMALTD
 70
     2
  9
$DIMALTF
 40
25.4
  9
$DIMLFAC
 40
1.0
  9
$DIMTOFL
 70
     0
  9
$DIMTVP
 40
0.0
  9
$DIMTIX
 70
     0
  9
$DIMSOXD
 70
     0
  9
$DIMSAH
 70
     0
  9
$DIMBLK1
  1

  9
$DIMBLK2
  1

  9
$DIMSTYLE
  2
STANDARD
  9
$DIMCLRD
 70
     0
  9
$DIMCLRE
 70
     0
  9
$DIMCLRT
 70
     0
  9
$DIMTFAC
 40
1.0
  9
$DIMGAP
 40
0.09
  9
$DIMJUST
 70
     0
  9
$DIMSD1
 70
     0
  9
$DIMSD2
 70
     0
  9
$DIMTOLJ
 70
     1
  9
$DIMTZIN
 70
     0
  9
$DIMALTZ
 70
     0
  9
$DIMALTTZ
 70
     0
  9
$DIMFIT
 70
     3
  9
$DIMUPT
 70
     0
  9
$DIMUNIT
 70
     2
  9
$DIMDEC
 70
     4
  9
$DIMTDEC
 70
     4
  9
$DIMALTU
 70
     2
  9
$DIMALTTD
 70
     2
  9
$DIMTXSTY
  7
STANDARD
  9
$DIMAUNIT
 70
     0
  9
$LUNITS
 70
     2
  9
$LUPREC
 70
     4
  9
$SKETCHINC
 40
0.1
  9
$FILLETRAD
 40
0.0
  9
$AUNITS
 70
     0
  9
$AUPREC
 70
     0
  9
$MENU
  1
acad
  9
$ELEVATION
 40
0.0
  9
$PELEVATION
 40
0.0
  9
$THICKNESS
 40
0.0
  9
$LIMCHECK
 70
     0
  9
$BLIPMODE
 70
     0
  9
$CHAMFERA
 40
0.0
  9
$CHAMFERB
 40
0.0
  9
$CHAMFERC
 40
0.0
  9
$CHAMFERD
 40
0.0
  9
$SKPOLY
 70
     0
  9
$TDCREATE
 40
2453634.371764132
  9
$TDUPDATE
 40
2453689.695033854
  9
$TDINDWG
 40
0.3897119560
  9
$TDUSRTIMER
 40
0.3897108681
  9
$USRTIMER
 70
     1
  9
$ANGBASE
 50
0.0
  9
$ANGDIR
 70
     0
  9
$PDMODE
 70
     0
  9
$PDSIZE
 40
0.0
  9
$PLINEWID
 40
0.0
  9
$COORDS
 70
     0
  9
$SPLFRAME
 70
     0
  9
$SPLINETYPE
 70
     6
  9
$SPLINESEGS
 70
     8
  9
$ATTDIA
 70
     0
  9
$ATTREQ
 70
     1
  9
$HANDLING
 70
     1
  9
$HANDSEED
  5
2F47
  9
$SURFTAB1
 70
     6
  9
$SURFTAB2
 70
     6
  9
$SURFTYPE
 70
     6
  9
$SURFU
 70
     6
  9
$SURFV
 70
     6
  9
$UCSNAME
  2

  9
$UCSORG
 10
0.0
 20
0.0
 30
0.0
  9
$UCSXDIR
 10
1.0
 20
0.0
 30
0.0
  9
$UCSYDIR
 10
0.0
 20
1.0
 30
0.0
  9
$PUCSNAME
  2

  9
$PUCSORG
 10
0.0
 20
0.0
 30
0.0
  9
$PUCSXDIR
 10
1.0
 20
0.0
 30
0.0
  9
$PUCSYDIR
 10
0.0
 20
1.0
 30
0.0
  9
$USERI1
 70
     0
  9
$USERI2
 70
     0
  9
$USERI3
 70
     0
  9
$USERI4
 70
     0
  9
$USERI5
 70
     0
  9
$USERR1
 40
0.0
  9
$USERR2
 40
0.0
  9
$USERR3
 40
0.0
  9
$USERR4
 40
0.0
  9
$USERR5
 40
0.0
  9
$WORLDVIEW
 70
     1
  9
$SHADEDGE
 70
     3
  9
$SHADEDIF
 70
    70
  9
$TILEMODE
 70
     1
  9
$MAXACTVP
 70
    16
  9
$PINSBASE
 10
0.0
 20
0.0
 30
0.0
  9
$PLIMCHECK
 70
     0
  9
$PEXTMIN
 10
1.000000E+20
 20
1.000000E+20
 30
1.000000E+20
  9
$PEXTMAX
 10
-1.000000E+20
 20
-1.000000E+20
 30
-1.000000E+20
  9
$PLIMMIN
 10
0.0
 20
0.0
  9
$PLIMMAX
 10
12.0
 20
9.0
  9
$UNITMODE
 70
     0
  9
$VISRETAIN
 70
     0
  9
$PLINEGEN
 70
     1
  9
$PSLTSCALE
 70
     0
  9
$TREEDEPTH
 70
  3020
  9
$PICKSTYLE
 70
     1
  9
$CMLSTYLE
  2
STANDARD
  9
$CMLJUST
 70
     0
  9
$CMLSCALE
 40
1.0
  9
$SAVEIMAGES
 70
     0
  0
ENDSEC
  0
SECTION
  2
CLASSES
  0
CLASS
  1
LWPOLYLINE
  2
AcDbPolyline
  3
"AutoCAD"
 90
    32768
280
     0
281
     1
  0
CLASS
  1
IMAGE
  2
AcDbRasterImage
  3
ISM
 90
    32895
280
     0
281
     1
  0
CLASS
  1
OLE2FRAME
  2
AcDbOle2Frame
  3
""
 90
    32768
280
     0
281
     1
  0
CLASS
  1
HATCH
  2
AcDbHatch
  3
"ACAD_SEDONA"
 90
    32768
280
     0
281
     1
  0
CLASS
  1
DICTIONARYVAR
  2
AcDbDictionaryVar
  3
"AutoCAD"
 90
    32768
280
     0
281
     0
  0
CLASS
  1
RASTERVARIABLES
  2
AcDbRasterVariables
  3
ISM
 90
    32768
280
     0
281
     0
  0
CLASS
  1
IMAGEDEF
  2
AcDbRasterImageDef
  3
ISM
 90
    32768
280
     0
281
     0
  0
CLASS
  1
IMAGEDEF_REACTOR
  2
AcDbRasterImageDefReactor
  3
ISM
 90
    32769
280
     0
281
     0
  0
CLASS
  1
SPATIAL_FILTER
  2
AcDbSpatialFilter
  3
"Acad"
 90
    32768
280
     0
281
     0
  0
CLASS
  1
XRECORD
  2
AcDbXrecord
  3
"<Built In>"
 90
    32768
280
     0
281
     0
  0
CLASS
  1
SORTENTSTABLE
  2
AcDbSortentsTable
  3
"AutoCAD"
 90
    32768
280
     0
281
     0
  0
CLASS
  1
LAYER_INDEX
  2
AcDbLayerIndex
  3
"Acad"
 90
    32768
280
     0
281
     0
  0
CLASS
  1
SPATIAL_INDEX
  2
AcDbSpatialIndex
  3
"Acad"
 90
    32768
280
     0
281
     0
  0
CLASS
  1
OBJECT_PTR
  2
CAseDLPNTableRecord
  3
"ASE-LPNTableRecord"
 90
    32769
280
     0
281
     0
  0
CLASS
  1
LAYOUT
  2
AcDbLayout
  3
AutoCAD 2000
 90
    32768
280
     0
281
     0
  0
CLASS
  1
PLOTSETTINGS
  2
AcDbPlotSettings
  3
AutoCAD 2000
 90
    32768
280
     0
281
     0
  0
CLASS
  1
ACDBDICTIONARYWDFLT
  2
AcDbDictionaryWithDefault
  3
AutoCAD 2000
 90
    32768
280
     0
281
     0
  0
CLASS
  1
ACDBPLACEHOLDER
  2
AcDbPlaceHolder
  3
AutoCAD 2000
 90
    32768
280
     0
281
     0
  0
CLASS
  1
VBA_PROJECT
  2
AcDbVbaProject
  3
acad
 90
    32768
280
     0
281
     0
  0
CLASS
  1
WIPEOUT
  2
AcDbWipeout
  3
"WipeOut|Product Desc: Object Enabler for WipeOut entity^I^I^I^I^I^I|Company: Autodesk, Inc.^I^I^I^I^I^I|WEB Address: www.autodesk.com"
 90
    32895
280
     0
281
     1
  0
CLASS
  1
WIPEOUTVARIABLES
  2
AcDbWipeoutVariables
  3
"WipeOut|Product Desc:     WipeOut Dbx Application|Company:          Autodesk, Inc.|WEB Address:      www.autodesk.com"
 90
    32768
280
     0
281
     0
  0
CLASS
  1
RTEXT
  2
RText
  3
RText|AutoCAD Express Tool|expresstools@autodesk.com
 90
    32768
280
     0
281
     1
  0
CLASS
  1
ARCALIGNEDTEXT
  2
AcDbArcAlignedText
  3
ATEXT|AutoCAD Express Tool|expresstools@autodesk.com
 90
    32768
280
     0
281
     1
  0
CLASS
  1
TABLESTYLE
  2
AcDbTableStyle
  3
ObjectDBX Classes
 90
    34815
280
     0
281
     0
  0
CLASS
  1
ACAD_PROXY_OBJECT_WRAPPER
  2
AcDbProxyObjectWrapper
  3
AutoCAD 2000
 90
    32768
280
     0
281
     0
  0
CLASS
  1
LONG_TRANSACTION
  2
AcDbLongTransaction
  3
AutoCAD 2000
 90
    32768
280
     0
281
     0
  0
CLASS
  1
LWPOLYLINE
  2
AcDbPolyline
  3
"AutoCAD"
 90
    32768
280
     0
281
     1
  0
CLASS
  1
HATCH
  2
AcDbHatch
  3
"ACAD_SEDONA"
 90
    32768
280
     0
281
     1
  0
CLASS
  1
XRECORD
  2
AcDbXrecord
  3
"<Built In>"
 90
    32768
280
     0
281
     0
  0
ENDSEC
  0
SECTION
  2
TABLES
  0
TABLE
  2
VPORT
  5
7
100
AcDbSymbolTable
 70
     2
  0
VPORT
  5
2F46
100
AcDbSymbolTableRecord
100
AcDbViewportTableRecord
  2
*ACTIVE
 70
     0
 10
0.0
 20
0.0
 11
1.0
 21
1.0
 12
97.070457
 22
82.725784
 13
0.0
 23
0.0
 14
1.0
 24
1.0
 15
0.0
 25
0.0
 16
0.0
 26
0.0
 36
1.0
 17
0.0
 27
0.0
 37
0.0
 40
155.610884
 41
1.673611
 42
50.0
 43
0.0
 44
0.0
 50
0.0
 51
0.0
 71
     0
 72
   100
 73
     1
 74
     2
 75
     0
 76
     0
 77
     0
 78
     0
  0
ENDTAB
  0
TABLE
  2
LTYPE
  5
4
100
AcDbSymbolTable
 70
     3
  0
LTYPE
  5
11
102
{ACAD_XDICTIONARY
360
2EF5
102
}
100
AcDbSymbolTableRecord
100
AcDbLinetypeTableRecord
  2
BYBLOCK
 70
     0
  3

 72
    65
 73
     0
 40
0.0
  0
LTYPE
  5
12
102
{ACAD_XDICTIONARY
360
2EF7
102
}
100
AcDbSymbolTableRecord
100
AcDbLinetypeTableRecord
  2
BYLAYER
 70
     0
  3

 72
    65
 73
     0
 40
0.0
  0
LTYPE
  5
13
102
{ACAD_XDICTIONARY
360
2EF9
102
}
100
AcDbSymbolTableRecord
100
AcDbLinetypeTableRecord
  2
CONTINUOUS
 70
     0
  3
Solid line
 72
    65
 73
     0
 40
0.0
  0
LTYPE
  5
725
100
AcDbSymbolTableRecord
100
AcDbLinetypeTableRecord
  2
AXES2
 70
     0
  3
___ _ ___ _ ___ _ ___ _ ___ _ ___ _ ___ _ ___ _
 72
    65
 73
     4
 40
1.125
 49
0.75
 74
     0
 49
-0.125
 74
     0
 49
0.125
 74
     0
 49
-0.125
 74
     0
  0
LTYPE
  5
726
100
AcDbSymbolTableRecord
100
AcDbLinetypeTableRecord
  2
CACHE2
 70
     0
  3
Caché (x.5) _ _ _ _ _ _ _ _ _ _ _ _ _ _ _ _ _
 72
    65
 73
     2
 40
0.1875
 49
0.125
 74
     0
 49
-0.0625
 74
     0
  0
ENDTAB
  0
TABLE
  2
LAYER
  5
2
100
AcDbSymbolTable
 70
     6
  0
LAYER
  5
14
100
AcDbSymbolTableRecord
100
AcDbLayerTableRecord
  2
0
 70
     0
 62
     7
  6
CONTINUOUS
  0
LAYER
  5
6EC
102
{ACAD_XDICTIONARY
360
2EF3
102
}
100
AcDbSymbolTableRecord
100
AcDbLayerTableRecord
  2
DEFPOINTS
 70
     0
 62
     7
  6
CONTINUOUS
  0
LAYER
  5
727
100
AcDbSymbolTableRecord
100
AcDbLayerTableRecord
  2
COTATION1
 70
     0
 62
     2
  6
CONTINUOUS
  0
LAYER
  5
728
100
AcDbSymbolTableRecord
100
AcDbLayerTableRecord
  2
AXE
 70
     0
 62
    80
  6
AXES2
  0
LAYER
  5
729
100
AcDbSymbolTableRecord
100
AcDbLayerTableRecord
  2
ALPHA
 70
     0
 62
   254
  6
CONTINUOUS
  0
LAYER
  5
72A
100
AcDbSymbolTableRecord
100
AcDbLayerTableRecord
  2
POINTILLE_COURT
 70
     0
 62
    41
  6
CACHE2
  0
ENDTAB
  0
TABLE
  2
STYLE
  5
3
100
AcDbSymbolTable
 70
     2
  0
STYLE
  5
17
102
{ACAD_XDICTIONARY
360
2EFB
102
}
100
AcDbSymbolTableRecord
100
AcDbTextStyleTableRecord
  2
STANDARD
 70
     0
 40
0.0
 41
1.0
 50
0.0
 71
     0
 42
0.0
  3
txt
  4

  0
STYLE
  5
72B
100
AcDbSymbolTableRecord
100
AcDbTextStyleTableRecord
  2
ROMANS
 70
     0
 40
0.0
 41
1.0
 50
0.0
 71
     0
 42
6.0
  3
romans
  4

  0
ENDTAB
  0
TABLE
  2
VIEW
  5
5
100
AcDbSymbolTable
 70
     0
  0
ENDTAB
  0
TABLE
  2
UCS
  5
6
100
AcDbSymbolTable
 70
     0
  0
ENDTAB
  0
TABLE
  2
APPID
  5
8
100
AcDbSymbolTable
 70
     1
  0
APPID
  5
16
100
AcDbSymbolTableRecord
100
AcDbRegAppTableRecord
  2
ACAD
 70
     0
  0
ENDTAB
  0
TABLE
  2
DIMSTYLE
  5
9
100
AcDbSymbolTable
 70
     2
  0
DIMSTYLE
105
18
102
{ACAD_XDICTIONARY
360
2EF1
102
}
100
AcDbSymbolTableRecord
100
AcDbDimStyleTableRecord
  2
STANDARD
 70
     0
  3

  4

  5

  6

  7

 40
1.0
 41
0.18
 42
0.0625
 43
0.38
 44
0.18
 45
0.0
 46
0.0
 47
0.0
 48
0.0
140
0.18
141
0.09
142
0.0
143
25.4
144
1.0
145
0.0
146
1.0
147
0.09
 71
     0
 72
     0
 73
     1
 74
     1
 75
     0
 76
     0
 77
     0
 78
     0
170
     0
171
     2
172
     0
173
     0
174
     0
175
     0
176
     0
177
     0
178
     0
270
     2
271
     4
272
     4
273
     2
274
     2
340
17
275
     0
280
     0
281
     0
282
     0
283
     1
284
     0
285
     0
286
     0
287
     3
288
     0
  0
DIMSTYLE
105
72C
102
{ACAD_XDICTIONARY
360
2F2B
102
}
102
{ACAD_REACTORS
330
25C9
330
2661
330
2679
330
267B
330
2A3D
102
}
100
AcDbSymbolTableRecord
100
AcDbDimStyleTableRecord
  2
SC_DEFAUT
 70
     0
  3

  4

  5
OPEN30
  6

  7

 40
1.0
 41
5.0
 42
2.0
 43
0.38
 44
2.5
 45
0.0
 46
0.0
 47
0.0
 48
0.0
140
2.5
141
0.0
142
0.0
143
25.4
144
1.0
145
0.0
146
1.0
147
2.0
 71
     0
 72
     0
 73
     1
 74
     1
 75
     0
 76
     0
 77
     1
 78
    12
170
     0
171
     2
172
     0
173
     0
174
     0
175
     0
176
     0
177
     0
178
     0
270
     2
271
     1
272
     1
273
     2
274
     2
340
72B
275
     0
280
     0
281
     0
282
     0
283
     1
284
    12
285
    12
286
    12
287
     5
288
     0
  0
ENDTAB
  0
TABLE
  2
BLOCK_RECORD
  5
1
100
AcDbSymbolTable
 70
     6
  0
BLOCK_RECORD
  5
A
102
{ACAD_XDICTIONARY
360
7D7
102
}
100
AcDbSymbolTableRecord
100
AcDbBlockTableRecord
  2
*MODEL_SPACE
  0
BLOCK_RECORD
  5
B
102
{ACAD_XDICTIONARY
360
2F21
102
}
100
AcDbSymbolTableRecord
100
AcDbBlockTableRecord
  2
*PAPER_SPACE
  0
BLOCK_RECORD
  5
6FA
100
AcDbSymbolTableRecord
100
AcDbBlockTableRecord
  2
_OPEN30
  0
BLOCK_RECORD
  5
25D9
100
AcDbSymbolTableRecord
100
AcDbBlockTableRecord
  2
*D1
  0
BLOCK_RECORD
  5
2662
100
AcDbSymbolTableRecord
100
AcDbBlockTableRecord
  2
*D2
  0
BLOCK_RECORD
  5
267C
100
AcDbSymbolTableRecord
100
AcDbBlockTableRecord
  2
*D3
  0
BLOCK_RECORD
  5
2695
100
AcDbSymbolTableRecord
100
AcDbBlockTableRecord
  2
*D4
  0
BLOCK_RECORD
  5
2A3E
100
AcDbSymbolTableRecord
100
AcDbBlockTableRecord
  2
*D5
  0
ENDTAB
  0
ENDSEC
  0
SECTION
  2
BLOCKS
  0
BLOCK
  5
D
100
AcDbEntity
  8
0
100
AcDbBlockBegin
  2
*MODEL_SPACE
 70
     0
 10
0.0
 20
0.0
 30
0.0
  3
*MODEL_SPACE
  1

  0
ENDBLK
  5
E
100
AcDbEntity
  8
0
100
AcDbBlockEnd
  0
BLOCK
  5
F
100
AcDbEntity
 67
     1
  8
0
100
AcDbBlockBegin
  2
*PAPER_SPACE
 70
     0
 10
0.0
 20
0.0
 30
0.0
  3
*PAPER_SPACE
  1

  0
ENDBLK
  5
10
100
AcDbEntity
 67
     1
  8
0
100
AcDbBlockEnd
  0
BLOCK
  5
6FB
100
AcDbEntity
  8
0
100
AcDbBlockBegin
  2
_OPEN30
 70
     0
 10
0.0
 20
0.0
 30
0.0
  3
_OPEN30
  1

  0
LINE
  5
6FC
100
AcDbEntity
  8
COTATION1
 62
     0
100
AcDbLine
 10
-1.0
 20
0.267949
 30
0.0
 11
0.0
 21
0.0
 31
0.0
1001
ACAD
1000
RTLwPs
1070
   158
  0
LINE
  5
6FD
100
AcDbEntity
  8
COTATION1
 62
     0
100
AcDbLine
 10
0.0
 20
0.0
 30
0.0
 11
-1.0
 21
-0.267949
 31
0.0
1001
ACAD
1000
RTLwPs
1070
   158
  0
LINE
  5
6FE
100
AcDbEntity
  8
COTATION1
 62
     0
100
AcDbLine
 10
0.0
 20
0.0
 30
0.0
 11
-1.0
 21
0.0
 31
0.0
1001
ACAD
1000
RTLwPs
1070
   158
  0
ENDBLK
  5
6FF
100
AcDbEntity
  8
0
100
AcDbBlockEnd
  0
BLOCK
  5
25E4
100
AcDbEntity
  8
0
100
AcDbBlockBegin
  2
*D1
 70
     1
 10
0.0
 20
0.0
 30
0.0
  3
*D1
  1

1001
ACAD
1000
RTLwPs
1070
   128
  0
LINE
  5
2ED4
100
AcDbEntity
  8
COTATION1
 62
     0
100
AcDbLine
 10
180.454995
 20
133.725784
 30
0.0
 11
207.185918
 21
133.725784
 31
0.0
1001
ACAD
1000
RTLwPs
1070
   158
  0
LINE
  5
2ED5
100
AcDbEntity
  8
COTATION1
 62
     0
100
AcDbLine
 10
180.454995
 20
45.725784
 30
0.0
 11
207.185918
 21
45.725784
 31
0.0
1001
ACAD
1000
RTLwPs
1070
   158
  0
LINE
  5
2ED6
100
AcDbEntity
  8
COTATION1
 62
     0
100
AcDbLine
 10
204.685918
 20
128.725784
 30
0.0
 11
204.685918
 21
92.975784
 31
0.0
1001
ACAD
1000
RTLwPs
1070
   158
  0
LINE
  5
2ED7
100
AcDbEntity
  8
COTATION1
 62
     0
100
AcDbLine
 10
204.685918
 20
50.725784
 30
0.0
 11
204.685918
 21
86.475784
 31
0.0
1001
ACAD
1000
RTLwPs
1070
   158
  0
INSERT
  5
2ED8
100
AcDbEntity
  8
COTATION1
 62
     0
100
AcDbBlockReference
  2
_OPEN30
 10
204.685918
 20
133.725784
 30
0.0
 41
5.0
 42
5.0
 43
5.0
 50
90.0
1001
ACAD
1000
RTLwPs
1070
   158
  0
INSERT
  5
2ED9
100
AcDbEntity
  8
COTATION1
 62
     0
100
AcDbBlockReference
  2
_OPEN30
 10
204.685918
 20
45.725784
 30
0.0
 41
5.0
 42
5.0
 43
5.0
 50
270.0
1001
ACAD
1000
RTLwPs
1070
   158
  0
MTEXT
  5
2EDA
100
AcDbEntity
  8
COTATION1
 62
     0
100
AcDbMText
 10
204.685918
 20
89.725784
 30
0.0
 40
2.5
 41
0.0
 71
     5
 72
     1
  1
\A1;88
  7
ROMANS
1001
ACAD
1000
MTEXTBEGIN
1070
    73
1070
     1
1070
    44
1040
1.0
1070
    74
1070
     0
1000
MTEXTEND
  0
POINT
  5
2EDB
100
AcDbEntity
  8
DEFPOINTS
 62
     0
100
AcDbPoint
 10
178.454995
 20
133.725784
 30
0.0
1001
ACAD
1000
RTLwPs
1070
   128
  0
POINT
  5
2EDC
100
AcDbEntity
  8
DEFPOINTS
 62
     0
100
AcDbPoint
 10
178.454995
 20
45.725784
 30
0.0
1001
ACAD
1000
RTLwPs
1070
   128
  0
POINT
  5
2EDD
100
AcDbEntity
  8
DEFPOINTS
 62
     0
100
AcDbPoint
 10
204.685918
 20
45.725784
 30
0.0
1001
ACAD
1000
RTLwPs
1070
   128
  0
ENDBLK
  5
25E5
100
AcDbEntity
  8
0
100
AcDbBlockEnd
1001
ACAD
1000
RTLwPs
1070
   128
  0
BLOCK
  5
266D
100
AcDbEntity
  8
0
100
AcDbBlockBegin
  2
*D2
 70
     1
 10
0.0
 20
0.0
 30
0.0
  3
*D2
  1

1001
ACAD
1000
RTLwPs
1070
   128
  0
LINE
  5
28E8
100
AcDbEntity
  8
COTATION1
 62
     0
100
AcDbLine
 10
39.454995
 20
28.725784
 30
0.0
 11
39.454995
 21
19.831278
 31
0.0
1001
ACAD
1000
RTLwPs
1070
   158
  0
LINE
  5
28E9
100
AcDbEntity
  8
COTATION1
 62
     0
100
AcDbLine
 10
44.954995
 20
28.725784
 30
0.0
 11
44.954995
 21
19.831278
 31
0.0
1001
ACAD
1000
RTLwPs
1070
   158
  0
LINE
  5
28EA
100
AcDbEntity
  8
COTATION1
 62
     0
100
AcDbLine
 10
34.454995
 20
22.331278
 30
0.0
 11
29.454995
 21
22.331278
 31
0.0
1001
ACAD
1000
RTLwPs
1070
   158
  0
LINE
  5
28EB
100
AcDbEntity
  8
COTATION1
 62
     0
100
AcDbLine
 10
49.954995
 20
22.331278
 30
0.0
 11
54.954995
 21
22.331278
 31
0.0
1001
ACAD
1000
RTLwPs
1070
   158
  0
MTEXT
  5
28EC
100
AcDbEntity
  8
COTATION1
 62
     0
100
AcDbMText
 10
59.34165
 20
26.25309
 30
0.0
 40
2.5
 41
0.0
 71
     5
 72
     1
  1
\A1;0.5...5.5
  7
ROMANS
1001
ACAD
1000
MTEXTBEGIN
1070
    73
1070
     1
1070
    44
1040
1.0
1070
    74
1070
     0
1000
MTEXTEND
  0
INSERT
  5
28ED
100
AcDbEntity
  8
COTATION1
 62
     0
100
AcDbBlockReference
  2
_OPEN30
 10
39.454995
 20
22.331278
 30
0.0
 41
5.0
 42
5.0
 43
5.0
1001
ACAD
1000
RTLwPs
1070
   158
  0
INSERT
  5
28EE
100
AcDbEntity
  8
COTATION1
 62
     0
100
AcDbBlockReference
  2
_OPEN30
 10
44.954995
 20
22.331278
 30
0.0
 41
5.0
 42
5.0
 43
5.0
 50
180.0
1001
ACAD
1000
RTLwPs
1070
   158
  0
POINT
  5
28EF
100
AcDbEntity
  8
DEFPOINTS
 62
     0
100
AcDbPoint
 10
39.454995
 20
30.725784
 30
0.0
1001
ACAD
1000
RTLwPs
1070
   128
  0
POINT
  5
28F0
100
AcDbEntity
  8
DEFPOINTS
 62
     0
100
AcDbPoint
 10
44.954995
 20
30.725784
 30
0.0
1001
ACAD
1000
RTLwPs
1070
   128
  0
POINT
  5
28F1
100
AcDbEntity
  8
DEFPOINTS
 62
     0
100
AcDbPoint
 10
44.954995
 20
22.331278
 30
0.0
1001
ACAD
1000
RTLwPs
1070
   128
  0
ENDBLK
  5
266E
100
AcDbEntity
  8
0
100
AcDbBlockEnd
1001
ACAD
1000
RTLwPs
1070
   128
  0
BLOCK
  5
2686
100
AcDbEntity
  8
0
100
AcDbBlockBegin
  2
*D3
 70
     1
 10
0.0
 20
0.0
 30
0.0
  3
*D3
  1

1001
ACAD
1000
RTLwPs
1070
   128
  0
LINE
  5
28F2
100
AcDbEntity
  8
COTATION1
 62
     0
100
AcDbLine
 10
38.454995
 20
135.725784
 30
0.0
 11
38.454995
 21
157.725784
 31
0.0
1001
ACAD
1000
RTLwPs
1070
   158
  0
LINE
  5
28F3
100
AcDbEntity
  8
COTATION1
 62
     0
100
AcDbLine
 10
4.454995
 20
105.639602
 30
0.0
 11
4.454995
 21
157.725784
 31
0.0
1001
ACAD
1000
RTLwPs
1070
   158
  0
LINE
  5
28F4
100
AcDbEntity
  8
COTATION1
 62
     0
100
AcDbLine
 10
33.454995
 20
155.225784
 30
0.0
 11
9.454995
 21
155.225784
 31
0.0
1001
ACAD
1000
RTLwPs
1070
   158
  0
INSERT
  5
28F5
100
AcDbEntity
  8
COTATION1
 62
     0
100
AcDbBlockReference
  2
_OPEN30
 10
38.454995
 20
155.225784
 30
0.0
 41
5.0
 42
5.0
 43
5.0
1001
ACAD
1000
RTLwPs
1070
   158
  0
INSERT
  5
28F6
100
AcDbEntity
  8
COTATION1
 62
     0
100
AcDbBlockReference
  2
_OPEN30
 10
4.454995
 20
155.225784
 30
0.0
 41
5.0
 42
5.0
 43
5.0
 50
180.0
1001
ACAD
1000
RTLwPs
1070
   158
  0
MTEXT
  5
28F7
100
AcDbEntity
  8
COTATION1
 62
     0
100
AcDbMText
 10
21.454995
 20
158.475784
 30
0.0
 40
2.5
 41
0.0
 71
     5
 72
     1
  1
\A1;34
  7
ROMANS
1001
ACAD
1000
MTEXTBEGIN
1070
    73
1070
     1
1070
    44
1040
1.0
1070
    74
1070
     0
1000
MTEXTEND
  0
POINT
  5
28F8
100
AcDbEntity
  8
DEFPOINTS
 62
     0
100
AcDbPoint
 10
38.454995
 20
133.725784
 30
0.0
1001
ACAD
1000
RTLwPs
1070
   128
  0
POINT
  5
28F9
100
AcDbEntity
  8
DEFPOINTS
 62
     0
100
AcDbPoint
 10
4.454995
 20
103.639602
 30
0.0
1001
ACAD
1000
RTLwPs
1070
   128
  0
POINT
  5
28FA
100
AcDbEntity
  8
DEFPOINTS
 62
     0
100
AcDbPoint
 10
4.454995
 20
155.225784
 30
0.0
1001
ACAD
1000
RTLwPs
1070
   128
  0
ENDBLK
  5
2687
100
AcDbEntity
  8
0
100
AcDbBlockEnd
1001
ACAD
1000
RTLwPs
1070
   128
  0
BLOCK
  5
269F
100
AcDbEntity
  8
0
100
AcDbBlockBegin
  2
*D4
 70
     1
 10
0.0
 20
0.0
 30
0.0
  3
*D4
  1

1001
ACAD
1000
RTLwPs
1070
   128
  0
LINE
  5
2ECB
100
AcDbEntity
  8
COTATION1
 62
     0
100
AcDbLine
 10
45.954995
 20
135.725784
 30
0.0
 11
45.954995
 21
157.725784
 31
0.0
1001
ACAD
1000
RTLwPs
1070
   158
  0
LINE
  5
2ECC
100
AcDbEntity
  8
COTATION1
 62
     0
100
AcDbLine
 10
178.454995
 20
135.725784
 30
0.0
 11
178.454995
 21
157.725784
 31
0.0
1001
ACAD
1000
RTLwPs
1070
   158
  0
LINE
  5
2ECD
100
AcDbEntity
  8
COTATION1
 62
     0
100
AcDbLine
 10
50.954995
 20
155.225784
 30
0.0
 11
173.454995
 21
155.225784
 31
0.0
1001
ACAD
1000
RTLwPs
1070
   158
  0
INSERT
  5
2ECE
100
AcDbEntity
  8
COTATION1
 62
     0
100
AcDbBlockReference
  2
_OPEN30
 10
45.954995
 20
155.225784
 30
0.0
 41
5.0
 42
5.0
 43
5.0
 50
180.0
1001
ACAD
1000
RTLwPs
1070
   158
  0
INSERT
  5
2ECF
100
AcDbEntity
  8
COTATION1
 62
     0
100
AcDbBlockReference
  2
_OPEN30
 10
178.454995
 20
155.225784
 30
0.0
 41
5.0
 42
5.0
 43
5.0
1001
ACAD
1000
RTLwPs
1070
   158
  0
MTEXT
  5
2ED0
100
AcDbEntity
  8
COTATION1
 62
     0
100
AcDbMText
 10
112.204995
 20
158.475784
 30
0.0
 40
2.5
 41
0.0
 71
     5
 72
     1
  1
\A1;132.5
  7
ROMANS
1001
ACAD
1000
MTEXTBEGIN
1070
    73
1070
     1
1070
    44
1040
1.0
1070
    74
1070
     0
1000
MTEXTEND
  0
POINT
  5
2ED1
100
AcDbEntity
  8
DEFPOINTS
 62
     0
100
AcDbPoint
 10
45.954995
 20
133.725784
 30
0.0
1001
ACAD
1000
RTLwPs
1070
   128
  0
POINT
  5
2ED2
100
AcDbEntity
  8
DEFPOINTS
 62
     0
100
AcDbPoint
 10
178.454995
 20
133.725784
 30
0.0
1001
ACAD
1000
RTLwPs
1070
   128
  0
POINT
  5
2ED3
100
AcDbEntity
  8
DEFPOINTS
 62
     0
100
AcDbPoint
 10
178.454995
 20
155.225784
 30
0.0
1001
ACAD
1000
RTLwPs
1070
   128
  0
ENDBLK
  5
26A0
100
AcDbEntity
  8
0
100
AcDbBlockEnd
1001
ACAD
1000
RTLwPs
1070
   128
  0
BLOCK
  5
2A49
100
AcDbEntity
  8
0
100
AcDbBlockBegin
  2
*D5
 70
     1
 10
0.0
 20
0.0
 30
0.0
  3
*D5
  1

1001
ACAD
1000
RTLwPs
1070
   128
  0
LINE
  5
2A5F
100
AcDbEntity
  8
COTATION1
 62
     0
100
AcDbLine
 10
30.454995
 20
133.725784
 30
0.0
 11
-13.045005
 21
133.725784
 31
0.0
1001
ACAD
1000
RTLwPs
1070
   158
  0
LINE
  5
2A60
100
AcDbEntity
  8
COTATION1
 62
     0
100
AcDbLine
 10
30.454995
 20
45.725784
 30
0.0
 11
-13.045005
 21
45.725784
 31
0.0
1001
ACAD
1000
RTLwPs
1070
   158
  0
LINE
  5
2A61
100
AcDbEntity
  8
COTATION1
 62
     0
100
AcDbLine
 10
-10.545005
 20
128.725784
 30
0.0
 11
-10.545005
 21
92.975784
 31
0.0
1001
ACAD
1000
RTLwPs
1070
   158
  0
LINE
  5
2A62
100
AcDbEntity
  8
COTATION1
 62
     0
100
AcDbLine
 10
-10.545005
 20
50.725784
 30
0.0
 11
-10.545005
 21
86.475784
 31
0.0
1001
ACAD
1000
RTLwPs
1070
   158
  0
INSERT
  5
2A63
100
AcDbEntity
  8
COTATION1
 62
     0
100
AcDbBlockReference
  2
_OPEN30
 10
-10.545005
 20
133.725784
 30
0.0
 41
5.0
 42
5.0
 43
5.0
 50
90.0
1001
ACAD
1000
RTLwPs
1070
   158
  0
INSERT
  5
2A64
100
AcDbEntity
  8
COTATION1
 62
     0
100
AcDbBlockReference
  2
_OPEN30
 10
-10.545005
 20
45.725784
 30
0.0
 41
5.0
 42
5.0
 43
5.0
 50
270.0
1001
ACAD
1000
RTLwPs
1070
   158
  0
MTEXT
  5
2A65
100
AcDbEntity
  8
COTATION1
 62
     0
100
AcDbMText
 10
-10.545005
 20
89.725784
 30
0.0
 40
2.5
 41
0.0
 71
     5
 72
     1
  1
\A1;88
  7
ROMANS
1001
ACAD
1000
MTEXTBEGIN
1070
    73
1070
     1
1070
    44
1040
1.0
1070
    74
1070
     0
1000
MTEXTEND
  0
POINT
  5
2A66
100
AcDbEntity
  8
DEFPOINTS
 62
     0
100
AcDbPoint
 10
32.454995
 20
133.725784
 30
0.0
1001
ACAD
1000
RTLwPs
1070
   128
  0
POINT
  5
2A67
100
AcDbEntity
  8
DEFPOINTS
 62
     0
100
AcDbPoint
 10
32.454995
 20
45.725784
 30
0.0
1001
ACAD
1000
RTLwPs
1070
   128
  0
POINT
  5
2A68
100
AcDbEntity
  8
DEFPOINTS
 62
     0
100
AcDbPoint
 10
-10.545005
 20
45.725784
 30
0.0
1001
ACAD
1000
RTLwPs
1070
   128
  0
ENDBLK
  5
2A4A
100
AcDbEntity
  8
0
100
AcDbBlockEnd
1001
ACAD
1000
RTLwPs
1070
   128
  0
ENDSEC
  0
SECTION
  2
ENTITIES
  0
LINE
  5
259F
100
AcDbEntity
  8
ALPHA
  6
CONTINUOUS
100
AcDbLine
 10
38.454995
 20
133.725784
 30
0.0
 11
32.454995
 21
133.725784
 31
0.0
1001
ACAD
1000
RTLwPs
1070
   128
  0
LINE
  5
25A0
100
AcDbEntity
  8
ALPHA
  6
CONTINUOUS
100
AcDbLine
 10
38.454995
 20
45.725784
 30
0.0
 11
32.454995
 21
45.725784
 31
0.0
1001
ACAD
1000
RTLwPs
1070
   128
  0
LINE
  5
25A1
100
AcDbEntity
  8
ALPHA
  6
CONTINUOUS
100
AcDbLine
 10
32.454995
 20
133.725784
 30
0.0
 11
32.454995
 21
45.725784
 31
0.0
1001
ACAD
1000
RTLwPs
1070
   128
  0
LINE
  5
25A2
100
AcDbEntity
  8
ALPHA
  6
CONTINUOUS
100
AcDbLine
 10
24.454995
 20
114.725784
 30
0.0
 11
4.454995
 21
103.639602
 31
0.0
1001
ACAD
1000
RTLwPs
1070
   128
  0
LINE
  5
25A3
100
AcDbEntity
  8
ALPHA
  6
CONTINUOUS
100
AcDbLine
 10
25.954995
 20
114.725784
 30
0.0
 11
25.954995
 21
64.725784
 31
0.0
1001
ACAD
1000
RTLwPs
1070
   128
  0
LINE
  5
25A4
100
AcDbEntity
  8
ALPHA
  6
CONTINUOUS
100
AcDbLine
 10
38.454995
 20
133.725784
 30
0.0
 11
38.454995
 21
45.725784
 31
0.0
1001
ACAD
1000
RTLwPs
1070
   128
  0
LINE
  5
25A5
100
AcDbEntity
  8
ALPHA
  6
CONTINUOUS
100
AcDbLine
 10
45.954995
 20
133.725784
 30
0.0
 11
45.954995
 21
45.725784
 31
0.0
1001
ACAD
1000
RTLwPs
1070
   128
  0
LINE
  5
25A9
100
AcDbEntity
  8
ALPHA
  6
CONTINUOUS
100
AcDbLine
 10
49.454995
 20
133.725784
 30
0.0
 11
49.454995
 21
89.725784
 31
0.0
1001
ACAD
1000
RTLwPs
1070
   128
  0
LINE
  5
25AA
100
AcDbEntity
  8
ALPHA
  6
CONTINUOUS
100
AcDbLine
 10
51.954995
 20
122.225784
 30
0.0
 11
51.954995
 21
89.725784
 31
0.0
1001
ACAD
1000
RTLwPs
1070
   128
  0
LINE
  5
25AD
100
AcDbEntity
  8
ALPHA
  6
CONTINUOUS
100
AcDbLine
 10
4.454995
 20
103.639602
 30
0.0
 11
4.454995
 21
48.987833
 31
0.0
1001
ACAD
1000
RTLwPs
1070
   128
  0
LINE
  5
25AE
100
AcDbEntity
  8
ALPHA
  6
CONTINUOUS
100
AcDbLine
 10
22.954995
 20
64.725784
 30
0.0
 11
22.954995
 21
45.725784
 31
0.0
1001
ACAD
1000
RTLwPs
1070
   128
  0
LINE
  5
25B0
100
AcDbEntity
  8
ALPHA
  6
CONTINUOUS
100
AcDbLine
 10
61.954995
 20
122.225784
 30
0.0
 11
51.954995
 21
122.225784
 31
0.0
1001
ACAD
1000
RTLwPs
1070
   128
  0
LINE
  5
25B3
100
AcDbEntity
  8
ALPHA
  6
CONTINUOUS
100
AcDbLine
 10
45.954995
 20
84.725784
 30
0.0
 11
38.454995
 21
84.725784
 31
0.0
1001
ACAD
1000
RTLwPs
1070
   128
  0
LINE
  5
25B4
100
AcDbEntity
  8
ALPHA
  6
CONTINUOUS
100
AcDbLine
 10
22.954995
 20
45.725784
 30
0.0
 11
4.454995
 21
48.987833
 31
0.0
1001
ACAD
1000
RTLwPs
1070
   128
  0
LINE
  5
25B5
100
AcDbEntity
  8
ALPHA
  6
CONTINUOUS
100
AcDbLine
 10
32.454995
 20
114.725784
 30
0.0
 11
24.454995
 21
114.725784
 31
0.0
1001
ACAD
1000
RTLwPs
1070
   128
  0
LINE
  5
25B6
100
AcDbEntity
  8
ALPHA
  6
CONTINUOUS
100
AcDbLine
 10
32.454995
 20
64.725784
 30
0.0
 11
22.954995
 21
64.725784
 31
0.0
1001
ACAD
1000
RTLwPs
1070
   128
  0
LINE
  5
25B7
100
AcDbEntity
  8
AXE
100
AcDbLine
 10
42.204995
 20
5.725784
 30
0.0
 11
42.204995
 21
153.725784
 31
0.0
  0
TEXT
  5
25B8
100
AcDbEntity
  8
AXE
100
AcDbText
 10
34.728804
 20
5.725784
 30
0.0
 40
8.0
  1
Y
  7
ROMANS
 72
     2
 11
41.204995
 21
5.725784
 31
0.0
100
AcDbText
  0
LINE
  5
25B9
100
AcDbEntity
  8
ALPHA
  6
CONTINUOUS
100
AcDbLine
 10
45.954995
 20
94.725784
 30
0.0
 11
38.454995
 21
94.725784
 31
0.0
1001
ACAD
1000
RTLwPs
1070
   128
  0
LINE
  5
25BA
100
AcDbEntity
  8
ALPHA
  6
CONTINUOUS
100
AcDbLine
 10
49.454995
 20
133.725784
 30
0.0
 11
45.954995
 21
133.725784
 31
0.0
1001
ACAD
1000
RTLwPs
1070
   128
  0
LINE
  5
25BC
100
AcDbEntity
  8
ALPHA
  6
CONTINUOUS
100
AcDbLine
 10
51.954995
 20
122.225784
 30
0.0
 11
49.454995
 21
124.725784
 31
0.0
1001
ACAD
1000
RTLwPs
1070
   128
  0
LINE
  5
25BF
100
AcDbEntity
  8
ALPHA
  6
CONTINUOUS
100
AcDbLine
 10
49.454995
 20
45.725784
 30
0.0
 11
49.454995
 21
89.725784
 31
0.0
1001
ACAD
1000
RTLwPs
1070
   128
  0
LINE
  5
25C0
100
AcDbEntity
  8
ALPHA
  6
CONTINUOUS
100
AcDbLine
 10
51.954995
 20
57.225784
 30
0.0
 11
51.954995
 21
89.725784
 31
0.0
1001
ACAD
1000
RTLwPs
1070
   128
  0
LINE
  5
25C2
100
AcDbEntity
  8
ALPHA
  6
CONTINUOUS
100
AcDbLine
 10
61.954995
 20
57.225784
 30
0.0
 11
51.954995
 21
57.225784
 31
0.0
1001
ACAD
1000
RTLwPs
1070
   128
  0
LINE
  5
25C3
100
AcDbEntity
  8
ALPHA
  6
CONTINUOUS
100
AcDbLine
 10
49.454995
 20
45.725784
 30
0.0
 11
45.954995
 21
45.725784
 31
0.0
1001
ACAD
1000
RTLwPs
1070
   128
  0
LINE
  5
25C5
100
AcDbEntity
  8
ALPHA
  6
CONTINUOUS
100
AcDbLine
 10
51.954995
 20
57.225784
 30
0.0
 11
49.454995
 21
54.725784
 31
0.0
1001
ACAD
1000
RTLwPs
1070
   128
  0
DIMENSION
  5
25C9
100
AcDbEntity
  8
COTATION1
100
AcDbDimension
  2
*D1
 10
204.685918
 20
45.725784
 30
0.0
 11
204.685918
 21
89.725784
 31
0.0
 70
    32
  3
SC_DEFAUT
100
AcDbAlignedDimension
 13
178.454995
 23
133.725784
 33
0.0
 14
178.454995
 24
45.725784
 34
0.0
 50
90.0
100
AcDbRotatedDimension
  0
TEXT
  5
25CA
100
AcDbEntity
  8
AXE
100
AcDbText
 10
186.939123
 20
90.730053
 30
0.0
 40
8.0
  1
Z
  7
ROMANS
 72
     2
 11
193.415313
 21
90.730053
 31
0.0
100
AcDbText
  0
POLYLINE
  5
25CB
100
AcDbEntity
  8
POINTILLE_COURT
100
AcDb2dPolyline
 66
     1
 10
0.0
 20
0.0
 30
0.0
 70
   128
  0
VERTEX
  5
2F3C
100
AcDbEntity
  8
POINTILLE_COURT
100
AcDbVertex
100
AcDb2dVertex
 10
44.954995
 20
148.725784
 30
0.0
  0
VERTEX
  5
2F3D
100
AcDbEntity
  8
POINTILLE_COURT
100
AcDbVertex
100
AcDb2dVertex
 10
44.954995
 20
95.225784
 30
0.0
  0
VERTEX
  5
2F3E
100
AcDbEntity
  8
POINTILLE_COURT
100
AcDbVertex
100
AcDb2dVertex
 10
39.454995
 20
95.225784
 30
0.0
  0
VERTEX
  5
2F3F
100
AcDbEntity
  8
POINTILLE_COURT
100
AcDbVertex
100
AcDb2dVertex
 10
39.454995
 20
148.725784
 30
0.0
  0
SEQEND
  5
2F40
100
AcDbEntity
  8
POINTILLE_COURT
  0
LINE
  5
25CD
100
AcDbEntity
  8
AXE
100
AcDbLine
 10
193.454995
 20
89.725784
 30
0.0
 11
-0.545005
 21
89.725784
 31
0.0
  0
POLYLINE
  5
260A
100
AcDbEntity
  8
POINTILLE_COURT
100
AcDb2dPolyline
 66
     1
 10
0.0
 20
0.0
 30
0.0
 70
   128
  0
VERTEX
  5
2F41
100
AcDbEntity
  8
POINTILLE_COURT
100
AcDbVertex
100
AcDb2dVertex
 10
44.954995
 20
30.725784
 30
0.0
  0
VERTEX
  5
2F42
100
AcDbEntity
  8
POINTILLE_COURT
100
AcDbVertex
100
AcDb2dVertex
 10
44.954995
 20
84.225784
 30
0.0
  0
VERTEX
  5
2F43
100
AcDbEntity
  8
POINTILLE_COURT
100
AcDbVertex
100
AcDb2dVertex
 10
39.454995
 20
84.225784
 30
0.0
  0
VERTEX
  5
2F44
100
AcDbEntity
  8
POINTILLE_COURT
100
AcDbVertex
100
AcDb2dVertex
 10
39.454995
 20
30.725784
 30
0.0
  0
SEQEND
  5
2F45
100
AcDbEntity
  8
POINTILLE_COURT
  0
DIMENSION
  5
2661
100
AcDbEntity
  8
COTATION1
100
AcDbDimension
  2
*D2
 10
44.954995
 20
22.331278
 30
0.0
 11
59.34165
 21
26.25309
 31
0.0
 70
   160
  1
0.5...5.5
  3
SC_DEFAUT
100
AcDbAlignedDimension
 13
39.454995
 23
30.725784
 33
0.0
 14
44.954995
 24
30.725784
 34
0.0
100
AcDbRotatedDimension
  0
DIMENSION
  5
2679
100
AcDbEntity
  8
COTATION1
100
AcDbDimension
  2
*D3
 10
4.454995
 20
155.225784
 30
0.0
 11
21.454995
 21
158.475784
 31
0.0
 70
    32
  3
SC_DEFAUT
100
AcDbAlignedDimension
 13
38.454995
 23
133.725784
 33
0.0
 14
4.454995
 24
103.639602
 34
0.0
100
AcDbRotatedDimension
  0
DIMENSION
  5
267B
100
AcDbEntity
  8
COTATION1
100
AcDbDimension
  2
*D4
 10
178.454995
 20
155.225784
 30
0.0
 11
112.204995
 21
158.475784
 31
0.0
 70
    32
  1
<>
  3
SC_DEFAUT
100
AcDbAlignedDimension
 13
45.954995
 23
133.725784
 33
0.0
 14
178.454995
 24
133.725784
 34
0.0
100
AcDbRotatedDimension
  0
DIMENSION
  5
2A3D
100
AcDbEntity
  8
COTATION1
100
AcDbDimension
  2
*D5
 10
-10.545005
 20
45.725784
 30
0.0
 11
-10.545005
 21
89.725784
 31
0.0
 70
    32
  3
SC_DEFAUT
100
AcDbAlignedDimension
 13
32.454995
 23
133.725784
 33
0.0
 14
32.454995
 24
45.725784
 34
0.0
 50
90.0
100
AcDbRotatedDimension
  0
LINE
  5
2C4F
100
AcDbEntity
  8
ALPHA
  6
CONTINUOUS
100
AcDbLine
 10
178.454995
 20
45.725784
 30
0.0
 11
178.454995
 21
89.725784
 31
0.0
1001
ACAD
1000
RTLwPs
1070
   128
  0
LINE
  5
2DE6
100
AcDbEntity
  8
ALPHA
  6
CONTINUOUS
100
AcDbLine
 10
178.454995
 20
133.725784
 30
0.0
 11
178.454995
 21
89.725784
 31
0.0
1001
ACAD
1000
RTLwPs
1070
   128
  0
LINE
  5
2DE7
100
AcDbEntity
  8
ALPHA
  6
CONTINUOUS
100
AcDbLine
 10
174.454995
 20
124.725784
 30
0.0
 11
174.454995
 21
95.725784
 31
0.0
1001
ACAD
1000
RTLwPs
1070
   128
  0
LINE
  5
2DEA
100
AcDbEntity
  8
ALPHA
  6
CONTINUOUS
100
AcDbLine
 10
61.954995
 20
133.725784
 30
0.0
 11
61.954995
 21
89.725784
 31
0.0
1001
ACAD
1000
RTLwPs
1070
   128
  0
LINE
  5
2DEB
100
AcDbEntity
  8
ALPHA
  6
CONTINUOUS
100
AcDbLine
 10
65.954995
 20
124.725784
 30
0.0
 11
65.954995
 21
95.725784
 31
0.0
1001
ACAD
1000
RTLwPs
1070
   128
  0
LINE
  5
2DEE
100
AcDbEntity
  8
ALPHA
  6
CONTINUOUS
100
AcDbLine
 10
118.204995
 20
95.725784
 30
0.0
 11
65.954995
 21
95.725784
 31
0.0
1001
ACAD
1000
RTLwPs
1070
   128
  0
LINE
  5
2DF0
100
AcDbEntity
  8
ALPHA
  6
CONTINUOUS
100
AcDbLine
 10
174.454995
 20
124.725784
 30
0.0
 11
122.204995
 21
124.725784
 31
0.0
1001
ACAD
1000
RTLwPs
1070
   128
  0
LINE
  5
2DF1
100
AcDbEntity
  8
ALPHA
  6
CONTINUOUS
100
AcDbLine
 10
118.204995
 20
124.725784
 30
0.0
 11
65.954995
 21
124.725784
 31
0.0
1001
ACAD
1000
RTLwPs
1070
   128
  0
LINE
  5
2DFA
100
AcDbEntity
  8
ALPHA
  6
CONTINUOUS
100
AcDbLine
 10
178.454995
 20
133.725784
 30
0.0
 11
61.954995
 21
133.725784
 31
0.0
1001
ACAD
1000
RTLwPs
1070
   128
  0
LINE
  5
2DFD
100
AcDbEntity
  8
ALPHA
  6
CONTINUOUS
100
AcDbLine
 10
178.454995
 20
45.725784
 30
0.0
 11
178.454995
 21
89.725784
 31
0.0
1001
ACAD
1000
RTLwPs
1070
   128
  0
LINE
  5
2E00
100
AcDbEntity
  8
ALPHA
  6
CONTINUOUS
100
AcDbLine
 10
61.954995
 20
45.725784
 30
0.0
 11
61.954995
 21
89.725784
 31
0.0
1001
ACAD
1000
RTLwPs
1070
   128
  0
LINE
  5
2E03
100
AcDbEntity
  8
ALPHA
  6
CONTINUOUS
100
AcDbLine
 10
178.454995
 20
45.725784
 30
0.0
 11
61.954995
 21
45.725784
 31
0.0
1001
ACAD
1000
RTLwPs
1070
   128
  0
LINE
  5
2E05
100
AcDbEntity
  8
ALPHA
  6
CONTINUOUS
100
AcDbLine
 10
122.204995
 20
124.725784
 30
0.0
 11
122.204995
 21
95.725784
 31
0.0
1001
ACAD
1000
RTLwPs
1070
   128
  0
LINE
  5
2E06
100
AcDbEntity
  8
ALPHA
  6
CONTINUOUS
100
AcDbLine
 10
118.204995
 20
124.725784
 30
0.0
 11
118.204995
 21
95.725784
 31
0.0
1001
ACAD
1000
RTLwPs
1070
   128
  0
LINE
  5
2E07
100
AcDbEntity
  8
ALPHA
  6
CONTINUOUS
100
AcDbLine
 10
174.454995
 20
95.725784
 30
0.0
 11
122.204995
 21
95.725784
 31
0.0
1001
ACAD
1000
RTLwPs
1070
   128
  0
LINE
  5
2E0D
100
AcDbEntity
  8
ALPHA
  6
CONTINUOUS
100
AcDbLine
 10
174.454995
 20
54.725784
 30
0.0
 11
174.454995
 21
83.725784
 31
0.0
1001
ACAD
1000
RTLwPs
1070
   128
  0
LINE
  5
2E0E
100
AcDbEntity
  8
ALPHA
  6
CONTINUOUS
100
AcDbLine
 10
65.954995
 20
54.725784
 30
0.0
 11
65.954995
 21
83.725784
 31
0.0
1001
ACAD
1000
RTLwPs
1070
   128
  0
LINE
  5
2E0F
100
AcDbEntity
  8
ALPHA
  6
CONTINUOUS
100
AcDbLine
 10
118.204995
 20
83.725784
 30
0.0
 11
65.954995
 21
83.725784
 31
0.0
1001
ACAD
1000
RTLwPs
1070
   128
  0
LINE
  5
2E10
100
AcDbEntity
  8
ALPHA
  6
CONTINUOUS
100
AcDbLine
 10
174.454995
 20
54.725784
 30
0.0
 11
122.204995
 21
54.725784
 31
0.0
1001
ACAD
1000
RTLwPs
1070
   128
  0
LINE
  5
2E11
100
AcDbEntity
  8
ALPHA
  6
CONTINUOUS
100
AcDbLine
 10
118.204995
 20
54.725784
 30
0.0
 11
65.954995
 21
54.725784
 31
0.0
1001
ACAD
1000
RTLwPs
1070
   128
  0
LINE
  5
2E12
100
AcDbEntity
  8
ALPHA
  6
CONTINUOUS
100
AcDbLine
 10
122.204995
 20
54.725784
 30
0.0
 11
122.204995
 21
83.725784
 31
0.0
1001
ACAD
1000
RTLwPs
1070
   128
  0
LINE
  5
2E13
100
AcDbEntity
  8
ALPHA
  6
CONTINUOUS
100
AcDbLine
 10
118.204995
 20
54.725784
 30
0.0
 11
118.204995
 21
83.725784
 31
0.0
1001
ACAD
1000
RTLwPs
1070
   128
  0
LINE
  5
2E14
100
AcDbEntity
  8
ALPHA
  6
CONTINUOUS
100
AcDbLine
 10
174.454995
 20
83.725784
 30
0.0
 11
122.204995
 21
83.725784
 31
0.0
1001
ACAD
1000
RTLwPs
1070
   128
  0
ENDSEC
  0
SECTION
  2
OBJECTS
  0
DICTIONARY
  5
19
102
{ACAD_XDICTIONARY
360
2F23
102
}
100
AcDbDictionary
  3
ACAD_COLOR
350
6DB
  3
ACAD_GROUP
350
1A
  3
ACAD_LAYOUT
350
1E
  3
ACAD_MATERIAL
350
6DA
  3
ACAD_MLINESTYLE
350
1B
  3
ACAD_PLOTSETTINGS
350
22
  3
ACAD_PLOTSTYLENAME
350
1F
  3
ACAD_TABLESTYLE
350
6DC
  3
ACAD_WIPEOUT_VARS
350
23
  3
ACDBHEADERROUNDTRIPXREC
350
2EFF
  3
ACDBVARIABLEDICTIONARY
350
7DA
  0
DICTIONARY
  5
2EF5
100
AcDbDictionary
  3
ACAD_XREC_ROUNDTRIP
360
2EF6
  0
DICTIONARY
  5
2EF7
100
AcDbDictionary
  3
ACAD_XREC_ROUNDTRIP
360
2EF8
  0
DICTIONARY
  5
2EF9
100
AcDbDictionary
  3
ACAD_XREC_ROUNDTRIP
360
2EFA
  0
DICTIONARY
  5
2EF3
100
AcDbDictionary
  3
ACAD_XREC_ROUNDTRIP
360
2EF4
  0
DICTIONARY
  5
2EFB
100
AcDbDictionary
  3
ACAD_XREC_ROUNDTRIP
360
2EFC
  0
DICTIONARY
  5
2EF1
100
AcDbDictionary
  3
ACAD_XREC_ROUNDTRIP
360
2EF2
  0
DICTIONARY
  5
2F2B
100
AcDbDictionary
  3
ACAD_XREC_ROUNDTRIP
360
2F2C
  0
DICTIONARY
  5
7D7
100
AcDbDictionary
  3
ACAD_LAYOUTSELFREF
360
2F20
  3
ACAD_SORTENTS
360
7D8
  0
DICTIONARY
  5
2F21
100
AcDbDictionary
  3
ACAD_LAYOUTSELFREF
360
2F22
  0
DICTIONARY
  5
2F23
100
AcDbDictionary
  3
ACAD_XREC_ROUNDTRIP
360
2F24
  0
DICTIONARY
  5
6DB
102
{ACAD_REACTORS
330
19
102
}
100
AcDbDictionary
  0
DICTIONARY
  5
1A
102
{ACAD_REACTORS
330
19
102
}
100
AcDbDictionary
  0
DICTIONARY
  5
1E
102
{ACAD_XDICTIONARY
360
2F27
102
}
102
{ACAD_REACTORS
330
19
102
}
100
AcDbDictionary
  3
LAYOUT1
350
21
  3
MODEL
350
20
  0
DICTIONARY
  5
6DA
102
{ACAD_REACTORS
330
19
102
}
100
AcDbDictionary
  0
DICTIONARY
  5
1B
102
{ACAD_XDICTIONARY
360
2F25
102
}
102
{ACAD_REACTORS
330
19
102
}
100
AcDbDictionary
  3
STANDARD
350
1C
  0
DICTIONARY
  5
22
102
{ACAD_REACTORS
330
19
102
}
100
AcDbDictionary
  0
ACAD_ZOMBIE_OBJECT
  5
1F
102
{ACAD_REACTORS
330
19
102
}
100
AcDbZombieObject
 90
      499
 91
      517
 93
       86
310
405010041939BDC9B585B3
350
1D
340
1D
 94
        0
  0
DICTIONARY
  5
6DC
102
{ACAD_XDICTIONARY
360
2F29
102
}
102
{ACAD_REACTORS
330
19
102
}
100
AcDbDictionary
  3
STANDARD
350
6DD
  0
ACAD_ZOMBIE_OBJECT
  5
23
102
{ACAD_REACTORS
330
19
102
}
100
AcDbZombieObject
 90
      499
 91
      525
 93
       10
310
4043
 94
        0
1001
ACAD
1000
AcadProxyRoundTripData
1071
      521
1071
   851991
1070
     0
  0
DICTIONARY
  5
2EFF
102
{ACAD_REACTORS
330
19
102
}
100
AcDbDictionary
  3
CEPSNTYPE
350
2F09
  3
DIMSTYLEDATA
350
2F0D
  3
FINGERPRINTGUID
350
2F0A
  3
HYPERLINKBASE
350
2F02
  3
INSUNITS
350
2F08
  3
LAYOUTDICT
350
2F04
  3
LWETCUNION
350
2F07
  3
PLOTSETDICT
350
2F05
  3
PLOTSTYLNAMDICT
350
2F06
  3
PSVPSCALE
350
2F0C
  3
PUCSBASE
350
2F10
  3
PUCSORGBACK
350
2F16
  3
PUCSORGBOTTOM
350
2F12
  3
PUCSORGFRONT
350
2F15
  3
PUCSORGLEFT
350
2F13
  3
PUCSORGRIGHT
350
2F14
  3
PUCSORGTOP
350
2F11
  3
PUCSORTHOREF
350
2F0E
  3
PUCSORTHOVIEW
350
2F0F
  3
STYLESHEET
350
2F03
  3
TSTACKALIGN
350
2F00
  3
TSTACKSIZE
350
2F01
  3
UCSBASE
350
2F19
  3
UCSORGBACK
350
2F1F
  3
UCSORGBOTTOM
350
2F1B
  3
UCSORGFRONT
350
2F1E
  3
UCSORGLEFT
350
2F1C
  3
UCSORGRIGHT
350
2F1D
  3
UCSORGTOP
350
2F1A
  3
UCSORTHOREF
350
2F17
  3
UCSORTHOVIEW
350
2F18
  3
VERSIONGUID
350
2F0B
  0
DICTIONARY
  5
7DA
102
{ACAD_REACTORS
330
19
102
}
100
AcDbDictionary
  3
CTABLESTYLE
350
7DB
  3
DIMASSOC
350
1A71
  3
PROJECTNAME
350
1A72
  0
XRECORD
  5
2EF6
102
{ACAD_REACTORS
330
2EF5
102
}
100
AcDbXrecord
102
EXTNAMES
  1
BYBLOCK
  2
ByBlock
  0
XRECORD
  5
2EF8
102
{ACAD_REACTORS
330
2EF7
102
}
100
AcDbXrecord
102
EXTNAMES
  1
BYLAYER
  2
ByLayer
  0
XRECORD
  5
2EFA
102
{ACAD_REACTORS
330
2EF9
102
}
100
AcDbXrecord
102
EXTNAMES
  1
CONTINUOUS
  2
Continuous
  0
XRECORD
  5
2EF4
102
{ACAD_REACTORS
330
2EF3
102
}
100
AcDbXrecord
102
EXTNAMES
  1
DEFPOINTS
  2
Defpoints
102
PLOTBIT
280
     0
  0
XRECORD
  5
2EFC
102
{ACAD_REACTORS
330
2EFB
102
}
100
AcDbXrecord
102
EXTNAMES
  1
STANDARD
  2
Standard
  0
XRECORD
  5
2EF2
102
{ACAD_REACTORS
330
2EF1
102
}
100
AcDbXrecord
102
EXTNAMES
  1
STANDARD
  2
Standard
  0
XRECORD
  5
2F2C
102
{ACAD_REACTORS
330
2F2B
102
}
100
AcDbXrecord
102
ACADR14ROUNDTRIP
1000
DSTYLE
1002
{
1070
   279
 70
     2
1070
   341
340
6FA
1070
   342
340
6FA
1002
}
  0
XRECORD
  5
2F20
102
{ACAD_REACTORS
330
7D7
102
}
100
AcDbXrecord
340
A
  0
SORTENTSTABLE
  5
7D8
102
{ACAD_REACTORS
330
7D7
102
}
100
AcDbSortentsTable
330
A
331
25B5
  5
25BD
331
259F
  5
25A4
331
25BA
  5
25C2
331
25A4
  5
25AA
331
2661
  5
267B
331
25CB
  5
2607
331
25AD
  5
25B5
331
25C3
  5
25CD
331
25B6
  5
25BE
331
25A0
  5
25A5
331
25A9
  5
25B1
331
267B
  5
2A3D
331
25BF
  5
25C8
331
25A5
  5
25AB
331
25AE
  5
25B6
331
260A
  5
265B
331
25B7
  5
25BF
331
25A1
  5
25A6
331
25AA
  5
25B2
331
2A3D
  5
2A6A
331
25C0
  5
25C9
331
25B3
  5
25BB
331
25BC
  5
25C4
331
25CD
  5
2658
331
25C5
  5
25CE
331
25A2
  5
25A7
331
25B8
  5
25C0
331
25C9
  5
25D7
331
25B4
  5
25BC
331
2679
  5
2720
331
25B0
  5
25B8
331
25A3
  5
25A8
331
25B9
  5
25C1
331
25CA
  5
25D8
331
25C2
  5
25CB
  0
XRECORD
  5
2F22
102
{ACAD_REACTORS
330
2F21
102
}
100
AcDbXrecord
340
B
  0
XRECORD
  5
2F24
102
{ACAD_REACTORS
330
2F23
102
}
100
AcDbXrecord
102
EXTNAMES
  1
ACDBVARIABLEDICTIONARY
  2
AcDbVariableDictionary
  0
DICTIONARY
  5
2F27
100
AcDbDictionary
  3
ACAD_XREC_ROUNDTRIP
360
2F28
  0
ACAD_ZOMBIE_OBJECT
  5
21
102
{ACAD_XDICTIONARY
360
2EEA
102
}
102
{ACAD_REACTORS
330
1E
102
}
100
AcDbZombieObject
 90
      499
 91
      515
 93
      812
310
AAAAAAAAAA5A69074C61796F757431406A800000000000000000000000000000000000000000000A1000000000000008902A6A6A10232D5E076BC5510408CB5781DAF154410232D5E076BC5510408CB5781DAF15C410232D5E076BC5710408CB5781DAF15C43
330
B
330
0
340
0
340
0
 94
        0
  0
ACAD_ZOMBIE_OBJECT
  5
20
102
{ACAD_XDICTIONARY
360
2EE8
102
}
102
{ACAD_REACTORS
330
1E
102
}
100
AcDbZombieObject
 90
      499
 91
      515
 93
      420
310
A00012AAAAAAAA5A69054D6F64656CAA80000000000000000000000000000000000000000000000000000000000000002AAAAAAAA2
330
A
330
0
340
0
340
0
 94
        0
  0
DICTIONARY
  5
2F25
100
AcDbDictionary
  3
ACAD_XREC_ROUNDTRIP
360
2F26
  0
MLINESTYLE
  5
1C
102
{ACAD_REACTORS
330
1B
102
}
100
AcDbMlineStyle
  2
STANDARD
 70
     0
  3

 62
     0
 51
90.0
 52
90.0
 71
     2
 49
0.5
 62
   256
  6
BYLAYER
 49
-0.5
 62
   256
  6
BYLAYER
  0
ACAD_ZOMBIE_OBJECT
  5
1D
102
{ACAD_REACTORS
330
1F
102
}
100
AcDbZombieObject
 90
      499
 91
      518
 93
        0
 94
        0
  0
DICTIONARY
  5
2F29
100
AcDbDictionary
  3
ACAD_XREC_ROUNDTRIP
360
2F2A
  0
ACAD_ZOMBIE_OBJECT
  5
6DD
102
{ACAD_REACTORS
330
6DC
102
}
100
AcDbZombieObject
 90
      499
 91
      525
 93
     1841
310
4214DD185B99185C9928000000000000F83F0000000000003E0FC00000000000004901028000000C1008070000C3001FDFF8000000C1003FBFF000000182007F7FE00000030400FEFFC00000060801FDFF8000000C1003FBFF000000182000000000000000C2020B0000001820100E000186003FBFF000000182007F7FE000
310
00030400FEFFC00000060801FDFF8000000C1003FBFF000000182007F7FE0000003040000000000000012404160000003040201C00030C007F7FE00000030400FEFFC00000060801FDFF8000000C1003FBFF000000182007F7FE00000030400FEFFC000000608002
340
17
340
17
340
17
 94
        0
1001
ACAD
1000
AcadProxyRoundTripData
1071
      524
1071
   851991
1070
     0
  0
XRECORD
  5
2F09
102
{ACAD_REACTORS
330
2EFF
102
}
100
AcDbXrecord
 90
        0
  0
XRECORD
  5
2F0D
102
{ACAD_REACTORS
330
2EFF
102
}
100
AcDbXrecord
1000
DSTYLE
1002
{
1070
   278
 70
     0
1070
   371
 70
     0
1070
   372
 70
     0
1002
}
  0
XRECORD
  5
2F0A
102
{ACAD_REACTORS
330
2EFF
102
}
100
AcDbXrecord
  1

  0
XRECORD
  5
2F02
102
{ACAD_REACTORS
330
2EFF
102
}
100
AcDbXrecord
  1

  0
XRECORD
  5
2F08
102
{ACAD_REACTORS
330
2EFF
102
}
100
AcDbXrecord
 90
        0
  0
XRECORD
  5
2F04
102
{ACAD_REACTORS
330
2EFF
102
}
100
AcDbXrecord
340
1E
  0
XRECORD
  5
2F07
102
{ACAD_REACTORS
330
2EFF
102
}
100
AcDbXrecord
 90
    10752
  0
XRECORD
  5
2F05
102
{ACAD_REACTORS
330
2EFF
102
}
100
AcDbXrecord
340
22
  0
XRECORD
  5
2F06
102
{ACAD_REACTORS
330
2EFF
102
}
100
AcDbXrecord
340
1F
  0
XRECORD
  5
2F0C
102
{ACAD_REACTORS
330
2EFF
102
}
100
AcDbXrecord
 40
0.0
  0
XRECORD
  5
2F10
102
{ACAD_REACTORS
330
2EFF
102
}
100
AcDbXrecord
340
0
  0
XRECORD
  5
2F16
102
{ACAD_REACTORS
330
2EFF
102
}
100
AcDbXrecord
 10
0.0
 20
0.0
 30
0.0
  0
XRECORD
  5
2F12
102
{ACAD_REACTORS
330
2EFF
102
}
100
AcDbXrecord
 10
0.0
 20
0.0
 30
0.0
  0
XRECORD
  5
2F15
102
{ACAD_REACTORS
330
2EFF
102
}
100
AcDbXrecord
 10
0.0
 20
0.0
 30
0.0
  0
XRECORD
  5
2F13
102
{ACAD_REACTORS
330
2EFF
102
}
100
AcDbXrecord
 10
0.0
 20
0.0
 30
0.0
  0
XRECORD
  5
2F14
102
{ACAD_REACTORS
330
2EFF
102
}
100
AcDbXrecord
 10
0.0
 20
0.0
 30
0.0
  0
XRECORD
  5
2F11
102
{ACAD_REACTORS
330
2EFF
102
}
100
AcDbXrecord
 10
0.0
 20
0.0
 30
0.0
  0
XRECORD
  5
2F0E
102
{ACAD_REACTORS
330
2EFF
102
}
100
AcDbXrecord
340
0
  0
XRECORD
  5
2F0F
102
{ACAD_REACTORS
330
2EFF
102
}
100
AcDbXrecord
 70
     0
  0
XRECORD
  5
2F03
102
{ACAD_REACTORS
330
2EFF
102
}
100
AcDbXrecord
  1

  0
XRECORD
  5
2F00
102
{ACAD_REACTORS
330
2EFF
102
}
100
AcDbXrecord
 90
        1
  0
XRECORD
  5
2F01
102
{ACAD_REACTORS
330
2EFF
102
}
100
AcDbXrecord
 90
       70
  0
XRECORD
  5
2F19
102
{ACAD_REACTORS
330
2EFF
102
}
100
AcDbXrecord
340
0
  0
XRECORD
  5
2F1F
102
{ACAD_REACTORS
330
2EFF
102
}
100
AcDbXrecord
 10
0.0
 20
0.0
 30
0.0
  0
XRECORD
  5
2F1B
102
{ACAD_REACTORS
330
2EFF
102
}
100
AcDbXrecord
 10
0.0
 20
0.0
 30
0.0
  0
XRECORD
  5
2F1E
102
{ACAD_REACTORS
330
2EFF
102
}
100
AcDbXrecord
 10
0.0
 20
0.0
 30
0.0
  0
XRECORD
  5
2F1C
102
{ACAD_REACTORS
330
2EFF
102
}
100
AcDbXrecord
 10
0.0
 20
0.0
 30
0.0
  0
XRECORD
  5
2F1D
102
{ACAD_REACTORS
330
2EFF
102
}
100
AcDbXrecord
 10
0.0
 20
0.0
 30
0.0
  0
XRECORD
  5
2F1A
102
{ACAD_REACTORS
330
2EFF
102
}
100
AcDbXrecord
 10
0.0
 20
0.0
 30
0.0
  0
XRECORD
  5
2F17
102
{ACAD_REACTORS
330
2EFF
102
}
100
AcDbXrecord
340
0
  0
XRECORD
  5
2F18
102
{ACAD_REACTORS
330
2EFF
102
}
100
AcDbXrecord
 70
     0
  0
XRECORD
  5
2F0B
102
{ACAD_REACTORS
330
2EFF
102
}
100
AcDbXrecord
  1
{0B123A0B-B5EB-40DE-BC0D-5904C471D56F}
  0
DICTIONARYVAR
  5
7DB
102
{ACAD_REACTORS
330
7DA
102
}
100
DictionaryVariables
280
     0
  1
STANDARD
  0
DICTIONARYVAR
  5
1A71
102
{ACAD_REACTORS
330
7DA
102
}
100
DictionaryVariables
280
     0
  1
1
  0
DICTIONARYVAR
  5
1A72
102
{ACAD_REACTORS
330
7DA
102
}
100
DictionaryVariables
280
     0
  1

  0
XRECORD
  5
2F28
102
{ACAD_REACTORS
330
2F27
102
}
100
AcDbXrecord
102
EXTNAMES
  1
LAYOUT1
  2
Layout1
  1
MODEL
  2
Model
  0
DICTIONARY
  5
2EEA
100
AcDbDictionary
  3
ACAD_XREC_ROUNDTRIP
360
2EEB
  0
DICTIONARY
  5
2EE8
100
AcDbDictionary
  3
ACAD_XREC_ROUNDTRIP
360
2EE9
  0
XRECORD
  5
2F26
102
{ACAD_REACTORS
330
2F25
102
}
100
AcDbXrecord
102
EXTNAMES
  1
STANDARD
  2
Standard
  0
XRECORD
  5
2F2A
102
{ACAD_REACTORS
330
2F29
102
}
100
AcDbXrecord
102
EXTNAMES
  1
STANDARD
  2
Standard
  0
XRECORD
  5
2EEB
102
{ACAD_REACTORS
330
2EEA
102
}
100
AcDbXrecord
102
SHADEPLOT
 70
     0
102
SHADEPLOTRESLEVEL
 70
     2
102
SHADEPLOTCUSTOMDPI
 70
   300
  0
XRECORD
  5
2EE9
102
{ACAD_REACTORS
330
2EE8
102
}
100
AcDbXrecord
102
SHADEPLOT
 70
     0
102
SHADEPLOTRESLEVEL
 70
     2
102
SHADEPLOTCUSTOMDPI
 70
   300
  0
ENDSEC
  0
EOF
