  0
SECTION
  2
HEADER
  9
$ACADVER
  1
AC1014
  9
$ACADMAINTVER
 70
     0
  9
$DWGCODEPAGE
  3
ANSI_1252
  9
$INSBASE
 10
93.894301
 20
236.06014
 30
0.0
  9
$EXTMIN
 10
0.092469
 20
-8.993741
 30
0.0
  9
$EXTMAX
 10
467.551852
 20
201.83727
 30
0.0
  9
$LIMMIN
 10
0.0
 20
0.0
  9
$LIMMAX
 10
210.0
 20
297.0
  9
$ORTHOMODE
 70
     0
  9
$REGENMODE
 70
     1
  9
$FILLMODE
 70
     1
  9
$QTEXTMODE
 70
     0
  9
$MIRRTEXT
 70
     0
  9
$DRAGMODE
 70
     1
  9
$LTSCALE
 40
7.0
  9
$OSMODE
 70
  4095
  9
$ATTMODE
 70
     1
  9
$TEXTSIZE
 40
2.5
  9
$TRACEWID
 40
0.05
  9
$TEXTSTYLE
  7
STANDARD
  9
$CLAYER
  8
COTATION1
  9
$CELTYPE
  6
BYLAYER
  9
$CECOLOR
 62
   256
  9
$CELTSCALE
 40
1.0
  9
$DELOBJ
 70
     1
  9
$DISPSILH
 70
     0
  9
$DIMSCALE
 40
1.0
  9
$DIMASZ
 40
3.0
  9
$DIMEXO
 40
0.0625
  9
$DIMDLI
 40
0.38
  9
$DIMRND
 40
0.01
  9
$DIMDLE
 40
0.0
  9
$DIMEXE
 40
0.18
  9
$DIMTP
 40
0.0
  9
$DIMTM
 40
0.0
  9
$DIMTXT
 40
2.5
  9
$DIMCEN
 40
0.09
  9
$DIMTSZ
 40
0.0
  9
$DIMTOL
 70
     0
  9
$DIMLIM
 70
     0
  9
$DIMTIH
 70
     0
  9
$DIMTOH
 70
     0
  9
$DIMSE1
 70
     0
  9
$DIMSE2
 70
     0
  9
$DIMTAD
 70
     1
  9
$DIMZIN
 70
    12
  9
$DIMBLK
  1

  9
$DIMASO
 70
     1
  9
$DIMSHO
 70
     0
  9
$DIMPOST
  1

  9
$DIMAPOST
  1

  9
$DIMALT
 70
     0
  9
$DIMALTD
 70
     2
  9
$DIMALTF
 40
25.4
  9
$DIMLFAC
 40
1.0
  9
$DIMTOFL
 70
     1
  9
$DIMTVP
 40
0.0
  9
$DIMTIX
 70
     0
  9
$DIMSOXD
 70
     0
  9
$DIMSAH
 70
     0
  9
$DIMBLK1
  1

  9
$DIMBLK2
  1

  9
$DIMSTYLE
  2
SC_STAND
  9
$DIMCLRD
 70
     0
  9
$DIMCLRE
 70
     0
  9
$DIMCLRT
 70
     0
  9
$DIMTFAC
 40
1.0
  9
$DIMGAP
 40
1.0
  9
$DIMJUST
 70
     0
  9
$DIMSD1
 70
     0
  9
$DIMSD2
 70
     0
  9
$DIMTOLJ
 70
     1
  9
$DIMTZIN
 70
    12
  9
$DIMALTZ
 70
    12
  9
$DIMALTTZ
 70
    12
  9
$DIMFIT
 70
     5
  9
$DIMUPT
 70
     0
  9
$DIMUNIT
 70
     2
  9
$DIMDEC
 70
     3
  9
$DIMTDEC
 70
     3
  9
$DIMALTU
 70
     2
  9
$DIMALTTD
 70
     2
  9
$DIMTXSTY
  7
STANDARD
  9
$DIMAUNIT
 70
     0
  9
$LUNITS
 70
     2
  9
$LUPREC
 70
     3
  9
$SKETCHINC
 40
0.1
  9
$FILLETRAD
 40
0.0625
  9
$AUNITS
 70
     0
  9
$AUPREC
 70
     0
  9
$MENU
  1
ACAD
  9
$ELEVATION
 40
0.0
  9
$PELEVATION
 40
0.0
  9
$THICKNESS
 40
0.0
  9
$LIMCHECK
 70
     0
  9
$BLIPMODE
 70
     1
  9
$CHAMFERA
 40
0.0
  9
$CHAMFERB
 40
0.0
  9
$CHAMFERC
 40
0.0
  9
$CHAMFERD
 40
0.0
  9
$SKPOLY
 70
     0
  9
$TDCREATE
 40
2450953.590960648
  9
$TDUPDATE
 40
2453840.628210532
  9
$TDINDWG
 40
0.0053874537
  9
$TDUSRTIMER
 40
0.0053874537
  9
$USRTIMER
 70
     1
  9
$ANGBASE
 50
0.0
  9
$ANGDIR
 70
     0
  9
$PDMODE
 70
     0
  9
$PDSIZE
 40
0.0
  9
$PLINEWID
 40
0.0
  9
$COORDS
 70
     0
  9
$SPLFRAME
 70
     0
  9
$SPLINETYPE
 70
     6
  9
$SPLINESEGS
 70
     8
  9
$ATTDIA
 70
     0
  9
$ATTREQ
 70
     1
  9
$HANDLING
 70
     1
  9
$HANDSEED
  5
15AC
  9
$SURFTAB1
 70
     6
  9
$SURFTAB2
 70
     6
  9
$SURFTYPE
 70
     6
  9
$SURFU
 70
     6
  9
$SURFV
 70
     6
  9
$UCSNAME
  2

  9
$UCSORG
 10
0.0
 20
0.0
 30
0.0
  9
$UCSXDIR
 10
1.0
 20
0.0
 30
0.0
  9
$UCSYDIR
 10
0.0
 20
1.0
 30
0.0
  9
$PUCSNAME
  2

  9
$PUCSORG
 10
0.0
 20
0.0
 30
0.0
  9
$PUCSXDIR
 10
1.0
 20
0.0
 30
0.0
  9
$PUCSYDIR
 10
0.0
 20
1.0
 30
0.0
  9
$USERI1
 70
     0
  9
$USERI2
 70
     0
  9
$USERI3
 70
     0
  9
$USERI4
 70
     0
  9
$USERI5
 70
     0
  9
$USERR1
 40
0.0
  9
$USERR2
 40
0.0
  9
$USERR3
 40
0.0
  9
$USERR4
 40
0.0
  9
$USERR5
 40
0.0
  9
$WORLDVIEW
 70
     1
  9
$SHADEDGE
 70
     3
  9
$SHADEDIF
 70
    70
  9
$TILEMODE
 70
     1
  9
$MAXACTVP
 70
    32
  9
$PINSBASE
 10
0.0
 20
0.0
 30
0.0
  9
$PLIMCHECK
 70
     0
  9
$PEXTMIN
 10
-3.174999
 20
-3.175
 30
0.0
  9
$PEXTMAX
 10
203.812116
 20
370.276807
 30
0.0
  9
$PLIMMIN
 10
-3.175
 20
-3.175
  9
$PLIMMAX
 10
203.812115
 20
370.276807
  9
$UNITMODE
 70
     0
  9
$VISRETAIN
 70
     0
  9
$PLINEGEN
 70
     0
  9
$PSLTSCALE
 70
     1
  9
$TREEDEPTH
 70
  3020
  9
$PICKSTYLE
 70
     1
  9
$CMLSTYLE
  2
STANDARD
  9
$CMLJUST
 70
     0
  9
$CMLSCALE
 40
1.0
  9
$PROXYGRAPHICS
 70
     1
  9
$MEASUREMENT
 70
     0
  0
ENDSEC
  0
SECTION
  2
CLASSES
  0
CLASS
  1
DICTIONARYVAR
  2
AcDbDictionaryVar
  3
"AutoCAD"
 90
        0
280
     0
281
     0
  0
CLASS
  1
HATCH
  2
AcDbHatch
  3
"ACAD_SEDONA"
 90
        0
280
     0
281
     1
  0
ENDSEC
  0
SECTION
  2
TABLES
  0
TABLE
  2
VPORT
  5
F4
100
AcDbSymbolTable
 70
     2
  0
VPORT
  5
15AB
100
AcDbSymbolTableRecord
100
AcDbViewportTableRecord
  2
*ACTIVE
 70
     0
 10
0.0
 20
0.0
 11
1.0
 21
1.0
 12
233.83807
 22
96.417596
 13
0.0
 23
0.0
 14
1.0
 24
1.0
 15
10.0
 25
10.0
 16
0.0
 26
0.0
 36
1.0
 17
0.0
 27
0.0
 37
0.0
 40
285.787127
 41
1.643603
 42
50.0
 43
0.0
 44
0.0
 50
0.0
 51
0.0
 71
     0
 72
   100
 73
     1
 74
     1
 75
     0
 76
     1
 77
     0
 78
     0
  0
ENDTAB
  0
TABLE
  2
LTYPE
  5
F1
100
AcDbSymbolTable
 70
     1
  0
LTYPE
  5
FD
100
AcDbSymbolTableRecord
100
AcDbLinetypeTableRecord
  2
BYBLOCK
 70
     0
  3

 72
    65
 73
     0
 40
0.0
  0
LTYPE
  5
FE
100
AcDbSymbolTableRecord
100
AcDbLinetypeTableRecord
  2
BYLAYER
 70
     0
  3

 72
    65
 73
     0
 40
0.0
  0
LTYPE
  5
FF
100
AcDbSymbolTableRecord
100
AcDbLinetypeTableRecord
  2
CONTINUOUS
 70
     0
  3
Solid line
 72
    65
 73
     0
 40
0.0
  0
ENDTAB
  0
TABLE
  2
LAYER
  5
EE
100
AcDbSymbolTable
 70
     5
  0
LAYER
  5
FA
100
AcDbSymbolTableRecord
100
AcDbLayerTableRecord
  2
0
 70
     0
 62
     7
  6
CONTINUOUS
  0
LAYER
  5
12C
100
AcDbSymbolTableRecord
100
AcDbLayerTableRecord
  2
ALPHA
 70
     0
 62
   255
  6
CONTINUOUS
  0
LAYER
  5
12F
100
AcDbSymbolTableRecord
100
AcDbLayerTableRecord
  2
COTATION1
 70
     0
 62
     2
  6
CONTINUOUS
  0
LAYER
  5
13B
100
AcDbSymbolTableRecord
100
AcDbLayerTableRecord
  2
ASHADE
 70
     0
 62
     7
  6
CONTINUOUS
  0
LAYER
  5
13E
100
AcDbSymbolTableRecord
100
AcDbLayerTableRecord
  2
DEFPOINTS
 70
     0
 62
     7
  6
CONTINUOUS
  0
ENDTAB
  0
TABLE
  2
STYLE
  5
EF
100
AcDbSymbolTable
 70
     1
  0
STYLE
  5
FB
100
AcDbSymbolTableRecord
100
AcDbTextStyleTableRecord
  2
STANDARD
 70
     0
 40
0.0
 41
1.0
 50
0.0
 71
     0
 42
2.5
  3
txt
  4

  0
ENDTAB
  0
TABLE
  2
VIEW
  5
F2
100
AcDbSymbolTable
 70
     0
  0
ENDTAB
  0
TABLE
  2
UCS
  5
F3
100
AcDbSymbolTable
 70
     0
  0
ENDTAB
  0
TABLE
  2
APPID
  5
F5
100
AcDbSymbolTable
 70
     3
  0
APPID
  5
FC
100
AcDbSymbolTableRecord
100
AcDbRegAppTableRecord
  2
ACAD
 70
     0
  0
APPID
  5
127
100
AcDbSymbolTableRecord
100
AcDbRegAppTableRecord
  2
AVE_RENDER
 70
     0
  0
APPID
  5
128
100
AcDbSymbolTableRecord
100
AcDbRegAppTableRecord
  2
AVE_MATERIAL
 70
     0
  0
ENDTAB
  0
TABLE
  2
DIMSTYLE
  5
F6
100
AcDbSymbolTable
 70
     2
  0
DIMSTYLE
105
129
100
AcDbSymbolTableRecord
100
AcDbDimStyleTableRecord
  2
STANDARD
 70
     0
  3

  4

  5

  6

  7

 40
1.0
 41
0.18
 42
0.0625
 43
0.38
 44
0.18
 45
0.0
 46
0.0
 47
0.0
 48
0.0
140
0.18
141
0.09
142
0.0
143
25.4
144
1.0
145
0.0
146
1.0
147
0.09
 71
     0
 72
     0
 73
     1
 74
     1
 75
     0
 76
     0
 77
     0
 78
     0
170
     0
171
     2
172
     0
173
     0
174
     0
175
     0
176
     0
177
     0
178
     0
270
     2
271
     3
272
     3
273
     2
274
     2
340
FB
275
     0
280
     0
281
     0
282
     0
283
     1
284
    12
285
    12
286
    12
287
     5
288
     0
  0
DIMSTYLE
105
12A
102
{ACAD_REACTORS
330
153E
330
1556
330
1584
102
}
100
AcDbSymbolTableRecord
100
AcDbDimStyleTableRecord
  2
SC_STAND
 70
     0
  3

  4

  5

  6

  7

 40
1.0
 41
3.0
 42
0.0625
 43
0.38
 44
0.18
 45
0.01
 46
0.0
 47
0.0
 48
0.0
140
2.5
141
0.09
142
0.0
143
25.4
144
1.0
145
0.0
146
1.0
147
1.0
 71
     0
 72
     0
 73
     0
 74
     0
 75
     0
 76
     0
 77
     1
 78
    12
170
     0
171
     2
172
     1
173
     0
174
     0
175
     0
176
     0
177
     0
178
     0
270
     2
271
     3
272
     3
273
     2
274
     2
340
FB
275
     0
280
     0
281
     0
282
     0
283
     1
284
    12
285
    12
286
    12
287
     5
288
     0
  0
ENDTAB
  0
TABLE
  2
BLOCK_RECORD
  5
ED
100
AcDbSymbolTable
 70
     6
  0
BLOCK_RECORD
  5
103
100
AcDbSymbolTableRecord
100
AcDbBlockTableRecord
  2
*MODEL_SPACE
  0
BLOCK_RECORD
  5
100
100
AcDbSymbolTableRecord
100
AcDbBlockTableRecord
  2
*PAPER_SPACE
  0
BLOCK_RECORD
  5
108
100
AcDbSymbolTableRecord
100
AcDbBlockTableRecord
  2
AVE_RENDER
  0
BLOCK_RECORD
  5
109
100
AcDbSymbolTableRecord
100
AcDbBlockTableRecord
  2
AVE_GLOBAL
  0
BLOCK_RECORD
  5
10A
100
AcDbSymbolTableRecord
100
AcDbBlockTableRecord
  2
SCH_IS
  0
BLOCK_RECORD
  5
1532
100
AcDbSymbolTableRecord
100
AcDbBlockTableRecord
  2
*D3
  0
BLOCK_RECORD
  5
154A
100
AcDbSymbolTableRecord
100
AcDbBlockTableRecord
  2
*D4
  0
BLOCK_RECORD
  5
1578
100
AcDbSymbolTableRecord
100
AcDbBlockTableRecord
  2
*D5
  0
ENDTAB
  0
ENDSEC
  0
SECTION
  2
BLOCKS
  0
BLOCK
  5
141
100
AcDbEntity
  8
0
100
AcDbBlockBegin
  2
*MODEL_SPACE
 70
     0
 10
0.0
 20
0.0
 30
0.0
  3
*MODEL_SPACE
  1

  0
ENDBLK
  5
142
100
AcDbEntity
  8
0
100
AcDbBlockEnd
  0
BLOCK
  5
13F
100
AcDbEntity
 67
     1
  8
0
100
AcDbBlockBegin
  2
*PAPER_SPACE
 70
     0
 10
0.0
 20
0.0
 30
0.0
  3
*PAPER_SPACE
  1

  0
ENDBLK
  5
140
100
AcDbEntity
 67
     1
  8
0
100
AcDbBlockEnd
  0
BLOCK
  5
8D
100
AcDbEntity
  8
0
100
AcDbBlockBegin
  2
AVE_RENDER
 70
     0
 10
0.0
 20
0.0
 30
0.0
  3
AVE_RENDER
  1
AVE_RENDER
  0
ENDBLK
  5
8E
100
AcDbEntity
  8
0
100
AcDbBlockEnd
  0
BLOCK
  5
90
100
AcDbEntity
  8
0
100
AcDbBlockBegin
  2
AVE_GLOBAL
 70
     0
 10
0.0
 20
0.0
 30
0.0
  3
AVE_GLOBAL
  1
AVE_GLOBAL
  0
ENDBLK
  5
91
100
AcDbEntity
  8
0
100
AcDbBlockEnd
  0
BLOCK
  5
C9
100
AcDbEntity
  8
0
100
AcDbBlockBegin
  2
SCH_IS
 70
     0
 10
0.0
 20
0.0
 30
0.0
  3
SCH_IS
  1

  0
INSERT
  5
C0
100
AcDbEntity
  8
ASHADE
 62
     1
100
AcDbBlockReference
  2
AVE_RENDER
 10
0.0
 20
0.0
 30
0.0
1001
AVE_RENDER
1002
{
1070
     6
1000
Pref
1070
    50
1070
    20
1070
     1
1070
     0
1000

1070
    10
1070
     1
1070
    30
1040
25.4
1070
     1
1040
0.3
1040
0.7
1040
0.0
1040
10.0
1010
-1.0
1020
-1.0
1030
-1.0
1040
0.3
1070
    49
1070
     0
1070
     0
1010
1.0
1020
1.0
1030
1.0
1040
45.0
1070
     1
1070
     0
1000
WCS
1040
0.0
1002
}
  0
INSERT
  5
C1
100
AcDbEntity
  8
ASHADE
 62
     3
100
AcDbBlockReference
  2
AVE_RENDER
 10
0.0
 20
0.0
 30
0.0
1001
AVE_RENDER
1002
{
1070
     0
1000
Full Opt
1070
     0
1070
     1
1070
     1
1070
     1
1070
     0
1070
     0
1070
     0
1070
     1
1070
     1
1040
0.0001
1040
0.0001
1002
}
  0
INSERT
  5
C2
100
AcDbEntity
  8
ASHADE
 62
     4
100
AcDbBlockReference
  2
AVE_RENDER
 10
0.0
 20
0.0
 30
0.0
1001
AVE_RENDER
1002
{
1070
     0
1000
Quick Opt
1070
     0
1070
     1
1070
     1
1070
     1
1070
     0
1070
     0
1070
     1
1002
}
  0
INSERT
  5
C3
100
AcDbEntity
  8
ASHADE
 62
     5
100
AcDbBlockReference
  2
AVE_RENDER
 10
0.0
 20
0.0
 30
0.0
1001
AVE_RENDER
1002
{
1070
     1
1000
Scanl Opt
1070
     2
1070
     0
1070
     2
1040
2.0
1040
4.0
1070
     0
1070
     1
1070
     0
1040
0.03
1002
}
  0
INSERT
  5
C4
100
AcDbEntity
  8
ASHADE
 62
     6
100
AcDbBlockReference
  2
AVE_RENDER
 10
0.0
 20
0.0
 30
0.0
1001
AVE_RENDER
1002
{
1070
     2
1000
Raytr Opt
1070
     2
1070
     0
1070
     2
1040
2.0
1040
4.0
1070
     0
1070
     1
1070
     1
1040
0.03
1070
     3
1040
0.03
1002
}
  0
INSERT
  5
C5
100
AcDbEntity
  8
ASHADE
 62
     7
100
AcDbBlockReference
  2
AVE_RENDER
 10
0.0
 20
0.0
 30
0.0
1001
AVE_RENDER
1002
{
1070
     0
1000
RFile Opt
1070
     5
1070
   640
1070
   480
1070
 10000
1070
     3
1070
    32
1070
    24
1070
     0
1070
     0
1070
     0
1070
     1
1070
     0
1070
     0
1070
     0
1002
}
  0
INSERT
  5
C6
100
AcDbEntity
  8
ASHADE
 62
     8
100
AcDbBlockReference
  2
AVE_RENDER
 10
0.0
 20
0.0
 30
0.0
1001
AVE_RENDER
1002
{
1070
     0
1000
Fog Opt
1070
     0
1070
     0
1040
0.0
1040
1.0
1040
0.0
1040
1.0
1010
0.5
1020
0.5
1030
0.5
1002
}
  0
INSERT
  5
C7
100
AcDbEntity
  8
ASHADE
 62
     9
100
AcDbBlockReference
  2
AVE_RENDER
 10
0.0
 20
0.0
 30
0.0
1001
AVE_RENDER
1002
{
1070
     0
1000
BG Opt
1070
     0
1070
     1
1010
0.0
1020
0.0
1030
0.0
1010
1.0
1020
0.0
1030
0.0
1010
0.0
1020
1.0
1030
0.0
1010
0.0
1020
0.0
1030
1.0
1040
0.5
1040
0.33
1040
0.0
1000

1070
     1
1000

1070
     1
1070
     1
1040
1.0
1040
1.0
1040
0.0
1040
0.0
1070
     0
1002
}
  0
INSERT
  5
C8
100
AcDbEntity
  8
ASHADE
 62
     1
100
AcDbBlockReference
  2
AVE_GLOBAL
 10
0.0
 20
0.0
 30
0.0
1001
AVE_MATERIAL
1002
{
1000
*GLOBAL*
1000
1
1000
Finition globale.
1002
{
1002
}
1002
{
1070
    63
1002
{
1002
{
1010
-1.0
1020
-1.0
1030
-1.0
1002
}
1040
0.1
1000

1040
0.0
1002
{
1002
}
1040
0.0
1002
{
1002
}
1040
0.0
1002
}
1002
{
1002
{
1010
-1.0
1020
-1.0
1030
-1.0
1002
}
1040
0.7
1000

1040
0.0
1002
{
1002
}
1040
0.0
1002
{
1002
}
1040
0.0
1002
}
1002
{
1002
{
1010
-1.0
1020
-1.0
1030
-1.0
1002
}
1040
0.2
1000

1040
0.0
1002
{
1002
}
1040
0.0
1002
{
1002
}
1040
0.0
1002
}
1002
{
1070
     0
1002
{
1070
     1
1002
{
1040
1.0
1040
1.0
1000

1040
0.0
1002
{
1002
}
1040
0.0
1002
{
1002
}
1040
0.0
1002
}
1002
}
1040
1.0
1040
0.0
1040
0.0
1002
}
1002
{
1040
1.0
1040
1.0
1000

1040
0.0
1002
{
1002
}
1040
0.0
1002
{
1002
}
1040
0.0
1002
}
1002
{
1040
0.5
1040
1.0
1000

1040
0.0
1002
{
1002
}
1040
0.0
1002
{
1002
}
1040
0.0
1002
}
1002
{
1070
     0
1040
0.0
1002
{
1002
}
1040
1.0
1002
{
1002
}
1040
0.0
1002
}
1002
{
1040
0.0
1002
{
1002
{
1010
0.0
1020
0.0
1030
0.0
1002
}
1040
1.0
1000

1040
0.0
1002
{
1002
}
1040
0.0
1002
{
1002
}
1040
0.0
1002
}
1002
}
1002
{
1002
{
1070
     1
1002
{
1040
0.0
1040
1.0
1000

1040
0.0
1002
{
1002
}
1040
0.0
1002
{
1002
}
1040
0.0
1002
}
1002
}
1040
0.0
1002
{
1002
}
1010
1.0
1020
0.0
1030
0.0
1010
0.0
1020
1.0
1030
0.0
1010
0.0
1020
0.0
1030
1.0
1070
     0
1002
}
1002
{
1002
{
1040
1.0
1040
1.0
1002
{
1070
     1
1002
{
1040
1.0
1040
1.0
1000

1040
0.0
1002
{
1002
}
1040
0.0
1002
{
1002
}
1040
0.0
1002
}
1002
}
1002
}
1070
     0
1040
0.0
1002
{
1002
}
1002
}
1002
{
1002
}
1002
}
1002
{
1071
        3
1070
     3
1070
     0
1002
{
1070
     2
1070
     0
1070
     0
1040
0.0
1002
}
1070
     0
1070
     2
1002
{
1002
}
1002
}
1002
{
1040
8030.0
1040
190.300003
1040
0.305
1040
228.0
1040
545.0
1040
14.0
1040
17.4
1040
0.456
1002
}
1002
}
  0
ENDBLK
  5
CA
100
AcDbEntity
  8
0
100
AcDbBlockEnd
  0
BLOCK
  5
153F
100
AcDbEntity
  8
0
100
AcDbBlockBegin
  2
*D3
 70
     1
 10
0.0
 20
0.0
 30
0.0
  3
*D3
  1

  0
LINE
  5
1540
100
AcDbEntity
  8
0
  6
BYBLOCK
 62
     0
100
AcDbLine
 10
12.592309
 20
172.40443
 30
0.0
 11
12.592309
 21
198.51727
 31
0.0
  0
LINE
  5
1541
100
AcDbEntity
  8
0
  6
BYBLOCK
 62
     0
100
AcDbLine
 10
442.592419
 20
167.762405
 30
0.0
 11
442.592419
 21
198.51727
 31
0.0
  0
LINE
  5
1542
100
AcDbEntity
  8
0
  6
BYBLOCK
 62
     0
100
AcDbLine
 10
15.592309
 20
198.33727
 30
0.0
 11
439.592419
 21
198.33727
 31
0.0
  0
SOLID
  5
1543
100
AcDbEntity
  8
0
  6
BYBLOCK
 62
     0
100
AcDbTrace
 10
15.592309
 20
198.83727
 30
0.0
 11
15.592309
 21
197.83727
 31
0.0
 12
12.592309
 22
198.33727
 32
0.0
 13
12.592309
 23
198.33727
 33
0.0
  0
SOLID
  5
1544
100
AcDbEntity
  8
0
  6
BYBLOCK
 62
     0
100
AcDbTrace
 10
439.592419
 20
198.83727
 30
0.0
 11
439.592419
 21
197.83727
 31
0.0
 12
442.592419
 22
198.33727
 32
0.0
 13
442.592419
 23
198.33727
 33
0.0
  0
MTEXT
  5
1545
100
AcDbEntity
  8
0
  6
BYBLOCK
 62
     0
100
AcDbMText
 10
227.592364
 20
200.58727
 30
0.0
 40
2.5
 41
0.0
 71
     5
 72
     1
  1
\A1;430
  0
POINT
  5
1546
100
AcDbEntity
  8
DEFPOINTS
  6
BYBLOCK
 62
     0
100
AcDbPoint
 10
12.592309
 20
172.34193
 30
0.0
  0
POINT
  5
1547
100
AcDbEntity
  8
DEFPOINTS
  6
BYBLOCK
 62
     0
100
AcDbPoint
 10
442.592419
 20
167.699905
 30
0.0
  0
POINT
  5
1548
100
AcDbEntity
  8
DEFPOINTS
  6
BYBLOCK
 62
     0
100
AcDbPoint
 10
442.592419
 20
198.33727
 30
0.0
  0
ENDBLK
  5
1549
100
AcDbEntity
  8
0
100
AcDbBlockEnd
  0
BLOCK
  5
156D
100
AcDbEntity
  8
0
100
AcDbBlockBegin
  2
*D4
 70
     1
 10
0.0
 20
0.0
 30
0.0
  3
*D4
  1

  0
LINE
  5
156E
100
AcDbEntity
  8
0
  6
BYBLOCK
 62
     0
100
AcDbLine
 10
0.092469
 20
79.881787
 30
0.0
 11
0.092469
 21
-8.673741
 31
0.0
  0
LINE
  5
156F
100
AcDbEntity
  8
0
  6
BYBLOCK
 62
     0
100
AcDbLine
 10
455.092431
 20
79.881787
 30
0.0
 11
455.092431
 21
-8.673741
 31
0.0
  0
LINE
  5
1570
100
AcDbEntity
  8
0
  6
BYBLOCK
 62
     0
100
AcDbLine
 10
3.092469
 20
-8.493741
 30
0.0
 11
452.092431
 21
-8.493741
 31
0.0
  0
SOLID
  5
1571
100
AcDbEntity
  8
0
  6
BYBLOCK
 62
     0
100
AcDbTrace
 10
3.092469
 20
-7.993741
 30
0.0
 11
3.092469
 21
-8.993741
 31
0.0
 12
0.092469
 22
-8.493741
 32
0.0
 13
0.092469
 23
-8.493741
 33
0.0
  0
SOLID
  5
1572
100
AcDbEntity
  8
0
  6
BYBLOCK
 62
     0
100
AcDbTrace
 10
452.092431
 20
-7.993741
 30
0.0
 11
452.092431
 21
-8.993741
 31
0.0
 12
455.092431
 22
-8.493741
 32
0.0
 13
455.092431
 23
-8.493741
 33
0.0
  0
MTEXT
  5
1573
100
AcDbEntity
  8
0
  6
BYBLOCK
 62
     0
100
AcDbMText
 10
227.59245
 20
-6.243741
 30
0.0
 40
2.5
 41
0.0
 71
     5
 72
     1
  1
\A1;455
  0
POINT
  5
1574
100
AcDbEntity
  8
DEFPOINTS
  6
BYBLOCK
 62
     0
100
AcDbPoint
 10
0.092469
 20
79.944287
 30
0.0
  0
POINT
  5
1575
100
AcDbEntity
  8
DEFPOINTS
  6
BYBLOCK
 62
     0
100
AcDbPoint
 10
455.092431
 20
79.944287
 30
0.0
  0
POINT
  5
1576
100
AcDbEntity
  8
DEFPOINTS
  6
BYBLOCK
 62
     0
100
AcDbPoint
 10
455.092431
 20
-8.493741
 30
0.0
  0
ENDBLK
  5
1577
100
AcDbEntity
  8
0
100
AcDbBlockEnd
  0
BLOCK
  5
159B
100
AcDbEntity
  8
0
100
AcDbBlockBegin
  2
*D5
 70
     1
 10
0.0
 20
0.0
 30
0.0
  3
*D5
  1

  0
LINE
  5
159C
100
AcDbEntity
  8
0
  6
BYBLOCK
 62
     0
100
AcDbLine
 10
437.61974
 20
189.027379
 30
0.0
 11
467.231852
 21
189.027379
 31
0.0
  0
LINE
  5
159D
100
AcDbEntity
  8
0
  6
BYBLOCK
 62
     0
100
AcDbLine
 10
428.887801
 20
0.542416
 30
0.0
 11
467.231852
 21
0.542416
 31
0.0
  0
LINE
  5
159E
100
AcDbEntity
  8
0
  6
BYBLOCK
 62
     0
100
AcDbLine
 10
467.051852
 20
186.027379
 30
0.0
 11
467.051852
 21
3.542416
 31
0.0
  0
SOLID
  5
159F
100
AcDbEntity
  8
0
  6
BYBLOCK
 62
     0
100
AcDbTrace
 10
466.551852
 20
186.027379
 30
0.0
 11
467.551852
 21
186.027379
 31
0.0
 12
467.051852
 22
189.027379
 32
0.0
 13
467.051852
 23
189.027379
 33
0.0
  0
SOLID
  5
15A0
100
AcDbEntity
  8
0
  6
BYBLOCK
 62
     0
100
AcDbTrace
 10
466.551852
 20
3.542416
 30
0.0
 11
467.551852
 21
3.542416
 31
0.0
 12
467.051852
 22
0.542416
 32
0.0
 13
467.051852
 23
0.542416
 33
0.0
  0
MTEXT
  5
15A1
100
AcDbEntity
  8
0
  6
BYBLOCK
 62
     0
100
AcDbMText
 10
464.801852
 20
94.784897
 30
0.0
 40
2.5
 41
0.0
 71
     5
 72
     1
  1
\A1;188.5
 11
0.0
 21
1.0
 31
0.0
  0
POINT
  5
15A2
100
AcDbEntity
  8
DEFPOINTS
  6
BYBLOCK
 62
     0
100
AcDbPoint
 10
437.55724
 20
189.027379
 30
0.0
  0
POINT
  5
15A3
100
AcDbEntity
  8
DEFPOINTS
  6
BYBLOCK
 62
     0
100
AcDbPoint
 10
428.825301
 20
0.542416
 30
0.0
  0
POINT
  5
15A4
100
AcDbEntity
  8
DEFPOINTS
  6
BYBLOCK
 62
     0
100
AcDbPoint
 10
467.051852
 20
0.542416
 30
0.0
  0
ENDBLK
  5
15A5
100
AcDbEntity
  8
0
100
AcDbBlockEnd
  0
ENDSEC
  0
SECTION
  2
ENTITIES
  0
INSERT
  5
CC
100
AcDbEntity
  8
0
100
AcDbBlockReference
  2
SCH_IS
 10
-68.718396
 20
-140.042541
 30
0.0
  0
INSERT
  5
EC
100
AcDbEntity
  8
COTATION1
100
AcDbBlockReference
  2
SCH_IS
 10
0.0
 20
0.0
 30
0.0
  0
POLYLINE
  5
10FB
100
AcDbEntity
  8
ALPHA
100
AcDb2dPolyline
 66
     1
 10
0.0
 20
0.0
 30
0.0
  0
VERTEX
  5
10FC
100
AcDbEntity
  8
ALPHA
100
AcDbVertex
100
AcDb2dVertex
 10
317.771098
 20
124.014982
 30
0.0
  0
VERTEX
  5
10FD
100
AcDbEntity
  8
ALPHA
100
AcDbVertex
100
AcDb2dVertex
 10
244.019699
 20
124.014982
 30
0.0
  0
SEQEND
  5
10FE
100
AcDbEntity
  8
ALPHA
  0
POLYLINE
  5
10FF
100
AcDbEntity
  8
ALPHA
100
AcDb2dPolyline
 66
     1
 10
0.0
 20
0.0
 30
0.0
  0
VERTEX
  5
1100
100
AcDbEntity
  8
ALPHA
100
AcDbVertex
100
AcDb2dVertex
 10
212.579069
 20
124.014982
 30
0.0
  0
VERTEX
  5
1101
100
AcDbEntity
  8
ALPHA
100
AcDbVertex
100
AcDb2dVertex
 10
137.417076
 20
124.014982
 30
0.0
  0
SEQEND
  5
1102
100
AcDbEntity
  8
ALPHA
  0
POLYLINE
  5
1103
100
AcDbEntity
  8
ALPHA
100
AcDb2dPolyline
 66
     1
 10
0.0
 20
0.0
 30
0.0
  0
VERTEX
  5
1104
100
AcDbEntity
  8
ALPHA
100
AcDbVertex
100
AcDb2dVertex
 10
132.378452
 20
105.838314
 30
0.0
  0
VERTEX
  5
1105
100
AcDbEntity
  8
ALPHA
100
AcDbVertex
100
AcDb2dVertex
 10
100.317187
 20
184.215959
 30
0.0
  0
SEQEND
  5
1106
100
AcDbEntity
  8
ALPHA
  0
POLYLINE
  5
1107
100
AcDbEntity
  8
ALPHA
100
AcDb2dPolyline
 66
     1
 10
0.0
 20
0.0
 30
0.0
  0
VERTEX
  5
1108
100
AcDbEntity
  8
ALPHA
100
AcDbVertex
100
AcDb2dVertex
 10
182.234668
 20
118.781021
 30
0.0
  0
VERTEX
  5
1109
100
AcDbEntity
  8
ALPHA
100
AcDbVertex
100
AcDb2dVertex
 10
182.219648
 20
119.00157
 30
0.0
  0
VERTEX
  5
110A
100
AcDbEntity
  8
ALPHA
100
AcDbVertex
100
AcDb2dVertex
 10
182.173553
 20
119.225553
 30
0.0
  0
VERTEX
  5
110B
100
AcDbEntity
  8
ALPHA
100
AcDbVertex
100
AcDb2dVertex
 10
182.094923
 20
119.45234
 30
0.0
  0
VERTEX
  5
110C
100
AcDbEntity
  8
ALPHA
100
AcDbVertex
100
AcDb2dVertex
 10
181.982434
 20
119.681238
 30
0.0
  0
VERTEX
  5
110D
100
AcDbEntity
  8
ALPHA
100
AcDbVertex
100
AcDb2dVertex
 10
181.834931
 20
119.911494
 30
0.0
  0
VERTEX
  5
110E
100
AcDbEntity
  8
ALPHA
100
AcDbVertex
100
AcDb2dVertex
 10
181.651453
 20
120.142299
 30
0.0
  0
VERTEX
  5
110F
100
AcDbEntity
  8
ALPHA
100
AcDbVertex
100
AcDb2dVertex
 10
181.173851
 20
120.602081
 30
0.0
  0
VERTEX
  5
1110
100
AcDbEntity
  8
ALPHA
100
AcDbVertex
100
AcDb2dVertex
 10
180.546766
 20
121.053273
 30
0.0
  0
VERTEX
  5
1111
100
AcDbEntity
  8
ALPHA
100
AcDbVertex
100
AcDb2dVertex
 10
179.771851
 20
121.488215
 30
0.0
  0
VERTEX
  5
1112
100
AcDbEntity
  8
ALPHA
100
AcDbVertex
100
AcDb2dVertex
 10
177.809369
 20
122.279276
 30
0.0
  0
VERTEX
  5
1113
100
AcDbEntity
  8
ALPHA
100
AcDbVertex
100
AcDb2dVertex
 10
175.393491
 20
122.92188
 30
0.0
  0
VERTEX
  5
1114
100
AcDbEntity
  8
ALPHA
100
AcDbVertex
100
AcDb2dVertex
 10
172.687248
 20
123.380964
 30
0.0
  0
VERTEX
  5
1115
100
AcDbEntity
  8
ALPHA
100
AcDbVertex
100
AcDb2dVertex
 10
167.125713
 20
123.72835
 30
0.0
  0
VERTEX
  5
1116
100
AcDbEntity
  8
ALPHA
100
AcDbVertex
100
AcDb2dVertex
 10
161.564174
 20
123.381028
 30
0.0
  0
VERTEX
  5
1117
100
AcDbEntity
  8
ALPHA
100
AcDbVertex
100
AcDb2dVertex
 10
158.857925
 20
122.921975
 30
0.0
  0
VERTEX
  5
1118
100
AcDbEntity
  8
ALPHA
100
AcDbVertex
100
AcDb2dVertex
 10
156.44204
 20
122.279397
 30
0.0
  0
VERTEX
  5
1119
100
AcDbEntity
  8
ALPHA
100
AcDbVertex
100
AcDb2dVertex
 10
154.479549
 20
121.488359
 30
0.0
  0
VERTEX
  5
111A
100
AcDbEntity
  8
ALPHA
100
AcDbVertex
100
AcDb2dVertex
 10
153.70463
 20
121.053426
 30
0.0
  0
VERTEX
  5
111B
100
AcDbEntity
  8
ALPHA
100
AcDbVertex
100
AcDb2dVertex
 10
153.077539
 20
120.602241
 30
0.0
  0
VERTEX
  5
111C
100
AcDbEntity
  8
ALPHA
100
AcDbVertex
100
AcDb2dVertex
 10
152.599932
 20
120.142465
 30
0.0
  0
VERTEX
  5
111D
100
AcDbEntity
  8
ALPHA
100
AcDbVertex
100
AcDb2dVertex
 10
152.416451
 20
119.911662
 30
0.0
  0
VERTEX
  5
111E
100
AcDbEntity
  8
ALPHA
100
AcDbVertex
100
AcDb2dVertex
 10
152.268946
 20
119.681407
 30
0.0
  0
VERTEX
  5
111F
100
AcDbEntity
  8
ALPHA
100
AcDbVertex
100
AcDb2dVertex
 10
152.156454
 20
119.452511
 30
0.0
  0
VERTEX
  5
1120
100
AcDbEntity
  8
ALPHA
100
AcDbVertex
100
AcDb2dVertex
 10
152.077821
 20
119.225725
 30
0.0
  0
VERTEX
  5
1121
100
AcDbEntity
  8
ALPHA
100
AcDbVertex
100
AcDb2dVertex
 10
152.031724
 20
119.001743
 30
0.0
  0
VERTEX
  5
1122
100
AcDbEntity
  8
ALPHA
100
AcDbVertex
100
AcDb2dVertex
 10
152.016702
 20
118.781193
 30
0.0
  0
VERTEX
  5
1123
100
AcDbEntity
  8
ALPHA
100
AcDbVertex
100
AcDb2dVertex
 10
152.031722
 20
118.560644
 30
0.0
  0
VERTEX
  5
1124
100
AcDbEntity
  8
ALPHA
100
AcDbVertex
100
AcDb2dVertex
 10
152.077816
 20
118.336661
 30
0.0
  0
VERTEX
  5
1125
100
AcDbEntity
  8
ALPHA
100
AcDbVertex
100
AcDb2dVertex
 10
152.156447
 20
118.109874
 30
0.0
  0
VERTEX
  5
1126
100
AcDbEntity
  8
ALPHA
100
AcDbVertex
100
AcDb2dVertex
 10
152.268935
 20
117.880976
 30
0.0
  0
VERTEX
  5
1127
100
AcDbEntity
  8
ALPHA
100
AcDbVertex
100
AcDb2dVertex
 10
152.416438
 20
117.65072
 30
0.0
  0
VERTEX
  5
1128
100
AcDbEntity
  8
ALPHA
100
AcDbVertex
100
AcDb2dVertex
 10
152.599916
 20
117.419915
 30
0.0
  0
VERTEX
  5
1129
100
AcDbEntity
  8
ALPHA
100
AcDbVertex
100
AcDb2dVertex
 10
153.077519
 20
116.960133
 30
0.0
  0
VERTEX
  5
112A
100
AcDbEntity
  8
ALPHA
100
AcDbVertex
100
AcDb2dVertex
 10
153.704604
 20
116.508942
 30
0.0
  0
VERTEX
  5
112B
100
AcDbEntity
  8
ALPHA
100
AcDbVertex
100
AcDb2dVertex
 10
154.479518
 20
116.074
 30
0.0
  0
VERTEX
  5
112C
100
AcDbEntity
  8
ALPHA
100
AcDbVertex
100
AcDb2dVertex
 10
156.442
 20
115.282939
 30
0.0
  0
VERTEX
  5
112D
100
AcDbEntity
  8
ALPHA
100
AcDbVertex
100
AcDb2dVertex
 10
158.857878
 20
114.640334
 30
0.0
  0
VERTEX
  5
112E
100
AcDbEntity
  8
ALPHA
100
AcDbVertex
100
AcDb2dVertex
 10
161.564122
 20
114.18125
 30
0.0
  0
VERTEX
  5
112F
100
AcDbEntity
  8
ALPHA
100
AcDbVertex
100
AcDb2dVertex
 10
167.125656
 20
113.833864
 30
0.0
  0
VERTEX
  5
1130
100
AcDbEntity
  8
ALPHA
100
AcDbVertex
100
AcDb2dVertex
 10
172.687195
 20
114.181187
 30
0.0
  0
VERTEX
  5
1131
100
AcDbEntity
  8
ALPHA
100
AcDbVertex
100
AcDb2dVertex
 10
175.393444
 20
114.64024
 30
0.0
  0
VERTEX
  5
1132
100
AcDbEntity
  8
ALPHA
100
AcDbVertex
100
AcDb2dVertex
 10
177.809329
 20
115.282817
 30
0.0
  0
VERTEX
  5
1133
100
AcDbEntity
  8
ALPHA
100
AcDbVertex
100
AcDb2dVertex
 10
179.77182
 20
116.073855
 30
0.0
  0
VERTEX
  5
1134
100
AcDbEntity
  8
ALPHA
100
AcDbVertex
100
AcDb2dVertex
 10
180.54674
 20
116.508789
 30
0.0
  0
VERTEX
  5
1135
100
AcDbEntity
  8
ALPHA
100
AcDbVertex
100
AcDb2dVertex
 10
181.17383
 20
116.959973
 30
0.0
  0
VERTEX
  5
1136
100
AcDbEntity
  8
ALPHA
100
AcDbVertex
100
AcDb2dVertex
 10
181.651437
 20
117.41975
 30
0.0
  0
VERTEX
  5
1137
100
AcDbEntity
  8
ALPHA
100
AcDbVertex
100
AcDb2dVertex
 10
181.834918
 20
117.650553
 30
0.0
  0
VERTEX
  5
1138
100
AcDbEntity
  8
ALPHA
100
AcDbVertex
100
AcDb2dVertex
 10
181.982424
 20
117.880807
 30
0.0
  0
VERTEX
  5
1139
100
AcDbEntity
  8
ALPHA
100
AcDbVertex
100
AcDb2dVertex
 10
182.094915
 20
118.109704
 30
0.0
  0
VERTEX
  5
113A
100
AcDbEntity
  8
ALPHA
100
AcDbVertex
100
AcDb2dVertex
 10
182.173548
 20
118.33649
 30
0.0
  0
VERTEX
  5
113B
100
AcDbEntity
  8
ALPHA
100
AcDbVertex
100
AcDb2dVertex
 10
182.219645
 20
118.560472
 30
0.0
  0
VERTEX
  5
113C
100
AcDbEntity
  8
ALPHA
100
AcDbVertex
100
AcDb2dVertex
 10
182.234668
 20
118.781021
 30
0.0
  0
SEQEND
  5
113D
100
AcDbEntity
  8
ALPHA
  0
POLYLINE
  5
113E
100
AcDbEntity
  8
ALPHA
100
AcDb2dPolyline
 66
     1
 10
0.0
 20
0.0
 30
0.0
  0
VERTEX
  5
113F
100
AcDbEntity
  8
ALPHA
100
AcDbVertex
100
AcDb2dVertex
 10
212.449533
 20
118.781021
 30
0.0
  0
VERTEX
  5
1140
100
AcDbEntity
  8
ALPHA
100
AcDbVertex
100
AcDb2dVertex
 10
212.434513
 20
119.00157
 30
0.0
  0
VERTEX
  5
1141
100
AcDbEntity
  8
ALPHA
100
AcDbVertex
100
AcDb2dVertex
 10
212.388418
 20
119.225553
 30
0.0
  0
VERTEX
  5
1142
100
AcDbEntity
  8
ALPHA
100
AcDbVertex
100
AcDb2dVertex
 10
212.309786
 20
119.45234
 30
0.0
  0
VERTEX
  5
1143
100
AcDbEntity
  8
ALPHA
100
AcDbVertex
100
AcDb2dVertex
 10
212.197296
 20
119.681238
 30
0.0
  0
VERTEX
  5
1144
100
AcDbEntity
  8
ALPHA
100
AcDbVertex
100
AcDb2dVertex
 10
212.049792
 20
119.911494
 30
0.0
  0
VERTEX
  5
1145
100
AcDbEntity
  8
ALPHA
100
AcDbVertex
100
AcDb2dVertex
 10
211.866312
 20
120.142299
 30
0.0
  0
VERTEX
  5
1146
100
AcDbEntity
  8
ALPHA
100
AcDbVertex
100
AcDb2dVertex
 10
211.388704
 20
120.602081
 30
0.0
  0
VERTEX
  5
1147
100
AcDbEntity
  8
ALPHA
100
AcDbVertex
100
AcDb2dVertex
 10
210.761612
 20
121.053273
 30
0.0
  0
VERTEX
  5
1148
100
AcDbEntity
  8
ALPHA
100
AcDbVertex
100
AcDb2dVertex
 10
209.986688
 20
121.488215
 30
0.0
  0
VERTEX
  5
1149
100
AcDbEntity
  8
ALPHA
100
AcDbVertex
100
AcDb2dVertex
 10
208.024184
 20
122.279276
 30
0.0
  0
VERTEX
  5
114A
100
AcDbEntity
  8
ALPHA
100
AcDbVertex
100
AcDb2dVertex
 10
205.608279
 20
122.92188
 30
0.0
  0
VERTEX
  5
114B
100
AcDbEntity
  8
ALPHA
100
AcDbVertex
100
AcDb2dVertex
 10
202.902004
 20
123.380964
 30
0.0
  0
VERTEX
  5
114C
100
AcDbEntity
  8
ALPHA
100
AcDbVertex
100
AcDb2dVertex
 10
197.340406
 20
123.72835
 30
0.0
  0
VERTEX
  5
114D
100
AcDbEntity
  8
ALPHA
100
AcDbVertex
100
AcDb2dVertex
 10
191.778804
 20
123.381028
 30
0.0
  0
VERTEX
  5
114E
100
AcDbEntity
  8
ALPHA
100
AcDbVertex
100
AcDb2dVertex
 10
189.072524
 20
122.921975
 30
0.0
  0
VERTEX
  5
114F
100
AcDbEntity
  8
ALPHA
100
AcDbVertex
100
AcDb2dVertex
 10
186.656612
 20
122.279397
 30
0.0
  0
VERTEX
  5
1150
100
AcDbEntity
  8
ALPHA
100
AcDbVertex
100
AcDb2dVertex
 10
184.694098
 20
121.488359
 30
0.0
  0
VERTEX
  5
1151
100
AcDbEntity
  8
ALPHA
100
AcDbVertex
100
AcDb2dVertex
 10
183.91917
 20
121.053426
 30
0.0
  0
VERTEX
  5
1152
100
AcDbEntity
  8
ALPHA
100
AcDbVertex
100
AcDb2dVertex
 10
183.292072
 20
120.602241
 30
0.0
  0
VERTEX
  5
1153
100
AcDbEntity
  8
ALPHA
100
AcDbVertex
100
AcDb2dVertex
 10
182.814459
 20
120.142465
 30
0.0
  0
VERTEX
  5
1154
100
AcDbEntity
  8
ALPHA
100
AcDbVertex
100
AcDb2dVertex
 10
182.630976
 20
119.911662
 30
0.0
  0
VERTEX
  5
1155
100
AcDbEntity
  8
ALPHA
100
AcDbVertex
100
AcDb2dVertex
 10
182.48347
 20
119.681407
 30
0.0
  0
VERTEX
  5
1156
100
AcDbEntity
  8
ALPHA
100
AcDbVertex
100
AcDb2dVertex
 10
182.370977
 20
119.452511
 30
0.0
  0
VERTEX
  5
1157
100
AcDbEntity
  8
ALPHA
100
AcDbVertex
100
AcDb2dVertex
 10
182.292343
 20
119.225725
 30
0.0
  0
VERTEX
  5
1158
100
AcDbEntity
  8
ALPHA
100
AcDbVertex
100
AcDb2dVertex
 10
182.246245
 20
119.001743
 30
0.0
  0
VERTEX
  5
1159
100
AcDbEntity
  8
ALPHA
100
AcDbVertex
100
AcDb2dVertex
 10
182.231223
 20
118.781193
 30
0.0
  0
VERTEX
  5
115A
100
AcDbEntity
  8
ALPHA
100
AcDbVertex
100
AcDb2dVertex
 10
182.246243
 20
118.560644
 30
0.0
  0
VERTEX
  5
115B
100
AcDbEntity
  8
ALPHA
100
AcDbVertex
100
AcDb2dVertex
 10
182.292338
 20
118.336661
 30
0.0
  0
VERTEX
  5
115C
100
AcDbEntity
  8
ALPHA
100
AcDbVertex
100
AcDb2dVertex
 10
182.370969
 20
118.109874
 30
0.0
  0
VERTEX
  5
115D
100
AcDbEntity
  8
ALPHA
100
AcDbVertex
100
AcDb2dVertex
 10
182.483459
 20
117.880976
 30
0.0
  0
VERTEX
  5
115E
100
AcDbEntity
  8
ALPHA
100
AcDbVertex
100
AcDb2dVertex
 10
182.630964
 20
117.65072
 30
0.0
  0
VERTEX
  5
115F
100
AcDbEntity
  8
ALPHA
100
AcDbVertex
100
AcDb2dVertex
 10
182.814444
 20
117.419915
 30
0.0
  0
VERTEX
  5
1160
100
AcDbEntity
  8
ALPHA
100
AcDbVertex
100
AcDb2dVertex
 10
183.292052
 20
116.960133
 30
0.0
  0
VERTEX
  5
1161
100
AcDbEntity
  8
ALPHA
100
AcDbVertex
100
AcDb2dVertex
 10
183.919144
 20
116.508942
 30
0.0
  0
VERTEX
  5
1162
100
AcDbEntity
  8
ALPHA
100
AcDbVertex
100
AcDb2dVertex
 10
184.694067
 20
116.074
 30
0.0
  0
VERTEX
  5
1163
100
AcDbEntity
  8
ALPHA
100
AcDbVertex
100
AcDb2dVertex
 10
186.656572
 20
115.282939
 30
0.0
  0
VERTEX
  5
1164
100
AcDbEntity
  8
ALPHA
100
AcDbVertex
100
AcDb2dVertex
 10
189.072477
 20
114.640334
 30
0.0
  0
VERTEX
  5
1165
100
AcDbEntity
  8
ALPHA
100
AcDbVertex
100
AcDb2dVertex
 10
191.778752
 20
114.18125
 30
0.0
  0
VERTEX
  5
1166
100
AcDbEntity
  8
ALPHA
100
AcDbVertex
100
AcDb2dVertex
 10
197.34035
 20
113.833864
 30
0.0
  0
VERTEX
  5
1167
100
AcDbEntity
  8
ALPHA
100
AcDbVertex
100
AcDb2dVertex
 10
202.901952
 20
114.181187
 30
0.0
  0
VERTEX
  5
1168
100
AcDbEntity
  8
ALPHA
100
AcDbVertex
100
AcDb2dVertex
 10
205.608231
 20
114.64024
 30
0.0
  0
VERTEX
  5
1169
100
AcDbEntity
  8
ALPHA
100
AcDbVertex
100
AcDb2dVertex
 10
208.024144
 20
115.282817
 30
0.0
  0
VERTEX
  5
116A
100
AcDbEntity
  8
ALPHA
100
AcDbVertex
100
AcDb2dVertex
 10
209.986658
 20
116.073855
 30
0.0
  0
VERTEX
  5
116B
100
AcDbEntity
  8
ALPHA
100
AcDbVertex
100
AcDb2dVertex
 10
210.761586
 20
116.508789
 30
0.0
  0
VERTEX
  5
116C
100
AcDbEntity
  8
ALPHA
100
AcDbVertex
100
AcDb2dVertex
 10
211.388683
 20
116.959973
 30
0.0
  0
VERTEX
  5
116D
100
AcDbEntity
  8
ALPHA
100
AcDbVertex
100
AcDb2dVertex
 10
211.866296
 20
117.41975
 30
0.0
  0
VERTEX
  5
116E
100
AcDbEntity
  8
ALPHA
100
AcDbVertex
100
AcDb2dVertex
 10
212.049779
 20
117.650553
 30
0.0
  0
VERTEX
  5
116F
100
AcDbEntity
  8
ALPHA
100
AcDbVertex
100
AcDb2dVertex
 10
212.197286
 20
117.880807
 30
0.0
  0
VERTEX
  5
1170
100
AcDbEntity
  8
ALPHA
100
AcDbVertex
100
AcDb2dVertex
 10
212.309779
 20
118.109704
 30
0.0
  0
VERTEX
  5
1171
100
AcDbEntity
  8
ALPHA
100
AcDbVertex
100
AcDb2dVertex
 10
212.388413
 20
118.33649
 30
0.0
  0
VERTEX
  5
1172
100
AcDbEntity
  8
ALPHA
100
AcDbVertex
100
AcDb2dVertex
 10
212.43451
 20
118.560472
 30
0.0
  0
VERTEX
  5
1173
100
AcDbEntity
  8
ALPHA
100
AcDbVertex
100
AcDb2dVertex
 10
212.449533
 20
118.781021
 30
0.0
  0
SEQEND
  5
1174
100
AcDbEntity
  8
ALPHA
  0
POLYLINE
  5
1175
100
AcDbEntity
  8
ALPHA
100
AcDb2dPolyline
 66
     1
 10
0.0
 20
0.0
 30
0.0
  0
VERTEX
  5
1176
100
AcDbEntity
  8
ALPHA
100
AcDbVertex
100
AcDb2dVertex
 10
246.826763
 20
137.32063
 30
0.0
  0
VERTEX
  5
1177
100
AcDbEntity
  8
ALPHA
100
AcDbVertex
100
AcDb2dVertex
 10
246.80773
 20
137.678273
 30
0.0
  0
VERTEX
  5
1178
100
AcDbEntity
  8
ALPHA
100
AcDbVertex
100
AcDb2dVertex
 10
246.749292
 20
138.041484
 30
0.0
  0
VERTEX
  5
1179
100
AcDbEntity
  8
ALPHA
100
AcDbVertex
100
AcDb2dVertex
 10
246.649594
 20
138.409244
 30
0.0
  0
VERTEX
  5
117A
100
AcDbEntity
  8
ALPHA
100
AcDbVertex
100
AcDb2dVertex
 10
246.506961
 20
138.780429
 30
0.0
  0
VERTEX
  5
117B
100
AcDbEntity
  8
ALPHA
100
AcDbVertex
100
AcDb2dVertex
 10
246.319926
 20
139.153818
 30
0.0
  0
VERTEX
  5
117C
100
AcDbEntity
  8
ALPHA
100
AcDbVertex
100
AcDb2dVertex
 10
246.08727
 20
139.528099
 30
0.0
  0
VERTEX
  5
117D
100
AcDbEntity
  8
ALPHA
100
AcDbVertex
100
AcDb2dVertex
 10
245.481647
 20
140.273702
 30
0.0
  0
VERTEX
  5
117E
100
AcDbEntity
  8
ALPHA
100
AcDbVertex
100
AcDb2dVertex
 10
244.686462
 20
141.005381
 30
0.0
  0
VERTEX
  5
117F
100
AcDbEntity
  8
ALPHA
100
AcDbVertex
100
AcDb2dVertex
 10
243.703811
 20
141.710718
 30
0.0
  0
VERTEX
  5
1180
100
AcDbEntity
  8
ALPHA
100
AcDbVertex
100
AcDb2dVertex
 10
241.215214
 20
142.993591
 30
0.0
  0
VERTEX
  5
1181
100
AcDbEntity
  8
ALPHA
100
AcDbVertex
100
AcDb2dVertex
 10
238.15165
 20
144.035751
 30
0.0
  0
VERTEX
  5
1182
100
AcDbEntity
  8
ALPHA
100
AcDbVertex
100
AcDb2dVertex
 10
234.719857
 20
144.780328
 30
0.0
  0
VERTEX
  5
1183
100
AcDbEntity
  8
ALPHA
100
AcDbVertex
100
AcDb2dVertex
 10
227.667225
 20
145.343913
 30
0.0
  0
VERTEX
  5
1184
100
AcDbEntity
  8
ALPHA
100
AcDbVertex
100
AcDb2dVertex
 10
220.614542
 20
144.780962
 30
0.0
  0
VERTEX
  5
1185
100
AcDbEntity
  8
ALPHA
100
AcDbVertex
100
AcDb2dVertex
 10
217.182683
 20
144.036694
 30
0.0
  0
VERTEX
  5
1186
100
AcDbEntity
  8
ALPHA
100
AcDbVertex
100
AcDb2dVertex
 10
214.119025
 20
142.994809
 30
0.0
  0
VERTEX
  5
1187
100
AcDbEntity
  8
ALPHA
100
AcDbVertex
100
AcDb2dVertex
 10
211.630313
 20
141.71216
 30
0.0
  0
VERTEX
  5
1188
100
AcDbEntity
  8
ALPHA
100
AcDbVertex
100
AcDb2dVertex
 10
210.647599
 20
141.006911
 30
0.0
  0
VERTEX
  5
1189
100
AcDbEntity
  8
ALPHA
100
AcDbVertex
100
AcDb2dVertex
 10
209.852348
 20
140.275303
 30
0.0
  0
VERTEX
  5
118A
100
AcDbEntity
  8
ALPHA
100
AcDbVertex
100
AcDb2dVertex
 10
209.246657
 20
139.529755
 30
0.0
  0
VERTEX
  5
118B
100
AcDbEntity
  8
ALPHA
100
AcDbVertex
100
AcDb2dVertex
 10
209.013967
 20
139.155495
 30
0.0
  0
VERTEX
  5
118C
100
AcDbEntity
  8
ALPHA
100
AcDbVertex
100
AcDb2dVertex
 10
208.826899
 20
138.782123
 30
0.0
  0
VERTEX
  5
118D
100
AcDbEntity
  8
ALPHA
100
AcDbVertex
100
AcDb2dVertex
 10
208.684232
 20
138.41095
 30
0.0
  0
VERTEX
  5
118E
100
AcDbEntity
  8
ALPHA
100
AcDbVertex
100
AcDb2dVertex
 10
208.584502
 20
138.043199
 30
0.0
  0
VERTEX
  5
118F
100
AcDbEntity
  8
ALPHA
100
AcDbVertex
100
AcDb2dVertex
 10
208.526031
 20
137.679993
 30
0.0
  0
VERTEX
  5
1190
100
AcDbEntity
  8
ALPHA
100
AcDbVertex
100
AcDb2dVertex
 10
208.506966
 20
137.322353
 30
0.0
  0
VERTEX
  5
1191
100
AcDbEntity
  8
ALPHA
100
AcDbVertex
100
AcDb2dVertex
 10
208.525998
 20
136.96471
 30
0.0
  0
VERTEX
  5
1192
100
AcDbEntity
  8
ALPHA
100
AcDbVertex
100
AcDb2dVertex
 10
208.584437
 20
136.601499
 30
0.0
  0
VERTEX
  5
1193
100
AcDbEntity
  8
ALPHA
100
AcDbVertex
100
AcDb2dVertex
 10
208.684134
 20
136.233739
 30
0.0
  0
VERTEX
  5
1194
100
AcDbEntity
  8
ALPHA
100
AcDbVertex
100
AcDb2dVertex
 10
208.826768
 20
135.862554
 30
0.0
  0
VERTEX
  5
1195
100
AcDbEntity
  8
ALPHA
100
AcDbVertex
100
AcDb2dVertex
 10
209.013803
 20
135.489165
 30
0.0
  0
VERTEX
  5
1196
100
AcDbEntity
  8
ALPHA
100
AcDbVertex
100
AcDb2dVertex
 10
209.246459
 20
135.114884
 30
0.0
  0
VERTEX
  5
1197
100
AcDbEntity
  8
ALPHA
100
AcDbVertex
100
AcDb2dVertex
 10
209.852082
 20
134.369281
 30
0.0
  0
VERTEX
  5
1198
100
AcDbEntity
  8
ALPHA
100
AcDbVertex
100
AcDb2dVertex
 10
210.647267
 20
133.637602
 30
0.0
  0
VERTEX
  5
1199
100
AcDbEntity
  8
ALPHA
100
AcDbVertex
100
AcDb2dVertex
 10
211.629918
 20
132.932265
 30
0.0
  0
VERTEX
  5
119A
100
AcDbEntity
  8
ALPHA
100
AcDbVertex
100
AcDb2dVertex
 10
214.118515
 20
131.649392
 30
0.0
  0
VERTEX
  5
119B
100
AcDbEntity
  8
ALPHA
100
AcDbVertex
100
AcDb2dVertex
 10
217.182079
 20
130.607232
 30
0.0
  0
VERTEX
  5
119C
100
AcDbEntity
  8
ALPHA
100
AcDbVertex
100
AcDb2dVertex
 10
220.613872
 20
129.862655
 30
0.0
  0
VERTEX
  5
119D
100
AcDbEntity
  8
ALPHA
100
AcDbVertex
100
AcDb2dVertex
 10
227.666504
 20
129.29907
 30
0.0
  0
VERTEX
  5
119E
100
AcDbEntity
  8
ALPHA
100
AcDbVertex
100
AcDb2dVertex
 10
234.719186
 20
129.862021
 30
0.0
  0
VERTEX
  5
119F
100
AcDbEntity
  8
ALPHA
100
AcDbVertex
100
AcDb2dVertex
 10
238.151046
 20
130.606289
 30
0.0
  0
VERTEX
  5
11A0
100
AcDbEntity
  8
ALPHA
100
AcDbVertex
100
AcDb2dVertex
 10
241.214704
 20
131.648174
 30
0.0
  0
VERTEX
  5
11A1
100
AcDbEntity
  8
ALPHA
100
AcDbVertex
100
AcDb2dVertex
 10
243.703416
 20
132.930823
 30
0.0
  0
VERTEX
  5
11A2
100
AcDbEntity
  8
ALPHA
100
AcDbVertex
100
AcDb2dVertex
 10
244.68613
 20
133.636072
 30
0.0
  0
VERTEX
  5
11A3
100
AcDbEntity
  8
ALPHA
100
AcDbVertex
100
AcDb2dVertex
 10
245.481381
 20
134.36768
 30
0.0
  0
VERTEX
  5
11A4
100
AcDbEntity
  8
ALPHA
100
AcDbVertex
100
AcDb2dVertex
 10
246.087072
 20
135.113228
 30
0.0
  0
VERTEX
  5
11A5
100
AcDbEntity
  8
ALPHA
100
AcDbVertex
100
AcDb2dVertex
 10
246.319761
 20
135.487488
 30
0.0
  0
VERTEX
  5
11A6
100
AcDbEntity
  8
ALPHA
100
AcDbVertex
100
AcDb2dVertex
 10
246.50683
 20
135.86086
 30
0.0
  0
VERTEX
  5
11A7
100
AcDbEntity
  8
ALPHA
100
AcDbVertex
100
AcDb2dVertex
 10
246.649497
 20
136.232032
 30
0.0
  0
VERTEX
  5
11A8
100
AcDbEntity
  8
ALPHA
100
AcDbVertex
100
AcDb2dVertex
 10
246.749227
 20
136.599783
 30
0.0
  0
VERTEX
  5
11A9
100
AcDbEntity
  8
ALPHA
100
AcDbVertex
100
AcDb2dVertex
 10
246.807698
 20
136.96299
 30
0.0
  0
VERTEX
  5
11AA
100
AcDbEntity
  8
ALPHA
100
AcDbVertex
100
AcDb2dVertex
 10
246.826763
 20
137.32063
 30
0.0
  0
SEQEND
  5
11AB
100
AcDbEntity
  8
ALPHA
  0
POLYLINE
  5
11AC
100
AcDbEntity
  8
ALPHA
100
AcDb2dPolyline
 66
     1
 10
0.0
 20
0.0
 30
0.0
  0
VERTEX
  5
11AD
100
AcDbEntity
  8
ALPHA
100
AcDbVertex
100
AcDb2dVertex
 10
428.825301
 20
48.68039
 30
0.0
  0
VERTEX
  5
11AE
100
AcDbEntity
  8
ALPHA
100
AcDbVertex
100
AcDb2dVertex
 10
26.359428
 20
48.68039
 30
0.0
  0
SEQEND
  5
11AF
100
AcDbEntity
  8
ALPHA
  0
POLYLINE
  5
11B0
100
AcDbEntity
  8
ALPHA
100
AcDb2dPolyline
 66
     1
 10
0.0
 20
0.0
 30
0.0
  0
VERTEX
  5
11B1
100
AcDbEntity
  8
ALPHA
100
AcDbVertex
100
AcDb2dVertex
 10
322.804554
 20
105.838314
 30
0.0
  0
VERTEX
  5
11B2
100
AcDbEntity
  8
ALPHA
100
AcDbVertex
100
AcDb2dVertex
 10
354.867713
 20
184.215959
 30
0.0
  0
SEQEND
  5
11B3
100
AcDbEntity
  8
ALPHA
  0
POLYLINE
  5
11B4
100
AcDbEntity
  8
ALPHA
100
AcDb2dPolyline
 66
     1
 10
0.0
 20
0.0
 30
0.0
  0
VERTEX
  5
11B5
100
AcDbEntity
  8
ALPHA
100
AcDbVertex
100
AcDb2dVertex
 10
317.473614
 20
104.165376
 30
0.0
  0
VERTEX
  5
11B6
100
AcDbEntity
  8
ALPHA
100
AcDbVertex
100
AcDb2dVertex
 10
137.707498
 20
104.165376
 30
0.0
  0
SEQEND
  5
11B7
100
AcDbEntity
  8
ALPHA
  0
POLYLINE
  5
11B8
100
AcDbEntity
  8
ALPHA
100
AcDb2dPolyline
 66
     1
 10
0.0
 20
0.0
 30
0.0
  0
VERTEX
  5
11B9
100
AcDbEntity
  8
ALPHA
100
AcDbVertex
100
AcDb2dVertex
 10
272.948166
 20
118.781021
 30
0.0
  0
VERTEX
  5
11BA
100
AcDbEntity
  8
ALPHA
100
AcDbVertex
100
AcDb2dVertex
 10
272.963192
 20
118.560472
 30
0.0
  0
VERTEX
  5
11BB
100
AcDbEntity
  8
ALPHA
100
AcDbVertex
100
AcDb2dVertex
 10
273.009301
 20
118.33649
 30
0.0
  0
VERTEX
  5
11BC
100
AcDbEntity
  8
ALPHA
100
AcDbVertex
100
AcDb2dVertex
 10
273.087954
 20
118.109704
 30
0.0
  0
VERTEX
  5
11BD
100
AcDbEntity
  8
ALPHA
100
AcDbVertex
100
AcDb2dVertex
 10
273.200473
 20
117.880807
 30
0.0
  0
VERTEX
  5
11BE
100
AcDbEntity
  8
ALPHA
100
AcDbVertex
100
AcDb2dVertex
 10
273.348016
 20
117.650553
 30
0.0
  0
VERTEX
  5
11BF
100
AcDbEntity
  8
ALPHA
100
AcDbVertex
100
AcDb2dVertex
 10
273.531542
 20
117.41975
 30
0.0
  0
VERTEX
  5
11C0
100
AcDbEntity
  8
ALPHA
100
AcDbVertex
100
AcDb2dVertex
 10
274.00927
 20
116.959973
 30
0.0
  0
VERTEX
  5
11C1
100
AcDbEntity
  8
ALPHA
100
AcDbVertex
100
AcDb2dVertex
 10
274.636517
 20
116.508789
 30
0.0
  0
VERTEX
  5
11C2
100
AcDbEntity
  8
ALPHA
100
AcDbVertex
100
AcDb2dVertex
 10
275.411631
 20
116.073855
 30
0.0
  0
VERTEX
  5
11C3
100
AcDbEntity
  8
ALPHA
100
AcDbVertex
100
AcDb2dVertex
 10
277.374615
 20
115.282817
 30
0.0
  0
VERTEX
  5
11C4
100
AcDbEntity
  8
ALPHA
100
AcDbVertex
100
AcDb2dVertex
 10
279.791106
 20
114.64024
 30
0.0
  0
VERTEX
  5
11C5
100
AcDbEntity
  8
ALPHA
100
AcDbVertex
100
AcDb2dVertex
 10
282.498033
 20
114.181187
 30
0.0
  0
VERTEX
  5
11C6
100
AcDbEntity
  8
ALPHA
100
AcDbVertex
100
AcDb2dVertex
 10
288.060967
 20
113.833864
 30
0.0
  0
VERTEX
  5
11C7
100
AcDbEntity
  8
ALPHA
100
AcDbVertex
100
AcDb2dVertex
 10
293.623896
 20
114.18125
 30
0.0
  0
VERTEX
  5
11C8
100
AcDbEntity
  8
ALPHA
100
AcDbVertex
100
AcDb2dVertex
 10
296.330819
 20
114.640334
 30
0.0
  0
VERTEX
  5
11C9
100
AcDbEntity
  8
ALPHA
100
AcDbVertex
100
AcDb2dVertex
 10
298.747303
 20
115.282939
 30
0.0
  0
VERTEX
  5
11CA
100
AcDbEntity
  8
ALPHA
100
AcDbVertex
100
AcDb2dVertex
 10
300.710277
 20
116.074
 30
0.0
  0
VERTEX
  5
11CB
100
AcDbEntity
  8
ALPHA
100
AcDbVertex
100
AcDb2dVertex
 10
301.485386
 20
116.508942
 30
0.0
  0
VERTEX
  5
11CC
100
AcDbEntity
  8
ALPHA
100
AcDbVertex
100
AcDb2dVertex
 10
302.112628
 20
116.960133
 30
0.0
  0
VERTEX
  5
11CD
100
AcDbEntity
  8
ALPHA
100
AcDbVertex
100
AcDb2dVertex
 10
302.59035
 20
117.419915
 30
0.0
  0
VERTEX
  5
11CE
100
AcDbEntity
  8
ALPHA
100
AcDbVertex
100
AcDb2dVertex
 10
302.773875
 20
117.65072
 30
0.0
  0
VERTEX
  5
11CF
100
AcDbEntity
  8
ALPHA
100
AcDbVertex
100
AcDb2dVertex
 10
302.921414
 20
117.880976
 30
0.0
  0
VERTEX
  5
11D0
100
AcDbEntity
  8
ALPHA
100
AcDbVertex
100
AcDb2dVertex
 10
303.033931
 20
118.109874
 30
0.0
  0
VERTEX
  5
11D1
100
AcDbEntity
  8
ALPHA
100
AcDbVertex
100
AcDb2dVertex
 10
303.112581
 20
118.336661
 30
0.0
  0
VERTEX
  5
11D2
100
AcDbEntity
  8
ALPHA
100
AcDbVertex
100
AcDb2dVertex
 10
303.158687
 20
118.560644
 30
0.0
  0
VERTEX
  5
11D3
100
AcDbEntity
  8
ALPHA
100
AcDbVertex
100
AcDb2dVertex
 10
303.173711
 20
118.781193
 30
0.0
  0
VERTEX
  5
11D4
100
AcDbEntity
  8
ALPHA
100
AcDbVertex
100
AcDb2dVertex
 10
303.158685
 20
119.001743
 30
0.0
  0
VERTEX
  5
11D5
100
AcDbEntity
  8
ALPHA
100
AcDbVertex
100
AcDb2dVertex
 10
303.112576
 20
119.225725
 30
0.0
  0
VERTEX
  5
11D6
100
AcDbEntity
  8
ALPHA
100
AcDbVertex
100
AcDb2dVertex
 10
303.033923
 20
119.452511
 30
0.0
  0
VERTEX
  5
11D7
100
AcDbEntity
  8
ALPHA
100
AcDbVertex
100
AcDb2dVertex
 10
302.921404
 20
119.681407
 30
0.0
  0
VERTEX
  5
11D8
100
AcDbEntity
  8
ALPHA
100
AcDbVertex
100
AcDb2dVertex
 10
302.773862
 20
119.911662
 30
0.0
  0
VERTEX
  5
11D9
100
AcDbEntity
  8
ALPHA
100
AcDbVertex
100
AcDb2dVertex
 10
302.590335
 20
120.142465
 30
0.0
  0
VERTEX
  5
11DA
100
AcDbEntity
  8
ALPHA
100
AcDbVertex
100
AcDb2dVertex
 10
302.112607
 20
120.602241
 30
0.0
  0
VERTEX
  5
11DB
100
AcDbEntity
  8
ALPHA
100
AcDbVertex
100
AcDb2dVertex
 10
301.48536
 20
121.053426
 30
0.0
  0
VERTEX
  5
11DC
100
AcDbEntity
  8
ALPHA
100
AcDbVertex
100
AcDb2dVertex
 10
300.710246
 20
121.488359
 30
0.0
  0
VERTEX
  5
11DD
100
AcDbEntity
  8
ALPHA
100
AcDbVertex
100
AcDb2dVertex
 10
298.747263
 20
122.279397
 30
0.0
  0
VERTEX
  5
11DE
100
AcDbEntity
  8
ALPHA
100
AcDbVertex
100
AcDb2dVertex
 10
296.330772
 20
122.921975
 30
0.0
  0
VERTEX
  5
11DF
100
AcDbEntity
  8
ALPHA
100
AcDbVertex
100
AcDb2dVertex
 10
293.623844
 20
123.381028
 30
0.0
  0
VERTEX
  5
11E0
100
AcDbEntity
  8
ALPHA
100
AcDbVertex
100
AcDb2dVertex
 10
288.06091
 20
123.72835
 30
0.0
  0
VERTEX
  5
11E1
100
AcDbEntity
  8
ALPHA
100
AcDbVertex
100
AcDb2dVertex
 10
282.497981
 20
123.380964
 30
0.0
  0
VERTEX
  5
11E2
100
AcDbEntity
  8
ALPHA
100
AcDbVertex
100
AcDb2dVertex
 10
279.791058
 20
122.92188
 30
0.0
  0
VERTEX
  5
11E3
100
AcDbEntity
  8
ALPHA
100
AcDbVertex
100
AcDb2dVertex
 10
277.374575
 20
122.279276
 30
0.0
  0
VERTEX
  5
11E4
100
AcDbEntity
  8
ALPHA
100
AcDbVertex
100
AcDb2dVertex
 10
275.4116
 20
121.488215
 30
0.0
  0
VERTEX
  5
11E5
100
AcDbEntity
  8
ALPHA
100
AcDbVertex
100
AcDb2dVertex
 10
274.636491
 20
121.053273
 30
0.0
  0
VERTEX
  5
11E6
100
AcDbEntity
  8
ALPHA
100
AcDbVertex
100
AcDb2dVertex
 10
274.009249
 20
120.602081
 30
0.0
  0
VERTEX
  5
11E7
100
AcDbEntity
  8
ALPHA
100
AcDbVertex
100
AcDb2dVertex
 10
273.531527
 20
120.142299
 30
0.0
  0
VERTEX
  5
11E8
100
AcDbEntity
  8
ALPHA
100
AcDbVertex
100
AcDb2dVertex
 10
273.348003
 20
119.911494
 30
0.0
  0
VERTEX
  5
11E9
100
AcDbEntity
  8
ALPHA
100
AcDbVertex
100
AcDb2dVertex
 10
273.200463
 20
119.681238
 30
0.0
  0
VERTEX
  5
11EA
100
AcDbEntity
  8
ALPHA
100
AcDbVertex
100
AcDb2dVertex
 10
273.087946
 20
119.45234
 30
0.0
  0
VERTEX
  5
11EB
100
AcDbEntity
  8
ALPHA
100
AcDbVertex
100
AcDb2dVertex
 10
273.009296
 20
119.225553
 30
0.0
  0
VERTEX
  5
11EC
100
AcDbEntity
  8
ALPHA
100
AcDbVertex
100
AcDb2dVertex
 10
272.96319
 20
119.00157
 30
0.0
  0
VERTEX
  5
11ED
100
AcDbEntity
  8
ALPHA
100
AcDbVertex
100
AcDb2dVertex
 10
272.948166
 20
118.781021
 30
0.0
  0
SEQEND
  5
11EE
100
AcDbEntity
  8
ALPHA
  0
POLYLINE
  5
11EF
100
AcDbEntity
  8
ALPHA
100
AcDb2dPolyline
 66
     1
 10
0.0
 20
0.0
 30
0.0
  0
VERTEX
  5
11F0
100
AcDbEntity
  8
ALPHA
100
AcDbVertex
100
AcDb2dVertex
 10
242.736918
 20
118.781021
 30
0.0
  0
VERTEX
  5
11F1
100
AcDbEntity
  8
ALPHA
100
AcDbVertex
100
AcDb2dVertex
 10
242.751941
 20
118.560472
 30
0.0
  0
VERTEX
  5
11F2
100
AcDbEntity
  8
ALPHA
100
AcDbVertex
100
AcDb2dVertex
 10
242.798039
 20
118.33649
 30
0.0
  0
VERTEX
  5
11F3
100
AcDbEntity
  8
ALPHA
100
AcDbVertex
100
AcDb2dVertex
 10
242.876674
 20
118.109704
 30
0.0
  0
VERTEX
  5
11F4
100
AcDbEntity
  8
ALPHA
100
AcDbVertex
100
AcDb2dVertex
 10
242.989168
 20
117.880807
 30
0.0
  0
VERTEX
  5
11F5
100
AcDbEntity
  8
ALPHA
100
AcDbVertex
100
AcDb2dVertex
 10
243.136676
 20
117.650553
 30
0.0
  0
VERTEX
  5
11F6
100
AcDbEntity
  8
ALPHA
100
AcDbVertex
100
AcDb2dVertex
 10
243.320161
 20
117.41975
 30
0.0
  0
VERTEX
  5
11F7
100
AcDbEntity
  8
ALPHA
100
AcDbVertex
100
AcDb2dVertex
 10
243.79778
 20
116.959973
 30
0.0
  0
VERTEX
  5
11F8
100
AcDbEntity
  8
ALPHA
100
AcDbVertex
100
AcDb2dVertex
 10
244.424884
 20
116.508789
 30
0.0
  0
VERTEX
  5
11F9
100
AcDbEntity
  8
ALPHA
100
AcDbVertex
100
AcDb2dVertex
 10
245.199822
 20
116.073855
 30
0.0
  0
VERTEX
  5
11FA
100
AcDbEntity
  8
ALPHA
100
AcDbVertex
100
AcDb2dVertex
 10
247.162357
 20
115.282817
 30
0.0
  0
VERTEX
  5
11FB
100
AcDbEntity
  8
ALPHA
100
AcDbVertex
100
AcDb2dVertex
 10
249.578298
 20
114.64024
 30
0.0
  0
VERTEX
  5
11FC
100
AcDbEntity
  8
ALPHA
100
AcDbVertex
100
AcDb2dVertex
 10
252.284608
 20
114.181187
 30
0.0
  0
VERTEX
  5
11FD
100
AcDbEntity
  8
ALPHA
100
AcDbVertex
100
AcDb2dVertex
 10
257.846274
 20
113.833864
 30
0.0
  0
VERTEX
  5
11FE
100
AcDbEntity
  8
ALPHA
100
AcDbVertex
100
AcDb2dVertex
 10
263.407935
 20
114.18125
 30
0.0
  0
VERTEX
  5
11FF
100
AcDbEntity
  8
ALPHA
100
AcDbVertex
100
AcDb2dVertex
 10
266.11424
 20
114.640334
 30
0.0
  0
VERTEX
  5
1200
100
AcDbEntity
  8
ALPHA
100
AcDbVertex
100
AcDb2dVertex
 10
268.530173
 20
115.282939
 30
0.0
  0
VERTEX
  5
1201
100
AcDbEntity
  8
ALPHA
100
AcDbVertex
100
AcDb2dVertex
 10
270.4927
 20
116.074
 30
0.0
  0
VERTEX
  5
1202
100
AcDbEntity
  8
ALPHA
100
AcDbVertex
100
AcDb2dVertex
 10
271.267632
 20
116.508942
 30
0.0
  0
VERTEX
  5
1203
100
AcDbEntity
  8
ALPHA
100
AcDbVertex
100
AcDb2dVertex
 10
271.894732
 20
116.960133
 30
0.0
  0
VERTEX
  5
1204
100
AcDbEntity
  8
ALPHA
100
AcDbVertex
100
AcDb2dVertex
 10
272.372345
 20
117.419915
 30
0.0
  0
VERTEX
  5
1205
100
AcDbEntity
  8
ALPHA
100
AcDbVertex
100
AcDb2dVertex
 10
272.555827
 20
117.65072
 30
0.0
  0
VERTEX
  5
1206
100
AcDbEntity
  8
ALPHA
100
AcDbVertex
100
AcDb2dVertex
 10
272.703333
 20
117.880976
 30
0.0
  0
VERTEX
  5
1207
100
AcDbEntity
  8
ALPHA
100
AcDbVertex
100
AcDb2dVertex
 10
272.815825
 20
118.109874
 30
0.0
  0
VERTEX
  5
1208
100
AcDbEntity
  8
ALPHA
100
AcDbVertex
100
AcDb2dVertex
 10
272.894457
 20
118.336661
 30
0.0
  0
VERTEX
  5
1209
100
AcDbEntity
  8
ALPHA
100
AcDbVertex
100
AcDb2dVertex
 10
272.940553
 20
118.560644
 30
0.0
  0
VERTEX
  5
120A
100
AcDbEntity
  8
ALPHA
100
AcDbVertex
100
AcDb2dVertex
 10
272.955573
 20
118.781193
 30
0.0
  0
VERTEX
  5
120B
100
AcDbEntity
  8
ALPHA
100
AcDbVertex
100
AcDb2dVertex
 10
272.94055
 20
119.001743
 30
0.0
  0
VERTEX
  5
120C
100
AcDbEntity
  8
ALPHA
100
AcDbVertex
100
AcDb2dVertex
 10
272.894452
 20
119.225725
 30
0.0
  0
VERTEX
  5
120D
100
AcDbEntity
  8
ALPHA
100
AcDbVertex
100
AcDb2dVertex
 10
272.815817
 20
119.452511
 30
0.0
  0
VERTEX
  5
120E
100
AcDbEntity
  8
ALPHA
100
AcDbVertex
100
AcDb2dVertex
 10
272.703323
 20
119.681407
 30
0.0
  0
VERTEX
  5
120F
100
AcDbEntity
  8
ALPHA
100
AcDbVertex
100
AcDb2dVertex
 10
272.555814
 20
119.911662
 30
0.0
  0
VERTEX
  5
1210
100
AcDbEntity
  8
ALPHA
100
AcDbVertex
100
AcDb2dVertex
 10
272.372329
 20
120.142465
 30
0.0
  0
VERTEX
  5
1211
100
AcDbEntity
  8
ALPHA
100
AcDbVertex
100
AcDb2dVertex
 10
271.894711
 20
120.602241
 30
0.0
  0
VERTEX
  5
1212
100
AcDbEntity
  8
ALPHA
100
AcDbVertex
100
AcDb2dVertex
 10
271.267606
 20
121.053426
 30
0.0
  0
VERTEX
  5
1213
100
AcDbEntity
  8
ALPHA
100
AcDbVertex
100
AcDb2dVertex
 10
270.492669
 20
121.488359
 30
0.0
  0
VERTEX
  5
1214
100
AcDbEntity
  8
ALPHA
100
AcDbVertex
100
AcDb2dVertex
 10
268.530133
 20
122.279397
 30
0.0
  0
VERTEX
  5
1215
100
AcDbEntity
  8
ALPHA
100
AcDbVertex
100
AcDb2dVertex
 10
266.114193
 20
122.921975
 30
0.0
  0
VERTEX
  5
1216
100
AcDbEntity
  8
ALPHA
100
AcDbVertex
100
AcDb2dVertex
 10
263.407883
 20
123.381028
 30
0.0
  0
VERTEX
  5
1217
100
AcDbEntity
  8
ALPHA
100
AcDbVertex
100
AcDb2dVertex
 10
257.846217
 20
123.72835
 30
0.0
  0
VERTEX
  5
1218
100
AcDbEntity
  8
ALPHA
100
AcDbVertex
100
AcDb2dVertex
 10
252.284556
 20
123.380964
 30
0.0
  0
VERTEX
  5
1219
100
AcDbEntity
  8
ALPHA
100
AcDbVertex
100
AcDb2dVertex
 10
249.57825
 20
122.92188
 30
0.0
  0
VERTEX
  5
121A
100
AcDbEntity
  8
ALPHA
100
AcDbVertex
100
AcDb2dVertex
 10
247.162317
 20
122.279276
 30
0.0
  0
VERTEX
  5
121B
100
AcDbEntity
  8
ALPHA
100
AcDbVertex
100
AcDb2dVertex
 10
245.199791
 20
121.488215
 30
0.0
  0
VERTEX
  5
121C
100
AcDbEntity
  8
ALPHA
100
AcDbVertex
100
AcDb2dVertex
 10
244.424858
 20
121.053273
 30
0.0
  0
VERTEX
  5
121D
100
AcDbEntity
  8
ALPHA
100
AcDbVertex
100
AcDb2dVertex
 10
243.797759
 20
120.602081
 30
0.0
  0
VERTEX
  5
121E
100
AcDbEntity
  8
ALPHA
100
AcDbVertex
100
AcDb2dVertex
 10
243.320146
 20
120.142299
 30
0.0
  0
VERTEX
  5
121F
100
AcDbEntity
  8
ALPHA
100
AcDbVertex
100
AcDb2dVertex
 10
243.136663
 20
119.911494
 30
0.0
  0
VERTEX
  5
1220
100
AcDbEntity
  8
ALPHA
100
AcDbVertex
100
AcDb2dVertex
 10
242.989157
 20
119.681238
 30
0.0
  0
VERTEX
  5
1221
100
AcDbEntity
  8
ALPHA
100
AcDbVertex
100
AcDb2dVertex
 10
242.876666
 20
119.45234
 30
0.0
  0
VERTEX
  5
1222
100
AcDbEntity
  8
ALPHA
100
AcDbVertex
100
AcDb2dVertex
 10
242.798034
 20
119.225553
 30
0.0
  0
VERTEX
  5
1223
100
AcDbEntity
  8
ALPHA
100
AcDbVertex
100
AcDb2dVertex
 10
242.751938
 20
119.00157
 30
0.0
  0
VERTEX
  5
1224
100
AcDbEntity
  8
ALPHA
100
AcDbVertex
100
AcDb2dVertex
 10
242.736918
 20
118.781021
 30
0.0
  0
SEQEND
  5
1225
100
AcDbEntity
  8
ALPHA
  0
POLYLINE
  5
1226
100
AcDbEntity
  8
ALPHA
100
AcDb2dPolyline
 66
     1
 10
0.0
 20
0.0
 30
0.0
  0
VERTEX
  5
1227
100
AcDbEntity
  8
ALPHA
100
AcDbVertex
100
AcDb2dVertex
 10
51.781648
 20
111.875672
 30
0.0
  0
VERTEX
  5
1228
100
AcDbEntity
  8
ALPHA
100
AcDbVertex
100
AcDb2dVertex
 10
51.838738
 20
111.713021
 30
0.0
  0
VERTEX
  5
1229
100
AcDbEntity
  8
ALPHA
100
AcDbVertex
100
AcDb2dVertex
 10
51.91293
 20
111.556307
 30
0.0
  0
VERTEX
  5
122A
100
AcDbEntity
  8
ALPHA
100
AcDbVertex
100
AcDb2dVertex
 10
52.004
 20
111.405522
 30
0.0
  0
VERTEX
  5
122B
100
AcDbEntity
  8
ALPHA
100
AcDbVertex
100
AcDb2dVertex
 10
52.111722
 20
111.260656
 30
0.0
  0
VERTEX
  5
122C
100
AcDbEntity
  8
ALPHA
100
AcDbVertex
100
AcDb2dVertex
 10
52.37622
 20
110.988643
 30
0.0
  0
VERTEX
  5
122D
100
AcDbEntity
  8
ALPHA
100
AcDbVertex
100
AcDb2dVertex
 10
52.704619
 20
110.740193
 30
0.0
  0
VERTEX
  5
122E
100
AcDbEntity
  8
ALPHA
100
AcDbVertex
100
AcDb2dVertex
 10
53.095117
 20
110.515234
 30
0.0
  0
VERTEX
  5
122F
100
AcDbEntity
  8
ALPHA
100
AcDbVertex
100
AcDb2dVertex
 10
53.545908
 20
110.313689
 30
0.0
  0
VERTEX
  5
1230
100
AcDbEntity
  8
ALPHA
100
AcDbVertex
100
AcDb2dVertex
 10
54.621157
 20
109.980545
 30
0.0
  0
VERTEX
  5
1231
100
AcDbEntity
  8
ALPHA
100
AcDbVertex
100
AcDb2dVertex
 10
57.415806
 20
109.591954
 30
0.0
  0
VERTEX
  5
1232
100
AcDbEntity
  8
ALPHA
100
AcDbVertex
100
AcDb2dVertex
 10
60.973111
 20
109.56965
 30
0.0
  0
VERTEX
  5
1233
100
AcDbEntity
  8
ALPHA
100
AcDbVertex
100
AcDb2dVertex
 10
69.913864
 20
110.604815
 30
0.0
  0
VERTEX
  5
1234
100
AcDbEntity
  8
ALPHA
100
AcDbVertex
100
AcDb2dVertex
 10
80.519774
 20
113.047865
 30
0.0
  0
VERTEX
  5
1235
100
AcDbEntity
  8
ALPHA
100
AcDbVertex
100
AcDb2dVertex
 10
90.834987
 20
116.496374
 30
0.0
  0
VERTEX
  5
1236
100
AcDbEntity
  8
ALPHA
100
AcDbVertex
100
AcDb2dVertex
 10
98.977045
 20
120.272575
 30
0.0
  0
VERTEX
  5
1237
100
AcDbEntity
  8
ALPHA
100
AcDbVertex
100
AcDb2dVertex
 10
101.982036
 20
122.143449
 30
0.0
  0
VERTEX
  5
1238
100
AcDbEntity
  8
ALPHA
100
AcDbVertex
100
AcDb2dVertex
 10
103.174078
 20
123.05006
 30
0.0
  0
VERTEX
  5
1239
100
AcDbEntity
  8
ALPHA
100
AcDbVertex
100
AcDb2dVertex
 10
104.142411
 20
123.928112
 30
0.0
  0
VERTEX
  5
123A
100
AcDbEntity
  8
ALPHA
100
AcDbVertex
100
AcDb2dVertex
 10
104.87448
 20
124.770601
 30
0.0
  0
VERTEX
  5
123B
100
AcDbEntity
  8
ALPHA
100
AcDbVertex
100
AcDb2dVertex
 10
105.147992
 20
125.176319
 30
0.0
  0
VERTEX
  5
123C
100
AcDbEntity
  8
ALPHA
100
AcDbVertex
100
AcDb2dVertex
 10
105.35773
 20
125.57052
 30
0.0
  0
VERTEX
  5
123D
100
AcDbEntity
  8
ALPHA
100
AcDbVertex
100
AcDb2dVertex
 10
105.502124
 20
125.952326
 30
0.0
  0
VERTEX
  5
123E
100
AcDbEntity
  8
ALPHA
100
AcDbVertex
100
AcDb2dVertex
 10
105.579605
 20
126.320864
 30
0.0
  0
VERTEX
  5
123F
100
AcDbEntity
  8
ALPHA
100
AcDbVertex
100
AcDb2dVertex
 10
105.592762
 20
126.499883
 30
0.0
  0
VERTEX
  5
1240
100
AcDbEntity
  8
ALPHA
100
AcDbVertex
100
AcDb2dVertex
 10
105.588603
 20
126.675256
 30
0.0
  0
VERTEX
  5
1241
100
AcDbEntity
  8
ALPHA
100
AcDbVertex
100
AcDb2dVertex
 10
105.566931
 20
126.846874
 30
0.0
  0
VERTEX
  5
1242
100
AcDbEntity
  8
ALPHA
100
AcDbVertex
100
AcDb2dVertex
 10
105.52755
 20
127.014627
 30
0.0
  0
SEQEND
  5
1243
100
AcDbEntity
  8
ALPHA
  0
POLYLINE
  5
1244
100
AcDbEntity
  8
ALPHA
100
AcDb2dPolyline
 66
     1
 10
0.0
 20
0.0
 30
0.0
  0
VERTEX
  5
1245
100
AcDbEntity
  8
ALPHA
100
AcDbVertex
100
AcDb2dVertex
 10
402.958835
 20
112.313888
 30
0.0
  0
VERTEX
  5
1246
100
AcDbEntity
  8
ALPHA
100
AcDbVertex
100
AcDb2dVertex
 10
402.901738
 20
112.15123
 30
0.0
  0
VERTEX
  5
1247
100
AcDbEntity
  8
ALPHA
100
AcDbVertex
100
AcDb2dVertex
 10
402.827539
 20
111.994512
 30
0.0
  0
VERTEX
  5
1248
100
AcDbEntity
  8
ALPHA
100
AcDbVertex
100
AcDb2dVertex
 10
402.736463
 20
111.843725
 30
0.0
  0
VERTEX
  5
1249
100
AcDbEntity
  8
ALPHA
100
AcDbVertex
100
AcDb2dVertex
 10
402.628736
 20
111.698858
 30
0.0
  0
VERTEX
  5
124A
100
AcDbEntity
  8
ALPHA
100
AcDbVertex
100
AcDb2dVertex
 10
402.36423
 20
111.426851
 30
0.0
  0
VERTEX
  5
124B
100
AcDbEntity
  8
ALPHA
100
AcDbVertex
100
AcDb2dVertex
 10
402.035824
 20
111.178416
 30
0.0
  0
VERTEX
  5
124C
100
AcDbEntity
  8
ALPHA
100
AcDbVertex
100
AcDb2dVertex
 10
401.645322
 20
110.953476
 30
0.0
  0
VERTEX
  5
124D
100
AcDbEntity
  8
ALPHA
100
AcDbVertex
100
AcDb2dVertex
 10
401.194527
 20
110.751958
 30
0.0
  0
VERTEX
  5
124E
100
AcDbEntity
  8
ALPHA
100
AcDbVertex
100
AcDb2dVertex
 10
400.119271
 20
110.41888
 30
0.0
  0
VERTEX
  5
124F
100
AcDbEntity
  8
ALPHA
100
AcDbVertex
100
AcDb2dVertex
 10
397.32459
 20
110.030454
 30
0.0
  0
VERTEX
  5
1250
100
AcDbEntity
  8
ALPHA
100
AcDbVertex
100
AcDb2dVertex
 10
393.767197
 20
110.008313
 30
0.0
  0
VERTEX
  5
1251
100
AcDbEntity
  8
ALPHA
100
AcDbVertex
100
AcDb2dVertex
 10
384.825937
 20
111.043582
 30
0.0
  0
VERTEX
  5
1252
100
AcDbEntity
  8
ALPHA
100
AcDbVertex
100
AcDb2dVertex
 10
374.218815
 20
113.486082
 30
0.0
  0
VERTEX
  5
1253
100
AcDbEntity
  8
ALPHA
100
AcDbVertex
100
AcDb2dVertex
 10
363.906078
 20
116.933083
 30
0.0
  0
VERTEX
  5
1254
100
AcDbEntity
  8
ALPHA
100
AcDbVertex
100
AcDb2dVertex
 10
355.764558
 20
120.709069
 30
0.0
  0
VERTEX
  5
1255
100
AcDbEntity
  8
ALPHA
100
AcDbVertex
100
AcDb2dVertex
 10
352.759514
 20
122.579916
 30
0.0
  0
VERTEX
  5
1256
100
AcDbEntity
  8
ALPHA
100
AcDbVertex
100
AcDb2dVertex
 10
351.567434
 20
123.486463
 30
0.0
  0
VERTEX
  5
1257
100
AcDbEntity
  8
ALPHA
100
AcDbVertex
100
AcDb2dVertex
 10
350.599084
 20
124.36439
 30
0.0
  0
VERTEX
  5
1258
100
AcDbEntity
  8
ALPHA
100
AcDbVertex
100
AcDb2dVertex
 10
349.867039
 20
125.206674
 30
0.0
  0
VERTEX
  5
1259
100
AcDbEntity
  8
ALPHA
100
AcDbVertex
100
AcDb2dVertex
 10
349.59356
 20
125.612253
 30
0.0
  0
VERTEX
  5
125A
100
AcDbEntity
  8
ALPHA
100
AcDbVertex
100
AcDb2dVertex
 10
349.383873
 20
126.006287
 30
0.0
  0
VERTEX
  5
125B
100
AcDbEntity
  8
ALPHA
100
AcDbVertex
100
AcDb2dVertex
 10
349.23955
 20
126.387896
 30
0.0
  0
VERTEX
  5
125C
100
AcDbEntity
  8
ALPHA
100
AcDbVertex
100
AcDb2dVertex
 10
349.162163
 20
126.756203
 30
0.0
  0
VERTEX
  5
125D
100
AcDbEntity
  8
ALPHA
100
AcDbVertex
100
AcDb2dVertex
 10
349.149062
 20
126.935094
 30
0.0
  0
VERTEX
  5
125E
100
AcDbEntity
  8
ALPHA
100
AcDbVertex
100
AcDb2dVertex
 10
349.153284
 20
127.11033
 30
0.0
  0
VERTEX
  5
125F
100
AcDbEntity
  8
ALPHA
100
AcDbVertex
100
AcDb2dVertex
 10
349.175026
 20
127.281801
 30
0.0
  0
VERTEX
  5
1260
100
AcDbEntity
  8
ALPHA
100
AcDbVertex
100
AcDb2dVertex
 10
349.214484
 20
127.449398
 30
0.0
  0
SEQEND
  5
1261
100
AcDbEntity
  8
ALPHA
  0
POLYLINE
  5
1262
100
AcDbEntity
  8
ALPHA
100
AcDb2dPolyline
 66
     1
 10
0.0
 20
0.0
 30
0.0
  0
VERTEX
  5
1263
100
AcDbEntity
  8
ALPHA
100
AcDbVertex
100
AcDb2dVertex
 10
112.326101
 20
133.83471
 30
0.0
  0
VERTEX
  5
1264
100
AcDbEntity
  8
ALPHA
100
AcDbVertex
100
AcDb2dVertex
 10
112.304418
 20
134.30603
 30
0.0
  0
VERTEX
  5
1265
100
AcDbEntity
  8
ALPHA
100
AcDbVertex
100
AcDb2dVertex
 10
112.23679
 20
134.789166
 30
0.0
  0
VERTEX
  5
1266
100
AcDbEntity
  8
ALPHA
100
AcDbVertex
100
AcDb2dVertex
 10
112.119733
 20
135.277993
 30
0.0
  0
VERTEX
  5
1267
100
AcDbEntity
  8
ALPHA
100
AcDbVertex
100
AcDb2dVertex
 10
111.950859
 20
135.765454
 30
0.0
  0
VERTEX
  5
1268
100
AcDbEntity
  8
ALPHA
100
AcDbVertex
100
AcDb2dVertex
 10
111.72916
 20
136.243796
 30
0.0
  0
VERTEX
  5
1269
100
AcDbEntity
  8
ALPHA
100
AcDbVertex
100
AcDb2dVertex
 10
111.455221
 20
136.704899
 30
0.0
  0
VERTEX
  5
126A
100
AcDbEntity
  8
ALPHA
100
AcDbVertex
100
AcDb2dVertex
 10
111.13134
 20
137.140674
 30
0.0
  0
VERTEX
  5
126B
100
AcDbEntity
  8
ALPHA
100
AcDbVertex
100
AcDb2dVertex
 10
110.761524
 20
137.543502
 30
0.0
  0
VERTEX
  5
126C
100
AcDbEntity
  8
ALPHA
100
AcDbVertex
100
AcDb2dVertex
 10
110.351336
 20
137.906656
 30
0.0
  0
VERTEX
  5
126D
100
AcDbEntity
  8
ALPHA
100
AcDbVertex
100
AcDb2dVertex
 10
109.907624
 20
138.224671
 30
0.0
  0
VERTEX
  5
126E
100
AcDbEntity
  8
ALPHA
100
AcDbVertex
100
AcDb2dVertex
 10
109.438149
 20
138.493617
 30
0.0
  0
VERTEX
  5
126F
100
AcDbEntity
  8
ALPHA
100
AcDbVertex
100
AcDb2dVertex
 10
108.951144
 20
138.711238
 30
0.0
  0
VERTEX
  5
1270
100
AcDbEntity
  8
ALPHA
100
AcDbVertex
100
AcDb2dVertex
 10
108.454875
 20
138.876961
 30
0.0
  0
VERTEX
  5
1271
100
AcDbEntity
  8
ALPHA
100
AcDbVertex
100
AcDb2dVertex
 10
107.957234
 20
138.991781
 30
0.0
  0
VERTEX
  5
1272
100
AcDbEntity
  8
ALPHA
100
AcDbVertex
100
AcDb2dVertex
 10
107.465403
 20
139.058046
 30
0.0
  0
VERTEX
  5
1273
100
AcDbEntity
  8
ALPHA
100
AcDbVertex
100
AcDb2dVertex
 10
106.985617
 20
139.079179
 30
0.0
  0
VERTEX
  5
1274
100
AcDbEntity
  8
ALPHA
100
AcDbVertex
100
AcDb2dVertex
 10
106.505838
 20
139.057876
 30
0.0
  0
VERTEX
  5
1275
100
AcDbEntity
  8
ALPHA
100
AcDbVertex
100
AcDb2dVertex
 10
106.014031
 20
138.991436
 30
0.0
  0
VERTEX
  5
1276
100
AcDbEntity
  8
ALPHA
100
AcDbVertex
100
AcDb2dVertex
 10
105.516431
 20
138.87644
 30
0.0
  0
VERTEX
  5
1277
100
AcDbEntity
  8
ALPHA
100
AcDbVertex
100
AcDb2dVertex
 10
105.020221
 20
138.710541
 30
0.0
  0
VERTEX
  5
1278
100
AcDbEntity
  8
ALPHA
100
AcDbVertex
100
AcDb2dVertex
 10
104.533293
 20
138.492747
 30
0.0
  0
VERTEX
  5
1279
100
AcDbEntity
  8
ALPHA
100
AcDbVertex
100
AcDb2dVertex
 10
104.063913
 20
138.223634
 30
0.0
  0
VERTEX
  5
127A
100
AcDbEntity
  8
ALPHA
100
AcDbVertex
100
AcDb2dVertex
 10
103.620314
 20
137.905461
 30
0.0
  0
VERTEX
  5
127B
100
AcDbEntity
  8
ALPHA
100
AcDbVertex
100
AcDb2dVertex
 10
103.210255
 20
137.542162
 30
0.0
  0
VERTEX
  5
127C
100
AcDbEntity
  8
ALPHA
100
AcDbVertex
100
AcDb2dVertex
 10
102.840582
 20
137.139203
 30
0.0
  0
VERTEX
  5
127D
100
AcDbEntity
  8
ALPHA
100
AcDbVertex
100
AcDb2dVertex
 10
102.516856
 20
136.703313
 30
0.0
  0
VERTEX
  5
127E
100
AcDbEntity
  8
ALPHA
100
AcDbVertex
100
AcDb2dVertex
 10
102.24308
 20
136.242113
 30
0.0
  0
VERTEX
  5
127F
100
AcDbEntity
  8
ALPHA
100
AcDbVertex
100
AcDb2dVertex
 10
102.021551
 20
135.763692
 30
0.0
  0
VERTEX
  5
1280
100
AcDbEntity
  8
ALPHA
100
AcDbVertex
100
AcDb2dVertex
 10
101.85285
 20
135.276171
 30
0.0
  0
VERTEX
  5
1281
100
AcDbEntity
  8
ALPHA
100
AcDbVertex
100
AcDb2dVertex
 10
101.735967
 20
134.787303
 30
0.0
  0
VERTEX
  5
1282
100
AcDbEntity
  8
ALPHA
100
AcDbVertex
100
AcDb2dVertex
 10
101.668509
 20
134.304143
 30
0.0
  0
VERTEX
  5
1283
100
AcDbEntity
  8
ALPHA
100
AcDbVertex
100
AcDb2dVertex
 10
101.646994
 20
133.832815
 30
0.0
  0
VERTEX
  5
1284
100
AcDbEntity
  8
ALPHA
100
AcDbVertex
100
AcDb2dVertex
 10
101.668677
 20
133.361495
 30
0.0
  0
VERTEX
  5
1285
100
AcDbEntity
  8
ALPHA
100
AcDbVertex
100
AcDb2dVertex
 10
101.736305
 20
132.878359
 30
0.0
  0
VERTEX
  5
1286
100
AcDbEntity
  8
ALPHA
100
AcDbVertex
100
AcDb2dVertex
 10
101.853363
 20
132.389533
 30
0.0
  0
VERTEX
  5
1287
100
AcDbEntity
  8
ALPHA
100
AcDbVertex
100
AcDb2dVertex
 10
102.022236
 20
131.902072
 30
0.0
  0
VERTEX
  5
1288
100
AcDbEntity
  8
ALPHA
100
AcDbVertex
100
AcDb2dVertex
 10
102.243935
 20
131.42373
 30
0.0
  0
VERTEX
  5
1289
100
AcDbEntity
  8
ALPHA
100
AcDbVertex
100
AcDb2dVertex
 10
102.517875
 20
130.962627
 30
0.0
  0
VERTEX
  5
128A
100
AcDbEntity
  8
ALPHA
100
AcDbVertex
100
AcDb2dVertex
 10
102.841755
 20
130.526851
 30
0.0
  0
VERTEX
  5
128B
100
AcDbEntity
  8
ALPHA
100
AcDbVertex
100
AcDb2dVertex
 10
103.211571
 20
130.124024
 30
0.0
  0
VERTEX
  5
128C
100
AcDbEntity
  8
ALPHA
100
AcDbVertex
100
AcDb2dVertex
 10
103.62176
 20
129.76087
 30
0.0
  0
VERTEX
  5
128D
100
AcDbEntity
  8
ALPHA
100
AcDbVertex
100
AcDb2dVertex
 10
104.065471
 20
129.442855
 30
0.0
  0
VERTEX
  5
128E
100
AcDbEntity
  8
ALPHA
100
AcDbVertex
100
AcDb2dVertex
 10
104.534946
 20
129.173908
 30
0.0
  0
VERTEX
  5
128F
100
AcDbEntity
  8
ALPHA
100
AcDbVertex
100
AcDb2dVertex
 10
105.021952
 20
128.956288
 30
0.0
  0
VERTEX
  5
1290
100
AcDbEntity
  8
ALPHA
100
AcDbVertex
100
AcDb2dVertex
 10
105.51822
 20
128.790565
 30
0.0
  0
VERTEX
  5
1291
100
AcDbEntity
  8
ALPHA
100
AcDbVertex
100
AcDb2dVertex
 10
106.015861
 20
128.675745
 30
0.0
  0
VERTEX
  5
1292
100
AcDbEntity
  8
ALPHA
100
AcDbVertex
100
AcDb2dVertex
 10
106.507692
 20
128.60948
 30
0.0
  0
VERTEX
  5
1293
100
AcDbEntity
  8
ALPHA
100
AcDbVertex
100
AcDb2dVertex
 10
106.987478
 20
128.588347
 30
0.0
  0
VERTEX
  5
1294
100
AcDbEntity
  8
ALPHA
100
AcDbVertex
100
AcDb2dVertex
 10
107.467257
 20
128.60965
 30
0.0
  0
VERTEX
  5
1295
100
AcDbEntity
  8
ALPHA
100
AcDbVertex
100
AcDb2dVertex
 10
107.959064
 20
128.676089
 30
0.0
  0
VERTEX
  5
1296
100
AcDbEntity
  8
ALPHA
100
AcDbVertex
100
AcDb2dVertex
 10
108.456664
 20
128.791086
 30
0.0
  0
VERTEX
  5
1297
100
AcDbEntity
  8
ALPHA
100
AcDbVertex
100
AcDb2dVertex
 10
108.952874
 20
128.956985
 30
0.0
  0
VERTEX
  5
1298
100
AcDbEntity
  8
ALPHA
100
AcDbVertex
100
AcDb2dVertex
 10
109.439802
 20
129.174779
 30
0.0
  0
VERTEX
  5
1299
100
AcDbEntity
  8
ALPHA
100
AcDbVertex
100
AcDb2dVertex
 10
109.909182
 20
129.443892
 30
0.0
  0
VERTEX
  5
129A
100
AcDbEntity
  8
ALPHA
100
AcDbVertex
100
AcDb2dVertex
 10
110.352781
 20
129.762064
 30
0.0
  0
VERTEX
  5
129B
100
AcDbEntity
  8
ALPHA
100
AcDbVertex
100
AcDb2dVertex
 10
110.76284
 20
130.125363
 30
0.0
  0
VERTEX
  5
129C
100
AcDbEntity
  8
ALPHA
100
AcDbVertex
100
AcDb2dVertex
 10
111.132514
 20
130.528322
 30
0.0
  0
VERTEX
  5
129D
100
AcDbEntity
  8
ALPHA
100
AcDbVertex
100
AcDb2dVertex
 10
111.456239
 20
130.964213
 30
0.0
  0
VERTEX
  5
129E
100
AcDbEntity
  8
ALPHA
100
AcDbVertex
100
AcDb2dVertex
 10
111.730015
 20
131.425413
 30
0.0
  0
VERTEX
  5
129F
100
AcDbEntity
  8
ALPHA
100
AcDbVertex
100
AcDb2dVertex
 10
111.951545
 20
131.903834
 30
0.0
  0
VERTEX
  5
12A0
100
AcDbEntity
  8
ALPHA
100
AcDbVertex
100
AcDb2dVertex
 10
112.120245
 20
132.391354
 30
0.0
  0
VERTEX
  5
12A1
100
AcDbEntity
  8
ALPHA
100
AcDbVertex
100
AcDb2dVertex
 10
112.237129
 20
132.880223
 30
0.0
  0
VERTEX
  5
12A2
100
AcDbEntity
  8
ALPHA
100
AcDbVertex
100
AcDb2dVertex
 10
112.304586
 20
133.363383
 30
0.0
  0
VERTEX
  5
12A3
100
AcDbEntity
  8
ALPHA
100
AcDbVertex
100
AcDb2dVertex
 10
112.326101
 20
133.83471
 30
0.0
  0
SEQEND
  5
12A4
100
AcDbEntity
  8
ALPHA
  0
POLYLINE
  5
12A5
100
AcDbEntity
  8
ALPHA
100
AcDb2dPolyline
 66
     1
 10
0.0
 20
0.0
 30
0.0
  0
VERTEX
  5
12A6
100
AcDbEntity
  8
ALPHA
100
AcDbVertex
100
AcDb2dVertex
 10
353.538079
 20
133.83471
 30
0.0
  0
VERTEX
  5
12A7
100
AcDbEntity
  8
ALPHA
100
AcDbVertex
100
AcDb2dVertex
 10
353.516479
 20
134.305949
 30
0.0
  0
VERTEX
  5
12A8
100
AcDbEntity
  8
ALPHA
100
AcDbVertex
100
AcDb2dVertex
 10
353.448933
 20
134.78901
 30
0.0
  0
VERTEX
  5
12A9
100
AcDbEntity
  8
ALPHA
100
AcDbVertex
100
AcDb2dVertex
 10
353.331957
 20
135.277769
 30
0.0
  0
VERTEX
  5
12AA
100
AcDbEntity
  8
ALPHA
100
AcDbVertex
100
AcDb2dVertex
 10
353.163162
 20
135.765172
 30
0.0
  0
VERTEX
  5
12AB
100
AcDbEntity
  8
ALPHA
100
AcDbVertex
100
AcDb2dVertex
 10
352.941536
 20
136.243467
 30
0.0
  0
VERTEX
  5
12AC
100
AcDbEntity
  8
ALPHA
100
AcDbVertex
100
AcDb2dVertex
 10
352.667666
 20
136.704535
 30
0.0
  0
VERTEX
  5
12AD
100
AcDbEntity
  8
ALPHA
100
AcDbVertex
100
AcDb2dVertex
 10
352.343847
 20
137.140289
 30
0.0
  0
VERTEX
  5
12AE
100
AcDbEntity
  8
ALPHA
100
AcDbVertex
100
AcDb2dVertex
 10
351.974084
 20
137.54311
 30
0.0
  0
VERTEX
  5
12AF
100
AcDbEntity
  8
ALPHA
100
AcDbVertex
100
AcDb2dVertex
 10
351.56394
 20
137.906271
 30
0.0
  0
VERTEX
  5
12B0
100
AcDbEntity
  8
ALPHA
100
AcDbVertex
100
AcDb2dVertex
 10
351.120264
 20
138.224307
 30
0.0
  0
VERTEX
  5
12B1
100
AcDbEntity
  8
ALPHA
100
AcDbVertex
100
AcDb2dVertex
 10
350.650814
 20
138.493288
 30
0.0
  0
VERTEX
  5
12B2
100
AcDbEntity
  8
ALPHA
100
AcDbVertex
100
AcDb2dVertex
 10
350.163824
 20
138.710956
 30
0.0
  0
VERTEX
  5
12B3
100
AcDbEntity
  8
ALPHA
100
AcDbVertex
100
AcDb2dVertex
 10
349.66756
 20
138.876737
 30
0.0
  0
VERTEX
  5
12B4
100
AcDbEntity
  8
ALPHA
100
AcDbVertex
100
AcDb2dVertex
 10
349.169915
 20
138.991625
 30
0.0
  0
VERTEX
  5
12B5
100
AcDbEntity
  8
ALPHA
100
AcDbVertex
100
AcDb2dVertex
 10
348.678073
 20
139.057965
 30
0.0
  0
VERTEX
  5
12B6
100
AcDbEntity
  8
ALPHA
100
AcDbVertex
100
AcDb2dVertex
 10
348.198267
 20
139.079179
 30
0.0
  0
VERTEX
  5
12B7
100
AcDbEntity
  8
ALPHA
100
AcDbVertex
100
AcDb2dVertex
 10
347.718461
 20
139.057965
 30
0.0
  0
VERTEX
  5
12B8
100
AcDbEntity
  8
ALPHA
100
AcDbVertex
100
AcDb2dVertex
 10
347.226619
 20
138.991625
 30
0.0
  0
VERTEX
  5
12B9
100
AcDbEntity
  8
ALPHA
100
AcDbVertex
100
AcDb2dVertex
 10
346.728974
 20
138.876737
 30
0.0
  0
VERTEX
  5
12BA
100
AcDbEntity
  8
ALPHA
100
AcDbVertex
100
AcDb2dVertex
 10
346.232711
 20
138.710956
 30
0.0
  0
VERTEX
  5
12BB
100
AcDbEntity
  8
ALPHA
100
AcDbVertex
100
AcDb2dVertex
 10
345.74572
 20
138.493288
 30
0.0
  0
VERTEX
  5
12BC
100
AcDbEntity
  8
ALPHA
100
AcDbVertex
100
AcDb2dVertex
 10
345.27627
 20
138.224307
 30
0.0
  0
VERTEX
  5
12BD
100
AcDbEntity
  8
ALPHA
100
AcDbVertex
100
AcDb2dVertex
 10
344.832594
 20
137.906271
 30
0.0
  0
VERTEX
  5
12BE
100
AcDbEntity
  8
ALPHA
100
AcDbVertex
100
AcDb2dVertex
 10
344.42245
 20
137.54311
 30
0.0
  0
VERTEX
  5
12BF
100
AcDbEntity
  8
ALPHA
100
AcDbVertex
100
AcDb2dVertex
 10
344.052687
 20
137.140289
 30
0.0
  0
VERTEX
  5
12C0
100
AcDbEntity
  8
ALPHA
100
AcDbVertex
100
AcDb2dVertex
 10
343.728868
 20
136.704535
 30
0.0
  0
VERTEX
  5
12C1
100
AcDbEntity
  8
ALPHA
100
AcDbVertex
100
AcDb2dVertex
 10
343.454998
 20
136.243467
 30
0.0
  0
VERTEX
  5
12C2
100
AcDbEntity
  8
ALPHA
100
AcDbVertex
100
AcDb2dVertex
 10
343.233372
 20
135.765172
 30
0.0
  0
VERTEX
  5
12C3
100
AcDbEntity
  8
ALPHA
100
AcDbVertex
100
AcDb2dVertex
 10
343.064577
 20
135.277769
 30
0.0
  0
VERTEX
  5
12C4
100
AcDbEntity
  8
ALPHA
100
AcDbVertex
100
AcDb2dVertex
 10
342.947601
 20
134.78901
 30
0.0
  0
VERTEX
  5
12C5
100
AcDbEntity
  8
ALPHA
100
AcDbVertex
100
AcDb2dVertex
 10
342.880055
 20
134.305949
 30
0.0
  0
VERTEX
  5
12C6
100
AcDbEntity
  8
ALPHA
100
AcDbVertex
100
AcDb2dVertex
 10
342.858455
 20
133.83471
 30
0.0
  0
VERTEX
  5
12C7
100
AcDbEntity
  8
ALPHA
100
AcDbVertex
100
AcDb2dVertex
 10
342.880055
 20
133.363471
 30
0.0
  0
VERTEX
  5
12C8
100
AcDbEntity
  8
ALPHA
100
AcDbVertex
100
AcDb2dVertex
 10
342.947601
 20
132.880411
 30
0.0
  0
VERTEX
  5
12C9
100
AcDbEntity
  8
ALPHA
100
AcDbVertex
100
AcDb2dVertex
 10
343.064577
 20
132.391652
 30
0.0
  0
VERTEX
  5
12CA
100
AcDbEntity
  8
ALPHA
100
AcDbVertex
100
AcDb2dVertex
 10
343.233372
 20
131.904249
 30
0.0
  0
VERTEX
  5
12CB
100
AcDbEntity
  8
ALPHA
100
AcDbVertex
100
AcDb2dVertex
 10
343.454998
 20
131.425954
 30
0.0
  0
VERTEX
  5
12CC
100
AcDbEntity
  8
ALPHA
100
AcDbVertex
100
AcDb2dVertex
 10
343.728868
 20
130.964886
 30
0.0
  0
VERTEX
  5
12CD
100
AcDbEntity
  8
ALPHA
100
AcDbVertex
100
AcDb2dVertex
 10
344.052687
 20
130.529131
 30
0.0
  0
VERTEX
  5
12CE
100
AcDbEntity
  8
ALPHA
100
AcDbVertex
100
AcDb2dVertex
 10
344.42245
 20
130.126311
 30
0.0
  0
VERTEX
  5
12CF
100
AcDbEntity
  8
ALPHA
100
AcDbVertex
100
AcDb2dVertex
 10
344.832594
 20
129.76315
 30
0.0
  0
VERTEX
  5
12D0
100
AcDbEntity
  8
ALPHA
100
AcDbVertex
100
AcDb2dVertex
 10
345.27627
 20
129.445113
 30
0.0
  0
VERTEX
  5
12D1
100
AcDbEntity
  8
ALPHA
100
AcDbVertex
100
AcDb2dVertex
 10
345.74572
 20
129.176132
 30
0.0
  0
VERTEX
  5
12D2
100
AcDbEntity
  8
ALPHA
100
AcDbVertex
100
AcDb2dVertex
 10
346.232711
 20
128.958464
 30
0.0
  0
VERTEX
  5
12D3
100
AcDbEntity
  8
ALPHA
100
AcDbVertex
100
AcDb2dVertex
 10
346.728974
 20
128.792683
 30
0.0
  0
VERTEX
  5
12D4
100
AcDbEntity
  8
ALPHA
100
AcDbVertex
100
AcDb2dVertex
 10
347.226619
 20
128.677796
 30
0.0
  0
VERTEX
  5
12D5
100
AcDbEntity
  8
ALPHA
100
AcDbVertex
100
AcDb2dVertex
 10
347.718461
 20
128.611455
 30
0.0
  0
VERTEX
  5
12D6
100
AcDbEntity
  8
ALPHA
100
AcDbVertex
100
AcDb2dVertex
 10
348.198267
 20
128.590241
 30
0.0
  0
VERTEX
  5
12D7
100
AcDbEntity
  8
ALPHA
100
AcDbVertex
100
AcDb2dVertex
 10
348.678073
 20
128.611455
 30
0.0
  0
VERTEX
  5
12D8
100
AcDbEntity
  8
ALPHA
100
AcDbVertex
100
AcDb2dVertex
 10
349.169915
 20
128.677796
 30
0.0
  0
VERTEX
  5
12D9
100
AcDbEntity
  8
ALPHA
100
AcDbVertex
100
AcDb2dVertex
 10
349.66756
 20
128.792683
 30
0.0
  0
VERTEX
  5
12DA
100
AcDbEntity
  8
ALPHA
100
AcDbVertex
100
AcDb2dVertex
 10
350.163824
 20
128.958464
 30
0.0
  0
VERTEX
  5
12DB
100
AcDbEntity
  8
ALPHA
100
AcDbVertex
100
AcDb2dVertex
 10
350.650814
 20
129.176132
 30
0.0
  0
VERTEX
  5
12DC
100
AcDbEntity
  8
ALPHA
100
AcDbVertex
100
AcDb2dVertex
 10
351.120264
 20
129.445113
 30
0.0
  0
VERTEX
  5
12DD
100
AcDbEntity
  8
ALPHA
100
AcDbVertex
100
AcDb2dVertex
 10
351.56394
 20
129.76315
 30
0.0
  0
VERTEX
  5
12DE
100
AcDbEntity
  8
ALPHA
100
AcDbVertex
100
AcDb2dVertex
 10
351.974084
 20
130.126311
 30
0.0
  0
VERTEX
  5
12DF
100
AcDbEntity
  8
ALPHA
100
AcDbVertex
100
AcDb2dVertex
 10
352.343847
 20
130.529131
 30
0.0
  0
VERTEX
  5
12E0
100
AcDbEntity
  8
ALPHA
100
AcDbVertex
100
AcDb2dVertex
 10
352.667666
 20
130.964886
 30
0.0
  0
VERTEX
  5
12E1
100
AcDbEntity
  8
ALPHA
100
AcDbVertex
100
AcDb2dVertex
 10
352.941536
 20
131.425954
 30
0.0
  0
VERTEX
  5
12E2
100
AcDbEntity
  8
ALPHA
100
AcDbVertex
100
AcDb2dVertex
 10
353.163162
 20
131.904249
 30
0.0
  0
VERTEX
  5
12E3
100
AcDbEntity
  8
ALPHA
100
AcDbVertex
100
AcDb2dVertex
 10
353.331957
 20
132.391652
 30
0.0
  0
VERTEX
  5
12E4
100
AcDbEntity
  8
ALPHA
100
AcDbVertex
100
AcDb2dVertex
 10
353.448933
 20
132.880411
 30
0.0
  0
VERTEX
  5
12E5
100
AcDbEntity
  8
ALPHA
100
AcDbVertex
100
AcDb2dVertex
 10
353.516479
 20
133.363471
 30
0.0
  0
VERTEX
  5
12E6
100
AcDbEntity
  8
ALPHA
100
AcDbVertex
100
AcDb2dVertex
 10
353.538079
 20
133.83471
 30
0.0
  0
SEQEND
  5
12E7
100
AcDbEntity
  8
ALPHA
  0
POLYLINE
  5
12E8
100
AcDbEntity
  8
ALPHA
100
AcDb2dPolyline
 66
     1
 10
0.0
 20
0.0
 30
0.0
  0
VERTEX
  5
12E9
100
AcDbEntity
  8
ALPHA
100
AcDbVertex
100
AcDb2dVertex
 10
132.229796
 20
104.386206
 30
0.0
  0
VERTEX
  5
12EA
100
AcDbEntity
  8
ALPHA
100
AcDbVertex
100
AcDb2dVertex
 10
80.333739
 20
93.07768
 30
0.0
  0
SEQEND
  5
12EB
100
AcDbEntity
  8
ALPHA
  0
POLYLINE
  5
12EC
100
AcDbEntity
  8
ALPHA
100
AcDb2dPolyline
 66
     1
 10
0.0
 20
0.0
 30
0.0
  0
VERTEX
  5
12ED
100
AcDbEntity
  8
ALPHA
100
AcDbVertex
100
AcDb2dVertex
 10
322.956655
 20
104.386206
 30
0.0
  0
VERTEX
  5
12EE
100
AcDbEntity
  8
ALPHA
100
AcDbVertex
100
AcDb2dVertex
 10
374.852712
 20
93.07768
 30
0.0
  0
SEQEND
  5
12EF
100
AcDbEntity
  8
ALPHA
  0
POLYLINE
  5
12F0
100
AcDbEntity
  8
ALPHA
100
AcDb2dPolyline
 66
     1
 10
0.0
 20
0.0
 30
0.0
  0
VERTEX
  5
12F1
100
AcDbEntity
  8
ALPHA
100
AcDbVertex
100
AcDb2dVertex
 10
137.417076
 20
66.810894
 30
0.0
  0
VERTEX
  5
12F2
100
AcDbEntity
  8
ALPHA
100
AcDbVertex
100
AcDb2dVertex
 10
137.417076
 20
53.627547
 30
0.0
  0
SEQEND
  5
12F3
100
AcDbEntity
  8
ALPHA
  0
POLYLINE
  5
12F4
100
AcDbEntity
  8
ALPHA
100
AcDb2dPolyline
 66
     1
 10
0.0
 20
0.0
 30
0.0
  0
VERTEX
  5
12F5
100
AcDbEntity
  8
ALPHA
100
AcDbVertex
100
AcDb2dVertex
 10
317.771098
 20
53.627547
 30
0.0
  0
VERTEX
  5
12F6
100
AcDbEntity
  8
ALPHA
100
AcDbVertex
100
AcDb2dVertex
 10
317.771098
 20
66.810894
 30
0.0
  0
SEQEND
  5
12F7
100
AcDbEntity
  8
ALPHA
  0
POLYLINE
  5
12F8
100
AcDbEntity
  8
ALPHA
100
AcDb2dPolyline
 66
     1
 10
0.0
 20
0.0
 30
0.0
  0
VERTEX
  5
12F9
100
AcDbEntity
  8
ALPHA
100
AcDbVertex
100
AcDb2dVertex
 10
132.603244
 20
48.68039
 30
0.0
  0
VERTEX
  5
12FA
100
AcDbEntity
  8
ALPHA
100
AcDbVertex
100
AcDb2dVertex
 10
132.603244
 20
0.546033
 30
0.0
  0
SEQEND
  5
12FB
100
AcDbEntity
  8
ALPHA
  0
POLYLINE
  5
12FC
100
AcDbEntity
  8
ALPHA
100
AcDb2dPolyline
 66
     1
 10
0.0
 20
0.0
 30
0.0
  0
VERTEX
  5
12FD
100
AcDbEntity
  8
ALPHA
100
AcDbVertex
100
AcDb2dVertex
 10
132.603244
 20
66.810722
 30
0.0
  0
VERTEX
  5
12FE
100
AcDbEntity
  8
ALPHA
100
AcDbVertex
100
AcDb2dVertex
 10
132.603244
 20
53.627375
 30
0.0
  0
SEQEND
  5
12FF
100
AcDbEntity
  8
ALPHA
  0
POLYLINE
  5
1300
100
AcDbEntity
  8
ALPHA
100
AcDb2dPolyline
 66
     1
 10
0.0
 20
0.0
 30
0.0
  0
VERTEX
  5
1301
100
AcDbEntity
  8
ALPHA
100
AcDbVertex
100
AcDb2dVertex
 10
322.583207
 20
53.627375
 30
0.0
  0
VERTEX
  5
1302
100
AcDbEntity
  8
ALPHA
100
AcDbVertex
100
AcDb2dVertex
 10
322.583207
 20
66.810722
 30
0.0
  0
SEQEND
  5
1303
100
AcDbEntity
  8
ALPHA
  0
POLYLINE
  5
1304
100
AcDbEntity
  8
ALPHA
100
AcDb2dPolyline
 66
     1
 10
0.0
 20
0.0
 30
0.0
  0
VERTEX
  5
1305
100
AcDbEntity
  8
ALPHA
100
AcDbVertex
100
AcDb2dVertex
 10
322.583207
 20
0.546033
 30
0.0
  0
VERTEX
  5
1306
100
AcDbEntity
  8
ALPHA
100
AcDbVertex
100
AcDb2dVertex
 10
322.583207
 20
48.68039
 30
0.0
  0
SEQEND
  5
1307
100
AcDbEntity
  8
ALPHA
  0
POLYLINE
  5
1308
100
AcDbEntity
  8
ALPHA
100
AcDb2dPolyline
 66
     1
 10
0.0
 20
0.0
 30
0.0
  0
VERTEX
  5
1309
100
AcDbEntity
  8
ALPHA
100
AcDbVertex
100
AcDb2dVertex
 10
61.28305
 20
106.481686
 30
0.0
  0
VERTEX
  5
130A
100
AcDbEntity
  8
ALPHA
100
AcDbVertex
100
AcDb2dVertex
 10
21.982951
 20
95.340419
 30
0.0
  0
SEQEND
  5
130B
100
AcDbEntity
  8
ALPHA
  0
POLYLINE
  5
130C
100
AcDbEntity
  8
ALPHA
100
AcDb2dPolyline
 66
     1
 10
0.0
 20
0.0
 30
0.0
  0
VERTEX
  5
130D
100
AcDbEntity
  8
ALPHA
100
AcDbVertex
100
AcDb2dVertex
 10
124.676941
 20
124.453199
 30
0.0
  0
VERTEX
  5
130E
100
AcDbEntity
  8
ALPHA
100
AcDbVertex
100
AcDb2dVertex
 10
100.976062
 20
117.734229
 30
0.0
  0
SEQEND
  5
130F
100
AcDbEntity
  8
ALPHA
  0
POLYLINE
  5
1310
100
AcDbEntity
  8
ALPHA
100
AcDb2dPolyline
 66
     1
 10
0.0
 20
0.0
 30
0.0
  0
VERTEX
  5
1311
100
AcDbEntity
  8
ALPHA
100
AcDbVertex
100
AcDb2dVertex
 10
393.899956
 20
106.481686
 30
0.0
  0
VERTEX
  5
1312
100
AcDbEntity
  8
ALPHA
100
AcDbVertex
100
AcDb2dVertex
 10
433.198505
 20
95.340419
 30
0.0
  0
SEQEND
  5
1313
100
AcDbEntity
  8
ALPHA
  0
POLYLINE
  5
1314
100
AcDbEntity
  8
ALPHA
100
AcDb2dPolyline
 66
     1
 10
0.0
 20
0.0
 30
0.0
  0
VERTEX
  5
1315
100
AcDbEntity
  8
ALPHA
100
AcDbVertex
100
AcDb2dVertex
 10
330.509683
 20
124.453199
 30
0.0
  0
VERTEX
  5
1316
100
AcDbEntity
  8
ALPHA
100
AcDbVertex
100
AcDb2dVertex
 10
354.210045
 20
117.734057
 30
0.0
  0
SEQEND
  5
1317
100
AcDbEntity
  8
ALPHA
  0
POLYLINE
  5
1318
100
AcDbEntity
  8
ALPHA
100
AcDb2dPolyline
 66
     1
 10
0.0
 20
0.0
 30
0.0
  0
VERTEX
  5
1319
100
AcDbEntity
  8
ALPHA
100
AcDbVertex
100
AcDb2dVertex
 10
322.583207
 20
93.07768
 30
0.0
  0
VERTEX
  5
131A
100
AcDbEntity
  8
ALPHA
100
AcDbVertex
100
AcDb2dVertex
 10
322.583207
 20
124.599271
 30
0.0
  0
SEQEND
  5
131B
100
AcDbEntity
  8
ALPHA
  0
POLYLINE
  5
131C
100
AcDbEntity
  8
ALPHA
100
AcDb2dPolyline
 66
     1
 10
0.0
 20
0.0
 30
0.0
  0
VERTEX
  5
131D
100
AcDbEntity
  8
ALPHA
100
AcDbVertex
100
AcDb2dVertex
 10
322.583207
 20
124.599271
 30
0.0
  0
VERTEX
  5
131E
100
AcDbEntity
  8
ALPHA
100
AcDbVertex
100
AcDb2dVertex
 10
347.314686
 20
184.215959
 30
0.0
  0
SEQEND
  5
131F
100
AcDbEntity
  8
ALPHA
  0
POLYLINE
  5
1320
100
AcDbEntity
  8
ALPHA
100
AcDb2dPolyline
 66
     1
 10
0.0
 20
0.0
 30
0.0
  0
VERTEX
  5
1321
100
AcDbEntity
  8
ALPHA
100
AcDbVertex
100
AcDb2dVertex
 10
347.314686
 20
184.215959
 30
0.0
  0
VERTEX
  5
1322
100
AcDbEntity
  8
ALPHA
100
AcDbVertex
100
AcDb2dVertex
 10
437.55724
 20
184.215959
 30
0.0
  0
SEQEND
  5
1323
100
AcDbEntity
  8
ALPHA
  0
POLYLINE
  5
1324
100
AcDbEntity
  8
ALPHA
100
AcDb2dPolyline
 66
     1
 10
0.0
 20
0.0
 30
0.0
  0
VERTEX
  5
1325
100
AcDbEntity
  8
ALPHA
100
AcDbVertex
100
AcDb2dVertex
 10
437.55724
 20
184.215959
 30
0.0
  0
VERTEX
  5
1326
100
AcDbEntity
  8
ALPHA
100
AcDbVertex
100
AcDb2dVertex
 10
437.560685
 20
108.01906
 30
0.0
  0
SEQEND
  5
1327
100
AcDbEntity
  8
ALPHA
  0
POLYLINE
  5
1328
100
AcDbEntity
  8
ALPHA
100
AcDb2dPolyline
 66
     1
 10
0.0
 20
0.0
 30
0.0
  0
VERTEX
  5
1329
100
AcDbEntity
  8
ALPHA
100
AcDbVertex
100
AcDb2dVertex
 10
437.560685
 20
108.01906
 30
0.0
  0
VERTEX
  5
132A
100
AcDbEntity
  8
ALPHA
100
AcDbVertex
100
AcDb2dVertex
 10
433.731806
 20
93.07768
 30
0.0
  0
SEQEND
  5
132B
100
AcDbEntity
  8
ALPHA
  0
POLYLINE
  5
132C
100
AcDbEntity
  8
ALPHA
100
AcDb2dPolyline
 66
     1
 10
0.0
 20
0.0
 30
0.0
  0
VERTEX
  5
132D
100
AcDbEntity
  8
ALPHA
100
AcDbVertex
100
AcDb2dVertex
 10
21.453439
 20
93.07768
 30
0.0
  0
VERTEX
  5
132E
100
AcDbEntity
  8
ALPHA
100
AcDbVertex
100
AcDb2dVertex
 10
17.625766
 20
108.01906
 30
0.0
  0
SEQEND
  5
132F
100
AcDbEntity
  8
ALPHA
  0
POLYLINE
  5
1330
100
AcDbEntity
  8
ALPHA
100
AcDb2dPolyline
 66
     1
 10
0.0
 20
0.0
 30
0.0
  0
VERTEX
  5
1331
100
AcDbEntity
  8
ALPHA
100
AcDbVertex
100
AcDb2dVertex
 10
17.625766
 20
108.01906
 30
0.0
  0
VERTEX
  5
1332
100
AcDbEntity
  8
ALPHA
100
AcDbVertex
100
AcDb2dVertex
 10
17.625766
 20
184.215959
 30
0.0
  0
SEQEND
  5
1333
100
AcDbEntity
  8
ALPHA
  0
POLYLINE
  5
1334
100
AcDbEntity
  8
ALPHA
100
AcDb2dPolyline
 66
     1
 10
0.0
 20
0.0
 30
0.0
  0
VERTEX
  5
1335
100
AcDbEntity
  8
ALPHA
100
AcDbVertex
100
AcDb2dVertex
 10
17.625766
 20
184.215959
 30
0.0
  0
VERTEX
  5
1336
100
AcDbEntity
  8
ALPHA
100
AcDbVertex
100
AcDb2dVertex
 10
107.86987
 20
184.215959
 30
0.0
  0
SEQEND
  5
1337
100
AcDbEntity
  8
ALPHA
  0
POLYLINE
  5
1338
100
AcDbEntity
  8
ALPHA
100
AcDb2dPolyline
 66
     1
 10
0.0
 20
0.0
 30
0.0
  0
VERTEX
  5
1339
100
AcDbEntity
  8
ALPHA
100
AcDbVertex
100
AcDb2dVertex
 10
107.86987
 20
184.215959
 30
0.0
  0
VERTEX
  5
133A
100
AcDbEntity
  8
ALPHA
100
AcDbVertex
100
AcDb2dVertex
 10
132.603244
 20
124.599271
 30
0.0
  0
SEQEND
  5
133B
100
AcDbEntity
  8
ALPHA
  0
POLYLINE
  5
133C
100
AcDbEntity
  8
ALPHA
100
AcDb2dPolyline
 66
     1
 10
0.0
 20
0.0
 30
0.0
  0
VERTEX
  5
133D
100
AcDbEntity
  8
ALPHA
100
AcDbVertex
100
AcDb2dVertex
 10
132.603244
 20
124.599271
 30
0.0
  0
VERTEX
  5
133E
100
AcDbEntity
  8
ALPHA
100
AcDbVertex
100
AcDb2dVertex
 10
132.603244
 20
93.07768
 30
0.0
  0
SEQEND
  5
133F
100
AcDbEntity
  8
ALPHA
  0
POLYLINE
  5
1340
100
AcDbEntity
  8
ALPHA
100
AcDb2dPolyline
 66
     1
 10
0.0
 20
0.0
 30
0.0
  0
VERTEX
  5
1341
100
AcDbEntity
  8
ALPHA
100
AcDbVertex
100
AcDb2dVertex
 10
317.771098
 20
93.07768
 30
0.0
  0
VERTEX
  5
1342
100
AcDbEntity
  8
ALPHA
100
AcDbVertex
100
AcDb2dVertex
 10
317.771098
 20
124.599271
 30
0.0
  0
SEQEND
  5
1343
100
AcDbEntity
  8
ALPHA
  0
POLYLINE
  5
1344
100
AcDbEntity
  8
ALPHA
100
AcDb2dPolyline
 66
     1
 10
0.0
 20
0.0
 30
0.0
  0
VERTEX
  5
1345
100
AcDbEntity
  8
ALPHA
100
AcDbVertex
100
AcDb2dVertex
 10
317.771098
 20
124.599271
 30
0.0
  0
VERTEX
  5
1346
100
AcDbEntity
  8
ALPHA
100
AcDbVertex
100
AcDb2dVertex
 10
342.879815
 20
186.146246
 30
0.0
  0
SEQEND
  5
1347
100
AcDbEntity
  8
ALPHA
  0
POLYLINE
  5
1348
100
AcDbEntity
  8
ALPHA
100
AcDb2dPolyline
 66
     1
 10
0.0
 20
0.0
 30
0.0
  0
VERTEX
  5
1349
100
AcDbEntity
  8
ALPHA
100
AcDbVertex
100
AcDb2dVertex
 10
342.879815
 20
186.146246
 30
0.0
  0
VERTEX
  5
134A
100
AcDbEntity
  8
ALPHA
100
AcDbVertex
100
AcDb2dVertex
 10
343.217093
 20
186.782085
 30
0.0
  0
VERTEX
  5
134B
100
AcDbEntity
  8
ALPHA
100
AcDbVertex
100
AcDb2dVertex
 10
343.647148
 20
187.354968
 30
0.0
  0
VERTEX
  5
134C
100
AcDbEntity
  8
ALPHA
100
AcDbVertex
100
AcDb2dVertex
 10
344.159663
 20
187.858169
 30
0.0
  0
VERTEX
  5
134D
100
AcDbEntity
  8
ALPHA
100
AcDbVertex
100
AcDb2dVertex
 10
344.744322
 20
188.284961
 30
0.0
  0
VERTEX
  5
134E
100
AcDbEntity
  8
ALPHA
100
AcDbVertex
100
AcDb2dVertex
 10
345.390807
 20
188.628619
 30
0.0
  0
VERTEX
  5
134F
100
AcDbEntity
  8
ALPHA
100
AcDbVertex
100
AcDb2dVertex
 10
346.0888
 20
188.882416
 30
0.0
  0
VERTEX
  5
1350
100
AcDbEntity
  8
ALPHA
100
AcDbVertex
100
AcDb2dVertex
 10
346.827985
 20
189.039627
 30
0.0
  0
VERTEX
  5
1351
100
AcDbEntity
  8
ALPHA
100
AcDbVertex
100
AcDb2dVertex
 10
347.598045
 20
189.093525
 30
0.0
  0
SEQEND
  5
1352
100
AcDbEntity
  8
ALPHA
  0
POLYLINE
  5
1353
100
AcDbEntity
  8
ALPHA
100
AcDb2dPolyline
 66
     1
 10
0.0
 20
0.0
 30
0.0
  0
VERTEX
  5
1354
100
AcDbEntity
  8
ALPHA
100
AcDbVertex
100
AcDb2dVertex
 10
347.598045
 20
189.093525
 30
0.0
  0
VERTEX
  5
1355
100
AcDbEntity
  8
ALPHA
100
AcDbVertex
100
AcDb2dVertex
 10
437.55724
 20
189.027379
 30
0.0
  0
SEQEND
  5
1356
100
AcDbEntity
  8
ALPHA
  0
POLYLINE
  5
1357
100
AcDbEntity
  8
ALPHA
100
AcDb2dPolyline
 66
     1
 10
0.0
 20
0.0
 30
0.0
  0
VERTEX
  5
1358
100
AcDbEntity
  8
ALPHA
100
AcDbVertex
100
AcDb2dVertex
 10
437.55724
 20
189.027379
 30
0.0
  0
VERTEX
  5
1359
100
AcDbEntity
  8
ALPHA
100
AcDbVertex
100
AcDb2dVertex
 10
438.072148
 20
189.001835
 30
0.0
  0
VERTEX
  5
135A
100
AcDbEntity
  8
ALPHA
100
AcDbVertex
100
AcDb2dVertex
 10
438.572161
 20
188.926859
 30
0.0
  0
VERTEX
  5
135B
100
AcDbEntity
  8
ALPHA
100
AcDbVertex
100
AcDb2dVertex
 10
439.054751
 20
188.804941
 30
0.0
  0
VERTEX
  5
135C
100
AcDbEntity
  8
ALPHA
100
AcDbVertex
100
AcDb2dVertex
 10
439.517389
 20
188.638568
 30
0.0
  0
VERTEX
  5
135D
100
AcDbEntity
  8
ALPHA
100
AcDbVertex
100
AcDb2dVertex
 10
439.957547
 20
188.430228
 30
0.0
  0
VERTEX
  5
135E
100
AcDbEntity
  8
ALPHA
100
AcDbVertex
100
AcDb2dVertex
 10
440.372696
 20
188.182409
 30
0.0
  0
VERTEX
  5
135F
100
AcDbEntity
  8
ALPHA
100
AcDbVertex
100
AcDb2dVertex
 10
440.760308
 20
187.897599
 30
0.0
  0
VERTEX
  5
1360
100
AcDbEntity
  8
ALPHA
100
AcDbVertex
100
AcDb2dVertex
 10
441.117854
 20
187.578286
 30
0.0
  0
VERTEX
  5
1361
100
AcDbEntity
  8
ALPHA
100
AcDbVertex
100
AcDb2dVertex
 10
441.442805
 20
187.226958
 30
0.0
  0
VERTEX
  5
1362
100
AcDbEntity
  8
ALPHA
100
AcDbVertex
100
AcDb2dVertex
 10
441.732633
 20
186.846102
 30
0.0
  0
VERTEX
  5
1363
100
AcDbEntity
  8
ALPHA
100
AcDbVertex
100
AcDb2dVertex
 10
441.98481
 20
186.438208
 30
0.0
  0
VERTEX
  5
1364
100
AcDbEntity
  8
ALPHA
100
AcDbVertex
100
AcDb2dVertex
 10
442.196806
 20
186.005761
 30
0.0
  0
VERTEX
  5
1365
100
AcDbEntity
  8
ALPHA
100
AcDbVertex
100
AcDb2dVertex
 10
442.366094
 20
185.551252
 30
0.0
  0
VERTEX
  5
1366
100
AcDbEntity
  8
ALPHA
100
AcDbVertex
100
AcDb2dVertex
 10
442.490145
 20
185.077167
 30
0.0
  0
VERTEX
  5
1367
100
AcDbEntity
  8
ALPHA
100
AcDbVertex
100
AcDb2dVertex
 10
442.566429
 20
184.585994
 30
0.0
  0
VERTEX
  5
1368
100
AcDbEntity
  8
ALPHA
100
AcDbVertex
100
AcDb2dVertex
 10
442.592419
 20
184.080222
 30
0.0
  0
SEQEND
  5
1369
100
AcDbEntity
  8
ALPHA
  0
POLYLINE
  5
136A
100
AcDbEntity
  8
ALPHA
100
AcDb2dPolyline
 66
     1
 10
0.0
 20
0.0
 30
0.0
  0
VERTEX
  5
136B
100
AcDbEntity
  8
ALPHA
100
AcDbVertex
100
AcDb2dVertex
 10
442.592419
 20
184.080222
 30
0.0
  0
VERTEX
  5
136C
100
AcDbEntity
  8
ALPHA
100
AcDbVertex
100
AcDb2dVertex
 10
442.592419
 20
108.01906
 30
0.0
  0
SEQEND
  5
136D
100
AcDbEntity
  8
ALPHA
  0
POLYLINE
  5
136E
100
AcDbEntity
  8
ALPHA
100
AcDb2dPolyline
 66
     1
 10
0.0
 20
0.0
 30
0.0
  0
VERTEX
  5
136F
100
AcDbEntity
  8
ALPHA
100
AcDbVertex
100
AcDb2dVertex
 10
442.592419
 20
108.01906
 30
0.0
  0
VERTEX
  5
1370
100
AcDbEntity
  8
ALPHA
100
AcDbVertex
100
AcDb2dVertex
 10
438.810566
 20
93.07768
 30
0.0
  0
SEQEND
  5
1371
100
AcDbEntity
  8
ALPHA
  0
POLYLINE
  5
1372
100
AcDbEntity
  8
ALPHA
100
AcDb2dPolyline
 66
     1
 10
0.0
 20
0.0
 30
0.0
  0
VERTEX
  5
1373
100
AcDbEntity
  8
ALPHA
100
AcDbVertex
100
AcDb2dVertex
 10
16.374163
 20
93.07768
 30
0.0
  0
VERTEX
  5
1374
100
AcDbEntity
  8
ALPHA
100
AcDbVertex
100
AcDb2dVertex
 10
12.592309
 20
108.01906
 30
0.0
  0
SEQEND
  5
1375
100
AcDbEntity
  8
ALPHA
  0
POLYLINE
  5
1376
100
AcDbEntity
  8
ALPHA
100
AcDb2dPolyline
 66
     1
 10
0.0
 20
0.0
 30
0.0
  0
VERTEX
  5
1377
100
AcDbEntity
  8
ALPHA
100
AcDbVertex
100
AcDb2dVertex
 10
12.592309
 20
108.01906
 30
0.0
  0
VERTEX
  5
1378
100
AcDbEntity
  8
ALPHA
100
AcDbVertex
100
AcDb2dVertex
 10
12.592309
 20
184.080222
 30
0.0
  0
SEQEND
  5
1379
100
AcDbEntity
  8
ALPHA
  0
POLYLINE
  5
137A
100
AcDbEntity
  8
ALPHA
100
AcDb2dPolyline
 66
     1
 10
0.0
 20
0.0
 30
0.0
  0
VERTEX
  5
137B
100
AcDbEntity
  8
ALPHA
100
AcDbVertex
100
AcDb2dVertex
 10
12.592309
 20
184.080222
 30
0.0
  0
VERTEX
  5
137C
100
AcDbEntity
  8
ALPHA
100
AcDbVertex
100
AcDb2dVertex
 10
12.61828
 20
184.585994
 30
0.0
  0
VERTEX
  5
137D
100
AcDbEntity
  8
ALPHA
100
AcDbVertex
100
AcDb2dVertex
 10
12.69451
 20
185.077167
 30
0.0
  0
VERTEX
  5
137E
100
AcDbEntity
  8
ALPHA
100
AcDbVertex
100
AcDb2dVertex
 10
12.818475
 20
185.551252
 30
0.0
  0
VERTEX
  5
137F
100
AcDbEntity
  8
ALPHA
100
AcDbVertex
100
AcDb2dVertex
 10
12.987653
 20
186.005761
 30
0.0
  0
VERTEX
  5
1380
100
AcDbEntity
  8
ALPHA
100
AcDbVertex
100
AcDb2dVertex
 10
13.199519
 20
186.438208
 30
0.0
  0
VERTEX
  5
1381
100
AcDbEntity
  8
ALPHA
100
AcDbVertex
100
AcDb2dVertex
 10
13.45155
 20
186.846102
 30
0.0
  0
VERTEX
  5
1382
100
AcDbEntity
  8
ALPHA
100
AcDbVertex
100
AcDb2dVertex
 10
13.741223
 20
187.226958
 30
0.0
  0
VERTEX
  5
1383
100
AcDbEntity
  8
ALPHA
100
AcDbVertex
100
AcDb2dVertex
 10
14.066013
 20
187.578286
 30
0.0
  0
VERTEX
  5
1384
100
AcDbEntity
  8
ALPHA
100
AcDbVertex
100
AcDb2dVertex
 10
14.423399
 20
187.897599
 30
0.0
  0
VERTEX
  5
1385
100
AcDbEntity
  8
ALPHA
100
AcDbVertex
100
AcDb2dVertex
 10
14.810855
 20
188.182409
 30
0.0
  0
VERTEX
  5
1386
100
AcDbEntity
  8
ALPHA
100
AcDbVertex
100
AcDb2dVertex
 10
15.225859
 20
188.430228
 30
0.0
  0
VERTEX
  5
1387
100
AcDbEntity
  8
ALPHA
100
AcDbVertex
100
AcDb2dVertex
 10
15.665886
 20
188.638568
 30
0.0
  0
VERTEX
  5
1388
100
AcDbEntity
  8
ALPHA
100
AcDbVertex
100
AcDb2dVertex
 10
16.128414
 20
188.804941
 30
0.0
  0
VERTEX
  5
1389
100
AcDbEntity
  8
ALPHA
100
AcDbVertex
100
AcDb2dVertex
 10
16.610919
 20
188.926859
 30
0.0
  0
VERTEX
  5
138A
100
AcDbEntity
  8
ALPHA
100
AcDbVertex
100
AcDb2dVertex
 10
17.110878
 20
189.001835
 30
0.0
  0
VERTEX
  5
138B
100
AcDbEntity
  8
ALPHA
100
AcDbVertex
100
AcDb2dVertex
 10
17.625766
 20
189.027379
 30
0.0
  0
SEQEND
  5
138C
100
AcDbEntity
  8
ALPHA
  0
POLYLINE
  5
138D
100
AcDbEntity
  8
ALPHA
100
AcDb2dPolyline
 66
     1
 10
0.0
 20
0.0
 30
0.0
  0
VERTEX
  5
138E
100
AcDbEntity
  8
ALPHA
100
AcDbVertex
100
AcDb2dVertex
 10
17.625766
 20
189.027379
 30
0.0
  0
VERTEX
  5
138F
100
AcDbEntity
  8
ALPHA
100
AcDbVertex
100
AcDb2dVertex
 10
107.588406
 20
189.093525
 30
0.0
  0
SEQEND
  5
1390
100
AcDbEntity
  8
ALPHA
  0
POLYLINE
  5
1391
100
AcDbEntity
  8
ALPHA
100
AcDb2dPolyline
 66
     1
 10
0.0
 20
0.0
 30
0.0
  0
VERTEX
  5
1392
100
AcDbEntity
  8
ALPHA
100
AcDbVertex
100
AcDb2dVertex
 10
107.588406
 20
189.093525
 30
0.0
  0
VERTEX
  5
1393
100
AcDbEntity
  8
ALPHA
100
AcDbVertex
100
AcDb2dVertex
 10
108.358017
 20
189.039627
 30
0.0
  0
VERTEX
  5
1394
100
AcDbEntity
  8
ALPHA
100
AcDbVertex
100
AcDb2dVertex
 10
109.09697
 20
188.882416
 30
0.0
  0
VERTEX
  5
1395
100
AcDbEntity
  8
ALPHA
100
AcDbVertex
100
AcDb2dVertex
 10
109.794872
 20
188.628619
 30
0.0
  0
VERTEX
  5
1396
100
AcDbEntity
  8
ALPHA
100
AcDbVertex
100
AcDb2dVertex
 10
110.441332
 20
188.284961
 30
0.0
  0
VERTEX
  5
1397
100
AcDbEntity
  8
ALPHA
100
AcDbVertex
100
AcDb2dVertex
 10
111.025958
 20
187.858169
 30
0.0
  0
VERTEX
  5
1398
100
AcDbEntity
  8
ALPHA
100
AcDbVertex
100
AcDb2dVertex
 10
111.538358
 20
187.354968
 30
0.0
  0
VERTEX
  5
1399
100
AcDbEntity
  8
ALPHA
100
AcDbVertex
100
AcDb2dVertex
 10
111.968141
 20
186.782085
 30
0.0
  0
VERTEX
  5
139A
100
AcDbEntity
  8
ALPHA
100
AcDbVertex
100
AcDb2dVertex
 10
112.304914
 20
186.146246
 30
0.0
  0
SEQEND
  5
139B
100
AcDbEntity
  8
ALPHA
  0
POLYLINE
  5
139C
100
AcDbEntity
  8
ALPHA
100
AcDb2dPolyline
 66
     1
 10
0.0
 20
0.0
 30
0.0
  0
VERTEX
  5
139D
100
AcDbEntity
  8
ALPHA
100
AcDbVertex
100
AcDb2dVertex
 10
112.304914
 20
186.146246
 30
0.0
  0
VERTEX
  5
139E
100
AcDbEntity
  8
ALPHA
100
AcDbVertex
100
AcDb2dVertex
 10
137.417076
 20
124.599271
 30
0.0
  0
SEQEND
  5
139F
100
AcDbEntity
  8
ALPHA
  0
POLYLINE
  5
13A0
100
AcDbEntity
  8
ALPHA
100
AcDb2dPolyline
 66
     1
 10
0.0
 20
0.0
 30
0.0
  0
VERTEX
  5
13A1
100
AcDbEntity
  8
ALPHA
100
AcDbVertex
100
AcDb2dVertex
 10
137.417076
 20
124.599271
 30
0.0
  0
VERTEX
  5
13A2
100
AcDbEntity
  8
ALPHA
100
AcDbVertex
100
AcDb2dVertex
 10
137.417076
 20
93.07768
 30
0.0
  0
SEQEND
  5
13A3
100
AcDbEntity
  8
ALPHA
  0
POLYLINE
  5
13A4
100
AcDbEntity
  8
ALPHA
100
AcDb2dPolyline
 66
     1
 10
0.0
 20
0.0
 30
0.0
  0
VERTEX
  5
13A5
100
AcDbEntity
  8
ALPHA
100
AcDbVertex
100
AcDb2dVertex
 10
426.025644
 20
66.81055
 30
0.0
  0
VERTEX
  5
13A6
100
AcDbEntity
  8
ALPHA
100
AcDbVertex
100
AcDb2dVertex
 10
428.825301
 20
53.627547
 30
0.0
  0
SEQEND
  5
13A7
100
AcDbEntity
  8
ALPHA
  0
POLYLINE
  5
13A8
100
AcDbEntity
  8
ALPHA
100
AcDb2dPolyline
 66
     1
 10
0.0
 20
0.0
 30
0.0
  0
VERTEX
  5
13A9
100
AcDbEntity
  8
ALPHA
100
AcDbVertex
100
AcDb2dVertex
 10
428.825301
 20
53.627547
 30
0.0
  0
VERTEX
  5
13AA
100
AcDbEntity
  8
ALPHA
100
AcDbVertex
100
AcDb2dVertex
 10
26.359428
 20
53.627547
 30
0.0
  0
SEQEND
  5
13AB
100
AcDbEntity
  8
ALPHA
  0
POLYLINE
  5
13AC
100
AcDbEntity
  8
ALPHA
100
AcDb2dPolyline
 66
     1
 10
0.0
 20
0.0
 30
0.0
  0
VERTEX
  5
13AD
100
AcDbEntity
  8
ALPHA
100
AcDbVertex
100
AcDb2dVertex
 10
26.359428
 20
53.627547
 30
0.0
  0
VERTEX
  5
13AE
100
AcDbEntity
  8
ALPHA
100
AcDbVertex
100
AcDb2dVertex
 10
29.212483
 20
66.810722
 30
0.0
  0
SEQEND
  5
13AF
100
AcDbEntity
  8
ALPHA
  0
POLYLINE
  5
13B0
100
AcDbEntity
  8
ALPHA
100
AcDb2dPolyline
 66
     1
 10
0.0
 20
0.0
 30
0.0
  0
VERTEX
  5
13B1
100
AcDbEntity
  8
ALPHA
100
AcDbVertex
100
AcDb2dVertex
 10
432.16222
 20
66.810894
 30
0.0
  0
VERTEX
  5
13B2
100
AcDbEntity
  8
ALPHA
100
AcDbVertex
100
AcDb2dVertex
 10
428.825301
 20
53.627547
 30
0.0
  0
SEQEND
  5
13B3
100
AcDbEntity
  8
ALPHA
  0
POLYLINE
  5
13B4
100
AcDbEntity
  8
ALPHA
100
AcDb2dPolyline
 66
     1
 10
0.0
 20
0.0
 30
0.0
  0
VERTEX
  5
13B5
100
AcDbEntity
  8
ALPHA
100
AcDbVertex
100
AcDb2dVertex
 10
428.825301
 20
53.627547
 30
0.0
  0
VERTEX
  5
13B6
100
AcDbEntity
  8
ALPHA
100
AcDbVertex
100
AcDb2dVertex
 10
428.825301
 20
0.542416
 30
0.0
  0
SEQEND
  5
13B7
100
AcDbEntity
  8
ALPHA
  0
POLYLINE
  5
13B8
100
AcDbEntity
  8
ALPHA
100
AcDb2dPolyline
 66
     1
 10
0.0
 20
0.0
 30
0.0
  0
VERTEX
  5
13B9
100
AcDbEntity
  8
ALPHA
100
AcDbVertex
100
AcDb2dVertex
 10
428.825301
 20
0.542416
 30
0.0
  0
VERTEX
  5
13BA
100
AcDbEntity
  8
ALPHA
100
AcDbVertex
100
AcDb2dVertex
 10
26.359428
 20
0.542416
 30
0.0
  0
SEQEND
  5
13BB
100
AcDbEntity
  8
ALPHA
  0
POLYLINE
  5
13BC
100
AcDbEntity
  8
ALPHA
100
AcDb2dPolyline
 66
     1
 10
0.0
 20
0.0
 30
0.0
  0
VERTEX
  5
13BD
100
AcDbEntity
  8
ALPHA
100
AcDbVertex
100
AcDb2dVertex
 10
26.359428
 20
0.542416
 30
0.0
  0
VERTEX
  5
13BE
100
AcDbEntity
  8
ALPHA
100
AcDbVertex
100
AcDb2dVertex
 10
26.359428
 20
53.627547
 30
0.0
  0
SEQEND
  5
13BF
100
AcDbEntity
  8
ALPHA
  0
POLYLINE
  5
13C0
100
AcDbEntity
  8
ALPHA
100
AcDb2dPolyline
 66
     1
 10
0.0
 20
0.0
 30
0.0
  0
VERTEX
  5
13C1
100
AcDbEntity
  8
ALPHA
100
AcDbVertex
100
AcDb2dVertex
 10
26.359428
 20
53.627547
 30
0.0
  0
VERTEX
  5
13C2
100
AcDbEntity
  8
ALPHA
100
AcDbVertex
100
AcDb2dVertex
 10
23.022508
 20
66.810894
 30
0.0
  0
SEQEND
  5
13C3
100
AcDbEntity
  8
ALPHA
  0
POLYLINE
  5
13C4
100
AcDbEntity
  8
ALPHA
100
AcDb2dPolyline
 66
     1
 10
0.0
 20
0.0
 30
0.0
  0
VERTEX
  5
13C5
100
AcDbEntity
  8
ALPHA
100
AcDbVertex
100
AcDb2dVertex
 10
13.225862
 20
66.810722
 30
0.0
  0
VERTEX
  5
13C6
100
AcDbEntity
  8
ALPHA
100
AcDbVertex
100
AcDb2dVertex
 10
11.883061
 20
66.878529
 30
0.0
  0
VERTEX
  5
13C7
100
AcDbEntity
  8
ALPHA
100
AcDbVertex
100
AcDb2dVertex
 10
10.579045
 20
67.077549
 30
0.0
  0
VERTEX
  5
13C8
100
AcDbEntity
  8
ALPHA
100
AcDbVertex
100
AcDb2dVertex
 10
9.320419
 20
67.40118
 30
0.0
  0
VERTEX
  5
13C9
100
AcDbEntity
  8
ALPHA
100
AcDbVertex
100
AcDb2dVertex
 10
8.113782
 20
67.842822
 30
0.0
  0
VERTEX
  5
13CA
100
AcDbEntity
  8
ALPHA
100
AcDbVertex
100
AcDb2dVertex
 10
6.965738
 20
68.395871
 30
0.0
  0
VERTEX
  5
13CB
100
AcDbEntity
  8
ALPHA
100
AcDbVertex
100
AcDb2dVertex
 10
5.882888
 20
69.053727
 30
0.0
  0
VERTEX
  5
13CC
100
AcDbEntity
  8
ALPHA
100
AcDbVertex
100
AcDb2dVertex
 10
4.871833
 20
69.809787
 30
0.0
  0
VERTEX
  5
13CD
100
AcDbEntity
  8
ALPHA
100
AcDbVertex
100
AcDb2dVertex
 10
3.939177
 20
70.657451
 30
0.0
  0
VERTEX
  5
13CE
100
AcDbEntity
  8
ALPHA
100
AcDbVertex
100
AcDb2dVertex
 10
3.09152
 20
71.590117
 30
0.0
  0
VERTEX
  5
13CF
100
AcDbEntity
  8
ALPHA
100
AcDbVertex
100
AcDb2dVertex
 10
2.335465
 20
72.601182
 30
0.0
  0
VERTEX
  5
13D0
100
AcDbEntity
  8
ALPHA
100
AcDbVertex
100
AcDb2dVertex
 10
1.677613
 20
73.684047
 30
0.0
  0
VERTEX
  5
13D1
100
AcDbEntity
  8
ALPHA
100
AcDbVertex
100
AcDb2dVertex
 10
1.124566
 20
74.832108
 30
0.0
  0
VERTEX
  5
13D2
100
AcDbEntity
  8
ALPHA
100
AcDbVertex
100
AcDb2dVertex
 10
0.682927
 20
76.038764
 30
0.0
  0
VERTEX
  5
13D3
100
AcDbEntity
  8
ALPHA
100
AcDbVertex
100
AcDb2dVertex
 10
0.359296
 20
77.297413
 30
0.0
  0
VERTEX
  5
13D4
100
AcDbEntity
  8
ALPHA
100
AcDbVertex
100
AcDb2dVertex
 10
0.160276
 20
78.601455
 30
0.0
  0
VERTEX
  5
13D5
100
AcDbEntity
  8
ALPHA
100
AcDbVertex
100
AcDb2dVertex
 10
0.092469
 20
79.944287
 30
0.0
  0
VERTEX
  5
13D6
100
AcDbEntity
  8
ALPHA
100
AcDbVertex
100
AcDb2dVertex
 10
0.160276
 20
81.287089
 30
0.0
  0
VERTEX
  5
13D7
100
AcDbEntity
  8
ALPHA
100
AcDbVertex
100
AcDb2dVertex
 10
0.359296
 20
82.591104
 30
0.0
  0
VERTEX
  5
13D8
100
AcDbEntity
  8
ALPHA
100
AcDbVertex
100
AcDb2dVertex
 10
0.682927
 20
83.849731
 30
0.0
  0
VERTEX
  5
13D9
100
AcDbEntity
  8
ALPHA
100
AcDbVertex
100
AcDb2dVertex
 10
1.124566
 20
85.056368
 30
0.0
  0
VERTEX
  5
13DA
100
AcDbEntity
  8
ALPHA
100
AcDbVertex
100
AcDb2dVertex
 10
1.677613
 20
86.204412
 30
0.0
  0
VERTEX
  5
13DB
100
AcDbEntity
  8
ALPHA
100
AcDbVertex
100
AcDb2dVertex
 10
2.335465
 20
87.287262
 30
0.0
  0
VERTEX
  5
13DC
100
AcDbEntity
  8
ALPHA
100
AcDbVertex
100
AcDb2dVertex
 10
3.09152
 20
88.298316
 30
0.0
  0
VERTEX
  5
13DD
100
AcDbEntity
  8
ALPHA
100
AcDbVertex
100
AcDb2dVertex
 10
3.939177
 20
89.230973
 30
0.0
  0
VERTEX
  5
13DE
100
AcDbEntity
  8
ALPHA
100
AcDbVertex
100
AcDb2dVertex
 10
4.871833
 20
90.07863
 30
0.0
  0
VERTEX
  5
13DF
100
AcDbEntity
  8
ALPHA
100
AcDbVertex
100
AcDb2dVertex
 10
5.882888
 20
90.834685
 30
0.0
  0
VERTEX
  5
13E0
100
AcDbEntity
  8
ALPHA
100
AcDbVertex
100
AcDb2dVertex
 10
6.965738
 20
91.492537
 30
0.0
  0
VERTEX
  5
13E1
100
AcDbEntity
  8
ALPHA
100
AcDbVertex
100
AcDb2dVertex
 10
8.113782
 20
92.045584
 30
0.0
  0
VERTEX
  5
13E2
100
AcDbEntity
  8
ALPHA
100
AcDbVertex
100
AcDb2dVertex
 10
9.320419
 20
92.487223
 30
0.0
  0
VERTEX
  5
13E3
100
AcDbEntity
  8
ALPHA
100
AcDbVertex
100
AcDb2dVertex
 10
10.579045
 20
92.810854
 30
0.0
  0
VERTEX
  5
13E4
100
AcDbEntity
  8
ALPHA
100
AcDbVertex
100
AcDb2dVertex
 10
11.883061
 20
93.009873
 30
0.0
  0
VERTEX
  5
13E5
100
AcDbEntity
  8
ALPHA
100
AcDbVertex
100
AcDb2dVertex
 10
13.225862
 20
93.07768
 30
0.0
  0
SEQEND
  5
13E6
100
AcDbEntity
  8
ALPHA
  0
POLYLINE
  5
13E7
100
AcDbEntity
  8
ALPHA
100
AcDb2dPolyline
 66
     1
 10
0.0
 20
0.0
 30
0.0
  0
VERTEX
  5
13E8
100
AcDbEntity
  8
ALPHA
100
AcDbVertex
100
AcDb2dVertex
 10
13.225862
 20
93.07768
 30
0.0
  0
VERTEX
  5
13E9
100
AcDbEntity
  8
ALPHA
100
AcDbVertex
100
AcDb2dVertex
 10
441.958866
 20
93.07768
 30
0.0
  0
SEQEND
  5
13EA
100
AcDbEntity
  8
ALPHA
  0
POLYLINE
  5
13EB
100
AcDbEntity
  8
ALPHA
100
AcDb2dPolyline
 66
     1
 10
0.0
 20
0.0
 30
0.0
  0
VERTEX
  5
13EC
100
AcDbEntity
  8
ALPHA
100
AcDbVertex
100
AcDb2dVertex
 10
441.958866
 20
93.07768
 30
0.0
  0
VERTEX
  5
13ED
100
AcDbEntity
  8
ALPHA
100
AcDbVertex
100
AcDb2dVertex
 10
443.301698
 20
93.009873
 30
0.0
  0
VERTEX
  5
13EE
100
AcDbEntity
  8
ALPHA
100
AcDbVertex
100
AcDb2dVertex
 10
444.60574
 20
92.810854
 30
0.0
  0
VERTEX
  5
13EF
100
AcDbEntity
  8
ALPHA
100
AcDbVertex
100
AcDb2dVertex
 10
445.86439
 20
92.487223
 30
0.0
  0
VERTEX
  5
13F0
100
AcDbEntity
  8
ALPHA
100
AcDbVertex
100
AcDb2dVertex
 10
447.071046
 20
92.045584
 30
0.0
  0
VERTEX
  5
13F1
100
AcDbEntity
  8
ALPHA
100
AcDbVertex
100
AcDb2dVertex
 10
448.219107
 20
91.492537
 30
0.0
  0
VERTEX
  5
13F2
100
AcDbEntity
  8
ALPHA
100
AcDbVertex
100
AcDb2dVertex
 10
449.301971
 20
90.834685
 30
0.0
  0
VERTEX
  5
13F3
100
AcDbEntity
  8
ALPHA
100
AcDbVertex
100
AcDb2dVertex
 10
450.313037
 20
90.07863
 30
0.0
  0
VERTEX
  5
13F4
100
AcDbEntity
  8
ALPHA
100
AcDbVertex
100
AcDb2dVertex
 10
451.245702
 20
89.230973
 30
0.0
  0
VERTEX
  5
13F5
100
AcDbEntity
  8
ALPHA
100
AcDbVertex
100
AcDb2dVertex
 10
452.093366
 20
88.298316
 30
0.0
  0
VERTEX
  5
13F6
100
AcDbEntity
  8
ALPHA
100
AcDbVertex
100
AcDb2dVertex
 10
452.849427
 20
87.287262
 30
0.0
  0
VERTEX
  5
13F7
100
AcDbEntity
  8
ALPHA
100
AcDbVertex
100
AcDb2dVertex
 10
453.507283
 20
86.204412
 30
0.0
  0
VERTEX
  5
13F8
100
AcDbEntity
  8
ALPHA
100
AcDbVertex
100
AcDb2dVertex
 10
454.060332
 20
85.056368
 30
0.0
  0
VERTEX
  5
13F9
100
AcDbEntity
  8
ALPHA
100
AcDbVertex
100
AcDb2dVertex
 10
454.501973
 20
83.849731
 30
0.0
  0
VERTEX
  5
13FA
100
AcDbEntity
  8
ALPHA
100
AcDbVertex
100
AcDb2dVertex
 10
454.825604
 20
82.591104
 30
0.0
  0
VERTEX
  5
13FB
100
AcDbEntity
  8
ALPHA
100
AcDbVertex
100
AcDb2dVertex
 10
455.024624
 20
81.287089
 30
0.0
  0
VERTEX
  5
13FC
100
AcDbEntity
  8
ALPHA
100
AcDbVertex
100
AcDb2dVertex
 10
455.092431
 20
79.944287
 30
0.0
  0
VERTEX
  5
13FD
100
AcDbEntity
  8
ALPHA
100
AcDbVertex
100
AcDb2dVertex
 10
455.024624
 20
78.601455
 30
0.0
  0
VERTEX
  5
13FE
100
AcDbEntity
  8
ALPHA
100
AcDbVertex
100
AcDb2dVertex
 10
454.825604
 20
77.297413
 30
0.0
  0
VERTEX
  5
13FF
100
AcDbEntity
  8
ALPHA
100
AcDbVertex
100
AcDb2dVertex
 10
454.501973
 20
76.038764
 30
0.0
  0
VERTEX
  5
1400
100
AcDbEntity
  8
ALPHA
100
AcDbVertex
100
AcDb2dVertex
 10
454.060332
 20
74.832108
 30
0.0
  0
VERTEX
  5
1401
100
AcDbEntity
  8
ALPHA
100
AcDbVertex
100
AcDb2dVertex
 10
453.507283
 20
73.684047
 30
0.0
  0
VERTEX
  5
1402
100
AcDbEntity
  8
ALPHA
100
AcDbVertex
100
AcDb2dVertex
 10
452.849427
 20
72.601182
 30
0.0
  0
VERTEX
  5
1403
100
AcDbEntity
  8
ALPHA
100
AcDbVertex
100
AcDb2dVertex
 10
452.093366
 20
71.590117
 30
0.0
  0
VERTEX
  5
1404
100
AcDbEntity
  8
ALPHA
100
AcDbVertex
100
AcDb2dVertex
 10
451.245702
 20
70.657451
 30
0.0
  0
VERTEX
  5
1405
100
AcDbEntity
  8
ALPHA
100
AcDbVertex
100
AcDb2dVertex
 10
450.313037
 20
69.809787
 30
0.0
  0
VERTEX
  5
1406
100
AcDbEntity
  8
ALPHA
100
AcDbVertex
100
AcDb2dVertex
 10
449.301971
 20
69.053727
 30
0.0
  0
VERTEX
  5
1407
100
AcDbEntity
  8
ALPHA
100
AcDbVertex
100
AcDb2dVertex
 10
448.219107
 20
68.395871
 30
0.0
  0
VERTEX
  5
1408
100
AcDbEntity
  8
ALPHA
100
AcDbVertex
100
AcDb2dVertex
 10
447.071046
 20
67.842822
 30
0.0
  0
VERTEX
  5
1409
100
AcDbEntity
  8
ALPHA
100
AcDbVertex
100
AcDb2dVertex
 10
445.86439
 20
67.40118
 30
0.0
  0
VERTEX
  5
140A
100
AcDbEntity
  8
ALPHA
100
AcDbVertex
100
AcDb2dVertex
 10
444.60574
 20
67.077549
 30
0.0
  0
VERTEX
  5
140B
100
AcDbEntity
  8
ALPHA
100
AcDbVertex
100
AcDb2dVertex
 10
443.301698
 20
66.878529
 30
0.0
  0
VERTEX
  5
140C
100
AcDbEntity
  8
ALPHA
100
AcDbVertex
100
AcDb2dVertex
 10
441.958866
 20
66.810722
 30
0.0
  0
SEQEND
  5
140D
100
AcDbEntity
  8
ALPHA
  0
POLYLINE
  5
140E
100
AcDbEntity
  8
ALPHA
100
AcDb2dPolyline
 66
     1
 10
0.0
 20
0.0
 30
0.0
  0
VERTEX
  5
140F
100
AcDbEntity
  8
ALPHA
100
AcDbVertex
100
AcDb2dVertex
 10
441.958866
 20
66.810722
 30
0.0
  0
VERTEX
  5
1410
100
AcDbEntity
  8
ALPHA
100
AcDbVertex
100
AcDb2dVertex
 10
13.225862
 20
66.810722
 30
0.0
  0
SEQEND
  5
1411
100
AcDbEntity
  8
ALPHA
  0
POLYLINE
  5
1412
100
AcDbEntity
  8
ALPHA
100
AcDb2dPolyline
 66
     1
 10
0.0
 20
0.0
 30
0.0
  0
VERTEX
  5
1413
100
AcDbEntity
  8
ALPHA
100
AcDbVertex
100
AcDb2dVertex
 10
349.095801
 20
126.077389
 30
0.0
  0
VERTEX
  5
1414
100
AcDbEntity
  8
ALPHA
100
AcDbVertex
100
AcDb2dVertex
 10
349.329166
 20
126.748307
 30
0.0
  0
VERTEX
  5
1415
100
AcDbEntity
  8
ALPHA
100
AcDbVertex
100
AcDb2dVertex
 10
349.628283
 20
127.39048
 30
0.0
  0
VERTEX
  5
1416
100
AcDbEntity
  8
ALPHA
100
AcDbVertex
100
AcDb2dVertex
 10
349.991258
 20
128.003578
 30
0.0
  0
VERTEX
  5
1417
100
AcDbEntity
  8
ALPHA
100
AcDbVertex
100
AcDb2dVertex
 10
350.4162
 20
128.587272
 30
0.0
  0
VERTEX
  5
1418
100
AcDbEntity
  8
ALPHA
100
AcDbVertex
100
AcDb2dVertex
 10
351.444412
 20
129.665128
 30
0.0
  0
VERTEX
  5
1419
100
AcDbEntity
  8
ALPHA
100
AcDbVertex
100
AcDb2dVertex
 10
352.697778
 20
130.621409
 30
0.0
  0
VERTEX
  5
141A
100
AcDbEntity
  8
ALPHA
100
AcDbVertex
100
AcDb2dVertex
 10
354.161155
 20
131.45348
 30
0.0
  0
VERTEX
  5
141B
100
AcDbEntity
  8
ALPHA
100
AcDbVertex
100
AcDb2dVertex
 10
355.819402
 20
132.158704
 30
0.0
  0
VERTEX
  5
141C
100
AcDbEntity
  8
ALPHA
100
AcDbVertex
100
AcDb2dVertex
 10
359.659943
 20
133.178058
 30
0.0
  0
VERTEX
  5
141D
100
AcDbEntity
  8
ALPHA
100
AcDbVertex
100
AcDb2dVertex
 10
364.098271
 20
133.658375
 30
0.0
  0
VERTEX
  5
141E
100
AcDbEntity
  8
ALPHA
100
AcDbVertex
100
AcDb2dVertex
 10
369.013256
 20
133.578559
 30
0.0
  0
VERTEX
  5
141F
100
AcDbEntity
  8
ALPHA
100
AcDbVertex
100
AcDb2dVertex
 10
374.283766
 20
132.917512
 30
0.0
  0
VERTEX
  5
1420
100
AcDbEntity
  8
ALPHA
100
AcDbVertex
100
AcDb2dVertex
 10
379.788673
 20
131.654137
 30
0.0
  0
VERTEX
  5
1421
100
AcDbEntity
  8
ALPHA
100
AcDbVertex
100
AcDb2dVertex
 10
385.143383
 20
129.859596
 30
0.0
  0
VERTEX
  5
1422
100
AcDbEntity
  8
ALPHA
100
AcDbVertex
100
AcDb2dVertex
 10
389.981739
 20
127.673596
 30
0.0
  0
VERTEX
  5
1423
100
AcDbEntity
  8
ALPHA
100
AcDbVertex
100
AcDb2dVertex
 10
394.209986
 20
125.177937
 30
0.0
  0
VERTEX
  5
1424
100
AcDbEntity
  8
ALPHA
100
AcDbVertex
100
AcDb2dVertex
 10
397.734369
 20
122.454419
 30
0.0
  0
VERTEX
  5
1425
100
AcDbEntity
  8
ALPHA
100
AcDbVertex
100
AcDb2dVertex
 10
400.461135
 20
119.584842
 30
0.0
  0
VERTEX
  5
1426
100
AcDbEntity
  8
ALPHA
100
AcDbVertex
100
AcDb2dVertex
 10
401.496113
 20
118.120845
 30
0.0
  0
VERTEX
  5
1427
100
AcDbEntity
  8
ALPHA
100
AcDbVertex
100
AcDb2dVertex
 10
402.296529
 20
116.651007
 30
0.0
  0
VERTEX
  5
1428
100
AcDbEntity
  8
ALPHA
100
AcDbVertex
100
AcDb2dVertex
 10
402.850663
 20
115.185556
 30
0.0
  0
VERTEX
  5
1429
100
AcDbEntity
  8
ALPHA
100
AcDbVertex
100
AcDb2dVertex
 10
403.146796
 20
113.734714
 30
0.0
  0
VERTEX
  5
142A
100
AcDbEntity
  8
ALPHA
100
AcDbVertex
100
AcDb2dVertex
 10
403.19445
 20
113.017968
 30
0.0
  0
VERTEX
  5
142B
100
AcDbEntity
  8
ALPHA
100
AcDbVertex
100
AcDb2dVertex
 10
403.173209
 20
112.308708
 30
0.0
  0
VERTEX
  5
142C
100
AcDbEntity
  8
ALPHA
100
AcDbVertex
100
AcDb2dVertex
 10
403.081608
 20
111.608214
 30
0.0
  0
VERTEX
  5
142D
100
AcDbEntity
  8
ALPHA
100
AcDbVertex
100
AcDb2dVertex
 10
402.918183
 20
110.917763
 30
0.0
  0
SEQEND
  5
142E
100
AcDbEntity
  8
ALPHA
  0
POLYLINE
  5
142F
100
AcDbEntity
  8
ALPHA
100
AcDb2dPolyline
 66
     1
 10
0.0
 20
0.0
 30
0.0
  0
VERTEX
  5
1430
100
AcDbEntity
  8
ALPHA
100
AcDbVertex
100
AcDb2dVertex
 10
402.918183
 20
110.917763
 30
0.0
  0
VERTEX
  5
1431
100
AcDbEntity
  8
ALPHA
100
AcDbVertex
100
AcDb2dVertex
 10
402.31977
 20
108.811776
 30
0.0
  0
SEQEND
  5
1432
100
AcDbEntity
  8
ALPHA
  0
POLYLINE
  5
1433
100
AcDbEntity
  8
ALPHA
100
AcDb2dPolyline
 66
     1
 10
0.0
 20
0.0
 30
0.0
  0
VERTEX
  5
1434
100
AcDbEntity
  8
ALPHA
100
AcDbVertex
100
AcDb2dVertex
 10
402.31977
 20
108.811776
 30
0.0
  0
VERTEX
  5
1435
100
AcDbEntity
  8
ALPHA
100
AcDbVertex
100
AcDb2dVertex
 10
402.262748
 20
108.649197
 30
0.0
  0
VERTEX
  5
1436
100
AcDbEntity
  8
ALPHA
100
AcDbVertex
100
AcDb2dVertex
 10
402.188614
 20
108.492554
 30
0.0
  0
VERTEX
  5
1437
100
AcDbEntity
  8
ALPHA
100
AcDbVertex
100
AcDb2dVertex
 10
402.097594
 20
108.341838
 30
0.0
  0
VERTEX
  5
1438
100
AcDbEntity
  8
ALPHA
100
AcDbVertex
100
AcDb2dVertex
 10
401.989912
 20
108.19704
 30
0.0
  0
VERTEX
  5
1439
100
AcDbEntity
  8
ALPHA
100
AcDbVertex
100
AcDb2dVertex
 10
401.72547
 20
107.925158
 30
0.0
  0
VERTEX
  5
143A
100
AcDbEntity
  8
ALPHA
100
AcDbVertex
100
AcDb2dVertex
 10
401.397094
 20
107.676833
 30
0.0
  0
VERTEX
  5
143B
100
AcDbEntity
  8
ALPHA
100
AcDbVertex
100
AcDb2dVertex
 10
401.006589
 20
107.451992
 30
0.0
  0
VERTEX
  5
143C
100
AcDbEntity
  8
ALPHA
100
AcDbVertex
100
AcDb2dVertex
 10
400.555762
 20
107.250557
 30
0.0
  0
VERTEX
  5
143D
100
AcDbEntity
  8
ALPHA
100
AcDbVertex
100
AcDb2dVertex
 10
399.480367
 20
106.917612
 30
0.0
  0
VERTEX
  5
143E
100
AcDbEntity
  8
ALPHA
100
AcDbVertex
100
AcDb2dVertex
 10
396.685176
 20
106.529315
 30
0.0
  0
VERTEX
  5
143F
100
AcDbEntity
  8
ALPHA
100
AcDbVertex
100
AcDb2dVertex
 10
393.12711
 20
106.507145
 30
0.0
  0
VERTEX
  5
1440
100
AcDbEntity
  8
ALPHA
100
AcDbVertex
100
AcDb2dVertex
 10
384.184705
 20
107.541999
 30
0.0
  0
VERTEX
  5
1441
100
AcDbEntity
  8
ALPHA
100
AcDbVertex
100
AcDb2dVertex
 10
373.577855
 20
109.983797
 30
0.0
  0
VERTEX
  5
1442
100
AcDbEntity
  8
ALPHA
100
AcDbVertex
100
AcDb2dVertex
 10
363.264714
 20
113.431097
 30
0.0
  0
VERTEX
  5
1443
100
AcDbEntity
  8
ALPHA
100
AcDbVertex
100
AcDb2dVertex
 10
355.124115
 20
117.207883
 30
0.0
  0
VERTEX
  5
1444
100
AcDbEntity
  8
ALPHA
100
AcDbVertex
100
AcDb2dVertex
 10
352.119815
 20
119.079272
 30
0.0
  0
VERTEX
  5
1445
100
AcDbEntity
  8
ALPHA
100
AcDbVertex
100
AcDb2dVertex
 10
350.928142
 20
119.986117
 30
0.0
  0
VERTEX
  5
1446
100
AcDbEntity
  8
ALPHA
100
AcDbVertex
100
AcDb2dVertex
 10
349.960207
 20
120.864359
 30
0.0
  0
VERTEX
  5
1447
100
AcDbEntity
  8
ALPHA
100
AcDbVertex
100
AcDb2dVertex
 10
349.228575
 20
121.70697
 30
0.0
  0
VERTEX
  5
1448
100
AcDbEntity
  8
ALPHA
100
AcDbVertex
100
AcDb2dVertex
 10
348.955299
 20
122.112717
 30
0.0
  0
VERTEX
  5
1449
100
AcDbEntity
  8
ALPHA
100
AcDbVertex
100
AcDb2dVertex
 10
348.74581
 20
122.50692
 30
0.0
  0
VERTEX
  5
144A
100
AcDbEntity
  8
ALPHA
100
AcDbVertex
100
AcDb2dVertex
 10
348.601679
 20
122.888702
 30
0.0
  0
VERTEX
  5
144B
100
AcDbEntity
  8
ALPHA
100
AcDbVertex
100
AcDb2dVertex
 10
348.524477
 20
123.257184
 30
0.0
  0
VERTEX
  5
144C
100
AcDbEntity
  8
ALPHA
100
AcDbVertex
100
AcDb2dVertex
 10
348.511465
 20
123.436162
 30
0.0
  0
VERTEX
  5
144D
100
AcDbEntity
  8
ALPHA
100
AcDbVertex
100
AcDb2dVertex
 10
348.515774
 20
123.611486
 30
0.0
  0
VERTEX
  5
144E
100
AcDbEntity
  8
ALPHA
100
AcDbVertex
100
AcDb2dVertex
 10
348.537601
 20
123.783046
 30
0.0
  0
VERTEX
  5
144F
100
AcDbEntity
  8
ALPHA
100
AcDbVertex
100
AcDb2dVertex
 10
348.577141
 20
123.950731
 30
0.0
  0
SEQEND
  5
1450
100
AcDbEntity
  8
ALPHA
  0
POLYLINE
  5
1451
100
AcDbEntity
  8
ALPHA
100
AcDb2dPolyline
 66
     1
 10
0.0
 20
0.0
 30
0.0
  0
VERTEX
  5
1452
100
AcDbEntity
  8
ALPHA
100
AcDbVertex
100
AcDb2dVertex
 10
348.577141
 20
123.950731
 30
0.0
  0
VERTEX
  5
1453
100
AcDbEntity
  8
ALPHA
100
AcDbVertex
100
AcDb2dVertex
 10
349.095801
 20
126.077389
 30
0.0
  0
SEQEND
  5
1454
100
AcDbEntity
  8
ALPHA
  0
POLYLINE
  5
1455
100
AcDbEntity
  8
ALPHA
100
AcDb2dPolyline
 66
     1
 10
0.0
 20
0.0
 30
0.0
  0
VERTEX
  5
1456
100
AcDbEntity
  8
ALPHA
100
AcDbVertex
100
AcDb2dVertex
 10
106.09065
 20
126.077389
 30
0.0
  0
VERTEX
  5
1457
100
AcDbEntity
  8
ALPHA
100
AcDbVertex
100
AcDb2dVertex
 10
105.857296
 20
126.748307
 30
0.0
  0
VERTEX
  5
1458
100
AcDbEntity
  8
ALPHA
100
AcDbVertex
100
AcDb2dVertex
 10
105.558179
 20
127.390481
 30
0.0
  0
VERTEX
  5
1459
100
AcDbEntity
  8
ALPHA
100
AcDbVertex
100
AcDb2dVertex
 10
105.195194
 20
128.00358
 30
0.0
  0
VERTEX
  5
145A
100
AcDbEntity
  8
ALPHA
100
AcDbVertex
100
AcDb2dVertex
 10
104.770233
 20
128.587274
 30
0.0
  0
VERTEX
  5
145B
100
AcDbEntity
  8
ALPHA
100
AcDbVertex
100
AcDb2dVertex
 10
103.741957
 20
129.665132
 30
0.0
  0
VERTEX
  5
145C
100
AcDbEntity
  8
ALPHA
100
AcDbVertex
100
AcDb2dVertex
 10
102.488499
 20
130.621416
 30
0.0
  0
VERTEX
  5
145D
100
AcDbEntity
  8
ALPHA
100
AcDbVertex
100
AcDb2dVertex
 10
101.025005
 20
131.45349
 30
0.0
  0
VERTEX
  5
145E
100
AcDbEntity
  8
ALPHA
100
AcDbVertex
100
AcDb2dVertex
 10
99.366622
 20
132.158715
 30
0.0
  0
VERTEX
  5
145F
100
AcDbEntity
  8
ALPHA
100
AcDbVertex
100
AcDb2dVertex
 10
95.525771
 20
133.178075
 30
0.0
  0
VERTEX
  5
1460
100
AcDbEntity
  8
ALPHA
100
AcDbVertex
100
AcDb2dVertex
 10
91.087118
 20
133.658395
 30
0.0
  0
VERTEX
  5
1461
100
AcDbEntity
  8
ALPHA
100
AcDbVertex
100
AcDb2dVertex
 10
86.171833
 20
133.578578
 30
0.0
  0
VERTEX
  5
1462
100
AcDbEntity
  8
ALPHA
100
AcDbVertex
100
AcDb2dVertex
 10
80.901089
 20
132.917525
 30
0.0
  0
VERTEX
  5
1463
100
AcDbEntity
  8
ALPHA
100
AcDbVertex
100
AcDb2dVertex
 10
75.396056
 20
131.654137
 30
0.0
  0
VERTEX
  5
1464
100
AcDbEntity
  8
ALPHA
100
AcDbVertex
100
AcDb2dVertex
 10
70.041346
 20
129.859596
 30
0.0
  0
VERTEX
  5
1465
100
AcDbEntity
  8
ALPHA
100
AcDbVertex
100
AcDb2dVertex
 10
65.202992
 20
127.673596
 30
0.0
  0
VERTEX
  5
1466
100
AcDbEntity
  8
ALPHA
100
AcDbVertex
100
AcDb2dVertex
 10
60.974752
 20
125.177937
 30
0.0
  0
VERTEX
  5
1467
100
AcDbEntity
  8
ALPHA
100
AcDbVertex
100
AcDb2dVertex
 10
57.450381
 20
122.454419
 30
0.0
  0
VERTEX
  5
1468
100
AcDbEntity
  8
ALPHA
100
AcDbVertex
100
AcDb2dVertex
 10
54.723636
 20
119.584842
 30
0.0
  0
VERTEX
  5
1469
100
AcDbEntity
  8
ALPHA
100
AcDbVertex
100
AcDb2dVertex
 10
53.688671
 20
118.120845
 30
0.0
  0
VERTEX
  5
146A
100
AcDbEntity
  8
ALPHA
100
AcDbVertex
100
AcDb2dVertex
 10
52.888272
 20
116.651007
 30
0.0
  0
VERTEX
  5
146B
100
AcDbEntity
  8
ALPHA
100
AcDbVertex
100
AcDb2dVertex
 10
52.334158
 20
115.185556
 30
0.0
  0
VERTEX
  5
146C
100
AcDbEntity
  8
ALPHA
100
AcDbVertex
100
AcDb2dVertex
 10
52.038048
 20
113.734714
 30
0.0
  0
VERTEX
  5
146D
100
AcDbEntity
  8
ALPHA
100
AcDbVertex
100
AcDb2dVertex
 10
51.990407
 20
113.017968
 30
0.0
  0
VERTEX
  5
146E
100
AcDbEntity
  8
ALPHA
100
AcDbVertex
100
AcDb2dVertex
 10
52.011661
 20
112.308708
 30
0.0
  0
VERTEX
  5
146F
100
AcDbEntity
  8
ALPHA
100
AcDbVertex
100
AcDb2dVertex
 10
52.103277
 20
111.608214
 30
0.0
  0
VERTEX
  5
1470
100
AcDbEntity
  8
ALPHA
100
AcDbVertex
100
AcDb2dVertex
 10
52.266718
 20
110.917763
 30
0.0
  0
SEQEND
  5
1471
100
AcDbEntity
  8
ALPHA
  0
POLYLINE
  5
1472
100
AcDbEntity
  8
ALPHA
100
AcDb2dPolyline
 66
     1
 10
0.0
 20
0.0
 30
0.0
  0
VERTEX
  5
1473
100
AcDbEntity
  8
ALPHA
100
AcDbVertex
100
AcDb2dVertex
 10
52.266718
 20
110.917763
 30
0.0
  0
VERTEX
  5
1474
100
AcDbEntity
  8
ALPHA
100
AcDbVertex
100
AcDb2dVertex
 10
52.865131
 20
108.811776
 30
0.0
  0
SEQEND
  5
1475
100
AcDbEntity
  8
ALPHA
  0
POLYLINE
  5
1476
100
AcDbEntity
  8
ALPHA
100
AcDb2dPolyline
 66
     1
 10
0.0
 20
0.0
 30
0.0
  0
VERTEX
  5
1477
100
AcDbEntity
  8
ALPHA
100
AcDbVertex
100
AcDb2dVertex
 10
52.865131
 20
108.811776
 30
0.0
  0
VERTEX
  5
1478
100
AcDbEntity
  8
ALPHA
100
AcDbVertex
100
AcDb2dVertex
 10
52.922221
 20
108.649196
 30
0.0
  0
VERTEX
  5
1479
100
AcDbEntity
  8
ALPHA
100
AcDbVertex
100
AcDb2dVertex
 10
52.996414
 20
108.492549
 30
0.0
  0
VERTEX
  5
147A
100
AcDbEntity
  8
ALPHA
100
AcDbVertex
100
AcDb2dVertex
 10
53.087486
 20
108.341827
 30
0.0
  0
VERTEX
  5
147B
100
AcDbEntity
  8
ALPHA
100
AcDbVertex
100
AcDb2dVertex
 10
53.19521
 20
108.19702
 30
0.0
  0
VERTEX
  5
147C
100
AcDbEntity
  8
ALPHA
100
AcDbVertex
100
AcDb2dVertex
 10
53.459716
 20
107.925115
 30
0.0
  0
VERTEX
  5
147D
100
AcDbEntity
  8
ALPHA
100
AcDbVertex
100
AcDb2dVertex
 10
53.788128
 20
107.67676
 30
0.0
  0
VERTEX
  5
147E
100
AcDbEntity
  8
ALPHA
100
AcDbVertex
100
AcDb2dVertex
 10
54.178643
 20
107.45188
 30
0.0
  0
VERTEX
  5
147F
100
AcDbEntity
  8
ALPHA
100
AcDbVertex
100
AcDb2dVertex
 10
54.629458
 20
107.250403
 30
0.0
  0
VERTEX
  5
1480
100
AcDbEntity
  8
ALPHA
100
AcDbVertex
100
AcDb2dVertex
 10
55.704775
 20
106.917359
 30
0.0
  0
VERTEX
  5
1481
100
AcDbEntity
  8
ALPHA
100
AcDbVertex
100
AcDb2dVertex
 10
58.499667
 20
106.528841
 30
0.0
  0
VERTEX
  5
1482
100
AcDbEntity
  8
ALPHA
100
AcDbVertex
100
AcDb2dVertex
 10
62.057398
 20
106.506471
 30
0.0
  0
VERTEX
  5
1483
100
AcDbEntity
  8
ALPHA
100
AcDbVertex
100
AcDb2dVertex
 10
70.999755
 20
107.541241
 30
0.0
  0
VERTEX
  5
1484
100
AcDbEntity
  8
ALPHA
100
AcDbVertex
100
AcDb2dVertex
 10
81.608596
 20
109.983797
 30
0.0
  0
VERTEX
  5
1485
100
AcDbEntity
  8
ALPHA
100
AcDbVertex
100
AcDb2dVertex
 10
91.920822
 20
113.431097
 30
0.0
  0
VERTEX
  5
1486
100
AcDbEntity
  8
ALPHA
100
AcDbVertex
100
AcDb2dVertex
 10
100.061475
 20
117.207883
 30
0.0
  0
VERTEX
  5
1487
100
AcDbEntity
  8
ALPHA
100
AcDbVertex
100
AcDb2dVertex
 10
103.066266
 20
119.079272
 30
0.0
  0
VERTEX
  5
1488
100
AcDbEntity
  8
ALPHA
100
AcDbVertex
100
AcDb2dVertex
 10
104.258318
 20
119.986117
 30
0.0
  0
VERTEX
  5
1489
100
AcDbEntity
  8
ALPHA
100
AcDbVertex
100
AcDb2dVertex
 10
105.226728
 20
120.864359
 30
0.0
  0
VERTEX
  5
148A
100
AcDbEntity
  8
ALPHA
100
AcDbVertex
100
AcDb2dVertex
 10
105.958937
 20
121.70697
 30
0.0
  0
VERTEX
  5
148B
100
AcDbEntity
  8
ALPHA
100
AcDbVertex
100
AcDb2dVertex
 10
106.232541
 20
122.112717
 30
0.0
  0
VERTEX
  5
148C
100
AcDbEntity
  8
ALPHA
100
AcDbVertex
100
AcDb2dVertex
 10
106.442384
 20
122.50692
 30
0.0
  0
VERTEX
  5
148D
100
AcDbEntity
  8
ALPHA
100
AcDbVertex
100
AcDb2dVertex
 10
106.586897
 20
122.888702
 30
0.0
  0
VERTEX
  5
148E
100
AcDbEntity
  8
ALPHA
100
AcDbVertex
100
AcDb2dVertex
 10
106.66451
 20
123.257184
 30
0.0
  0
VERTEX
  5
148F
100
AcDbEntity
  8
ALPHA
100
AcDbVertex
100
AcDb2dVertex
 10
106.677738
 20
123.436162
 30
0.0
  0
VERTEX
  5
1490
100
AcDbEntity
  8
ALPHA
100
AcDbVertex
100
AcDb2dVertex
 10
106.673652
 20
123.611486
 30
0.0
  0
VERTEX
  5
1491
100
AcDbEntity
  8
ALPHA
100
AcDbVertex
100
AcDb2dVertex
 10
106.652057
 20
123.783046
 30
0.0
  0
VERTEX
  5
1492
100
AcDbEntity
  8
ALPHA
100
AcDbVertex
100
AcDb2dVertex
 10
106.612755
 20
123.950731
 30
0.0
  0
SEQEND
  5
1493
100
AcDbEntity
  8
ALPHA
  0
POLYLINE
  5
1494
100
AcDbEntity
  8
ALPHA
100
AcDb2dPolyline
 66
     1
 10
0.0
 20
0.0
 30
0.0
  0
VERTEX
  5
1495
100
AcDbEntity
  8
ALPHA
100
AcDbVertex
100
AcDb2dVertex
 10
106.612755
 20
123.950731
 30
0.0
  0
VERTEX
  5
1496
100
AcDbEntity
  8
ALPHA
100
AcDbVertex
100
AcDb2dVertex
 10
106.09065
 20
126.077389
 30
0.0
  0
SEQEND
  5
1497
100
AcDbEntity
  8
ALPHA
  0
POLYLINE
  5
1498
100
AcDbEntity
  8
ALPHA
100
AcDb2dPolyline
 66
     1
 10
0.0
 20
0.0
 30
0.0
  0
VERTEX
  5
1499
100
AcDbEntity
  8
ALPHA
100
AcDbVertex
100
AcDb2dVertex
 10
357.406404
 20
115.824957
 30
0.0
  0
VERTEX
  5
149A
100
AcDbEntity
  8
ALPHA
100
AcDbVertex
100
AcDb2dVertex
 10
356.496555
 20
112.705078
 30
0.0
  0
SEQEND
  5
149B
100
AcDbEntity
  8
ALPHA
  0
POLYLINE
  5
149C
100
AcDbEntity
  8
ALPHA
100
AcDb2dPolyline
 66
     1
 10
0.0
 20
0.0
 30
0.0
  0
VERTEX
  5
149D
100
AcDbEntity
  8
ALPHA
100
AcDbVertex
100
AcDb2dVertex
 10
356.496555
 20
112.705078
 30
0.0
  0
VERTEX
  5
149E
100
AcDbEntity
  8
ALPHA
100
AcDbVertex
100
AcDb2dVertex
 10
356.478452
 20
112.623376
 30
0.0
  0
VERTEX
  5
149F
100
AcDbEntity
  8
ALPHA
100
AcDbVertex
100
AcDb2dVertex
 10
356.471058
 20
112.539185
 30
0.0
  0
VERTEX
  5
14A0
100
AcDbEntity
  8
ALPHA
100
AcDbVertex
100
AcDb2dVertex
 10
356.474251
 20
112.452566
 30
0.0
  0
VERTEX
  5
14A1
100
AcDbEntity
  8
ALPHA
100
AcDbVertex
100
AcDb2dVertex
 10
356.487911
 20
112.36358
 30
0.0
  0
VERTEX
  5
14A2
100
AcDbEntity
  8
ALPHA
100
AcDbVertex
100
AcDb2dVertex
 10
356.511916
 20
112.272289
 30
0.0
  0
VERTEX
  5
14A3
100
AcDbEntity
  8
ALPHA
100
AcDbVertex
100
AcDb2dVertex
 10
356.546145
 20
112.178752
 30
0.0
  0
VERTEX
  5
14A4
100
AcDbEntity
  8
ALPHA
100
AcDbVertex
100
AcDb2dVertex
 10
356.644796
 20
111.985188
 30
0.0
  0
VERTEX
  5
14A5
100
AcDbEntity
  8
ALPHA
100
AcDbVertex
100
AcDb2dVertex
 10
356.782895
 20
111.783375
 30
0.0
  0
VERTEX
  5
14A6
100
AcDbEntity
  8
ALPHA
100
AcDbVertex
100
AcDb2dVertex
 10
356.959476
 20
111.573802
 30
0.0
  0
VERTEX
  5
14A7
100
AcDbEntity
  8
ALPHA
100
AcDbVertex
100
AcDb2dVertex
 10
357.424216
 20
111.133324
 30
0.0
  0
VERTEX
  5
14A8
100
AcDbEntity
  8
ALPHA
100
AcDbVertex
100
AcDb2dVertex
 10
358.772943
 20
110.180695
 30
0.0
  0
VERTEX
  5
14A9
100
AcDbEntity
  8
ALPHA
100
AcDbVertex
100
AcDb2dVertex
 10
360.629104
 20
109.158511
 30
0.0
  0
VERTEX
  5
14AA
100
AcDbEntity
  8
ALPHA
100
AcDbVertex
100
AcDb2dVertex
 10
365.616233
 20
107.030313
 30
0.0
  0
VERTEX
  5
14AB
100
AcDbEntity
  8
ALPHA
100
AcDbVertex
100
AcDb2dVertex
 10
371.890619
 20
104.9984
 30
0.0
  0
VERTEX
  5
14AC
100
AcDbEntity
  8
ALPHA
100
AcDbVertex
100
AcDb2dVertex
 10
378.310261
 20
103.456553
 30
0.0
  0
VERTEX
  5
14AD
100
AcDbEntity
  8
ALPHA
100
AcDbVertex
100
AcDb2dVertex
 10
383.688155
 20
102.66508
 30
0.0
  0
VERTEX
  5
14AE
100
AcDbEntity
  8
ALPHA
100
AcDbVertex
100
AcDb2dVertex
 10
385.813628
 20
102.565358
 30
0.0
  0
VERTEX
  5
14AF
100
AcDbEntity
  8
ALPHA
100
AcDbVertex
100
AcDb2dVertex
 10
387.471282
 20
102.67078
 30
0.0
  0
VERTEX
  5
14B0
100
AcDbEntity
  8
ALPHA
100
AcDbVertex
100
AcDb2dVertex
 10
388.103074
 20
102.802248
 30
0.0
  0
VERTEX
  5
14B1
100
AcDbEntity
  8
ALPHA
100
AcDbVertex
100
AcDb2dVertex
 10
388.365931
 20
102.887991
 30
0.0
  0
VERTEX
  5
14B2
100
AcDbEntity
  8
ALPHA
100
AcDbVertex
100
AcDb2dVertex
 10
388.591989
 20
102.987195
 30
0.0
  0
VERTEX
  5
14B3
100
AcDbEntity
  8
ALPHA
100
AcDbVertex
100
AcDb2dVertex
 10
388.780167
 20
103.099952
 30
0.0
  0
VERTEX
  5
14B4
100
AcDbEntity
  8
ALPHA
100
AcDbVertex
100
AcDb2dVertex
 10
388.859714
 20
103.161442
 30
0.0
  0
VERTEX
  5
14B5
100
AcDbEntity
  8
ALPHA
100
AcDbVertex
100
AcDb2dVertex
 10
388.929386
 20
103.226354
 30
0.0
  0
VERTEX
  5
14B6
100
AcDbEntity
  8
ALPHA
100
AcDbVertex
100
AcDb2dVertex
 10
388.989047
 20
103.294699
 30
0.0
  0
VERTEX
  5
14B7
100
AcDbEntity
  8
ALPHA
100
AcDbVertex
100
AcDb2dVertex
 10
389.038564
 20
103.36649
 30
0.0
  0
VERTEX
  5
14B8
100
AcDbEntity
  8
ALPHA
100
AcDbVertex
100
AcDb2dVertex
 10
389.077801
 20
103.441738
 30
0.0
  0
VERTEX
  5
14B9
100
AcDbEntity
  8
ALPHA
100
AcDbVertex
100
AcDb2dVertex
 10
389.106623
 20
103.520454
 30
0.0
  0
SEQEND
  5
14BA
100
AcDbEntity
  8
ALPHA
  0
POLYLINE
  5
14BB
100
AcDbEntity
  8
ALPHA
100
AcDb2dPolyline
 66
     1
 10
0.0
 20
0.0
 30
0.0
  0
VERTEX
  5
14BC
100
AcDbEntity
  8
ALPHA
100
AcDbVertex
100
AcDb2dVertex
 10
389.106623
 20
103.520454
 30
0.0
  0
VERTEX
  5
14BD
100
AcDbEntity
  8
ALPHA
100
AcDbVertex
100
AcDb2dVertex
 10
390.016645
 20
106.639988
 30
0.0
  0
SEQEND
  5
14BE
100
AcDbEntity
  8
ALPHA
  0
POLYLINE
  5
14BF
100
AcDbEntity
  8
ALPHA
100
AcDb2dPolyline
 66
     1
 10
0.0
 20
0.0
 30
0.0
  0
VERTEX
  5
14C0
100
AcDbEntity
  8
ALPHA
100
AcDbVertex
100
AcDb2dVertex
 10
399.948855
 20
167.211312
 30
0.0
  0
VERTEX
  5
14C1
100
AcDbEntity
  8
ALPHA
100
AcDbVertex
100
AcDb2dVertex
 10
394.618086
 20
167.211312
 30
0.0
  0
SEQEND
  5
14C2
100
AcDbEntity
  8
ALPHA
  0
POLYLINE
  5
14C3
100
AcDbEntity
  8
ALPHA
100
AcDb2dPolyline
 66
     1
 10
0.0
 20
0.0
 30
0.0
  0
VERTEX
  5
14C4
100
AcDbEntity
  8
ALPHA
100
AcDbVertex
100
AcDb2dVertex
 10
394.618086
 20
167.211312
 30
0.0
  0
VERTEX
  5
14C5
100
AcDbEntity
  8
ALPHA
100
AcDbVertex
100
AcDb2dVertex
 10
394.618086
 20
184.215959
 30
0.0
  0
SEQEND
  5
14C6
100
AcDbEntity
  8
ALPHA
  0
POLYLINE
  5
14C7
100
AcDbEntity
  8
ALPHA
100
AcDb2dPolyline
 66
     1
 10
0.0
 20
0.0
 30
0.0
  0
VERTEX
  5
14C8
100
AcDbEntity
  8
ALPHA
100
AcDbVertex
100
AcDb2dVertex
 10
394.618086
 20
184.215959
 30
0.0
  0
VERTEX
  5
14C9
100
AcDbEntity
  8
ALPHA
100
AcDbVertex
100
AcDb2dVertex
 10
399.948855
 20
184.215959
 30
0.0
  0
SEQEND
  5
14CA
100
AcDbEntity
  8
ALPHA
  0
POLYLINE
  5
14CB
100
AcDbEntity
  8
ALPHA
100
AcDb2dPolyline
 66
     1
 10
0.0
 20
0.0
 30
0.0
  0
VERTEX
  5
14CC
100
AcDbEntity
  8
ALPHA
100
AcDbVertex
100
AcDb2dVertex
 10
399.948855
 20
184.215959
 30
0.0
  0
VERTEX
  5
14CD
100
AcDbEntity
  8
ALPHA
100
AcDbVertex
100
AcDb2dVertex
 10
399.948855
 20
167.211312
 30
0.0
  0
SEQEND
  5
14CE
100
AcDbEntity
  8
ALPHA
  0
POLYLINE
  5
14CF
100
AcDbEntity
  8
ALPHA
100
AcDb2dPolyline
 66
     1
 10
0.0
 20
0.0
 30
0.0
  0
VERTEX
  5
14D0
100
AcDbEntity
  8
ALPHA
100
AcDbVertex
100
AcDb2dVertex
 10
242.768785
 20
132.388631
 30
0.0
  0
VERTEX
  5
14D1
100
AcDbEntity
  8
ALPHA
100
AcDbVertex
100
AcDb2dVertex
 10
242.813054
 20
118.363648
 30
0.0
  0
SEQEND
  5
14D2
100
AcDbEntity
  8
ALPHA
  0
POLYLINE
  5
14D3
100
AcDbEntity
  8
ALPHA
100
AcDb2dPolyline
 66
     1
 10
0.0
 20
0.0
 30
0.0
  0
VERTEX
  5
14D4
100
AcDbEntity
  8
ALPHA
100
AcDbVertex
100
AcDb2dVertex
 10
242.813054
 20
118.363648
 30
0.0
  0
VERTEX
  5
14D5
100
AcDbEntity
  8
ALPHA
100
AcDbVertex
100
AcDb2dVertex
 10
242.793389
 20
118.109097
 30
0.0
  0
VERTEX
  5
14D6
100
AcDbEntity
  8
ALPHA
100
AcDbVertex
100
AcDb2dVertex
 10
242.735025
 20
117.857865
 30
0.0
  0
VERTEX
  5
14D7
100
AcDbEntity
  8
ALPHA
100
AcDbVertex
100
AcDb2dVertex
 10
242.638913
 20
117.610264
 30
0.0
  0
VERTEX
  5
14D8
100
AcDbEntity
  8
ALPHA
100
AcDbVertex
100
AcDb2dVertex
 10
242.506005
 20
117.366604
 30
0.0
  0
VERTEX
  5
14D9
100
AcDbEntity
  8
ALPHA
100
AcDbVertex
100
AcDb2dVertex
 10
242.337249
 20
117.127201
 30
0.0
  0
VERTEX
  5
14DA
100
AcDbEntity
  8
ALPHA
100
AcDbVertex
100
AcDb2dVertex
 10
242.133598
 20
116.892364
 30
0.0
  0
VERTEX
  5
14DB
100
AcDbEntity
  8
ALPHA
100
AcDbVertex
100
AcDb2dVertex
 10
241.625409
 20
116.437643
 30
0.0
  0
VERTEX
  5
14DC
100
AcDbEntity
  8
ALPHA
100
AcDbVertex
100
AcDb2dVertex
 10
240.989041
 20
116.00494
 30
0.0
  0
VERTEX
  5
14DD
100
AcDbEntity
  8
ALPHA
100
AcDbVertex
100
AcDb2dVertex
 10
240.232098
 20
115.596753
 30
0.0
  0
VERTEX
  5
14DE
100
AcDbEntity
  8
ALPHA
100
AcDbVertex
100
AcDb2dVertex
 10
238.386903
 20
114.863926
 30
0.0
  0
VERTEX
  5
14DF
100
AcDbEntity
  8
ALPHA
100
AcDbVertex
100
AcDb2dVertex
 10
236.150655
 20
114.259151
 30
0.0
  0
VERTEX
  5
14E0
100
AcDbEntity
  8
ALPHA
100
AcDbVertex
100
AcDb2dVertex
 10
233.584185
 20
113.802419
 30
0.0
  0
VERTEX
  5
14E1
100
AcDbEntity
  8
ALPHA
100
AcDbVertex
100
AcDb2dVertex
 10
227.703899
 20
113.413046
 30
0.0
  0
VERTEX
  5
14E2
100
AcDbEntity
  8
ALPHA
100
AcDbVertex
100
AcDb2dVertex
 10
221.820796
 20
113.802419
 30
0.0
  0
VERTEX
  5
14E3
100
AcDbEntity
  8
ALPHA
100
AcDbVertex
100
AcDb2dVertex
 10
219.253652
 20
114.259151
 30
0.0
  0
VERTEX
  5
14E4
100
AcDbEntity
  8
ALPHA
100
AcDbVertex
100
AcDb2dVertex
 10
217.017084
 20
114.863926
 30
0.0
  0
VERTEX
  5
14E5
100
AcDbEntity
  8
ALPHA
100
AcDbVertex
100
AcDb2dVertex
 10
215.171819
 20
115.596753
 30
0.0
  0
VERTEX
  5
14E6
100
AcDbEntity
  8
ALPHA
100
AcDbVertex
100
AcDb2dVertex
 10
214.414903
 20
116.00494
 30
0.0
  0
VERTEX
  5
14E7
100
AcDbEntity
  8
ALPHA
100
AcDbVertex
100
AcDb2dVertex
 10
213.778586
 20
116.437643
 30
0.0
  0
VERTEX
  5
14E8
100
AcDbEntity
  8
ALPHA
100
AcDbVertex
100
AcDb2dVertex
 10
213.270459
 20
116.892364
 30
0.0
  0
VERTEX
  5
14E9
100
AcDbEntity
  8
ALPHA
100
AcDbVertex
100
AcDb2dVertex
 10
213.066839
 20
117.127201
 30
0.0
  0
VERTEX
  5
14EA
100
AcDbEntity
  8
ALPHA
100
AcDbVertex
100
AcDb2dVertex
 10
212.898113
 20
117.366604
 30
0.0
  0
VERTEX
  5
14EB
100
AcDbEntity
  8
ALPHA
100
AcDbVertex
100
AcDb2dVertex
 10
212.76523
 20
117.610264
 30
0.0
  0
VERTEX
  5
14EC
100
AcDbEntity
  8
ALPHA
100
AcDbVertex
100
AcDb2dVertex
 10
212.669138
 20
117.857865
 30
0.0
  0
VERTEX
  5
14ED
100
AcDbEntity
  8
ALPHA
100
AcDbVertex
100
AcDb2dVertex
 10
212.610788
 20
118.109097
 30
0.0
  0
VERTEX
  5
14EE
100
AcDbEntity
  8
ALPHA
100
AcDbVertex
100
AcDb2dVertex
 10
212.591127
 20
118.363648
 30
0.0
  0
SEQEND
  5
14EF
100
AcDbEntity
  8
ALPHA
  0
POLYLINE
  5
14F0
100
AcDbEntity
  8
ALPHA
100
AcDb2dPolyline
 66
     1
 10
0.0
 20
0.0
 30
0.0
  0
VERTEX
  5
14F1
100
AcDbEntity
  8
ALPHA
100
AcDbVertex
100
AcDb2dVertex
 10
212.591127
 20
118.363648
 30
0.0
  0
VERTEX
  5
14F2
100
AcDbEntity
  8
ALPHA
100
AcDbVertex
100
AcDb2dVertex
 10
212.561154
 20
132.38932
 30
0.0
  0
SEQEND
  5
14F3
100
AcDbEntity
  8
ALPHA
  0
POLYLINE
  5
14F4
100
AcDbEntity
  8
ALPHA
100
AcDb2dPolyline
 66
     1
 10
0.0
 20
0.0
 30
0.0
  0
VERTEX
  5
14F5
100
AcDbEntity
  8
ALPHA
100
AcDbVertex
100
AcDb2dVertex
 10
97.776429
 20
115.824957
 30
0.0
  0
VERTEX
  5
14F6
100
AcDbEntity
  8
ALPHA
100
AcDbVertex
100
AcDb2dVertex
 10
98.686624
 20
112.705078
 30
0.0
  0
SEQEND
  5
14F7
100
AcDbEntity
  8
ALPHA
  0
POLYLINE
  5
14F8
100
AcDbEntity
  8
ALPHA
100
AcDb2dPolyline
 66
     1
 10
0.0
 20
0.0
 30
0.0
  0
VERTEX
  5
14F9
100
AcDbEntity
  8
ALPHA
100
AcDbVertex
100
AcDb2dVertex
 10
98.686624
 20
112.705078
 30
0.0
  0
VERTEX
  5
14FA
100
AcDbEntity
  8
ALPHA
100
AcDbVertex
100
AcDb2dVertex
 10
98.704797
 20
112.623376
 30
0.0
  0
VERTEX
  5
14FB
100
AcDbEntity
  8
ALPHA
100
AcDbVertex
100
AcDb2dVertex
 10
98.712261
 20
112.539187
 30
0.0
  0
VERTEX
  5
14FC
100
AcDbEntity
  8
ALPHA
100
AcDbVertex
100
AcDb2dVertex
 10
98.709135
 20
112.45257
 30
0.0
  0
VERTEX
  5
14FD
100
AcDbEntity
  8
ALPHA
100
AcDbVertex
100
AcDb2dVertex
 10
98.695541
 20
112.363586
 30
0.0
  0
VERTEX
  5
14FE
100
AcDbEntity
  8
ALPHA
100
AcDbVertex
100
AcDb2dVertex
 10
98.671599
 20
112.272298
 30
0.0
  0
VERTEX
  5
14FF
100
AcDbEntity
  8
ALPHA
100
AcDbVertex
100
AcDb2dVertex
 10
98.63743
 20
112.178765
 30
0.0
  0
VERTEX
  5
1500
100
AcDbEntity
  8
ALPHA
100
AcDbVertex
100
AcDb2dVertex
 10
98.538895
 20
111.98521
 30
0.0
  0
VERTEX
  5
1501
100
AcDbEntity
  8
ALPHA
100
AcDbVertex
100
AcDb2dVertex
 10
98.400904
 20
111.783409
 30
0.0
  0
VERTEX
  5
1502
100
AcDbEntity
  8
ALPHA
100
AcDbVertex
100
AcDb2dVertex
 10
98.224423
 20
111.573848
 30
0.0
  0
VERTEX
  5
1503
100
AcDbEntity
  8
ALPHA
100
AcDbVertex
100
AcDb2dVertex
 10
97.759861
 20
111.1334
 30
0.0
  0
VERTEX
  5
1504
100
AcDbEntity
  8
ALPHA
100
AcDbVertex
100
AcDb2dVertex
 10
96.411412
 20
110.180837
 30
0.0
  0
VERTEX
  5
1505
100
AcDbEntity
  8
ALPHA
100
AcDbVertex
100
AcDb2dVertex
 10
94.555438
 20
109.158713
 30
0.0
  0
VERTEX
  5
1506
100
AcDbEntity
  8
ALPHA
100
AcDbVertex
100
AcDb2dVertex
 10
89.56848
 20
107.03054
 30
0.0
  0
VERTEX
  5
1507
100
AcDbEntity
  8
ALPHA
100
AcDbVertex
100
AcDb2dVertex
 10
83.294109
 20
104.9984
 30
0.0
  0
VERTEX
  5
1508
100
AcDbEntity
  8
ALPHA
100
AcDbVertex
100
AcDb2dVertex
 10
76.875024
 20
103.456553
 30
0.0
  0
VERTEX
  5
1509
100
AcDbEntity
  8
ALPHA
100
AcDbVertex
100
AcDb2dVertex
 10
71.496638
 20
102.66508
 30
0.0
  0
VERTEX
  5
150A
100
AcDbEntity
  8
ALPHA
100
AcDbVertex
100
AcDb2dVertex
 10
69.370843
 20
102.565358
 30
0.0
  0
VERTEX
  5
150B
100
AcDbEntity
  8
ALPHA
100
AcDbVertex
100
AcDb2dVertex
 10
67.712987
 20
102.67078
 30
0.0
  0
VERTEX
  5
150C
100
AcDbEntity
  8
ALPHA
100
AcDbVertex
100
AcDb2dVertex
 10
67.081177
 20
102.802248
 30
0.0
  0
VERTEX
  5
150D
100
AcDbEntity
  8
ALPHA
100
AcDbVertex
100
AcDb2dVertex
 10
66.818339
 20
102.887991
 30
0.0
  0
VERTEX
  5
150E
100
AcDbEntity
  8
ALPHA
100
AcDbVertex
100
AcDb2dVertex
 10
66.592323
 20
102.987195
 30
0.0
  0
VERTEX
  5
150F
100
AcDbEntity
  8
ALPHA
100
AcDbVertex
100
AcDb2dVertex
 10
66.404209
 20
103.099952
 30
0.0
  0
VERTEX
  5
1510
100
AcDbEntity
  8
ALPHA
100
AcDbVertex
100
AcDb2dVertex
 10
66.324704
 20
103.161442
 30
0.0
  0
VERTEX
  5
1511
100
AcDbEntity
  8
ALPHA
100
AcDbVertex
100
AcDb2dVertex
 10
66.25508
 20
103.226354
 30
0.0
  0
VERTEX
  5
1512
100
AcDbEntity
  8
ALPHA
100
AcDbVertex
100
AcDb2dVertex
 10
66.195473
 20
103.294699
 30
0.0
  0
VERTEX
  5
1513
100
AcDbEntity
  8
ALPHA
100
AcDbVertex
100
AcDb2dVertex
 10
66.146018
 20
103.36649
 30
0.0
  0
VERTEX
  5
1514
100
AcDbEntity
  8
ALPHA
100
AcDbVertex
100
AcDb2dVertex
 10
66.106851
 20
103.441738
 30
0.0
  0
VERTEX
  5
1515
100
AcDbEntity
  8
ALPHA
100
AcDbVertex
100
AcDb2dVertex
 10
66.078106
 20
103.520454
 30
0.0
  0
SEQEND
  5
1516
100
AcDbEntity
  8
ALPHA
  0
POLYLINE
  5
1517
100
AcDbEntity
  8
ALPHA
100
AcDb2dPolyline
 66
     1
 10
0.0
 20
0.0
 30
0.0
  0
VERTEX
  5
1518
100
AcDbEntity
  8
ALPHA
100
AcDbVertex
100
AcDb2dVertex
 10
66.078106
 20
103.520454
 30
0.0
  0
VERTEX
  5
1519
100
AcDbEntity
  8
ALPHA
100
AcDbVertex
100
AcDb2dVertex
 10
65.168084
 20
106.639988
 30
0.0
  0
SEQEND
  5
151A
100
AcDbEntity
  8
ALPHA
  0
POLYLINE
  5
151B
100
AcDbEntity
  8
ALPHA
100
AcDb2dPolyline
 66
     1
 10
0.0
 20
0.0
 30
0.0
  0
VERTEX
  5
151C
100
AcDbEntity
  8
ALPHA
100
AcDbVertex
100
AcDb2dVertex
 10
55.237596
 20
167.211312
 30
0.0
  0
VERTEX
  5
151D
100
AcDbEntity
  8
ALPHA
100
AcDbVertex
100
AcDb2dVertex
 10
60.566642
 20
167.211312
 30
0.0
  0
SEQEND
  5
151E
100
AcDbEntity
  8
ALPHA
  0
POLYLINE
  5
151F
100
AcDbEntity
  8
ALPHA
100
AcDb2dPolyline
 66
     1
 10
0.0
 20
0.0
 30
0.0
  0
VERTEX
  5
1520
100
AcDbEntity
  8
ALPHA
100
AcDbVertex
100
AcDb2dVertex
 10
60.566642
 20
167.211312
 30
0.0
  0
VERTEX
  5
1521
100
AcDbEntity
  8
ALPHA
100
AcDbVertex
100
AcDb2dVertex
 10
60.566642
 20
184.215959
 30
0.0
  0
SEQEND
  5
1522
100
AcDbEntity
  8
ALPHA
  0
POLYLINE
  5
1523
100
AcDbEntity
  8
ALPHA
100
AcDb2dPolyline
 66
     1
 10
0.0
 20
0.0
 30
0.0
  0
VERTEX
  5
1524
100
AcDbEntity
  8
ALPHA
100
AcDbVertex
100
AcDb2dVertex
 10
60.566642
 20
184.215959
 30
0.0
  0
VERTEX
  5
1525
100
AcDbEntity
  8
ALPHA
100
AcDbVertex
100
AcDb2dVertex
 10
55.237596
 20
184.215959
 30
0.0
  0
SEQEND
  5
1526
100
AcDbEntity
  8
ALPHA
  0
POLYLINE
  5
1527
100
AcDbEntity
  8
ALPHA
100
AcDb2dPolyline
 66
     1
 10
0.0
 20
0.0
 30
0.0
  0
VERTEX
  5
1528
100
AcDbEntity
  8
ALPHA
100
AcDbVertex
100
AcDb2dVertex
 10
55.237596
 20
184.215959
 30
0.0
  0
VERTEX
  5
1529
100
AcDbEntity
  8
ALPHA
100
AcDbVertex
100
AcDb2dVertex
 10
55.237596
 20
167.211312
 30
0.0
  0
SEQEND
  5
152A
100
AcDbEntity
  8
ALPHA
  0
DIMENSION
  5
153E
100
AcDbEntity
  8
COTATION1
100
AcDbDimension
  2
*D3
 10
442.592419
 20
198.33727
 30
0.0
 11
227.592364
 21
200.58727
 31
0.0
 70
    32
  3
SC_STAND
100
AcDbAlignedDimension
 13
12.592309
 23
172.34193
 33
0.0
 14
442.592419
 24
167.699905
 34
0.0
100
AcDbRotatedDimension
  0
DIMENSION
  5
1556
100
AcDbEntity
  8
COTATION1
100
AcDbDimension
  2
*D4
 10
455.092431
 20
-8.493741
 30
0.0
 11
227.59245
 21
-6.243741
 31
0.0
 70
    32
  3
SC_STAND
100
AcDbAlignedDimension
 13
0.092469
 23
79.944287
 33
0.0
 14
455.092431
 24
79.944287
 34
0.0
100
AcDbRotatedDimension
  0
DIMENSION
  5
1584
100
AcDbEntity
  8
COTATION1
100
AcDbDimension
  2
*D5
 10
467.051852
 20
0.542416
 30
0.0
 11
464.801852
 21
94.784897
 31
0.0
 70
    32
  1
188.5
  3
SC_STAND
100
AcDbAlignedDimension
 13
437.55724
 23
189.027379
 33
0.0
 14
428.825301
 24
0.542416
 34
0.0
 50
90.0
100
AcDbRotatedDimension
  0
ENDSEC
  0
SECTION
  2
OBJECTS
  0
DICTIONARY
  5
F8
100
AcDbDictionary
  3
ACAD_GROUP
350
F9
  3
ACAD_MLINESTYLE
350
106
  3
ACDBVARIABLEDICTIONARY
350
143
  0
DICTIONARY
  5
F9
102
{ACAD_REACTORS
330
F8
102
}
100
AcDbDictionary
  0
DICTIONARY
  5
106
102
{ACAD_REACTORS
330
F8
102
}
100
AcDbDictionary
  3
STANDARD
350
107
  0
DICTIONARY
  5
143
102
{ACAD_REACTORS
330
F8
102
}
100
AcDbDictionary
  3
DIMADEC
350
144
  0
MLINESTYLE
  5
107
102
{ACAD_REACTORS
330
106
102
}
100
AcDbMlineStyle
  2
STANDARD
 70
     0
  3

 62
   256
 51
90.0
 52
90.0
 71
     2
 49
0.5
 62
   256
  6
BYLAYER
 49
-0.5
 62
   256
  6
BYLAYER
  0
DICTIONARYVAR
  5
144
102
{ACAD_REACTORS
330
143
102
}
100
DictionaryVariables
280
     0
  1
0
  0
ENDSEC
  0
EOF
