  0
SECTION
  2
HEADER
  9
$ACADVER
  1
AC1012
  9
$DWGCODEPAGE
  3
ANSI_1252
  9
$INSBASE
 10
0.0
 20
0.0
 30
0.0
  9
$EXTMIN
 10
3.373082
 20
2.236892
 30
-0.001526
  9
$EXTMAX
 10
147.385932
 20
112.913424
 30
0.0
  9
$LIMMIN
 10
19.077216
 20
43.616976
  9
$LIMMAX
 10
194.084622
 20
146.65737
  9
$ORTHOMODE
 70
     1
  9
$REGENMODE
 70
     1
  9
$FILLMODE
 70
     1
  9
$QTEXTMODE
 70
     0
  9
$MIRRTEXT
 70
     1
  9
$DRAGMODE
 70
     2
  9
$LTSCALE
 40
10.0
  9
$OSMODE
 70
    37
  9
$ATTMODE
 70
     1
  9
$TEXTSIZE
 40
0.2
  9
$TRACEWID
 40
0.05
  9
$TEXTSTYLE
  7
STANDARD
  9
$CLAYER
  8
ALPHA
  9
$CELTYPE
  6
CONTINUOUS
  9
$CECOLOR
 62
   256
  9
$CELTSCALE
 40
1.0
  9
$DELOBJ
 70
     1
  9
$DISPSILH
 70
     0
  9
$DIMSCALE
 40
1.0
  9
$DIMASZ
 40
0.18
  9
$DIMEXO
 40
0.0625
  9
$DIMDLI
 40
0.38
  9
$DIMRND
 40
0.0
  9
$DIMDLE
 40
0.0
  9
$DIMEXE
 40
0.18
  9
$DIMTP
 40
0.0
  9
$DIMTM
 40
0.0
  9
$DIMTXT
 40
0.18
  9
$DIMCEN
 40
0.09
  9
$DIMTSZ
 40
0.0
  9
$DIMTOL
 70
     0
  9
$DIMLIM
 70
     0
  9
$DIMTIH
 70
     1
  9
$DIMTOH
 70
     1
  9
$DIMSE1
 70
     0
  9
$DIMSE2
 70
     0
  9
$DIMTAD
 70
     0
  9
$DIMZIN
 70
     0
  9
$DIMBLK
  1

  9
$DIMASO
 70
     1
  9
$DIMSHO
 70
     1
  9
$DIMPOST
  1

  9
$DIMAPOST
  1

  9
$DIMALT
 70
     0
  9
$DIMALTD
 70
     2
  9
$DIMALTF
 40
25.4
  9
$DIMLFAC
 40
1.0
  9
$DIMTOFL
 70
     0
  9
$DIMTVP
 40
0.0
  9
$DIMTIX
 70
     0
  9
$DIMSOXD
 70
     0
  9
$DIMSAH
 70
     0
  9
$DIMBLK1
  1

  9
$DIMBLK2
  1

  9
$DIMSTYLE
  2
STANDARD
  9
$DIMCLRD
 70
     0
  9
$DIMCLRE
 70
     0
  9
$DIMCLRT
 70
     0
  9
$DIMTFAC
 40
1.0
  9
$DIMGAP
 40
0.09
  9
$DIMJUST
 70
     0
  9
$DIMSD1
 70
     0
  9
$DIMSD2
 70
     0
  9
$DIMTOLJ
 70
     1
  9
$DIMTZIN
 70
     0
  9
$DIMALTZ
 70
     0
  9
$DIMALTTZ
 70
     0
  9
$DIMFIT
 70
     3
  9
$DIMUPT
 70
     0
  9
$DIMUNIT
 70
     2
  9
$DIMDEC
 70
     4
  9
$DIMTDEC
 70
     4
  9
$DIMALTU
 70
     2
  9
$DIMALTTD
 70
     2
  9
$DIMTXSTY
  7
STANDARD
  9
$DIMAUNIT
 70
     0
  9
$LUNITS
 70
     2
  9
$LUPREC
 70
     4
  9
$SKETCHINC
 40
0.1
  9
$FILLETRAD
 40
0.0
  9
$AUNITS
 70
     0
  9
$AUPREC
 70
     0
  9
$MENU
  1
acad
  9
$ELEVATION
 40
0.0
  9
$PELEVATION
 40
0.0
  9
$THICKNESS
 40
0.0
  9
$LIMCHECK
 70
     0
  9
$BLIPMODE
 70
     0
  9
$CHAMFERA
 40
0.0
  9
$CHAMFERB
 40
0.0
  9
$CHAMFERC
 40
0.0
  9
$CHAMFERD
 40
0.0
  9
$SKPOLY
 70
     0
  9
$TDCREATE
 40
2453634.413430799
  9
$TDUPDATE
 40
2453893.700884039
  9
$TDINDWG
 40
0.5375385995
  9
$TDUSRTIMER
 40
0.5375375116
  9
$USRTIMER
 70
     1
  9
$ANGBASE
 50
0.0
  9
$ANGDIR
 70
     0
  9
$PDMODE
 70
     0
  9
$PDSIZE
 40
0.0
  9
$PLINEWID
 40
0.0
  9
$COORDS
 70
     1
  9
$SPLFRAME
 70
     0
  9
$SPLINETYPE
 70
     6
  9
$SPLINESEGS
 70
     8
  9
$ATTDIA
 70
     0
  9
$ATTREQ
 70
     1
  9
$HANDLING
 70
     1
  9
$HANDSEED
  5
4146
  9
$SURFTAB1
 70
     6
  9
$SURFTAB2
 70
     6
  9
$SURFTYPE
 70
     6
  9
$SURFU
 70
     6
  9
$SURFV
 70
     6
  9
$UCSNAME
  2

  9
$UCSORG
 10
0.0
 20
0.0
 30
0.0
  9
$UCSXDIR
 10
1.0
 20
0.0
 30
0.0
  9
$UCSYDIR
 10
0.0
 20
1.0
 30
0.0
  9
$PUCSNAME
  2

  9
$PUCSORG
 10
0.0
 20
0.0
 30
0.0
  9
$PUCSXDIR
 10
1.0
 20
0.0
 30
0.0
  9
$PUCSYDIR
 10
0.0
 20
1.0
 30
0.0
  9
$USERI1
 70
     0
  9
$USERI2
 70
     0
  9
$USERI3
 70
     0
  9
$USERI4
 70
     0
  9
$USERI5
 70
     0
  9
$USERR1
 40
0.0
  9
$USERR2
 40
0.0
  9
$USERR3
 40
0.0
  9
$USERR4
 40
0.0
  9
$USERR5
 40
0.0
  9
$WORLDVIEW
 70
     1
  9
$SHADEDGE
 70
     3
  9
$SHADEDIF
 70
    70
  9
$TILEMODE
 70
     1
  9
$MAXACTVP
 70
    16
  9
$PINSBASE
 10
0.0
 20
0.0
 30
0.0
  9
$PLIMCHECK
 70
     0
  9
$PEXTMIN
 10
1.000000E+20
 20
1.000000E+20
 30
1.000000E+20
  9
$PEXTMAX
 10
-1.000000E+20
 20
-1.000000E+20
 30
-1.000000E+20
  9
$PLIMMIN
 10
0.0
 20
0.0
  9
$PLIMMAX
 10
12.0
 20
9.0
  9
$UNITMODE
 70
     0
  9
$VISRETAIN
 70
     0
  9
$PLINEGEN
 70
     1
  9
$PSLTSCALE
 70
     0
  9
$TREEDEPTH
 70
  3020
  9
$PICKSTYLE
 70
     0
  9
$CMLSTYLE
  2
STANDARD
  9
$CMLJUST
 70
     0
  9
$CMLSCALE
 40
1.0
  9
$SAVEIMAGES
 70
     0
  0
ENDSEC
  0
SECTION
  2
CLASSES
  0
CLASS
  1
LWPOLYLINE
  2
AcDbPolyline
  3
"AutoCAD"
 90
    32768
280
     0
281
     1
  0
CLASS
  1
IMAGE
  2
AcDbRasterImage
  3
ISM
 90
    32895
280
     0
281
     1
  0
CLASS
  1
OLE2FRAME
  2
AcDbOle2Frame
  3
""
 90
    32768
280
     0
281
     1
  0
CLASS
  1
HATCH
  2
AcDbHatch
  3
"ACAD_SEDONA"
 90
    32768
280
     0
281
     1
  0
CLASS
  1
DICTIONARYVAR
  2
AcDbDictionaryVar
  3
"AutoCAD"
 90
    32768
280
     0
281
     0
  0
CLASS
  1
RASTERVARIABLES
  2
AcDbRasterVariables
  3
ISM
 90
    32768
280
     0
281
     0
  0
CLASS
  1
IMAGEDEF
  2
AcDbRasterImageDef
  3
ISM
 90
    32768
280
     0
281
     0
  0
CLASS
  1
IMAGEDEF_REACTOR
  2
AcDbRasterImageDefReactor
  3
ISM
 90
    32769
280
     0
281
     0
  0
CLASS
  1
SPATIAL_FILTER
  2
AcDbSpatialFilter
  3
"Acad"
 90
    32768
280
     0
281
     0
  0
CLASS
  1
XRECORD
  2
AcDbXrecord
  3
"<Built In>"
 90
    32768
280
     0
281
     0
  0
CLASS
  1
SORTENTSTABLE
  2
AcDbSortentsTable
  3
"AutoCAD"
 90
    32768
280
     0
281
     0
  0
CLASS
  1
LAYER_INDEX
  2
AcDbLayerIndex
  3
"Acad"
 90
    32768
280
     0
281
     0
  0
CLASS
  1
SPATIAL_INDEX
  2
AcDbSpatialIndex
  3
"Acad"
 90
    32768
280
     0
281
     0
  0
CLASS
  1
OBJECT_PTR
  2
CAseDLPNTableRecord
  3
ASE-LPNTableRecord
 90
    32769
280
     0
281
     0
  0
CLASS
  1
LAYOUT
  2
AcDbLayout
  3
AutoCAD 2000
 90
    32768
280
     0
281
     0
  0
CLASS
  1
PLOTSETTINGS
  2
AcDbPlotSettings
  3
AutoCAD 2000
 90
    32768
280
     0
281
     0
  0
CLASS
  1
ACDBDICTIONARYWDFLT
  2
AcDbDictionaryWithDefault
  3
AutoCAD 2000
 90
    32768
280
     0
281
     0
  0
CLASS
  1
ACDBPLACEHOLDER
  2
AcDbPlaceHolder
  3
AutoCAD 2000
 90
    32768
280
     0
281
     0
  0
CLASS
  1
VBA_PROJECT
  2
AcDbVbaProject
  3
acad
 90
    32768
280
     0
281
     0
  0
CLASS
  1
WIPEOUT
  2
AcDbWipeout
  3
WipeOut|AutoCAD Express Tool|expresstools@autodesk.com
 90
    32895
280
     0
281
     1
  0
CLASS
  1
WIPEOUTVARIABLES
  2
AcDbWipeoutVariables
  3
WipeOut|AutoCAD Express Tool|expresstools@autodesk.com
 90
    32768
280
     0
281
     0
  0
CLASS
  1
RTEXT
  2
RText
  3
RText|AutoCAD Express Tool|expresstools@autodesk.com
 90
    32768
280
     0
281
     1
  0
CLASS
  1
ARCALIGNEDTEXT
  2
AcDbArcAlignedText
  3
ATEXT|AutoCAD Express Tool|expresstools@autodesk.com
 90
    32768
280
     0
281
     1
  0
CLASS
  1
TABLESTYLE
  2
AcDbTableStyle
  3
ObjectDBX Classes
 90
    34815
280
     0
281
     0
  0
CLASS
  1
ACAD_PROXY_OBJECT_WRAPPER
  2
AcDbProxyObjectWrapper
  3
AutoCAD 2000
 90
    32768
280
     0
281
     0
  0
CLASS
  1
LONG_TRANSACTION
  2
AcDbLongTransaction
  3
AutoCAD 2000
 90
    32768
280
     0
281
     0
  0
CLASS
  1
LWPOLYLINE
  2
AcDbPolyline
  3
"AutoCAD"
 90
    32768
280
     0
281
     1
  0
CLASS
  1
HATCH
  2
AcDbHatch
  3
"ACAD_SEDONA"
 90
    32768
280
     0
281
     1
  0
CLASS
  1
XRECORD
  2
AcDbXrecord
  3
"<Built In>"
 90
    32768
280
     0
281
     0
  0
ENDSEC
  0
SECTION
  2
TABLES
  0
TABLE
  2
VPORT
  5
7
100
AcDbSymbolTable
 70
     2
  0
VPORT
  5
4145
100
AcDbSymbolTableRecord
100
AcDbViewportTableRecord
  2
*ACTIVE
 70
     0
 10
0.0
 20
0.0
 11
1.0
 21
1.0
 12
75.379507
 22
57.575158
 13
0.0
 23
0.0
 14
1.0
 24
1.0
 15
0.0
 25
0.0
 16
0.0
 26
0.0
 36
1.0
 17
0.0
 27
0.0
 37
0.0
 40
111.827414
 41
1.673611
 42
50.0
 43
0.0
 44
0.0
 50
0.0
 51
0.0
 71
     0
 72
   100
 73
     1
 74
     2
 75
     0
 76
     0
 77
     0
 78
     0
  0
ENDTAB
  0
TABLE
  2
LTYPE
  5
4
100
AcDbSymbolTable
 70
     3
  0
LTYPE
  5
11
102
{ACAD_XDICTIONARY
360
40EE
102
}
100
AcDbSymbolTableRecord
100
AcDbLinetypeTableRecord
  2
BYBLOCK
 70
     0
  3

 72
    65
 73
     0
 40
0.0
  0
LTYPE
  5
12
102
{ACAD_XDICTIONARY
360
40F0
102
}
100
AcDbSymbolTableRecord
100
AcDbLinetypeTableRecord
  2
BYLAYER
 70
     0
  3

 72
    65
 73
     0
 40
0.0
  0
LTYPE
  5
13
102
{ACAD_XDICTIONARY
360
40F2
102
}
100
AcDbSymbolTableRecord
100
AcDbLinetypeTableRecord
  2
CONTINUOUS
 70
     0
  3
Solid line
 72
    65
 73
     0
 40
0.0
  0
LTYPE
  5
725
100
AcDbSymbolTableRecord
100
AcDbLinetypeTableRecord
  2
AXES2
 70
     0
  3
___ _ ___ _ ___ _ ___ _ ___ _ ___ _ ___ _ ___ _
 72
    65
 73
     4
 40
1.125
 49
0.75
 74
     0
 49
-0.125
 74
     0
 49
0.125
 74
     0
 49
-0.125
 74
     0
  0
LTYPE
  5
3F38
100
AcDbSymbolTableRecord
100
AcDbLinetypeTableRecord
  2
CACHE2
 70
     0
  3
Caché (x.5) _ _ _ _ _ _ _ _ _ _ _ _ _ _ _ _ _
 72
    65
 73
     2
 40
0.1875
 49
0.125
 74
     0
 49
-0.0625
 74
     0
  0
ENDTAB
  0
TABLE
  2
LAYER
  5
2
102
{ACAD_XDICTIONARY
360
26F0
102
}
100
AcDbSymbolTable
 70
     6
  0
LAYER
  5
14
100
AcDbSymbolTableRecord
100
AcDbLayerTableRecord
  2
0
 70
     0
 62
     7
  6
CONTINUOUS
  0
LAYER
  5
6EC
102
{ACAD_XDICTIONARY
360
40EC
102
}
100
AcDbSymbolTableRecord
100
AcDbLayerTableRecord
  2
DEFPOINTS
 70
     0
 62
     7
  6
CONTINUOUS
  0
LAYER
  5
727
100
AcDbSymbolTableRecord
100
AcDbLayerTableRecord
  2
COTATION1
 70
     0
 62
     2
  6
CONTINUOUS
  0
LAYER
  5
728
100
AcDbSymbolTableRecord
100
AcDbLayerTableRecord
  2
AXE
 70
     0
 62
    80
  6
AXES2
  0
LAYER
  5
729
100
AcDbSymbolTableRecord
100
AcDbLayerTableRecord
  2
ALPHA
 70
     0
 62
   254
  6
CONTINUOUS
  0
LAYER
  5
3F39
100
AcDbSymbolTableRecord
100
AcDbLayerTableRecord
  2
POINTILLE_COURT
 70
     0
 62
    41
  6
CACHE2
  0
ENDTAB
  0
TABLE
  2
STYLE
  5
3
100
AcDbSymbolTable
 70
     2
  0
STYLE
  5
17
102
{ACAD_XDICTIONARY
360
40F8
102
}
100
AcDbSymbolTableRecord
100
AcDbTextStyleTableRecord
  2
STANDARD
 70
     0
 40
0.0
 41
1.0
 50
0.0
 71
     0
 42
0.0
  3
txt
  4

  0
STYLE
  5
72B
100
AcDbSymbolTableRecord
100
AcDbTextStyleTableRecord
  2
ROMANS
 70
     0
 40
0.0
 41
1.0
 50
0.0
 71
     0
 42
6.0
  3
romans
  4

  0
ENDTAB
  0
TABLE
  2
VIEW
  5
5
100
AcDbSymbolTable
 70
     0
  0
ENDTAB
  0
TABLE
  2
UCS
  5
6
100
AcDbSymbolTable
 70
     0
  0
ENDTAB
  0
TABLE
  2
APPID
  5
8
100
AcDbSymbolTable
 70
     4
  0
APPID
  5
16
100
AcDbSymbolTableRecord
100
AcDbRegAppTableRecord
  2
ACAD
 70
     0
  0
APPID
  5
26EF
102
{ACAD_XDICTIONARY
360
40F4
102
}
100
AcDbSymbolTableRecord
100
AcDbRegAppTableRecord
  2
ACAECLAYERSTANDARD
 70
     0
  0
APPID
  5
320E
100
AcDbSymbolTableRecord
100
AcDbRegAppTableRecord
  2
DCO15
 70
     0
  0
APPID
  5
3569
102
{ACAD_XDICTIONARY
360
40F6
102
}
100
AcDbSymbolTableRecord
100
AcDbRegAppTableRecord
  2
ACAD_EXEMPT_FROM_CAD_STAND
 70
     0
  0
ENDTAB
  0
TABLE
  2
DIMSTYLE
  5
9
100
AcDbSymbolTable
 70
     2
  0
DIMSTYLE
105
18
102
{ACAD_XDICTIONARY
360
40EA
102
}
100
AcDbSymbolTableRecord
100
AcDbDimStyleTableRecord
  2
STANDARD
 70
     0
  3

  4

  5

  6

  7

 40
1.0
 41
0.18
 42
0.0625
 43
0.38
 44
0.18
 45
0.0
 46
0.0
 47
0.0
 48
0.0
140
0.18
141
0.09
142
0.0
143
25.4
144
1.0
145
0.0
146
1.0
147
0.09
 71
     0
 72
     0
 73
     1
 74
     1
 75
     0
 76
     0
 77
     0
 78
     0
170
     0
171
     2
172
     0
173
     0
174
     0
175
     0
176
     0
177
     0
178
     0
270
     2
271
     4
272
     4
273
     2
274
     2
340
17
275
     0
280
     0
281
     0
282
     0
283
     1
284
     0
285
     0
286
     0
287
     3
288
     0
  0
DIMSTYLE
105
72C
102
{ACAD_XDICTIONARY
360
4128
102
}
102
{ACAD_REACTORS
330
3FAC
330
3FC1
330
3FC2
330
3FC3
102
}
100
AcDbSymbolTableRecord
100
AcDbDimStyleTableRecord
  2
SC_DEFAUT
 70
     0
  3

  4

  5
OPEN30
  6

  7

 40
1.0
 41
5.0
 42
2.0
 43
0.38
 44
2.5
 45
0.0
 46
0.0
 47
0.0
 48
0.0
140
2.5
141
0.0
142
0.0
143
25.4
144
1.0
145
0.0
146
1.0
147
2.0
 71
     0
 72
     0
 73
     1
 74
     1
 75
     0
 76
     0
 77
     1
 78
    12
170
     0
171
     2
172
     0
173
     0
174
     0
175
     0
176
     0
177
     0
178
     0
270
     2
271
     1
272
     1
273
     2
274
     2
340
72B
275
     0
280
     0
281
     0
282
     0
283
     1
284
    12
285
    12
286
    12
287
     5
288
     0
  0
ENDTAB
  0
TABLE
  2
BLOCK_RECORD
  5
1
100
AcDbSymbolTable
 70
     5
  0
BLOCK_RECORD
  5
A
102
{ACAD_XDICTIONARY
360
7D7
102
}
100
AcDbSymbolTableRecord
100
AcDbBlockTableRecord
  2
*MODEL_SPACE
  0
BLOCK_RECORD
  5
B
102
{ACAD_XDICTIONARY
360
411E
102
}
100
AcDbSymbolTableRecord
100
AcDbBlockTableRecord
  2
*PAPER_SPACE
  0
BLOCK_RECORD
  5
6FA
100
AcDbSymbolTableRecord
100
AcDbBlockTableRecord
  2
_OPEN30
  0
BLOCK_RECORD
  5
3FC4
100
AcDbSymbolTableRecord
100
AcDbBlockTableRecord
  2
*D1
  0
BLOCK_RECORD
  5
3FD1
100
AcDbSymbolTableRecord
100
AcDbBlockTableRecord
  2
*D2
  0
BLOCK_RECORD
  5
3FDD
100
AcDbSymbolTableRecord
100
AcDbBlockTableRecord
  2
*D3
  0
BLOCK_RECORD
  5
3FEA
100
AcDbSymbolTableRecord
100
AcDbBlockTableRecord
  2
*D4
  0
ENDTAB
  0
ENDSEC
  0
SECTION
  2
BLOCKS
  0
BLOCK
  5
D
100
AcDbEntity
  8
0
100
AcDbBlockBegin
  2
*MODEL_SPACE
 70
     0
 10
0.0
 20
0.0
 30
0.0
  3
*MODEL_SPACE
  1

  0
ENDBLK
  5
E
100
AcDbEntity
  8
0
100
AcDbBlockEnd
  0
BLOCK
  5
F
100
AcDbEntity
 67
     1
  8
0
100
AcDbBlockBegin
  2
*PAPER_SPACE
 70
     0
 10
0.0
 20
0.0
 30
0.0
  3
*PAPER_SPACE
  1

  0
ENDBLK
  5
10
100
AcDbEntity
 67
     1
  8
0
100
AcDbBlockEnd
  0
BLOCK
  5
6FB
100
AcDbEntity
  8
0
100
AcDbBlockBegin
  2
_OPEN30
 70
     0
 10
0.0
 20
0.0
 30
0.0
  3
_OPEN30
  1

  0
LINE
  5
6FC
100
AcDbEntity
  8
COTATION1
 62
     0
100
AcDbLine
 10
-1.0
 20
0.267949
 30
0.0
 11
0.0
 21
0.0
 31
0.0
1001
ACAD
1000
RTLwPs
1070
   158
  0
LINE
  5
6FD
100
AcDbEntity
  8
COTATION1
 62
     0
100
AcDbLine
 10
0.0
 20
0.0
 30
0.0
 11
-1.0
 21
-0.267949
 31
0.0
1001
ACAD
1000
RTLwPs
1070
   158
  0
LINE
  5
6FE
100
AcDbEntity
  8
COTATION1
 62
     0
100
AcDbLine
 10
0.0
 20
0.0
 30
0.0
 11
-1.0
 21
0.0
 31
0.0
1001
ACAD
1000
RTLwPs
1070
   158
  0
ENDBLK
  5
6FF
100
AcDbEntity
  8
0
100
AcDbBlockEnd
  0
BLOCK
  5
3FCF
100
AcDbEntity
  8
0
100
AcDbBlockBegin
  2
*D1
 70
     1
 10
0.0
 20
0.0
 30
0.0
  3
*D1
  1

1001
ACAD
1000
RTLwPs
1070
   128
  0
LINE
  5
4088
100
AcDbEntity
  8
COTATION1
 62
     0
100
AcDbLine
 10
55.628902
 20
26.404744
 30
0.0
 11
55.628902
 21
16.855333
 31
0.0
1001
ACAD
1000
RTLwPs
1070
   158
  0
LINE
  5
4089
100
AcDbEntity
  8
COTATION1
 62
     0
100
AcDbLine
 10
58.628902
 20
26.404744
 30
0.0
 11
58.628902
 21
16.855333
 31
0.0
1001
ACAD
1000
RTLwPs
1070
   158
  0
LINE
  5
408A
100
AcDbEntity
  8
COTATION1
 62
     0
100
AcDbLine
 10
50.628902
 20
19.355333
 30
0.0
 11
45.628902
 21
19.355333
 31
0.0
1001
ACAD
1000
RTLwPs
1070
   158
  0
LINE
  5
408B
100
AcDbEntity
  8
COTATION1
 62
     0
100
AcDbLine
 10
63.628902
 20
19.355333
 30
0.0
 11
68.628902
 21
19.355333
 31
0.0
1001
ACAD
1000
RTLwPs
1070
   158
  0
MTEXT
  5
408C
100
AcDbEntity
  8
COTATION1
 62
     0
100
AcDbMText
 10
69.237805
 20
22.246017
 30
0.0
 40
2.5
 41
0.0
 71
     5
 72
     1
  1
\A1;1...6
  7
ROMANS
1001
ACAD
1000
MTEXTBEGIN
1070
    73
1070
     1
1070
    44
1040
1.0
1070
    74
1070
     0
1000
MTEXTEND
1000
MTEXTBEGIN
1070
    73
1070
     1
1070
    44
1040
1.0
1070
    74
1070
     0
1000
MTEXTEND
  0
INSERT
  5
408D
100
AcDbEntity
  8
COTATION1
 62
     0
100
AcDbBlockReference
  2
_OPEN30
 10
55.628902
 20
19.355333
 30
0.0
 41
5.0
 42
5.0
 43
5.0
1001
ACAD
1000
RTLwPs
1070
   158
  0
INSERT
  5
408E
100
AcDbEntity
  8
COTATION1
 62
     0
100
AcDbBlockReference
  2
_OPEN30
 10
58.628902
 20
19.355333
 30
0.0
 41
5.0
 42
5.0
 43
5.0
 50
180.0
1001
ACAD
1000
RTLwPs
1070
   158
  0
POINT
  5
408F
100
AcDbEntity
  8
DEFPOINTS
 62
     0
100
AcDbPoint
 10
55.628902
 20
28.404744
 30
0.0
1001
ACAD
1000
RTLwPs
1070
   128
  0
POINT
  5
4090
100
AcDbEntity
  8
DEFPOINTS
 62
     0
100
AcDbPoint
 10
58.628902
 20
28.404744
 30
0.0
1001
ACAD
1000
RTLwPs
1070
   128
  0
POINT
  5
4091
100
AcDbEntity
  8
DEFPOINTS
 62
     0
100
AcDbPoint
 10
58.628902
 20
19.355333
 30
0.0
1001
ACAD
1000
RTLwPs
1070
   128
  0
ENDBLK
  5
3FD0
100
AcDbEntity
  8
0
100
AcDbBlockEnd
1001
ACAD
1000
RTLwPs
1070
   128
  0
BLOCK
  5
3FDB
100
AcDbEntity
  8
0
100
AcDbBlockBegin
  2
*D2
 70
     1
 10
0.0
 20
0.0
 30
0.0
  3
*D2
  1

1001
ACAD
1000
RTLwPs
1070
   128
  0
LINE
  5
4092
100
AcDbEntity
  8
COTATION1
 62
     0
100
AcDbLine
 10
54.878902
 20
85.404744
 30
0.0
 11
54.878902
 21
110.904744
 31
0.0
1001
ACAD
1000
RTLwPs
1070
   158
  0
LINE
  5
4093
100
AcDbEntity
  8
COTATION1
 62
     0
100
AcDbLine
 10
20.878902
 20
62.904744
 30
0.0
 11
20.878902
 21
110.904744
 31
0.0
1001
ACAD
1000
RTLwPs
1070
   158
  0
LINE
  5
4094
100
AcDbEntity
  8
COTATION1
 62
     0
100
AcDbLine
 10
49.878902
 20
108.404744
 30
0.0
 11
25.878902
 21
108.404744
 31
0.0
1001
ACAD
1000
RTLwPs
1070
   158
  0
INSERT
  5
4095
100
AcDbEntity
  8
COTATION1
 62
     0
100
AcDbBlockReference
  2
_OPEN30
 10
54.878902
 20
108.404744
 30
0.0
 41
5.0
 42
5.0
 43
5.0
1001
ACAD
1000
RTLwPs
1070
   158
  0
INSERT
  5
4096
100
AcDbEntity
  8
COTATION1
 62
     0
100
AcDbBlockReference
  2
_OPEN30
 10
20.878902
 20
108.404744
 30
0.0
 41
5.0
 42
5.0
 43
5.0
 50
180.0
1001
ACAD
1000
RTLwPs
1070
   158
  0
MTEXT
  5
4097
100
AcDbEntity
  8
COTATION1
 62
     0
100
AcDbMText
 10
37.878902
 20
111.654744
 30
0.0
 40
2.5
 41
0.0
 71
     5
 72
     1
  1
\A1;34
  7
ROMANS
1001
ACAD
1000
MTEXTBEGIN
1070
    73
1070
     1
1070
    44
1040
1.0
1070
    74
1070
     0
1000
MTEXTEND
1000
MTEXTBEGIN
1070
    73
1070
     1
1070
    44
1040
1.0
1070
    74
1070
     0
1000
MTEXTEND
  0
POINT
  5
4098
100
AcDbEntity
  8
DEFPOINTS
 62
     0
100
AcDbPoint
 10
54.878902
 20
83.404744
 30
0.0
1001
ACAD
1000
RTLwPs
1070
   128
  0
POINT
  5
4099
100
AcDbEntity
  8
DEFPOINTS
 62
     0
100
AcDbPoint
 10
20.878902
 20
60.904744
 30
0.0
1001
ACAD
1000
RTLwPs
1070
   128
  0
POINT
  5
409A
100
AcDbEntity
  8
DEFPOINTS
 62
     0
100
AcDbPoint
 10
20.878902
 20
108.404744
 30
0.0
1001
ACAD
1000
RTLwPs
1070
   128
  0
ENDBLK
  5
3FDC
100
AcDbEntity
  8
0
100
AcDbBlockEnd
1001
ACAD
1000
RTLwPs
1070
   128
  0
BLOCK
  5
3FE8
100
AcDbEntity
  8
0
100
AcDbBlockBegin
  2
*D3
 70
     1
 10
0.0
 20
0.0
 30
0.0
  3
*D3
  1

1001
ACAD
1000
RTLwPs
1070
   128
  0
LINE
  5
409B
100
AcDbEntity
  8
COTATION1
 62
     0
100
AcDbLine
 10
45.878902
 20
83.404744
 30
0.0
 11
3.378902
 21
83.404744
 31
0.0
1001
ACAD
1000
RTLwPs
1070
   158
  0
LINE
  5
409C
100
AcDbEntity
  8
COTATION1
 62
     0
100
AcDbLine
 10
45.878902
 20
38.404744
 30
0.0
 11
3.378902
 21
38.404744
 31
0.0
1001
ACAD
1000
RTLwPs
1070
   158
  0
LINE
  5
409D
100
AcDbEntity
  8
COTATION1
 62
     0
100
AcDbLine
 10
5.878902
 20
78.404744
 30
0.0
 11
5.878902
 21
64.154744
 31
0.0
1001
ACAD
1000
RTLwPs
1070
   158
  0
LINE
  5
409E
100
AcDbEntity
  8
COTATION1
 62
     0
100
AcDbLine
 10
5.878902
 20
43.404744
 30
0.0
 11
5.878902
 21
57.654744
 31
0.0
1001
ACAD
1000
RTLwPs
1070
   158
  0
INSERT
  5
409F
100
AcDbEntity
  8
COTATION1
 62
     0
100
AcDbBlockReference
  2
_OPEN30
 10
5.878902
 20
83.404744
 30
0.0
 41
5.0
 42
5.0
 43
5.0
 50
90.0
1001
ACAD
1000
RTLwPs
1070
   158
  0
INSERT
  5
40A0
100
AcDbEntity
  8
COTATION1
 62
     0
100
AcDbBlockReference
  2
_OPEN30
 10
5.878902
 20
38.404744
 30
0.0
 41
5.0
 42
5.0
 43
5.0
 50
270.0
1001
ACAD
1000
RTLwPs
1070
   158
  0
MTEXT
  5
40A1
100
AcDbEntity
  8
COTATION1
 62
     0
100
AcDbMText
 10
5.878902
 20
60.904744
 30
0.0
 40
2.5
 41
0.0
 71
     5
 72
     1
  1
\A1;45
  7
ROMANS
1001
ACAD
1000
MTEXTBEGIN
1070
    73
1070
     1
1070
    44
1040
1.0
1070
    74
1070
     0
1000
MTEXTEND
1000
MTEXTBEGIN
1070
    73
1070
     1
1070
    44
1040
1.0
1070
    74
1070
     0
1000
MTEXTEND
  0
POINT
  5
40A2
100
AcDbEntity
  8
DEFPOINTS
 62
     0
100
AcDbPoint
 10
47.878902
 20
83.404744
 30
0.0
1001
ACAD
1000
RTLwPs
1070
   128
  0
POINT
  5
40A3
100
AcDbEntity
  8
DEFPOINTS
 62
     0
100
AcDbPoint
 10
47.878902
 20
38.404744
 30
0.0
1001
ACAD
1000
RTLwPs
1070
   128
  0
POINT
  5
40A4
100
AcDbEntity
  8
DEFPOINTS
 62
     0
100
AcDbPoint
 10
5.878902
 20
38.404744
 30
0.0
1001
ACAD
1000
RTLwPs
1070
   128
  0
ENDBLK
  5
3FE9
100
AcDbEntity
  8
0
100
AcDbBlockEnd
1001
ACAD
1000
RTLwPs
1070
   128
  0
BLOCK
  5
3FF4
100
AcDbEntity
  8
0
100
AcDbBlockBegin
  2
*D4
 70
     1
 10
0.0
 20
0.0
 30
0.0
  3
*D4
  1

1001
ACAD
1000
RTLwPs
1070
   128
  0
LINE
  5
40D6
100
AcDbEntity
  8
COTATION1
 62
     0
100
AcDbLine
 10
132.378902
 20
81.404744
 30
0.0
 11
132.378902
 21
110.904744
 31
0.0
1001
ACAD
1000
RTLwPs
1070
   158
  0
LINE
  5
40D7
100
AcDbEntity
  8
COTATION1
 62
     0
100
AcDbLine
 10
59.378902
 20
83.404744
 30
0.0
 11
59.378902
 21
110.904744
 31
0.0
1001
ACAD
1000
RTLwPs
1070
   158
  0
LINE
  5
40D8
100
AcDbEntity
  8
COTATION1
 62
     0
100
AcDbLine
 10
127.378902
 20
108.404744
 30
0.0
 11
64.378902
 21
108.404744
 31
0.0
1001
ACAD
1000
RTLwPs
1070
   158
  0
INSERT
  5
40D9
100
AcDbEntity
  8
COTATION1
 62
     0
100
AcDbBlockReference
  2
_OPEN30
 10
132.378902
 20
108.404744
 30
0.0
 41
5.0
 42
5.0
 43
5.0
1001
ACAD
1000
RTLwPs
1070
   158
  0
INSERT
  5
40DA
100
AcDbEntity
  8
COTATION1
 62
     0
100
AcDbBlockReference
  2
_OPEN30
 10
59.378902
 20
108.404744
 30
0.0
 41
5.0
 42
5.0
 43
5.0
 50
180.0
1001
ACAD
1000
RTLwPs
1070
   158
  0
MTEXT
  5
40DB
100
AcDbEntity
  8
COTATION1
 62
     0
100
AcDbMText
 10
95.878902
 20
111.654744
 30
0.0
 40
2.5
 41
0.0
 71
     5
 72
     1
  1
\A1;73
  7
ROMANS
1001
ACAD
1000
MTEXTBEGIN
1070
    73
1070
     1
1070
    44
1040
1.0
1070
    74
1070
     0
1000
MTEXTEND
1000
MTEXTBEGIN
1070
    73
1070
     1
1070
    44
1040
1.0
1070
    74
1070
     0
1000
MTEXTEND
  0
POINT
  5
40DC
100
AcDbEntity
  8
DEFPOINTS
 62
     0
100
AcDbPoint
 10
132.378902
 20
79.404744
 30
0.0
1001
ACAD
1000
RTLwPs
1070
   128
  0
POINT
  5
40DD
100
AcDbEntity
  8
DEFPOINTS
 62
     0
100
AcDbPoint
 10
59.378902
 20
81.404744
 30
0.0
1001
ACAD
1000
RTLwPs
1070
   128
  0
POINT
  5
40DE
100
AcDbEntity
  8
DEFPOINTS
 62
     0
100
AcDbPoint
 10
59.378902
 20
108.404744
 30
0.0
1001
ACAD
1000
RTLwPs
1070
   128
  0
ENDBLK
  5
3FF5
100
AcDbEntity
  8
0
100
AcDbBlockEnd
1001
ACAD
1000
RTLwPs
1070
   128
  0
ENDSEC
  0
SECTION
  2
ENTITIES
  0
LINE
  5
3F91
100
AcDbEntity
  8
ALPHA
  6
CONTINUOUS
100
AcDbLine
 10
54.878902
 20
83.404744
 30
0.0
 11
54.878902
 21
38.404744
 31
0.0
1001
ACAD
1000
RTLwPs
1070
   128
  0
LINE
  5
3F92
100
AcDbEntity
  8
ALPHA
  6
CONTINUOUS
100
AcDbLine
 10
47.878902
 20
83.404744
 30
0.0
 11
47.878902
 21
38.404744
 31
0.0
1001
ACAD
1000
RTLwPs
1070
   128
  0
LINE
  5
3F93
100
AcDbEntity
  8
ALPHA
  6
CONTINUOUS
100
AcDbLine
 10
42.878902
 20
74.564998
 30
0.0
 11
42.878902
 21
60.904744
 31
0.0
1001
ACAD
1000
RTLwPs
1070
   128
  0
LINE
  5
3F94
100
AcDbEntity
  8
ALPHA
  6
CONTINUOUS
100
AcDbLine
 10
54.878902
 20
83.404744
 30
0.0
 11
47.878902
 21
83.404744
 31
0.0
1001
ACAD
1000
RTLwPs
1070
   128
  0
LINE
  5
3F96
100
AcDbEntity
  8
AXE
100
AcDbLine
 10
147.378902
 20
60.904744
 30
0.0
 11
15.878902
 21
60.904744
 31
0.0
  0
LINE
  5
3F99
100
AcDbEntity
  8
ALPHA
  6
CONTINUOUS
100
AcDbLine
 10
130.378902
 20
81.404744
 30
0.0
 11
71.378902
 21
81.404744
 31
0.0
1001
ACAD
1000
RTLwPs
1070
   128
  0
LINE
  5
3F9A
100
AcDbEntity
  8
ALPHA
  6
CONTINUOUS
100
AcDbLine
 10
59.378902
 20
64.904744
 30
0.0
 11
54.878902
 21
64.904744
 31
0.0
1001
ACAD
1000
RTLwPs
1070
   128
  0
LINE
  5
3F9B
100
AcDbEntity
  8
ALPHA
  6
CONTINUOUS
100
AcDbLine
 10
47.878902
 20
75.904744
 30
0.0
 11
42.878902
 21
74.564998
 31
0.0
1001
ACAD
1000
RTLwPs
1070
   128
  0
LINE
  5
3F9C
100
AcDbEntity
  8
ALPHA
  6
CONTINUOUS
100
AcDbLine
 10
42.878902
 20
73.564998
 30
0.0
 11
21.878902
 21
73.564998
 31
0.0
1001
ACAD
1000
RTLwPs
1070
   128
  0
LINE
  5
3F9D
100
AcDbEntity
  8
ALPHA
  6
CONTINUOUS
100
AcDbLine
 10
42.878902
 20
72.564998
 30
0.0
 11
21.712042
 21
72.564998
 31
0.0
1001
ACAD
1000
RTLwPs
1070
   128
  0
LINE
  5
3F9E
100
AcDbEntity
  8
ALPHA
  6
CONTINUOUS
100
AcDbLine
 10
42.878902
 20
38.564998
 30
0.0
 11
24.878902
 21
38.564998
 31
0.0
1001
ACAD
1000
RTLwPs
1070
   128
  0
LINE
  5
3F9F
100
AcDbEntity
  8
ALPHA
  6
CONTINUOUS
100
AcDbLine
 10
42.878902
 20
47.24449
 30
0.0
 11
42.878902
 21
60.904744
 31
0.0
1001
ACAD
1000
RTLwPs
1070
   128
  0
LINE
  5
3FA0
100
AcDbEntity
  8
ALPHA
  6
CONTINUOUS
100
AcDbLine
 10
47.878902
 20
45.904744
 30
0.0
 11
42.878902
 21
47.24449
 31
0.0
1001
ACAD
1000
RTLwPs
1070
   128
  0
LINE
  5
3FA1
100
AcDbEntity
  8
ALPHA
  6
CONTINUOUS
100
AcDbLine
 10
42.878902
 20
47.24449
 30
0.0
 11
42.878902
 21
38.564998
 31
0.0
1001
ACAD
1000
RTLwPs
1070
   128
  0
ARC
  5
3FA7
100
AcDbEntity
  8
ALPHA
  6
CONTINUOUS
100
AcDbCircle
 10
88.517834
 20
61.931744
 30
0.0
 40
67.646728
100
AcDbArc
 50
170.097582
 51
180.869887
1001
ACAD
1000
RTLwPs
1070
   128
  0
ARC
  5
3FA8
100
AcDbEntity
  8
ALPHA
  6
CONTINUOUS
100
AcDbCircle
 10
83.434181
 20
60.57748
 30
0.0
 40
62.556136
100
AcDbArc
 50
179.700254
 51
200.602571
1001
ACAD
1000
RTLwPs
1070
   128
  0
POLYLINE
  5
3FA9
100
AcDbEntity
  8
POINTILLE_COURT
100
AcDb2dPolyline
 66
     1
 10
0.0
 20
0.0
 30
0.0
 70
   128
  0
VERTEX
  5
413B
100
AcDbEntity
  8
POINTILLE_COURT
100
AcDbVertex
100
AcDb2dVertex
 10
55.628902
 20
93.404744
 30
0.0
  0
VERTEX
  5
413C
100
AcDbEntity
  8
POINTILLE_COURT
100
AcDbVertex
100
AcDb2dVertex
 10
55.628902
 20
65.904744
 30
0.0
  0
VERTEX
  5
413D
100
AcDbEntity
  8
POINTILLE_COURT
100
AcDbVertex
100
AcDb2dVertex
 10
58.628902
 20
65.904744
 30
0.0
  0
VERTEX
  5
413E
100
AcDbEntity
  8
POINTILLE_COURT
100
AcDbVertex
100
AcDb2dVertex
 10
58.628902
 20
93.404744
 30
0.0
  0
SEQEND
  5
413F
100
AcDbEntity
  8
POINTILLE_COURT
  0
LINE
  5
3FAA
100
AcDbEntity
  8
AXE
100
AcDbLine
 10
57.128902
 20
98.404744
 30
0.0
 11
57.128902
 21
2.241299
 31
0.0
  0
TEXT
  5
3FAB
100
AcDbEntity
  8
AXE
100
AcDbText
 10
49.652711
 20
2.241299
 30
0.0
 40
8.0
  1
Y
  7
ROMANS
 72
     2
 11
56.128902
 21
2.241299
 31
0.0
100
AcDbText
  0
DIMENSION
  5
3FAC
100
AcDbEntity
  8
COTATION1
100
AcDbDimension
  2
*D1
 10
58.628902
 20
19.355333
 30
0.0
 11
69.237805
 21
22.246017
 31
0.0
 70
   160
  1
1...6
  3
SC_DEFAUT
100
AcDbAlignedDimension
 13
55.628902
 23
28.404744
 33
0.0
 14
58.628902
 24
28.404744
 34
0.0
100
AcDbRotatedDimension
  0
LINE
  5
3FAD
100
AcDbEntity
  8
ALPHA
  6
CONTINUOUS
100
AcDbLine
 10
59.378902
 20
83.404744
 30
0.0
 11
59.378902
 21
60.904744
 31
0.0
1001
ACAD
1000
RTLwPs
1070
   128
  0
LINE
  5
3FAF
100
AcDbEntity
  8
ALPHA
  6
CONTINUOUS
100
AcDbLine
 10
132.378902
 20
79.404744
 30
0.0
 11
132.378902
 21
60.904744
 31
0.0
1001
ACAD
1000
RTLwPs
1070
   128
  0
LINE
  5
3FB0
100
AcDbEntity
  8
ALPHA
  6
CONTINUOUS
100
AcDbLine
 10
107.378902
 20
83.404744
 30
0.0
 11
107.378902
 21
60.904744
 31
0.0
1001
ACAD
1000
RTLwPs
1070
   128
  0
LINE
  5
3FB1
100
AcDbEntity
  8
ALPHA
  6
CONTINUOUS
100
AcDbLine
 10
130.378902
 20
83.404744
 30
0.0
 11
107.378902
 21
83.404744
 31
0.0
1001
ACAD
1000
RTLwPs
1070
   128
  0
LINE
  5
3FB2
100
AcDbEntity
  8
ALPHA
  6
CONTINUOUS
100
AcDbLine
 10
132.378902
 20
79.404744
 30
0.0
 11
130.378902
 21
83.404744
 31
0.0
1001
ACAD
1000
RTLwPs
1070
   128
  0
LINE
  5
3FB3
100
AcDbEntity
  8
ALPHA
  6
CONTINUOUS
100
AcDbLine
 10
130.378902
 20
83.404744
 30
0.0
 11
130.378902
 21
60.904744
 31
0.0
1001
ACAD
1000
RTLwPs
1070
   128
  0
LINE
  5
3FB4
100
AcDbEntity
  8
ALPHA
  6
CONTINUOUS
100
AcDbLine
 10
130.378902
 20
40.404744
 30
0.0
 11
71.378902
 21
40.404744
 31
0.0
1001
ACAD
1000
RTLwPs
1070
   128
  0
LINE
  5
3FB5
100
AcDbEntity
  8
ALPHA
  6
CONTINUOUS
100
AcDbLine
 10
59.378902
 20
38.404744
 30
0.0
 11
59.378902
 21
60.904744
 31
0.0
1001
ACAD
1000
RTLwPs
1070
   128
  0
LINE
  5
3FB7
100
AcDbEntity
  8
ALPHA
  6
CONTINUOUS
100
AcDbLine
 10
132.378902
 20
42.404744
 30
0.0
 11
132.378902
 21
60.904744
 31
0.0
1001
ACAD
1000
RTLwPs
1070
   128
  0
LINE
  5
3FB8
100
AcDbEntity
  8
ALPHA
  6
CONTINUOUS
100
AcDbLine
 10
107.378902
 20
38.404744
 30
0.0
 11
107.378902
 21
60.904744
 31
0.0
1001
ACAD
1000
RTLwPs
1070
   128
  0
LINE
  5
3FB9
100
AcDbEntity
  8
ALPHA
  6
CONTINUOUS
100
AcDbLine
 10
130.378902
 20
38.404744
 30
0.0
 11
107.378902
 21
38.404744
 31
0.0
1001
ACAD
1000
RTLwPs
1070
   128
  0
LINE
  5
3FBA
100
AcDbEntity
  8
ALPHA
  6
CONTINUOUS
100
AcDbLine
 10
132.378902
 20
42.404744
 30
0.0
 11
130.378902
 21
38.404744
 31
0.0
1001
ACAD
1000
RTLwPs
1070
   128
  0
LINE
  5
3FBB
100
AcDbEntity
  8
ALPHA
  6
CONTINUOUS
100
AcDbLine
 10
130.378902
 20
38.404744
 30
0.0
 11
130.378902
 21
60.904744
 31
0.0
1001
ACAD
1000
RTLwPs
1070
   128
  0
LINE
  5
3FBC
100
AcDbEntity
  8
ALPHA
  6
CONTINUOUS
100
AcDbLine
 10
59.378902
 20
56.904744
 30
0.0
 11
54.878902
 21
56.904744
 31
0.0
1001
ACAD
1000
RTLwPs
1070
   128
  0
POLYLINE
  5
3FBD
100
AcDbEntity
  8
POINTILLE_COURT
100
AcDb2dPolyline
 66
     1
 10
0.0
 20
0.0
 30
0.0
 70
   128
  0
VERTEX
  5
4140
100
AcDbEntity
  8
POINTILLE_COURT
100
AcDbVertex
100
AcDb2dVertex
 10
55.628902
 20
28.404744
 30
0.0
  0
VERTEX
  5
4141
100
AcDbEntity
  8
POINTILLE_COURT
100
AcDbVertex
100
AcDb2dVertex
 10
55.628902
 20
55.904744
 30
0.0
  0
VERTEX
  5
4142
100
AcDbEntity
  8
POINTILLE_COURT
100
AcDbVertex
100
AcDb2dVertex
 10
58.628902
 20
55.904744
 30
0.0
  0
VERTEX
  5
4143
100
AcDbEntity
  8
POINTILLE_COURT
100
AcDbVertex
100
AcDb2dVertex
 10
58.628902
 20
28.404744
 30
0.0
  0
SEQEND
  5
4144
100
AcDbEntity
  8
POINTILLE_COURT
  0
TEXT
  5
3FC0
100
AcDbEntity
  8
AXE
100
AcDbText
 10
140.863029
 20
61.909014
 30
0.0
 40
8.0
  1
Z
  7
ROMANS
 72
     2
 11
147.33922
 21
61.909014
 31
0.0
100
AcDbText
  0
DIMENSION
  5
3FC1
100
AcDbEntity
  8
COTATION1
100
AcDbDimension
  2
*D2
 10
20.878902
 20
108.404744
 30
0.0
 11
37.878902
 21
111.654744
 31
0.0
 70
    32
  3
SC_DEFAUT
100
AcDbAlignedDimension
 13
54.878902
 23
83.404744
 33
0.0
 14
20.878902
 24
60.904744
 34
0.0
100
AcDbRotatedDimension
  0
DIMENSION
  5
3FC2
100
AcDbEntity
  8
COTATION1
100
AcDbDimension
  2
*D3
 10
5.878902
 20
38.404744
 30
0.0
 11
5.878902
 21
60.904744
 31
0.0
 70
    32
  3
SC_DEFAUT
100
AcDbAlignedDimension
 13
47.878902
 23
83.404744
 33
0.0
 14
47.878902
 24
38.404744
 34
0.0
 50
90.0
100
AcDbRotatedDimension
  0
DIMENSION
  5
3FC3
100
AcDbEntity
  8
COTATION1
100
AcDbDimension
  2
*D4
 10
59.378902
 20
108.404744
 30
0.0
 11
95.878902
 21
111.654744
 31
0.0
 70
    32
  3
SC_DEFAUT
100
AcDbAlignedDimension
 13
132.378902
 23
79.404744
 33
0.0
 14
59.378902
 24
81.404744
 34
0.0
100
AcDbRotatedDimension
  0
LINE
  5
401C
100
AcDbEntity
  8
ALPHA
  6
CONTINUOUS
100
AcDbLine
 10
54.878902
 20
38.404744
 30
0.0
 11
47.878902
 21
38.404744
 31
0.0
1001
ACAD
1000
RTLwPs
1070
   128
  0
LINE
  5
406C
100
AcDbEntity
  8
ALPHA
  6
CONTINUOUS
100
AcDbLine
 10
71.378902
 20
83.404744
 30
0.0
 11
59.378902
 21
83.404744
 31
0.0
1001
ACAD
1000
RTLwPs
1070
   128
  0
LINE
  5
406D
100
AcDbEntity
  8
ALPHA
  6
CONTINUOUS
100
AcDbLine
 10
71.378902
 20
38.404744
 30
0.0
 11
59.378902
 21
38.404744
 31
0.0
1001
ACAD
1000
RTLwPs
1070
   128
  0
LINE
  5
406E
100
AcDbEntity
  8
ALPHA
  6
CONTINUOUS
100
AcDbLine
 10
71.378902
 20
38.404744
 30
0.0
 11
71.378902
 21
83.404744
 31
0.0
1001
ACAD
1000
RTLwPs
1070
   128
  0
LINE
  5
4070
100
AcDbEntity
  8
ALPHA
  6
CONTINUOUS
100
AcDbLine
 10
71.378902
 20
54.904744
 30
0.0
 11
107.378902
 21
54.904744
 31
0.0
1001
ACAD
1000
RTLwPs
1070
   128
  0
LINE
  5
4072
100
AcDbEntity
  8
ALPHA
  6
CONTINUOUS
100
AcDbLine
 10
71.378902
 20
49.904744
 30
0.0
 11
107.378902
 21
49.904744
 31
0.0
1001
ACAD
1000
RTLwPs
1070
   128
  0
LINE
  5
40AE
100
AcDbEntity
  8
ALPHA
  6
CONTINUOUS
100
AcDbLine
 10
69.378902
 20
81.404744
 30
0.0
 11
59.378902
 21
81.404744
 31
0.0
1001
ACAD
1000
RTLwPs
1070
   128
  0
LINE
  5
40AF
100
AcDbEntity
  8
ALPHA
  6
CONTINUOUS
100
AcDbLine
 10
69.378902
 20
77.404744
 30
0.0
 11
59.378902
 21
77.404744
 31
0.0
1001
ACAD
1000
RTLwPs
1070
   128
  0
LINE
  5
40B0
100
AcDbEntity
  8
ALPHA
  6
CONTINUOUS
100
AcDbLine
 10
69.378902
 20
77.404744
 30
0.0
 11
69.378902
 21
81.404744
 31
0.0
1001
ACAD
1000
RTLwPs
1070
   128
  0
LINE
  5
40B1
100
AcDbEntity
  8
ALPHA
  6
CONTINUOUS
100
AcDbLine
 10
69.378902
 20
44.404744
 30
0.0
 11
69.378902
 21
40.404744
 31
0.0
1001
ACAD
1000
RTLwPs
1070
   128
  0
LINE
  5
40B2
100
AcDbEntity
  8
ALPHA
  6
CONTINUOUS
100
AcDbLine
 10
69.378902
 20
40.404744
 30
0.0
 11
59.378902
 21
40.404744
 31
0.0
1001
ACAD
1000
RTLwPs
1070
   128
  0
LINE
  5
40B3
100
AcDbEntity
  8
ALPHA
  6
CONTINUOUS
100
AcDbLine
 10
69.378902
 20
44.404744
 30
0.0
 11
59.378902
 21
44.404744
 31
0.0
1001
ACAD
1000
RTLwPs
1070
   128
  0
ENDSEC
  0
SECTION
  2
OBJECTS
  0
DICTIONARY
  5
19
102
{ACAD_XDICTIONARY
360
4120
102
}
100
AcDbDictionary
  3
ACAD_COLOR
350
6DB
  3
ACAD_GROUP
350
1A
  3
ACAD_LAYOUT
350
1E
  3
ACAD_MATERIAL
350
6DA
  3
ACAD_MLINESTYLE
350
1B
  3
ACAD_PLOTSETTINGS
350
22
  3
ACAD_PLOTSTYLENAME
350
1F
  3
ACAD_TABLESTYLE
350
6DC
  3
ACAD_WIPEOUT_VARS
350
23
  3
ACDBHEADERROUNDTRIPXREC
350
40FC
  3
ACDBVARIABLEDICTIONARY
350
7DA
  3
ASE_INDEX_DICTIONARY
350
3571
  0
DICTIONARY
  5
40EE
100
AcDbDictionary
  3
ACAD_XREC_ROUNDTRIP
360
40EF
  0
DICTIONARY
  5
40F0
100
AcDbDictionary
  3
ACAD_XREC_ROUNDTRIP
360
40F1
  0
DICTIONARY
  5
40F2
100
AcDbDictionary
  3
ACAD_XREC_ROUNDTRIP
360
40F3
  0
DICTIONARY
  5
26F0
100
AcDbDictionary
  3
ACAD_LAYERFILTERS
360
26F2
  3
ACAD_LAYERSTATES
360
3474
  3
ACLYDICTIONARY
360
26F1
  0
DICTIONARY
  5
40EC
100
AcDbDictionary
  3
ACAD_XREC_ROUNDTRIP
360
40ED
  0
DICTIONARY
  5
40F8
100
AcDbDictionary
  3
ACAD_XREC_ROUNDTRIP
360
40F9
  0
DICTIONARY
  5
40F4
100
AcDbDictionary
  3
ACAD_XREC_ROUNDTRIP
360
40F5
  0
DICTIONARY
  5
40F6
100
AcDbDictionary
  3
ACAD_XREC_ROUNDTRIP
360
40F7
  0
DICTIONARY
  5
40EA
100
AcDbDictionary
  3
ACAD_XREC_ROUNDTRIP
360
40EB
  0
DICTIONARY
  5
4128
100
AcDbDictionary
  3
ACAD_XREC_ROUNDTRIP
360
4129
  0
DICTIONARY
  5
7D7
100
AcDbDictionary
  3
ACAD_LAYOUTSELFREF
360
411D
  3
ACAD_SORTENTS
360
7D8
  0
DICTIONARY
  5
411E
100
AcDbDictionary
  3
ACAD_LAYOUTSELFREF
360
411F
  0
DICTIONARY
  5
4120
100
AcDbDictionary
  3
ACAD_XREC_ROUNDTRIP
360
4121
  0
DICTIONARY
  5
6DB
102
{ACAD_REACTORS
330
19
102
}
100
AcDbDictionary
  0
DICTIONARY
  5
1A
102
{ACAD_REACTORS
330
19
102
}
100
AcDbDictionary
  0
DICTIONARY
  5
1E
102
{ACAD_XDICTIONARY
360
4124
102
}
102
{ACAD_REACTORS
330
19
102
}
100
AcDbDictionary
  3
LAYOUT1
350
21
  3
MODEL
350
20
  0
DICTIONARY
  5
6DA
102
{ACAD_REACTORS
330
19
102
}
100
AcDbDictionary
  0
DICTIONARY
  5
1B
102
{ACAD_XDICTIONARY
360
4122
102
}
102
{ACAD_REACTORS
330
19
102
}
100
AcDbDictionary
  3
STANDARD
350
1C
  0
DICTIONARY
  5
22
102
{ACAD_REACTORS
330
19
102
}
100
AcDbDictionary
  0
ACAD_ZOMBIE_OBJECT
  5
1F
102
{ACAD_REACTORS
330
19
102
}
100
AcDbZombieObject
 90
      499
 91
      517
 93
       86
310
405010041939BDC9B585B3
350
1D
340
1D
 94
        0
  0
DICTIONARY
  5
6DC
102
{ACAD_XDICTIONARY
360
4126
102
}
102
{ACAD_REACTORS
330
19
102
}
100
AcDbDictionary
  3
STANDARD
350
6DD
  0
ACAD_ZOMBIE_OBJECT
  5
23
102
{ACAD_REACTORS
330
19
102
}
100
AcDbZombieObject
 90
      499
 91
      521
 93
       10
310
4072
 94
        0
  0
DICTIONARY
  5
40FC
102
{ACAD_REACTORS
330
19
102
}
100
AcDbDictionary
  3
CEPSNTYPE
350
4106
  3
DIMSTYLEDATA
350
410A
  3
FINGERPRINTGUID
350
4107
  3
HYPERLINKBASE
350
40FF
  3
INSUNITS
350
4105
  3
LAYOUTDICT
350
4101
  3
LWETCUNION
350
4104
  3
PLOTSETDICT
350
4102
  3
PLOTSTYLNAMDICT
350
4103
  3
PSVPSCALE
350
4109
  3
PUCSBASE
350
410D
  3
PUCSORGBACK
350
4113
  3
PUCSORGBOTTOM
350
410F
  3
PUCSORGFRONT
350
4112
  3
PUCSORGLEFT
350
4110
  3
PUCSORGRIGHT
350
4111
  3
PUCSORGTOP
350
410E
  3
PUCSORTHOREF
350
410B
  3
PUCSORTHOVIEW
350
410C
  3
STYLESHEET
350
4100
  3
TSTACKALIGN
350
40FD
  3
TSTACKSIZE
350
40FE
  3
UCSBASE
350
4116
  3
UCSORGBACK
350
411C
  3
UCSORGBOTTOM
350
4118
  3
UCSORGFRONT
350
411B
  3
UCSORGLEFT
350
4119
  3
UCSORGRIGHT
350
411A
  3
UCSORGTOP
350
4117
  3
UCSORTHOREF
350
4114
  3
UCSORTHOVIEW
350
4115
  3
VERSIONGUID
350
4108
  0
DICTIONARY
  5
7DA
102
{ACAD_REACTORS
330
19
102
}
100
AcDbDictionary
  3
CTABLESTYLE
350
7DB
  3
DIMASSOC
350
1A71
  3
PROJECTNAME
350
1A72
  0
DICTIONARY
  5
3571
102
{ACAD_XDICTIONARY
360
412A
102
}
102
{ACAD_REACTORS
330
19
102
}
100
AcDbDictionary
  3
ASEBLOCKHIERARCHYINDEXRECORD
350
3572
1001
DCO15
1040
1558939622.437
  0
XRECORD
  5
40EF
102
{ACAD_REACTORS
330
40EE
102
}
100
AcDbXrecord
102
EXTNAMES
  1
BYBLOCK
  2
ByBlock
  0
XRECORD
  5
40F1
102
{ACAD_REACTORS
330
40F0
102
}
100
AcDbXrecord
102
EXTNAMES
  1
BYLAYER
  2
ByLayer
  0
XRECORD
  5
40F3
102
{ACAD_REACTORS
330
40F2
102
}
100
AcDbXrecord
102
EXTNAMES
  1
CONTINUOUS
  2
Continuous
  0
DICTIONARY
  5
26F2
102
{ACAD_REACTORS
330
26F0
102
}
100
AcDbDictionary
  0
DICTIONARY
  5
3474
102
{ACAD_REACTORS
330
26F0
102
}
100
AcDbDictionary
  0
DICTIONARY
  5
26F1
102
{ACAD_REACTORS
330
26F0
102
}
100
AcDbDictionary
1001
ACAD
1000
<All
  0
XRECORD
  5
40ED
102
{ACAD_REACTORS
330
40EC
102
}
100
AcDbXrecord
102
EXTNAMES
  1
DEFPOINTS
  2
Defpoints
102
PLOTBIT
280
     0
  0
XRECORD
  5
40F9
102
{ACAD_REACTORS
330
40F8
102
}
100
AcDbXrecord
102
EXTNAMES
  1
STANDARD
  2
Standard
  0
XRECORD
  5
40F5
102
{ACAD_REACTORS
330
40F4
102
}
100
AcDbXrecord
102
EXTNAMES
  1
ACAECLAYERSTANDARD
  2
AcAecLayerStandard
  0
XRECORD
  5
40F7
102
{ACAD_REACTORS
330
40F6
102
}
100
AcDbXrecord
102
EXTNAMES
  1
ACAD_EXEMPT_FROM_CAD_STAND
  2
ACAD_EXEMPT_FROM_CAD_STANDARDS
  0
XRECORD
  5
40EB
102
{ACAD_REACTORS
330
40EA
102
}
100
AcDbXrecord
102
EXTNAMES
  1
STANDARD
  2
Standard
  0
XRECORD
  5
4129
102
{ACAD_REACTORS
330
4128
102
}
100
AcDbXrecord
102
ACADR14ROUNDTRIP
1000
DSTYLE
1002
{
1070
   279
 70
     2
1070
   341
340
6FA
1070
   342
340
6FA
1002
}
  0
XRECORD
  5
411D
102
{ACAD_REACTORS
330
7D7
102
}
100
AcDbXrecord
340
A
  0
SORTENTSTABLE
  5
7D8
102
{ACAD_REACTORS
330
7D7
102
}
100
AcDbSortentsTable
330
A
331
3FAD
  5
3FAD
331
3FB0
  5
3FB0
331
3F92
  5
3F92
331
3FB3
  5
3FB3
331
3FB9
  5
3FBB
331
3FBC
  5
3FC0
331
3F9E
  5
3F9E
331
3FA1
  5
3FA1
331
3FA7
  5
3FA7
331
406C
  5
406E
331
3FC2
  5
401C
331
3F9B
  5
3F9B
331
40AF
  5
4072
331
4072
  5
40B0
331
3FAA
  5
3FAA
331
3FAC
  5
3FAC
331
3FAF
  5
3FAF
331
3F91
  5
3F91
331
3FB2
  5
3FB2
331
3FB5
  5
3FB5
331
3FB8
  5
3FBA
331
3F9A
  5
3F9A
331
3F9D
  5
3F9D
331
3FA0
  5
3FA0
331
406E
  5
3FB6
331
3FC1
  5
3FC3
331
3FBB
  5
3FBD
331
40AE
  5
4070
331
3F94
  5
3F94
331
3FA9
  5
3FA9
331
3FA8
  5
3FA8
331
3FB1
  5
3FB1
331
3FB4
  5
3FB4
331
3F96
  5
3F96
331
40B0
  5
3FB8
331
3F99
  5
3F99
331
3FBA
  5
3FBC
331
3FBD
  5
3FC1
331
3F9F
  5
3F9F
331
3FC0
  5
3FC2
331
406D
  5
40AE
331
3FC3
  5
406C
331
401C
  5
406D
331
3F9C
  5
3F9C
331
3FB7
  5
3FB9
331
3F93
  5
3F93
331
3FAB
  5
3FAB
331
4070
  5
40AF
  0
XRECORD
  5
411F
102
{ACAD_REACTORS
330
411E
102
}
100
AcDbXrecord
340
B
  0
XRECORD
  5
4121
102
{ACAD_REACTORS
330
4120
102
}
100
AcDbXrecord
102
EXTNAMES
  1
ACDBVARIABLEDICTIONARY
  2
AcDbVariableDictionary
  0
DICTIONARY
  5
4124
100
AcDbDictionary
  3
ACAD_XREC_ROUNDTRIP
360
4125
  0
ACAD_ZOMBIE_OBJECT
  5
21
102
{ACAD_XDICTIONARY
360
40E3
102
}
102
{ACAD_REACTORS
330
1E
102
}
100
AcDbZombieObject
 90
      499
 91
      515
 93
      812
310
AAAAAAAAAA5A69074C61796F757431406A800000000000000000000000000000000000000000000A1000000000000008902A6A6A10232D5E076BC5510408CB5781DAF154410232D5E076BC5510408CB5781DAF15C410232D5E076BC5710408CB5781DAF15C40
330
B
330
0
340
0
340
0
 94
        0
  0
ACAD_ZOMBIE_OBJECT
  5
20
102
{ACAD_XDICTIONARY
360
40E1
102
}
102
{ACAD_REACTORS
330
1E
102
}
100
AcDbZombieObject
 90
      499
 91
      515
 93
      420
310
A00012AAAAAAAA5A69054D6F64656CAA80000000000000000000000000000000000000000000000000000000000000002AAAAAAAA3
330
A
330
0
340
0
340
0
 94
        0
  0
DICTIONARY
  5
4122
100
AcDbDictionary
  3
ACAD_XREC_ROUNDTRIP
360
4123
  0
MLINESTYLE
  5
1C
102
{ACAD_REACTORS
330
1B
102
}
100
AcDbMlineStyle
  2
STANDARD
 70
     0
  3

 62
     0
 51
90.0
 52
90.0
 71
     2
 49
0.5
 62
   256
  6
BYLAYER
 49
-0.5
 62
   256
  6
BYLAYER
  0
ACAD_ZOMBIE_OBJECT
  5
1D
102
{ACAD_REACTORS
330
1F
102
}
100
AcDbZombieObject
 90
      499
 91
      518
 93
        0
 94
        0
  0
DICTIONARY
  5
4126
100
AcDbDictionary
  3
ACAD_XREC_ROUNDTRIP
360
4127
  0
ACAD_ZOMBIE_OBJECT
  5
6DD
102
{ACAD_REACTORS
330
6DC
102
}
100
AcDbZombieObject
 90
      499
 91
      525
 93
     1841
310
4214DD185B99185C9928000000000000F83F0000000000003E0FC00000000000004901028000000C1008070000C3001FDFF8000000C1003FBFF000000182007F7FE00000030400FEFFC00000060801FDFF8000000C1003FBFF000000182000000000000000C2020B0000001820100E000186003FBFF000000182007F7FE000
310
00030400FEFFC00000060801FDFF8000000C1003FBFF000000182007F7FE0000003040000000000000012404160000003040201C00030C007F7FE00000030400FEFFC00000060801FDFF8000000C1003FBFF000000182007F7FE00000030400FEFFC000000608000
340
17
340
17
340
17
 94
        0
1001
ACAD
1000
AcadProxyRoundTripData
1071
      524
1071
   393239
1070
     0
  0
XRECORD
  5
4106
102
{ACAD_REACTORS
330
40FC
102
}
100
AcDbXrecord
 90
        0
  0
XRECORD
  5
410A
102
{ACAD_REACTORS
330
40FC
102
}
100
AcDbXrecord
1000
DSTYLE
1002
{
1070
   278
 70
     0
1070
   371
 70
     0
1070
   372
 70
     0
1002
}
  0
XRECORD
  5
4107
102
{ACAD_REACTORS
330
40FC
102
}
100
AcDbXrecord
  1

  0
XRECORD
  5
40FF
102
{ACAD_REACTORS
330
40FC
102
}
100
AcDbXrecord
  1

  0
XRECORD
  5
4105
102
{ACAD_REACTORS
330
40FC
102
}
100
AcDbXrecord
 90
        0
  0
XRECORD
  5
4101
102
{ACAD_REACTORS
330
40FC
102
}
100
AcDbXrecord
340
1E
  0
XRECORD
  5
4104
102
{ACAD_REACTORS
330
40FC
102
}
100
AcDbXrecord
 90
    10752
  0
XRECORD
  5
4102
102
{ACAD_REACTORS
330
40FC
102
}
100
AcDbXrecord
340
22
  0
XRECORD
  5
4103
102
{ACAD_REACTORS
330
40FC
102
}
100
AcDbXrecord
340
1F
  0
XRECORD
  5
4109
102
{ACAD_REACTORS
330
40FC
102
}
100
AcDbXrecord
 40
0.0
  0
XRECORD
  5
410D
102
{ACAD_REACTORS
330
40FC
102
}
100
AcDbXrecord
340
0
  0
XRECORD
  5
4113
102
{ACAD_REACTORS
330
40FC
102
}
100
AcDbXrecord
 10
0.0
 20
0.0
 30
0.0
  0
XRECORD
  5
410F
102
{ACAD_REACTORS
330
40FC
102
}
100
AcDbXrecord
 10
0.0
 20
0.0
 30
0.0
  0
XRECORD
  5
4112
102
{ACAD_REACTORS
330
40FC
102
}
100
AcDbXrecord
 10
0.0
 20
0.0
 30
0.0
  0
XRECORD
  5
4110
102
{ACAD_REACTORS
330
40FC
102
}
100
AcDbXrecord
 10
0.0
 20
0.0
 30
0.0
  0
XRECORD
  5
4111
102
{ACAD_REACTORS
330
40FC
102
}
100
AcDbXrecord
 10
0.0
 20
0.0
 30
0.0
  0
XRECORD
  5
410E
102
{ACAD_REACTORS
330
40FC
102
}
100
AcDbXrecord
 10
0.0
 20
0.0
 30
0.0
  0
XRECORD
  5
410B
102
{ACAD_REACTORS
330
40FC
102
}
100
AcDbXrecord
340
0
  0
XRECORD
  5
410C
102
{ACAD_REACTORS
330
40FC
102
}
100
AcDbXrecord
 70
     0
  0
XRECORD
  5
4100
102
{ACAD_REACTORS
330
40FC
102
}
100
AcDbXrecord
  1

  0
XRECORD
  5
40FD
102
{ACAD_REACTORS
330
40FC
102
}
100
AcDbXrecord
 90
        1
  0
XRECORD
  5
40FE
102
{ACAD_REACTORS
330
40FC
102
}
100
AcDbXrecord
 90
       70
  0
XRECORD
  5
4116
102
{ACAD_REACTORS
330
40FC
102
}
100
AcDbXrecord
340
0
  0
XRECORD
  5
411C
102
{ACAD_REACTORS
330
40FC
102
}
100
AcDbXrecord
 10
0.0
 20
0.0
 30
0.0
  0
XRECORD
  5
4118
102
{ACAD_REACTORS
330
40FC
102
}
100
AcDbXrecord
 10
0.0
 20
0.0
 30
0.0
  0
XRECORD
  5
411B
102
{ACAD_REACTORS
330
40FC
102
}
100
AcDbXrecord
 10
0.0
 20
0.0
 30
0.0
  0
XRECORD
  5
4119
102
{ACAD_REACTORS
330
40FC
102
}
100
AcDbXrecord
 10
0.0
 20
0.0
 30
0.0
  0
XRECORD
  5
411A
102
{ACAD_REACTORS
330
40FC
102
}
100
AcDbXrecord
 10
0.0
 20
0.0
 30
0.0
  0
XRECORD
  5
4117
102
{ACAD_REACTORS
330
40FC
102
}
100
AcDbXrecord
 10
0.0
 20
0.0
 30
0.0
  0
XRECORD
  5
4114
102
{ACAD_REACTORS
330
40FC
102
}
100
AcDbXrecord
340
0
  0
XRECORD
  5
4115
102
{ACAD_REACTORS
330
40FC
102
}
100
AcDbXrecord
 70
     0
  0
XRECORD
  5
4108
102
{ACAD_REACTORS
330
40FC
102
}
100
AcDbXrecord
  1
{AEF7BA56-7675-4488-A44A-C73808A9E452}
  0
DICTIONARYVAR
  5
7DB
102
{ACAD_REACTORS
330
7DA
102
}
100
DictionaryVariables
280
     0
  1
STANDARD
  0
DICTIONARYVAR
  5
1A71
102
{ACAD_REACTORS
330
7DA
102
}
100
DictionaryVariables
280
     0
  1
1
  0
DICTIONARYVAR
  5
1A72
102
{ACAD_REACTORS
330
7DA
102
}
100
DictionaryVariables
280
     0
  1

  0
DICTIONARY
  5
412A
100
AcDbDictionary
  3
ACAD_XREC_ROUNDTRIP
360
412B
  0
XRECORD
  5
3572
102
{ACAD_REACTORS
330
3571
102
}
100
AcDbXrecord
330
0
330
0
330
0
330
0
330
0
330
0
330
0
330
0
330
0
330
0
330
0
330
0
330
0
330
0
330
0
330
0
330
0
330
0
330
0
330
0
330
0
330
0
330
0
330
0
330
0
330
0
330
0
330
0
330
0
330
0
330
0
  0
XRECORD
  5
4125
102
{ACAD_REACTORS
330
4124
102
}
100
AcDbXrecord
102
EXTNAMES
  1
LAYOUT1
  2
Layout1
  1
MODEL
  2
Model
  0
DICTIONARY
  5
40E3
100
AcDbDictionary
  3
ACAD_XREC_ROUNDTRIP
360
40E4
  0
DICTIONARY
  5
40E1
100
AcDbDictionary
  3
ACAD_XREC_ROUNDTRIP
360
40E2
  0
XRECORD
  5
4123
102
{ACAD_REACTORS
330
4122
102
}
100
AcDbXrecord
102
EXTNAMES
  1
STANDARD
  2
Standard
  0
XRECORD
  5
4127
102
{ACAD_REACTORS
330
4126
102
}
100
AcDbXrecord
102
EXTNAMES
  1
STANDARD
  2
Standard
  0
XRECORD
  5
412B
102
{ACAD_REACTORS
330
412A
102
}
100
AcDbXrecord
102
EXTNAMES
  1
ASEBLOCKHIERARCHYINDEXRECORD
  2
ASEBlockHierarchyIndexRecord
  0
XRECORD
  5
40E4
102
{ACAD_REACTORS
330
40E3
102
}
100
AcDbXrecord
102
SHADEPLOT
 70
     0
102
SHADEPLOTRESLEVEL
 70
     2
102
SHADEPLOTCUSTOMDPI
 70
   300
  0
XRECORD
  5
40E2
102
{ACAD_REACTORS
330
40E1
102
}
100
AcDbXrecord
102
SHADEPLOT
 70
     0
102
SHADEPLOTRESLEVEL
 70
     2
102
SHADEPLOTCUSTOMDPI
 70
   300
  0
ENDSEC
  0
EOF
