  0
SECTION
  2
HEADER
  9
$ACADVER
  1
AC1014
  9
$ACADMAINTVER
 70
     0
  9
$DWGCODEPAGE
  3
ANSI_1252
  9
$INSBASE
 10
93.894301
 20
236.06014
 30
0.0
  9
$EXTMIN
 10
-17.469024
 20
-11.262411
 30
0.0
  9
$EXTMAX
 10
352.312924
 20
471.762806
 30
0.0
  9
$LIMMIN
 10
0.0
 20
0.0
  9
$LIMMAX
 10
210.0
 20
297.0
  9
$ORTHOMODE
 70
     0
  9
$REGENMODE
 70
     1
  9
$FILLMODE
 70
     1
  9
$QTEXTMODE
 70
     0
  9
$MIRRTEXT
 70
     0
  9
$DRAGMODE
 70
     1
  9
$LTSCALE
 40
7.0
  9
$OSMODE
 70
  4095
  9
$ATTMODE
 70
     1
  9
$TEXTSIZE
 40
2.5
  9
$TRACEWID
 40
0.05
  9
$TEXTSTYLE
  7
STANDARD
  9
$CLAYER
  8
COTATION1
  9
$CELTYPE
  6
BYLAYER
  9
$CECOLOR
 62
   256
  9
$CELTSCALE
 40
1.0
  9
$DELOBJ
 70
     1
  9
$DISPSILH
 70
     0
  9
$DIMSCALE
 40
1.0
  9
$DIMASZ
 40
3.0
  9
$DIMEXO
 40
0.0625
  9
$DIMDLI
 40
0.38
  9
$DIMRND
 40
0.01
  9
$DIMDLE
 40
0.0
  9
$DIMEXE
 40
0.18
  9
$DIMTP
 40
0.0
  9
$DIMTM
 40
0.0
  9
$DIMTXT
 40
2.5
  9
$DIMCEN
 40
0.09
  9
$DIMTSZ
 40
0.0
  9
$DIMTOL
 70
     0
  9
$DIMLIM
 70
     0
  9
$DIMTIH
 70
     0
  9
$DIMTOH
 70
     0
  9
$DIMSE1
 70
     0
  9
$DIMSE2
 70
     0
  9
$DIMTAD
 70
     1
  9
$DIMZIN
 70
    12
  9
$DIMBLK
  1

  9
$DIMASO
 70
     1
  9
$DIMSHO
 70
     0
  9
$DIMPOST
  1

  9
$DIMAPOST
  1

  9
$DIMALT
 70
     0
  9
$DIMALTD
 70
     2
  9
$DIMALTF
 40
25.4
  9
$DIMLFAC
 40
1.0
  9
$DIMTOFL
 70
     1
  9
$DIMTVP
 40
0.0
  9
$DIMTIX
 70
     0
  9
$DIMSOXD
 70
     0
  9
$DIMSAH
 70
     0
  9
$DIMBLK1
  1

  9
$DIMBLK2
  1

  9
$DIMSTYLE
  2
SC_STAND
  9
$DIMCLRD
 70
     0
  9
$DIMCLRE
 70
     0
  9
$DIMCLRT
 70
     0
  9
$DIMTFAC
 40
1.0
  9
$DIMGAP
 40
1.0
  9
$DIMJUST
 70
     0
  9
$DIMSD1
 70
     0
  9
$DIMSD2
 70
     0
  9
$DIMTOLJ
 70
     1
  9
$DIMTZIN
 70
    12
  9
$DIMALTZ
 70
    12
  9
$DIMALTTZ
 70
    12
  9
$DIMFIT
 70
     5
  9
$DIMUPT
 70
     0
  9
$DIMUNIT
 70
     2
  9
$DIMDEC
 70
     3
  9
$DIMTDEC
 70
     3
  9
$DIMALTU
 70
     2
  9
$DIMALTTD
 70
     2
  9
$DIMTXSTY
  7
STANDARD
  9
$DIMAUNIT
 70
     0
  9
$LUNITS
 70
     2
  9
$LUPREC
 70
     3
  9
$SKETCHINC
 40
0.1
  9
$FILLETRAD
 40
0.0625
  9
$AUNITS
 70
     0
  9
$AUPREC
 70
     0
  9
$MENU
  1
ACAD
  9
$ELEVATION
 40
0.0
  9
$PELEVATION
 40
0.0
  9
$THICKNESS
 40
0.0
  9
$LIMCHECK
 70
     0
  9
$BLIPMODE
 70
     1
  9
$CHAMFERA
 40
0.0
  9
$CHAMFERB
 40
0.0
  9
$CHAMFERC
 40
0.0
  9
$CHAMFERD
 40
0.0
  9
$SKPOLY
 70
     0
  9
$TDCREATE
 40
2450953.590960648
  9
$TDUPDATE
 40
2453840.629278970
  9
$TDINDWG
 40
0.0166723727
  9
$TDUSRTIMER
 40
0.0166723727
  9
$USRTIMER
 70
     1
  9
$ANGBASE
 50
0.0
  9
$ANGDIR
 70
     0
  9
$PDMODE
 70
     0
  9
$PDSIZE
 40
0.0
  9
$PLINEWID
 40
0.0
  9
$COORDS
 70
     0
  9
$SPLFRAME
 70
     0
  9
$SPLINETYPE
 70
     6
  9
$SPLINESEGS
 70
     8
  9
$ATTDIA
 70
     0
  9
$ATTREQ
 70
     1
  9
$HANDLING
 70
     1
  9
$HANDSEED
  5
1A15
  9
$SURFTAB1
 70
     6
  9
$SURFTAB2
 70
     6
  9
$SURFTYPE
 70
     6
  9
$SURFU
 70
     6
  9
$SURFV
 70
     6
  9
$UCSNAME
  2

  9
$UCSORG
 10
0.0
 20
0.0
 30
0.0
  9
$UCSXDIR
 10
1.0
 20
0.0
 30
0.0
  9
$UCSYDIR
 10
0.0
 20
1.0
 30
0.0
  9
$PUCSNAME
  2

  9
$PUCSORG
 10
0.0
 20
0.0
 30
0.0
  9
$PUCSXDIR
 10
1.0
 20
0.0
 30
0.0
  9
$PUCSYDIR
 10
0.0
 20
1.0
 30
0.0
  9
$USERI1
 70
     0
  9
$USERI2
 70
     0
  9
$USERI3
 70
     0
  9
$USERI4
 70
     0
  9
$USERI5
 70
     0
  9
$USERR1
 40
0.0
  9
$USERR2
 40
0.0
  9
$USERR3
 40
0.0
  9
$USERR4
 40
0.0
  9
$USERR5
 40
0.0
  9
$WORLDVIEW
 70
     1
  9
$SHADEDGE
 70
     3
  9
$SHADEDIF
 70
    70
  9
$TILEMODE
 70
     1
  9
$MAXACTVP
 70
    32
  9
$PINSBASE
 10
0.0
 20
0.0
 30
0.0
  9
$PLIMCHECK
 70
     0
  9
$PEXTMIN
 10
-3.174999
 20
-3.175
 30
0.0
  9
$PEXTMAX
 10
203.812116
 20
370.276807
 30
0.0
  9
$PLIMMIN
 10
-3.175
 20
-3.175
  9
$PLIMMAX
 10
203.812115
 20
370.276807
  9
$UNITMODE
 70
     0
  9
$VISRETAIN
 70
     0
  9
$PLINEGEN
 70
     0
  9
$PSLTSCALE
 70
     1
  9
$TREEDEPTH
 70
  3020
  9
$PICKSTYLE
 70
     1
  9
$CMLSTYLE
  2
STANDARD
  9
$CMLJUST
 70
     0
  9
$CMLSCALE
 40
1.0
  9
$PROXYGRAPHICS
 70
     1
  9
$MEASUREMENT
 70
     0
  0
ENDSEC
  0
SECTION
  2
CLASSES
  0
CLASS
  1
DICTIONARYVAR
  2
AcDbDictionaryVar
  3
"AutoCAD"
 90
        0
280
     0
281
     0
  0
CLASS
  1
HATCH
  2
AcDbHatch
  3
"ACAD_SEDONA"
 90
        0
280
     0
281
     1
  0
ENDSEC
  0
SECTION
  2
TABLES
  0
TABLE
  2
VPORT
  5
F4
100
AcDbSymbolTable
 70
     2
  0
VPORT
  5
1A14
100
AcDbSymbolTableRecord
100
AcDbViewportTableRecord
  2
*ACTIVE
 70
     0
 10
0.0
 20
0.0
 11
1.0
 21
1.0
 12
167.420037
 22
230.249159
 13
0.0
 23
0.0
 14
1.0
 24
1.0
 15
10.0
 25
10.0
 16
0.0
 26
0.0
 36
1.0
 17
0.0
 27
0.0
 37
0.0
 40
486.846077
 41
1.643603
 42
50.0
 43
0.0
 44
0.0
 50
0.0
 51
0.0
 71
     0
 72
   100
 73
     1
 74
     1
 75
     0
 76
     1
 77
     0
 78
     0
  0
ENDTAB
  0
TABLE
  2
LTYPE
  5
F1
100
AcDbSymbolTable
 70
     5
  0
LTYPE
  5
FD
100
AcDbSymbolTableRecord
100
AcDbLinetypeTableRecord
  2
BYBLOCK
 70
     0
  3

 72
    65
 73
     0
 40
0.0
  0
LTYPE
  5
FE
100
AcDbSymbolTableRecord
100
AcDbLinetypeTableRecord
  2
BYLAYER
 70
     0
  3

 72
    65
 73
     0
 40
0.0
  0
LTYPE
  5
FF
100
AcDbSymbolTableRecord
100
AcDbLinetypeTableRecord
  2
CONTINUOUS
 70
     0
  3
Solid line
 72
    65
 73
     0
 40
0.0
  0
ENDTAB
  0
TABLE
  2
LAYER
  5
EE
100
AcDbSymbolTable
 70
     5
  0
LAYER
  5
FA
100
AcDbSymbolTableRecord
100
AcDbLayerTableRecord
  2
0
 70
     0
 62
     7
  6
CONTINUOUS
  0
LAYER
  5
12C
100
AcDbSymbolTableRecord
100
AcDbLayerTableRecord
  2
ALPHA
 70
     0
 62
   255
  6
CONTINUOUS
  0
LAYER
  5
12F
100
AcDbSymbolTableRecord
100
AcDbLayerTableRecord
  2
COTATION1
 70
     0
 62
     2
  6
CONTINUOUS
  0
LAYER
  5
13B
100
AcDbSymbolTableRecord
100
AcDbLayerTableRecord
  2
ASHADE
 70
     0
 62
     7
  6
CONTINUOUS
  0
LAYER
  5
13E
100
AcDbSymbolTableRecord
100
AcDbLayerTableRecord
  2
DEFPOINTS
 70
     0
 62
     7
  6
CONTINUOUS
  0
ENDTAB
  0
TABLE
  2
STYLE
  5
EF
100
AcDbSymbolTable
 70
     2
  0
STYLE
  5
FB
100
AcDbSymbolTableRecord
100
AcDbTextStyleTableRecord
  2
STANDARD
 70
     0
 40
0.0
 41
1.0
 50
0.0
 71
     0
 42
2.5
  3
txt
  4

  0
ENDTAB
  0
TABLE
  2
VIEW
  5
F2
100
AcDbSymbolTable
 70
     0
  0
ENDTAB
  0
TABLE
  2
UCS
  5
F3
100
AcDbSymbolTable
 70
     0
  0
ENDTAB
  0
TABLE
  2
APPID
  5
F5
100
AcDbSymbolTable
 70
     3
  0
APPID
  5
FC
100
AcDbSymbolTableRecord
100
AcDbRegAppTableRecord
  2
ACAD
 70
     0
  0
APPID
  5
127
100
AcDbSymbolTableRecord
100
AcDbRegAppTableRecord
  2
AVE_RENDER
 70
     0
  0
APPID
  5
128
100
AcDbSymbolTableRecord
100
AcDbRegAppTableRecord
  2
AVE_MATERIAL
 70
     0
  0
ENDTAB
  0
TABLE
  2
DIMSTYLE
  5
F6
100
AcDbSymbolTable
 70
     2
  0
DIMSTYLE
105
129
100
AcDbSymbolTableRecord
100
AcDbDimStyleTableRecord
  2
STANDARD
 70
     0
  3

  4

  5

  6

  7

 40
1.0
 41
0.18
 42
0.0625
 43
0.38
 44
0.18
 45
0.0
 46
0.0
 47
0.0
 48
0.0
140
0.18
141
0.09
142
0.0
143
25.4
144
1.0
145
0.0
146
1.0
147
0.09
 71
     0
 72
     0
 73
     1
 74
     1
 75
     0
 76
     0
 77
     0
 78
     0
170
     0
171
     2
172
     0
173
     0
174
     0
175
     0
176
     0
177
     0
178
     0
270
     2
271
     3
272
     3
273
     2
274
     2
340
FB
275
     0
280
     0
281
     0
282
     0
283
     1
284
    12
285
    12
286
    12
287
     5
288
     0
  0
DIMSTYLE
105
12A
102
{ACAD_REACTORS
330
1963
330
1970
330
197D
330
19B8
330
19DB
330
19E8
330
19F5
330
1A02
102
}
100
AcDbSymbolTableRecord
100
AcDbDimStyleTableRecord
  2
SC_STAND
 70
     0
  3

  4

  5

  6

  7

 40
1.0
 41
3.0
 42
0.0625
 43
0.38
 44
0.18
 45
0.01
 46
0.0
 47
0.0
 48
0.0
140
2.5
141
0.09
142
0.0
143
25.4
144
1.0
145
0.0
146
1.0
147
1.0
 71
     0
 72
     0
 73
     0
 74
     0
 75
     0
 76
     0
 77
     1
 78
    12
170
     0
171
     2
172
     1
173
     0
174
     0
175
     0
176
     0
177
     0
178
     0
270
     2
271
     3
272
     3
273
     2
274
     2
340
FB
275
     0
280
     0
281
     0
282
     0
283
     1
284
    12
285
    12
286
    12
287
     5
288
     0
  0
ENDTAB
  0
TABLE
  2
BLOCK_RECORD
  5
ED
100
AcDbSymbolTable
 70
    15
  0
BLOCK_RECORD
  5
103
100
AcDbSymbolTableRecord
100
AcDbBlockTableRecord
  2
*MODEL_SPACE
  0
BLOCK_RECORD
  5
100
100
AcDbSymbolTableRecord
100
AcDbBlockTableRecord
  2
*PAPER_SPACE
  0
BLOCK_RECORD
  5
108
100
AcDbSymbolTableRecord
100
AcDbBlockTableRecord
  2
AVE_RENDER
  0
BLOCK_RECORD
  5
109
100
AcDbSymbolTableRecord
100
AcDbBlockTableRecord
  2
AVE_GLOBAL
  0
BLOCK_RECORD
  5
10A
100
AcDbSymbolTableRecord
100
AcDbBlockTableRecord
  2
SCH_IS
  0
BLOCK_RECORD
  5
1957
100
AcDbSymbolTableRecord
100
AcDbBlockTableRecord
  2
*D7
  0
BLOCK_RECORD
  5
1964
100
AcDbSymbolTableRecord
100
AcDbBlockTableRecord
  2
*D8
  0
BLOCK_RECORD
  5
1971
100
AcDbSymbolTableRecord
100
AcDbBlockTableRecord
  2
*D9
  0
BLOCK_RECORD
  5
19AC
100
AcDbSymbolTableRecord
100
AcDbBlockTableRecord
  2
*D10
  0
BLOCK_RECORD
  5
19CF
100
AcDbSymbolTableRecord
100
AcDbBlockTableRecord
  2
*D11
  0
BLOCK_RECORD
  5
19DC
100
AcDbSymbolTableRecord
100
AcDbBlockTableRecord
  2
*D12
  0
BLOCK_RECORD
  5
19E9
100
AcDbSymbolTableRecord
100
AcDbBlockTableRecord
  2
*D13
  0
BLOCK_RECORD
  5
19F6
100
AcDbSymbolTableRecord
100
AcDbBlockTableRecord
  2
*D14
  0
ENDTAB
  0
ENDSEC
  0
SECTION
  2
BLOCKS
  0
BLOCK
  5
141
100
AcDbEntity
  8
0
100
AcDbBlockBegin
  2
*MODEL_SPACE
 70
     0
 10
0.0
 20
0.0
 30
0.0
  3
*MODEL_SPACE
  1

  0
ENDBLK
  5
142
100
AcDbEntity
  8
0
100
AcDbBlockEnd
  0
BLOCK
  5
13F
100
AcDbEntity
 67
     1
  8
0
100
AcDbBlockBegin
  2
*PAPER_SPACE
 70
     0
 10
0.0
 20
0.0
 30
0.0
  3
*PAPER_SPACE
  1

  0
ENDBLK
  5
140
100
AcDbEntity
 67
     1
  8
0
100
AcDbBlockEnd
  0
BLOCK
  5
8D
100
AcDbEntity
  8
0
100
AcDbBlockBegin
  2
AVE_RENDER
 70
     0
 10
0.0
 20
0.0
 30
0.0
  3
AVE_RENDER
  1
AVE_RENDER
  0
ENDBLK
  5
8E
100
AcDbEntity
  8
0
100
AcDbBlockEnd
  0
BLOCK
  5
90
100
AcDbEntity
  8
0
100
AcDbBlockBegin
  2
AVE_GLOBAL
 70
     0
 10
0.0
 20
0.0
 30
0.0
  3
AVE_GLOBAL
  1
AVE_GLOBAL
  0
ENDBLK
  5
91
100
AcDbEntity
  8
0
100
AcDbBlockEnd
  0
BLOCK
  5
C9
100
AcDbEntity
  8
0
100
AcDbBlockBegin
  2
SCH_IS
 70
     0
 10
0.0
 20
0.0
 30
0.0
  3
SCH_IS
  1

  0
INSERT
  5
C0
100
AcDbEntity
  8
ASHADE
 62
     1
100
AcDbBlockReference
  2
AVE_RENDER
 10
0.0
 20
0.0
 30
0.0
1001
AVE_RENDER
1002
{
1070
     6
1000
Pref
1070
    50
1070
    20
1070
     1
1070
     0
1000

1070
    10
1070
     1
1070
    30
1040
25.4
1070
     1
1040
0.3
1040
0.7
1040
0.0
1040
10.0
1010
-1.0
1020
-1.0
1030
-1.0
1040
0.3
1070
    49
1070
     0
1070
     0
1010
1.0
1020
1.0
1030
1.0
1040
45.0
1070
     1
1070
     0
1000
WCS
1040
0.0
1002
}
  0
INSERT
  5
C1
100
AcDbEntity
  8
ASHADE
 62
     3
100
AcDbBlockReference
  2
AVE_RENDER
 10
0.0
 20
0.0
 30
0.0
1001
AVE_RENDER
1002
{
1070
     0
1000
Full Opt
1070
     0
1070
     1
1070
     1
1070
     1
1070
     0
1070
     0
1070
     0
1070
     1
1070
     1
1040
0.0001
1040
0.0001
1002
}
  0
INSERT
  5
C2
100
AcDbEntity
  8
ASHADE
 62
     4
100
AcDbBlockReference
  2
AVE_RENDER
 10
0.0
 20
0.0
 30
0.0
1001
AVE_RENDER
1002
{
1070
     0
1000
Quick Opt
1070
     0
1070
     1
1070
     1
1070
     1
1070
     0
1070
     0
1070
     1
1002
}
  0
INSERT
  5
C3
100
AcDbEntity
  8
ASHADE
 62
     5
100
AcDbBlockReference
  2
AVE_RENDER
 10
0.0
 20
0.0
 30
0.0
1001
AVE_RENDER
1002
{
1070
     1
1000
Scanl Opt
1070
     2
1070
     0
1070
     2
1040
2.0
1040
4.0
1070
     0
1070
     1
1070
     0
1040
0.03
1002
}
  0
INSERT
  5
C4
100
AcDbEntity
  8
ASHADE
 62
     6
100
AcDbBlockReference
  2
AVE_RENDER
 10
0.0
 20
0.0
 30
0.0
1001
AVE_RENDER
1002
{
1070
     2
1000
Raytr Opt
1070
     2
1070
     0
1070
     2
1040
2.0
1040
4.0
1070
     0
1070
     1
1070
     1
1040
0.03
1070
     3
1040
0.03
1002
}
  0
INSERT
  5
C5
100
AcDbEntity
  8
ASHADE
 62
     7
100
AcDbBlockReference
  2
AVE_RENDER
 10
0.0
 20
0.0
 30
0.0
1001
AVE_RENDER
1002
{
1070
     0
1000
RFile Opt
1070
     5
1070
   640
1070
   480
1070
 10000
1070
     3
1070
    32
1070
    24
1070
     0
1070
     0
1070
     0
1070
     1
1070
     0
1070
     0
1070
     0
1002
}
  0
INSERT
  5
C6
100
AcDbEntity
  8
ASHADE
 62
     8
100
AcDbBlockReference
  2
AVE_RENDER
 10
0.0
 20
0.0
 30
0.0
1001
AVE_RENDER
1002
{
1070
     0
1000
Fog Opt
1070
     0
1070
     0
1040
0.0
1040
1.0
1040
0.0
1040
1.0
1010
0.5
1020
0.5
1030
0.5
1002
}
  0
INSERT
  5
C7
100
AcDbEntity
  8
ASHADE
 62
     9
100
AcDbBlockReference
  2
AVE_RENDER
 10
0.0
 20
0.0
 30
0.0
1001
AVE_RENDER
1002
{
1070
     0
1000
BG Opt
1070
     0
1070
     1
1010
0.0
1020
0.0
1030
0.0
1010
1.0
1020
0.0
1030
0.0
1010
0.0
1020
1.0
1030
0.0
1010
0.0
1020
0.0
1030
1.0
1040
0.5
1040
0.33
1040
0.0
1000

1070
     1
1000

1070
     1
1070
     1
1040
1.0
1040
1.0
1040
0.0
1040
0.0
1070
     0
1002
}
  0
INSERT
  5
C8
100
AcDbEntity
  8
ASHADE
 62
     1
100
AcDbBlockReference
  2
AVE_GLOBAL
 10
0.0
 20
0.0
 30
0.0
1001
AVE_MATERIAL
1002
{
1000
*GLOBAL*
1000
1
1000
Finition globale.
1002
{
1002
}
1002
{
1070
    63
1002
{
1002
{
1010
-1.0
1020
-1.0
1030
-1.0
1002
}
1040
0.1
1000

1040
0.0
1002
{
1002
}
1040
0.0
1002
{
1002
}
1040
0.0
1002
}
1002
{
1002
{
1010
-1.0
1020
-1.0
1030
-1.0
1002
}
1040
0.7
1000

1040
0.0
1002
{
1002
}
1040
0.0
1002
{
1002
}
1040
0.0
1002
}
1002
{
1002
{
1010
-1.0
1020
-1.0
1030
-1.0
1002
}
1040
0.2
1000

1040
0.0
1002
{
1002
}
1040
0.0
1002
{
1002
}
1040
0.0
1002
}
1002
{
1070
     0
1002
{
1070
     1
1002
{
1040
1.0
1040
1.0
1000

1040
0.0
1002
{
1002
}
1040
0.0
1002
{
1002
}
1040
0.0
1002
}
1002
}
1040
1.0
1040
0.0
1040
0.0
1002
}
1002
{
1040
1.0
1040
1.0
1000

1040
0.0
1002
{
1002
}
1040
0.0
1002
{
1002
}
1040
0.0
1002
}
1002
{
1040
0.5
1040
1.0
1000

1040
0.0
1002
{
1002
}
1040
0.0
1002
{
1002
}
1040
0.0
1002
}
1002
{
1070
     0
1040
0.0
1002
{
1002
}
1040
1.0
1002
{
1002
}
1040
0.0
1002
}
1002
{
1040
0.0
1002
{
1002
{
1010
0.0
1020
0.0
1030
0.0
1002
}
1040
1.0
1000

1040
0.0
1002
{
1002
}
1040
0.0
1002
{
1002
}
1040
0.0
1002
}
1002
}
1002
{
1002
{
1070
     1
1002
{
1040
0.0
1040
1.0
1000

1040
0.0
1002
{
1002
}
1040
0.0
1002
{
1002
}
1040
0.0
1002
}
1002
}
1040
0.0
1002
{
1002
}
1010
1.0
1020
0.0
1030
0.0
1010
0.0
1020
1.0
1030
0.0
1010
0.0
1020
0.0
1030
1.0
1070
     0
1002
}
1002
{
1002
{
1040
1.0
1040
1.0
1002
{
1070
     1
1002
{
1040
1.0
1040
1.0
1000

1040
0.0
1002
{
1002
}
1040
0.0
1002
{
1002
}
1040
0.0
1002
}
1002
}
1002
}
1070
     0
1040
0.0
1002
{
1002
}
1002
}
1002
{
1002
}
1002
}
1002
{
1071
        3
1070
     3
1070
     0
1002
{
1070
     2
1070
     0
1070
     0
1040
0.0
1002
}
1070
     0
1070
     2
1002
{
1002
}
1002
}
1002
{
1040
8030.0
1040
190.300003
1040
0.305
1040
228.0
1040
545.0
1040
14.0
1040
17.4
1040
0.456
1002
}
1002
}
  0
ENDBLK
  5
CA
100
AcDbEntity
  8
0
100
AcDbBlockEnd
  0
BLOCK
  5
199F
100
AcDbEntity
  8
0
100
AcDbBlockBegin
  2
*D7
 70
     1
 10
0.0
 20
0.0
 30
0.0
  3
*D7
  1

  0
LINE
  5
19A0
100
AcDbEntity
  8
0
  6
BYBLOCK
 62
     0
100
AcDbLine
 10
30.222902
 20
448.429628
 30
0.0
 11
-14.149024
 21
448.429628
 31
0.0
  0
LINE
  5
19A1
100
AcDbEntity
  8
0
  6
BYBLOCK
 62
     0
100
AcDbLine
 10
34.02996
 20
414.429637
 30
0.0
 11
-14.149024
 21
414.429637
 31
0.0
  0
LINE
  5
19A2
100
AcDbEntity
  8
0
  6
BYBLOCK
 62
     0
100
AcDbLine
 10
-13.969024
 20
445.429628
 30
0.0
 11
-13.969024
 21
417.429637
 31
0.0
  0
SOLID
  5
19A3
100
AcDbEntity
  8
0
  6
BYBLOCK
 62
     0
100
AcDbTrace
 10
-14.469024
 20
445.429628
 30
0.0
 11
-13.469024
 21
445.429628
 31
0.0
 12
-13.969024
 22
448.429628
 32
0.0
 13
-13.969024
 23
448.429628
 33
0.0
  0
SOLID
  5
19A4
100
AcDbEntity
  8
0
  6
BYBLOCK
 62
     0
100
AcDbTrace
 10
-14.469024
 20
417.429637
 30
0.0
 11
-13.469024
 21
417.429637
 31
0.0
 12
-13.969024
 22
414.429637
 32
0.0
 13
-13.969024
 23
414.429637
 33
0.0
  0
MTEXT
  5
19A5
100
AcDbEntity
  8
0
  6
BYBLOCK
 62
     0
100
AcDbMText
 10
-16.219024
 20
431.429633
 30
0.0
 40
2.5
 41
0.0
 71
     5
 72
     1
  1
\A1;=
 11
0.0
 21
1.0
 31
0.0
  0
POINT
  5
19A6
100
AcDbEntity
  8
DEFPOINTS
  6
BYBLOCK
 62
     0
100
AcDbPoint
 10
30.285402
 20
448.429628
 30
0.0
  0
POINT
  5
19A7
100
AcDbEntity
  8
DEFPOINTS
  6
BYBLOCK
 62
     0
100
AcDbPoint
 10
34.09246
 20
414.429637
 30
0.0
  0
POINT
  5
19A8
100
AcDbEntity
  8
DEFPOINTS
  6
BYBLOCK
 62
     0
100
AcDbPoint
 10
-13.969024
 20
414.429637
 30
0.0
  0
ENDBLK
  5
19A9
100
AcDbEntity
  8
0
100
AcDbBlockEnd
  0
BLOCK
  5
1989
100
AcDbEntity
  8
0
100
AcDbBlockBegin
  2
*D8
 70
     1
 10
0.0
 20
0.0
 30
0.0
  3
*D8
  1

  0
LINE
  5
198A
100
AcDbEntity
  8
0
  6
BYBLOCK
 62
     0
100
AcDbLine
 10
31.861955
 20
8.429612
 30
0.0
 11
-14.149024
 21
8.429612
 31
0.0
  0
LINE
  5
198B
100
AcDbEntity
  8
0
  6
BYBLOCK
 62
     0
100
AcDbLine
 10
34.02996
 20
42.429604
 30
0.0
 11
-14.149024
 21
42.429604
 31
0.0
  0
LINE
  5
198C
100
AcDbEntity
  8
0
  6
BYBLOCK
 62
     0
100
AcDbLine
 10
-13.969024
 20
11.429612
 30
0.0
 11
-13.969024
 21
39.429604
 31
0.0
  0
SOLID
  5
198D
100
AcDbEntity
  8
0
  6
BYBLOCK
 62
     0
100
AcDbTrace
 10
-14.469024
 20
11.429612
 30
0.0
 11
-13.469024
 21
11.429612
 31
0.0
 12
-13.969024
 22
8.429612
 32
0.0
 13
-13.969024
 23
8.429612
 33
0.0
  0
SOLID
  5
198E
100
AcDbEntity
  8
0
  6
BYBLOCK
 62
     0
100
AcDbTrace
 10
-14.469024
 20
39.429604
 30
0.0
 11
-13.469024
 21
39.429604
 31
0.0
 12
-13.969024
 22
42.429604
 32
0.0
 13
-13.969024
 23
42.429604
 33
0.0
  0
MTEXT
  5
198F
100
AcDbEntity
  8
0
  6
BYBLOCK
 62
     0
100
AcDbMText
 10
-16.219024
 20
25.429608
 30
0.0
 40
2.5
 41
0.0
 71
     5
 72
     1
  1
\A1;=
 11
0.0
 21
1.0
 31
0.0
  0
POINT
  5
1990
100
AcDbEntity
  8
DEFPOINTS
  6
BYBLOCK
 62
     0
100
AcDbPoint
 10
31.924455
 20
8.429612
 30
0.0
  0
POINT
  5
1991
100
AcDbEntity
  8
DEFPOINTS
  6
BYBLOCK
 62
     0
100
AcDbPoint
 10
34.09246
 20
42.429604
 30
0.0
  0
POINT
  5
1992
100
AcDbEntity
  8
DEFPOINTS
  6
BYBLOCK
 62
     0
100
AcDbPoint
 10
-13.969024
 20
42.429604
 30
0.0
  0
ENDBLK
  5
1993
100
AcDbEntity
  8
0
100
AcDbBlockEnd
  0
BLOCK
  5
197E
100
AcDbEntity
  8
0
100
AcDbBlockBegin
  2
*D9
 70
     1
 10
0.0
 20
0.0
 30
0.0
  3
*D9
  1

  0
LINE
  5
197F
100
AcDbEntity
  8
0
  6
BYBLOCK
 62
     0
100
AcDbLine
 10
0.029968
 20
42.429604
 30
0.0
 11
-14.149024
 21
42.429604
 31
0.0
  0
LINE
  5
1980
100
AcDbEntity
  8
0
  6
BYBLOCK
 62
     0
100
AcDbLine
 10
0.029968
 20
414.429637
 30
0.0
 11
-14.149024
 21
414.429637
 31
0.0
  0
LINE
  5
1981
100
AcDbEntity
  8
0
  6
BYBLOCK
 62
     0
100
AcDbLine
 10
-13.969024
 20
45.429604
 30
0.0
 11
-13.969024
 21
411.429637
 31
0.0
  0
SOLID
  5
1982
100
AcDbEntity
  8
0
  6
BYBLOCK
 62
     0
100
AcDbTrace
 10
-14.469024
 20
45.429604
 30
0.0
 11
-13.469024
 21
45.429604
 31
0.0
 12
-13.969024
 22
42.429604
 32
0.0
 13
-13.969024
 23
42.429604
 33
0.0
  0
SOLID
  5
1983
100
AcDbEntity
  8
0
  6
BYBLOCK
 62
     0
100
AcDbTrace
 10
-14.469024
 20
411.429637
 30
0.0
 11
-13.469024
 21
411.429637
 31
0.0
 12
-13.969024
 22
414.429637
 32
0.0
 13
-13.969024
 23
414.429637
 33
0.0
  0
MTEXT
  5
1984
100
AcDbEntity
  8
0
  6
BYBLOCK
 62
     0
100
AcDbMText
 10
-16.219024
 20
228.42962
 30
0.0
 40
2.5
 41
0.0
 71
     5
 72
     1
  1
\A1;372
 11
0.0
 21
1.0
 31
0.0
  0
POINT
  5
1985
100
AcDbEntity
  8
DEFPOINTS
  6
BYBLOCK
 62
     0
100
AcDbPoint
 10
0.092468
 20
42.429604
 30
0.0
  0
POINT
  5
1986
100
AcDbEntity
  8
DEFPOINTS
  6
BYBLOCK
 62
     0
100
AcDbPoint
 10
0.092468
 20
414.429637
 30
0.0
  0
POINT
  5
1987
100
AcDbEntity
  8
DEFPOINTS
  6
BYBLOCK
 62
     0
100
AcDbPoint
 10
-13.969024
 20
414.429637
 30
0.0
  0
ENDBLK
  5
1988
100
AcDbEntity
  8
0
100
AcDbBlockEnd
  0
BLOCK
  5
19C4
100
AcDbEntity
  8
0
100
AcDbBlockBegin
  2
*D10
 70
     1
 10
0.0
 20
0.0
 30
0.0
  3
*D10
  1

  0
LINE
  5
19C5
100
AcDbEntity
  8
0
  6
BYBLOCK
 62
     0
100
AcDbLine
 10
284.442726
 20
345.884094
 30
0.0
 11
284.442726
 21
467.633291
 31
0.0
  0
LINE
  5
19C6
100
AcDbEntity
  8
0
  6
BYBLOCK
 62
     0
100
AcDbLine
 10
148.242599
 20
440.981476
 30
0.0
 11
148.242599
 21
467.633291
 31
0.0
  0
LINE
  5
19C7
100
AcDbEntity
  8
0
  6
BYBLOCK
 62
     0
100
AcDbLine
 10
281.442726
 20
467.453291
 30
0.0
 11
151.242599
 21
467.453291
 31
0.0
  0
SOLID
  5
19C8
100
AcDbEntity
  8
0
  6
BYBLOCK
 62
     0
100
AcDbTrace
 10
281.442726
 20
467.953291
 30
0.0
 11
281.442726
 21
466.953291
 31
0.0
 12
284.442726
 22
467.453291
 32
0.0
 13
284.442726
 23
467.453291
 33
0.0
  0
SOLID
  5
19C9
100
AcDbEntity
  8
0
  6
BYBLOCK
 62
     0
100
AcDbTrace
 10
151.242599
 20
467.953291
 30
0.0
 11
151.242599
 21
466.953291
 31
0.0
 12
148.242599
 22
467.453291
 32
0.0
 13
148.242599
 23
467.453291
 33
0.0
  0
MTEXT
  5
19CA
100
AcDbEntity
  8
0
  6
BYBLOCK
 62
     0
100
AcDbMText
 10
216.342662
 20
469.703291
 30
0.0
 40
2.5
 41
0.0
 71
     5
 72
     1
  1
\A1;136.2
  0
POINT
  5
19CB
100
AcDbEntity
  8
DEFPOINTS
  6
BYBLOCK
 62
     0
100
AcDbPoint
 10
284.442726
 20
345.821594
 30
0.0
  0
POINT
  5
19CC
100
AcDbEntity
  8
DEFPOINTS
  6
BYBLOCK
 62
     0
100
AcDbPoint
 10
148.242599
 20
440.918976
 30
0.0
  0
POINT
  5
19CD
100
AcDbEntity
  8
DEFPOINTS
  6
BYBLOCK
 62
     0
100
AcDbPoint
 10
148.242599
 20
467.453291
 30
0.0
  0
ENDBLK
  5
19CE
100
AcDbEntity
  8
0
100
AcDbBlockEnd
  0
BLOCK
  5
19D0
100
AcDbEntity
  8
0
100
AcDbBlockBegin
  2
*D11
 70
     1
 10
0.0
 20
0.0
 30
0.0
  3
*D11
  1

  0
LINE
  5
19D1
100
AcDbEntity
  8
0
  6
BYBLOCK
 62
     0
100
AcDbLine
 10
248.305196
 20
455.929601
 30
0.0
 11
351.992924
 21
455.929601
 31
0.0
  0
LINE
  5
19D2
100
AcDbEntity
  8
0
  6
BYBLOCK
 62
     0
100
AcDbLine
 10
248.305196
 20
0.929639
 30
0.0
 11
351.992924
 21
0.929639
 31
0.0
  0
LINE
  5
19D3
100
AcDbEntity
  8
0
  6
BYBLOCK
 62
     0
100
AcDbLine
 10
351.812924
 20
452.929601
 30
0.0
 11
351.812924
 21
3.929639
 31
0.0
  0
SOLID
  5
19D4
100
AcDbEntity
  8
0
  6
BYBLOCK
 62
     0
100
AcDbTrace
 10
351.312924
 20
452.929601
 30
0.0
 11
352.312924
 21
452.929601
 31
0.0
 12
351.812924
 22
455.929601
 32
0.0
 13
351.812924
 23
455.929601
 33
0.0
  0
SOLID
  5
19D5
100
AcDbEntity
  8
0
  6
BYBLOCK
 62
     0
100
AcDbTrace
 10
351.312924
 20
3.929639
 30
0.0
 11
352.312924
 21
3.929639
 31
0.0
 12
351.812924
 22
0.929639
 32
0.0
 13
351.812924
 23
0.929639
 33
0.0
  0
MTEXT
  5
19D6
100
AcDbEntity
  8
0
  6
BYBLOCK
 62
     0
100
AcDbMText
 10
349.562924
 20
228.42962
 30
0.0
 40
2.5
 41
0.0
 71
     5
 72
     1
  1
\A1;455
 11
0.0
 21
1.0
 31
0.0
  0
POINT
  5
19D7
100
AcDbEntity
  8
DEFPOINTS
  6
BYBLOCK
 62
     0
100
AcDbPoint
 10
248.242696
 20
455.929601
 30
0.0
  0
POINT
  5
19D8
100
AcDbEntity
  8
DEFPOINTS
  6
BYBLOCK
 62
     0
100
AcDbPoint
 10
248.242696
 20
0.929639
 30
0.0
  0
POINT
  5
19D9
100
AcDbEntity
  8
DEFPOINTS
  6
BYBLOCK
 62
     0
100
AcDbPoint
 10
351.812924
 20
0.929639
 30
0.0
  0
ENDBLK
  5
19DA
100
AcDbEntity
  8
0
100
AcDbBlockEnd
  0
BLOCK
  5
19DD
100
AcDbEntity
  8
0
100
AcDbBlockBegin
  2
*D12
 70
     1
 10
0.0
 20
0.0
 30
0.0
  3
*D12
  1

  0
LINE
  5
19DE
100
AcDbEntity
  8
0
  6
BYBLOCK
 62
     0
100
AcDbLine
 10
330.092481
 20
30.833903
 30
0.0
 11
330.092481
 21
-10.942411
 31
0.0
  0
LINE
  5
19DF
100
AcDbEntity
  8
0
  6
BYBLOCK
 62
     0
100
AcDbLine
 10
0.092468
 20
30.833903
 30
0.0
 11
0.092468
 21
-10.942411
 31
0.0
  0
LINE
  5
19E0
100
AcDbEntity
  8
0
  6
BYBLOCK
 62
     0
100
AcDbLine
 10
327.092481
 20
-10.762411
 30
0.0
 11
3.092468
 21
-10.762411
 31
0.0
  0
SOLID
  5
19E1
100
AcDbEntity
  8
0
  6
BYBLOCK
 62
     0
100
AcDbTrace
 10
327.092481
 20
-10.262411
 30
0.0
 11
327.092481
 21
-11.262411
 31
0.0
 12
330.092481
 22
-10.762411
 32
0.0
 13
330.092481
 23
-10.762411
 33
0.0
  0
SOLID
  5
19E2
100
AcDbEntity
  8
0
  6
BYBLOCK
 62
     0
100
AcDbTrace
 10
3.092468
 20
-10.262411
 30
0.0
 11
3.092468
 21
-11.262411
 31
0.0
 12
0.092468
 22
-10.762411
 32
0.0
 13
0.092468
 23
-10.762411
 33
0.0
  0
MTEXT
  5
19E3
100
AcDbEntity
  8
0
  6
BYBLOCK
 62
     0
100
AcDbMText
 10
165.092474
 20
-8.512411
 30
0.0
 40
2.5
 41
0.0
 71
     5
 72
     1
  1
\A1;330
  0
POINT
  5
19E4
100
AcDbEntity
  8
DEFPOINTS
  6
BYBLOCK
 62
     0
100
AcDbPoint
 10
330.092481
 20
30.896403
 30
0.0
  0
POINT
  5
19E5
100
AcDbEntity
  8
DEFPOINTS
  6
BYBLOCK
 62
     0
100
AcDbPoint
 10
0.092468
 20
30.896403
 30
0.0
  0
POINT
  5
19E6
100
AcDbEntity
  8
DEFPOINTS
  6
BYBLOCK
 62
     0
100
AcDbPoint
 10
0.092468
 20
-10.762411
 30
0.0
  0
ENDBLK
  5
19E7
100
AcDbEntity
  8
0
100
AcDbBlockEnd
  0
BLOCK
  5
19EA
100
AcDbEntity
  8
0
100
AcDbBlockBegin
  2
*D13
 70
     1
 10
0.0
 20
0.0
 30
0.0
  3
*D13
  1

  0
LINE
  5
19EB
100
AcDbEntity
  8
0
  6
BYBLOCK
 62
     0
100
AcDbLine
 10
0.092468
 20
30.833903
 30
0.0
 11
0.092468
 21
-2.245919
 31
0.0
  0
LINE
  5
19EC
100
AcDbEntity
  8
0
  6
BYBLOCK
 62
     0
100
AcDbLine
 10
34.09246
 20
42.367104
 30
0.0
 11
34.09246
 21
-2.245919
 31
0.0
  0
LINE
  5
19ED
100
AcDbEntity
  8
0
  6
BYBLOCK
 62
     0
100
AcDbLine
 10
3.092468
 20
-2.065919
 30
0.0
 11
31.09246
 21
-2.065919
 31
0.0
  0
SOLID
  5
19EE
100
AcDbEntity
  8
0
  6
BYBLOCK
 62
     0
100
AcDbTrace
 10
3.092468
 20
-1.565919
 30
0.0
 11
3.092468
 21
-2.565919
 31
0.0
 12
0.092468
 22
-2.065919
 32
0.0
 13
0.092468
 23
-2.065919
 33
0.0
  0
SOLID
  5
19EF
100
AcDbEntity
  8
0
  6
BYBLOCK
 62
     0
100
AcDbTrace
 10
31.09246
 20
-1.565919
 30
0.0
 11
31.09246
 21
-2.565919
 31
0.0
 12
34.09246
 22
-2.065919
 32
0.0
 13
34.09246
 23
-2.065919
 33
0.0
  0
MTEXT
  5
19F0
100
AcDbEntity
  8
0
  6
BYBLOCK
 62
     0
100
AcDbMText
 10
17.092464
 20
0.184081
 30
0.0
 40
2.5
 41
0.0
 71
     5
 72
     1
  1
\A1;34
  0
POINT
  5
19F1
100
AcDbEntity
  8
DEFPOINTS
  6
BYBLOCK
 62
     0
100
AcDbPoint
 10
0.092468
 20
30.896403
 30
0.0
  0
POINT
  5
19F2
100
AcDbEntity
  8
DEFPOINTS
  6
BYBLOCK
 62
     0
100
AcDbPoint
 10
34.09246
 20
42.429604
 30
0.0
  0
POINT
  5
19F3
100
AcDbEntity
  8
DEFPOINTS
  6
BYBLOCK
 62
     0
100
AcDbPoint
 10
34.09246
 20
-2.065919
 30
0.0
  0
ENDBLK
  5
19F4
100
AcDbEntity
  8
0
100
AcDbBlockEnd
  0
BLOCK
  5
1A03
100
AcDbEntity
  8
0
100
AcDbBlockBegin
  2
*D14
 70
     1
 10
0.0
 20
0.0
 30
0.0
  3
*D14
  1

  0
LINE
  5
1A04
100
AcDbEntity
  8
0
  6
BYBLOCK
 62
     0
100
AcDbLine
 10
313.229925
 20
448.429628
 30
0.0
 11
344.105734
 21
448.429628
 31
0.0
  0
LINE
  5
1A05
100
AcDbEntity
  8
0
  6
BYBLOCK
 62
     0
100
AcDbLine
 10
313.229925
 20
8.429612
 30
0.0
 11
344.105734
 21
8.429612
 31
0.0
  0
LINE
  5
1A06
100
AcDbEntity
  8
0
  6
BYBLOCK
 62
     0
100
AcDbLine
 10
343.925734
 20
445.429628
 30
0.0
 11
343.925734
 21
11.429612
 31
0.0
  0
SOLID
  5
1A07
100
AcDbEntity
  8
0
  6
BYBLOCK
 62
     0
100
AcDbTrace
 10
343.425734
 20
445.429628
 30
0.0
 11
344.425734
 21
445.429628
 31
0.0
 12
343.925734
 22
448.429628
 32
0.0
 13
343.925734
 23
448.429628
 33
0.0
  0
SOLID
  5
1A08
100
AcDbEntity
  8
0
  6
BYBLOCK
 62
     0
100
AcDbTrace
 10
343.425734
 20
11.429612
 30
0.0
 11
344.425734
 21
11.429612
 31
0.0
 12
343.925734
 22
8.429612
 32
0.0
 13
343.925734
 23
8.429612
 33
0.0
  0
MTEXT
  5
1A09
100
AcDbEntity
  8
0
  6
BYBLOCK
 62
     0
100
AcDbMText
 10
341.675734
 20
228.42962
 30
0.0
 40
2.5
 41
0.0
 71
     5
 72
     1
  1
\A1;440
 11
0.0
 21
1.0
 31
0.0
  0
POINT
  5
1A0A
100
AcDbEntity
  8
DEFPOINTS
  6
BYBLOCK
 62
     0
100
AcDbPoint
 10
313.167425
 20
448.429628
 30
0.0
  0
POINT
  5
1A0B
100
AcDbEntity
  8
DEFPOINTS
  6
BYBLOCK
 62
     0
100
AcDbPoint
 10
313.167425
 20
8.429612
 30
0.0
  0
POINT
  5
1A0C
100
AcDbEntity
  8
DEFPOINTS
  6
BYBLOCK
 62
     0
100
AcDbPoint
 10
343.925734
 20
8.429612
 30
0.0
  0
ENDBLK
  5
1A0D
100
AcDbEntity
  8
0
100
AcDbBlockEnd
  0
ENDSEC
  0
SECTION
  2
ENTITIES
  0
INSERT
  5
CC
100
AcDbEntity
  8
0
100
AcDbBlockReference
  2
SCH_IS
 10
-68.718396
 20
-140.042541
 30
0.0
  0
INSERT
  5
EC
100
AcDbEntity
  8
COTATION1
100
AcDbBlockReference
  2
SCH_IS
 10
0.0
 20
0.0
 30
0.0
  0
POLYLINE
  5
1526
100
AcDbEntity
  8
ALPHA
100
AcDb2dPolyline
 66
     1
 10
0.0
 20
0.0
 30
0.0
  0
VERTEX
  5
1527
100
AcDbEntity
  8
ALPHA
100
AcDbVertex
100
AcDb2dVertex
 10
42.092316
 20
42.429604
 30
0.0
 42
1.0
  0
VERTEX
  5
1528
100
AcDbEntity
  8
ALPHA
100
AcDbVertex
100
AcDb2dVertex
 10
26.092604
 20
42.429604
 30
0.0
 42
1.0
  0
VERTEX
  5
1529
100
AcDbEntity
  8
ALPHA
100
AcDbVertex
100
AcDb2dVertex
 10
42.092316
 20
42.429604
 30
0.0
  0
SEQEND
  5
152A
100
AcDbEntity
  8
ALPHA
  0
POLYLINE
  5
152B
100
AcDbEntity
  8
ALPHA
100
AcDb2dPolyline
 66
     1
 10
0.0
 20
0.0
 30
0.0
  0
VERTEX
  5
152C
100
AcDbEntity
  8
ALPHA
100
AcDbVertex
100
AcDb2dVertex
 10
42.092316
 20
414.429637
 30
0.0
 42
1.0
  0
VERTEX
  5
152D
100
AcDbEntity
  8
ALPHA
100
AcDbVertex
100
AcDb2dVertex
 10
26.092604
 20
414.429637
 30
0.0
 42
1.0
  0
VERTEX
  5
152E
100
AcDbEntity
  8
ALPHA
100
AcDbVertex
100
AcDb2dVertex
 10
42.092316
 20
414.429637
 30
0.0
  0
SEQEND
  5
152F
100
AcDbEntity
  8
ALPHA
  0
POLYLINE
  5
1530
100
AcDbEntity
  8
ALPHA
100
AcDb2dPolyline
 66
     1
 10
0.0
 20
0.0
 30
0.0
  0
VERTEX
  5
1531
100
AcDbEntity
  8
ALPHA
100
AcDbVertex
100
AcDb2dVertex
 10
0.092468
 20
58.429661
 30
0.0
  0
VERTEX
  5
1532
100
AcDbEntity
  8
ALPHA
100
AcDbVertex
100
AcDb2dVertex
 10
50.092517
 20
8.429612
 30
0.0
  0
SEQEND
  5
1533
100
AcDbEntity
  8
ALPHA
  0
POLYLINE
  5
1534
100
AcDbEntity
  8
ALPHA
100
AcDb2dPolyline
 66
     1
 10
0.0
 20
0.0
 30
0.0
  0
VERTEX
  5
1535
100
AcDbEntity
  8
ALPHA
100
AcDbVertex
100
AcDb2dVertex
 10
0.092468
 20
398.42958
 30
0.0
  0
VERTEX
  5
1536
100
AcDbEntity
  8
ALPHA
100
AcDbVertex
100
AcDb2dVertex
 10
50.092517
 20
448.429628
 30
0.0
  0
SEQEND
  5
1537
100
AcDbEntity
  8
ALPHA
  0
POLYLINE
  5
1538
100
AcDbEntity
  8
ALPHA
100
AcDb2dPolyline
 66
     1
 10
0.0
 20
0.0
 30
0.0
  0
VERTEX
  5
1539
100
AcDbEntity
  8
ALPHA
100
AcDbVertex
100
AcDb2dVertex
 10
330.092481
 20
58.429661
 30
0.0
  0
VERTEX
  5
153A
100
AcDbEntity
  8
ALPHA
100
AcDbVertex
100
AcDb2dVertex
 10
310.42822
 20
38.765401
 30
0.0
  0
SEQEND
  5
153B
100
AcDbEntity
  8
ALPHA
  0
POLYLINE
  5
153C
100
AcDbEntity
  8
ALPHA
100
AcDb2dPolyline
 66
     1
 10
0.0
 20
0.0
 30
0.0
  0
VERTEX
  5
153D
100
AcDbEntity
  8
ALPHA
100
AcDbVertex
100
AcDb2dVertex
 10
330.092481
 20
398.42958
 30
0.0
  0
VERTEX
  5
153E
100
AcDbEntity
  8
ALPHA
100
AcDbVertex
100
AcDb2dVertex
 10
310.428048
 20
418.09384
 30
0.0
  0
SEQEND
  5
153F
100
AcDbEntity
  8
ALPHA
  0
POLYLINE
  5
1540
100
AcDbEntity
  8
ALPHA
100
AcDb2dPolyline
 66
     1
 10
0.0
 20
0.0
 30
0.0
  0
VERTEX
  5
1541
100
AcDbEntity
  8
ALPHA
100
AcDbVertex
100
AcDb2dVertex
 10
34.492091
 20
207.961275
 30
0.0
  0
VERTEX
  5
1542
100
AcDbEntity
  8
ALPHA
100
AcDbVertex
100
AcDb2dVertex
 10
34.09246
 20
207.92958
 30
0.0
  0
VERTEX
  5
1543
100
AcDbEntity
  8
ALPHA
100
AcDbVertex
100
AcDb2dVertex
 10
33.836865
 20
207.942491
 30
0.0
  0
VERTEX
  5
1544
100
AcDbEntity
  8
ALPHA
100
AcDbVertex
100
AcDb2dVertex
 10
33.588652
 20
207.980385
 30
0.0
  0
VERTEX
  5
1545
100
AcDbEntity
  8
ALPHA
100
AcDbVertex
100
AcDb2dVertex
 10
33.349076
 20
208.042005
 30
0.0
  0
VERTEX
  5
1546
100
AcDbEntity
  8
ALPHA
100
AcDbVertex
100
AcDb2dVertex
 10
33.119396
 20
208.12609
 30
0.0
  0
VERTEX
  5
1547
100
AcDbEntity
  8
ALPHA
100
AcDbVertex
100
AcDb2dVertex
 10
32.900867
 20
208.231383
 30
0.0
  0
VERTEX
  5
1548
100
AcDbEntity
  8
ALPHA
100
AcDbVertex
100
AcDb2dVertex
 10
32.694747
 20
208.356625
 30
0.0
  0
VERTEX
  5
1549
100
AcDbEntity
  8
ALPHA
100
AcDbVertex
100
AcDb2dVertex
 10
32.502292
 20
208.500557
 30
0.0
  0
VERTEX
  5
154A
100
AcDbEntity
  8
ALPHA
100
AcDbVertex
100
AcDb2dVertex
 10
32.32476
 20
208.661921
 30
0.0
  0
VERTEX
  5
154B
100
AcDbEntity
  8
ALPHA
100
AcDbVertex
100
AcDb2dVertex
 10
32.163407
 20
208.839458
 30
0.0
  0
VERTEX
  5
154C
100
AcDbEntity
  8
ALPHA
100
AcDbVertex
100
AcDb2dVertex
 10
32.01949
 20
209.031909
 30
0.0
  0
VERTEX
  5
154D
100
AcDbEntity
  8
ALPHA
100
AcDbVertex
100
AcDb2dVertex
 10
31.894266
 20
209.238017
 30
0.0
  0
VERTEX
  5
154E
100
AcDbEntity
  8
ALPHA
100
AcDbVertex
100
AcDb2dVertex
 10
31.788991
 20
209.456521
 30
0.0
  0
VERTEX
  5
154F
100
AcDbEntity
  8
ALPHA
100
AcDbVertex
100
AcDb2dVertex
 10
31.704923
 20
209.686165
 30
0.0
  0
VERTEX
  5
1550
100
AcDbEntity
  8
ALPHA
100
AcDbVertex
100
AcDb2dVertex
 10
31.643319
 20
209.925688
 30
0.0
  0
VERTEX
  5
1551
100
AcDbEntity
  8
ALPHA
100
AcDbVertex
100
AcDb2dVertex
 10
31.605434
 20
210.173833
 30
0.0
  0
VERTEX
  5
1552
100
AcDbEntity
  8
ALPHA
100
AcDbVertex
100
AcDb2dVertex
 10
31.592527
 20
210.429341
 30
0.0
  0
VERTEX
  5
1553
100
AcDbEntity
  8
ALPHA
100
AcDbVertex
100
AcDb2dVertex
 10
31.605434
 20
210.685084
 30
0.0
  0
VERTEX
  5
1554
100
AcDbEntity
  8
ALPHA
100
AcDbVertex
100
AcDb2dVertex
 10
31.643319
 20
210.933419
 30
0.0
  0
VERTEX
  5
1555
100
AcDbEntity
  8
ALPHA
100
AcDbVertex
100
AcDb2dVertex
 10
31.704923
 20
211.173092
 30
0.0
  0
VERTEX
  5
1556
100
AcDbEntity
  8
ALPHA
100
AcDbVertex
100
AcDb2dVertex
 10
31.788991
 20
211.40285
 30
0.0
  0
VERTEX
  5
1557
100
AcDbEntity
  8
ALPHA
100
AcDbVertex
100
AcDb2dVertex
 10
31.894266
 20
211.621436
 30
0.0
  0
VERTEX
  5
1558
100
AcDbEntity
  8
ALPHA
100
AcDbVertex
100
AcDb2dVertex
 10
32.01949
 20
211.827596
 30
0.0
  0
VERTEX
  5
1559
100
AcDbEntity
  8
ALPHA
100
AcDbVertex
100
AcDb2dVertex
 10
32.163407
 20
212.020077
 30
0.0
  0
VERTEX
  5
155A
100
AcDbEntity
  8
ALPHA
100
AcDbVertex
100
AcDb2dVertex
 10
32.32476
 20
212.197622
 30
0.0
  0
VERTEX
  5
155B
100
AcDbEntity
  8
ALPHA
100
AcDbVertex
100
AcDb2dVertex
 10
32.502292
 20
212.358979
 30
0.0
  0
VERTEX
  5
155C
100
AcDbEntity
  8
ALPHA
100
AcDbVertex
100
AcDb2dVertex
 10
32.694747
 20
212.502891
 30
0.0
  0
VERTEX
  5
155D
100
AcDbEntity
  8
ALPHA
100
AcDbVertex
100
AcDb2dVertex
 10
32.900867
 20
212.628106
 30
0.0
  0
VERTEX
  5
155E
100
AcDbEntity
  8
ALPHA
100
AcDbVertex
100
AcDb2dVertex
 10
33.119396
 20
212.733367
 30
0.0
  0
VERTEX
  5
155F
100
AcDbEntity
  8
ALPHA
100
AcDbVertex
100
AcDb2dVertex
 10
33.349076
 20
212.817421
 30
0.0
  0
VERTEX
  5
1560
100
AcDbEntity
  8
ALPHA
100
AcDbVertex
100
AcDb2dVertex
 10
33.588652
 20
212.879012
 30
0.0
  0
VERTEX
  5
1561
100
AcDbEntity
  8
ALPHA
100
AcDbVertex
100
AcDb2dVertex
 10
33.836865
 20
212.916887
 30
0.0
  0
VERTEX
  5
1562
100
AcDbEntity
  8
ALPHA
100
AcDbVertex
100
AcDb2dVertex
 10
34.09246
 20
212.929791
 30
0.0
  0
VERTEX
  5
1563
100
AcDbEntity
  8
ALPHA
100
AcDbVertex
100
AcDb2dVertex
 10
34.348085
 20
212.916887
 30
0.0
  0
VERTEX
  5
1564
100
AcDbEntity
  8
ALPHA
100
AcDbVertex
100
AcDb2dVertex
 10
34.596326
 20
212.879012
 30
0.0
  0
VERTEX
  5
1565
100
AcDbEntity
  8
ALPHA
100
AcDbVertex
100
AcDb2dVertex
 10
34.835924
 20
212.817421
 30
0.0
  0
VERTEX
  5
1566
100
AcDbEntity
  8
ALPHA
100
AcDbVertex
100
AcDb2dVertex
 10
35.065624
 20
212.733367
 30
0.0
  0
VERTEX
  5
1567
100
AcDbEntity
  8
ALPHA
100
AcDbVertex
100
AcDb2dVertex
 10
35.28417
 20
212.628106
 30
0.0
  0
VERTEX
  5
1568
100
AcDbEntity
  8
ALPHA
100
AcDbVertex
100
AcDb2dVertex
 10
35.490304
 20
212.502891
 30
0.0
  0
VERTEX
  5
1569
100
AcDbEntity
  8
ALPHA
100
AcDbVertex
100
AcDb2dVertex
 10
35.68277
 20
212.358979
 30
0.0
  0
VERTEX
  5
156A
100
AcDbEntity
  8
ALPHA
100
AcDbVertex
100
AcDb2dVertex
 10
35.860311
 20
212.197622
 30
0.0
  0
VERTEX
  5
156B
100
AcDbEntity
  8
ALPHA
100
AcDbVertex
100
AcDb2dVertex
 10
36.021671
 20
212.020077
 30
0.0
  0
VERTEX
  5
156C
100
AcDbEntity
  8
ALPHA
100
AcDbVertex
100
AcDb2dVertex
 10
36.165594
 20
211.827596
 30
0.0
  0
VERTEX
  5
156D
100
AcDbEntity
  8
ALPHA
100
AcDbVertex
100
AcDb2dVertex
 10
36.290822
 20
211.621436
 30
0.0
  0
VERTEX
  5
156E
100
AcDbEntity
  8
ALPHA
100
AcDbVertex
100
AcDb2dVertex
 10
36.396099
 20
211.40285
 30
0.0
  0
VERTEX
  5
156F
100
AcDbEntity
  8
ALPHA
100
AcDbVertex
100
AcDb2dVertex
 10
36.480168
 20
211.173092
 30
0.0
  0
VERTEX
  5
1570
100
AcDbEntity
  8
ALPHA
100
AcDbVertex
100
AcDb2dVertex
 10
36.541774
 20
210.933419
 30
0.0
  0
VERTEX
  5
1571
100
AcDbEntity
  8
ALPHA
100
AcDbVertex
100
AcDb2dVertex
 10
36.579659
 20
210.685084
 30
0.0
  0
VERTEX
  5
1572
100
AcDbEntity
  8
ALPHA
100
AcDbVertex
100
AcDb2dVertex
 10
36.592566
 20
210.429341
 30
0.0
  0
VERTEX
  5
1573
100
AcDbEntity
  8
ALPHA
100
AcDbVertex
100
AcDb2dVertex
 10
36.55523
 20
209.996551
 30
0.0
  0
VERTEX
  5
1574
100
AcDbEntity
  8
ALPHA
100
AcDbVertex
100
AcDb2dVertex
 10
36.447355
 20
209.588049
 30
0.0
  0
SEQEND
  5
1575
100
AcDbEntity
  8
ALPHA
  0
POLYLINE
  5
1576
100
AcDbEntity
  8
ALPHA
100
AcDb2dPolyline
 66
     1
 10
0.0
 20
0.0
 30
0.0
  0
VERTEX
  5
1577
100
AcDbEntity
  8
ALPHA
100
AcDbVertex
100
AcDb2dVertex
 10
36.092338
 20
210.429685
 30
0.0
 42
1.0
  0
VERTEX
  5
1578
100
AcDbEntity
  8
ALPHA
100
AcDbVertex
100
AcDb2dVertex
 10
32.092582
 20
210.429685
 30
0.0
 42
1.0
  0
VERTEX
  5
1579
100
AcDbEntity
  8
ALPHA
100
AcDbVertex
100
AcDb2dVertex
 10
36.092338
 20
210.429685
 30
0.0
  0
SEQEND
  5
157A
100
AcDbEntity
  8
ALPHA
  0
POLYLINE
  5
157B
100
AcDbEntity
  8
ALPHA
100
AcDb2dPolyline
 66
     1
 10
0.0
 20
0.0
 30
0.0
  0
VERTEX
  5
157C
100
AcDbEntity
  8
ALPHA
100
AcDbVertex
100
AcDb2dVertex
 10
34.492091
 20
243.961144
 30
0.0
  0
VERTEX
  5
157D
100
AcDbEntity
  8
ALPHA
100
AcDbVertex
100
AcDb2dVertex
 10
34.09246
 20
243.929449
 30
0.0
  0
VERTEX
  5
157E
100
AcDbEntity
  8
ALPHA
100
AcDbVertex
100
AcDb2dVertex
 10
33.836865
 20
243.942361
 30
0.0
  0
VERTEX
  5
157F
100
AcDbEntity
  8
ALPHA
100
AcDbVertex
100
AcDb2dVertex
 10
33.588652
 20
243.980255
 30
0.0
  0
VERTEX
  5
1580
100
AcDbEntity
  8
ALPHA
100
AcDbVertex
100
AcDb2dVertex
 10
33.349076
 20
244.041874
 30
0.0
  0
VERTEX
  5
1581
100
AcDbEntity
  8
ALPHA
100
AcDbVertex
100
AcDb2dVertex
 10
33.119396
 20
244.12596
 30
0.0
  0
VERTEX
  5
1582
100
AcDbEntity
  8
ALPHA
100
AcDbVertex
100
AcDb2dVertex
 10
32.900867
 20
244.231253
 30
0.0
  0
VERTEX
  5
1583
100
AcDbEntity
  8
ALPHA
100
AcDbVertex
100
AcDb2dVertex
 10
32.694747
 20
244.356495
 30
0.0
  0
VERTEX
  5
1584
100
AcDbEntity
  8
ALPHA
100
AcDbVertex
100
AcDb2dVertex
 10
32.502292
 20
244.500427
 30
0.0
  0
VERTEX
  5
1585
100
AcDbEntity
  8
ALPHA
100
AcDbVertex
100
AcDb2dVertex
 10
32.32476
 20
244.661791
 30
0.0
  0
VERTEX
  5
1586
100
AcDbEntity
  8
ALPHA
100
AcDbVertex
100
AcDb2dVertex
 10
32.163407
 20
244.839328
 30
0.0
  0
VERTEX
  5
1587
100
AcDbEntity
  8
ALPHA
100
AcDbVertex
100
AcDb2dVertex
 10
32.01949
 20
245.031779
 30
0.0
  0
VERTEX
  5
1588
100
AcDbEntity
  8
ALPHA
100
AcDbVertex
100
AcDb2dVertex
 10
31.894266
 20
245.237886
 30
0.0
  0
VERTEX
  5
1589
100
AcDbEntity
  8
ALPHA
100
AcDbVertex
100
AcDb2dVertex
 10
31.788991
 20
245.456391
 30
0.0
  0
VERTEX
  5
158A
100
AcDbEntity
  8
ALPHA
100
AcDbVertex
100
AcDb2dVertex
 10
31.704923
 20
245.686034
 30
0.0
  0
VERTEX
  5
158B
100
AcDbEntity
  8
ALPHA
100
AcDbVertex
100
AcDb2dVertex
 10
31.643319
 20
245.925558
 30
0.0
  0
VERTEX
  5
158C
100
AcDbEntity
  8
ALPHA
100
AcDbVertex
100
AcDb2dVertex
 10
31.605434
 20
246.173703
 30
0.0
  0
VERTEX
  5
158D
100
AcDbEntity
  8
ALPHA
100
AcDbVertex
100
AcDb2dVertex
 10
31.592527
 20
246.429211
 30
0.0
  0
VERTEX
  5
158E
100
AcDbEntity
  8
ALPHA
100
AcDbVertex
100
AcDb2dVertex
 10
31.605434
 20
246.684953
 30
0.0
  0
VERTEX
  5
158F
100
AcDbEntity
  8
ALPHA
100
AcDbVertex
100
AcDb2dVertex
 10
31.643319
 20
246.933289
 30
0.0
  0
VERTEX
  5
1590
100
AcDbEntity
  8
ALPHA
100
AcDbVertex
100
AcDb2dVertex
 10
31.704923
 20
247.172962
 30
0.0
  0
VERTEX
  5
1591
100
AcDbEntity
  8
ALPHA
100
AcDbVertex
100
AcDb2dVertex
 10
31.788991
 20
247.402719
 30
0.0
  0
VERTEX
  5
1592
100
AcDbEntity
  8
ALPHA
100
AcDbVertex
100
AcDb2dVertex
 10
31.894266
 20
247.621305
 30
0.0
  0
VERTEX
  5
1593
100
AcDbEntity
  8
ALPHA
100
AcDbVertex
100
AcDb2dVertex
 10
32.01949
 20
247.827466
 30
0.0
  0
VERTEX
  5
1594
100
AcDbEntity
  8
ALPHA
100
AcDbVertex
100
AcDb2dVertex
 10
32.163407
 20
248.019946
 30
0.0
  0
VERTEX
  5
1595
100
AcDbEntity
  8
ALPHA
100
AcDbVertex
100
AcDb2dVertex
 10
32.32476
 20
248.197492
 30
0.0
  0
VERTEX
  5
1596
100
AcDbEntity
  8
ALPHA
100
AcDbVertex
100
AcDb2dVertex
 10
32.502292
 20
248.358849
 30
0.0
  0
VERTEX
  5
1597
100
AcDbEntity
  8
ALPHA
100
AcDbVertex
100
AcDb2dVertex
 10
32.694747
 20
248.502761
 30
0.0
  0
VERTEX
  5
1598
100
AcDbEntity
  8
ALPHA
100
AcDbVertex
100
AcDb2dVertex
 10
32.900867
 20
248.627975
 30
0.0
  0
VERTEX
  5
1599
100
AcDbEntity
  8
ALPHA
100
AcDbVertex
100
AcDb2dVertex
 10
33.119396
 20
248.733237
 30
0.0
  0
VERTEX
  5
159A
100
AcDbEntity
  8
ALPHA
100
AcDbVertex
100
AcDb2dVertex
 10
33.349076
 20
248.817291
 30
0.0
  0
VERTEX
  5
159B
100
AcDbEntity
  8
ALPHA
100
AcDbVertex
100
AcDb2dVertex
 10
33.588652
 20
248.878882
 30
0.0
  0
VERTEX
  5
159C
100
AcDbEntity
  8
ALPHA
100
AcDbVertex
100
AcDb2dVertex
 10
33.836865
 20
248.916757
 30
0.0
  0
VERTEX
  5
159D
100
AcDbEntity
  8
ALPHA
100
AcDbVertex
100
AcDb2dVertex
 10
34.09246
 20
248.929661
 30
0.0
  0
VERTEX
  5
159E
100
AcDbEntity
  8
ALPHA
100
AcDbVertex
100
AcDb2dVertex
 10
34.348085
 20
248.916757
 30
0.0
  0
VERTEX
  5
159F
100
AcDbEntity
  8
ALPHA
100
AcDbVertex
100
AcDb2dVertex
 10
34.596326
 20
248.878882
 30
0.0
  0
VERTEX
  5
15A0
100
AcDbEntity
  8
ALPHA
100
AcDbVertex
100
AcDb2dVertex
 10
34.835924
 20
248.817291
 30
0.0
  0
VERTEX
  5
15A1
100
AcDbEntity
  8
ALPHA
100
AcDbVertex
100
AcDb2dVertex
 10
35.065624
 20
248.733237
 30
0.0
  0
VERTEX
  5
15A2
100
AcDbEntity
  8
ALPHA
100
AcDbVertex
100
AcDb2dVertex
 10
35.28417
 20
248.627975
 30
0.0
  0
VERTEX
  5
15A3
100
AcDbEntity
  8
ALPHA
100
AcDbVertex
100
AcDb2dVertex
 10
35.490304
 20
248.502761
 30
0.0
  0
VERTEX
  5
15A4
100
AcDbEntity
  8
ALPHA
100
AcDbVertex
100
AcDb2dVertex
 10
35.68277
 20
248.358849
 30
0.0
  0
VERTEX
  5
15A5
100
AcDbEntity
  8
ALPHA
100
AcDbVertex
100
AcDb2dVertex
 10
35.860311
 20
248.197492
 30
0.0
  0
VERTEX
  5
15A6
100
AcDbEntity
  8
ALPHA
100
AcDbVertex
100
AcDb2dVertex
 10
36.021671
 20
248.019946
 30
0.0
  0
VERTEX
  5
15A7
100
AcDbEntity
  8
ALPHA
100
AcDbVertex
100
AcDb2dVertex
 10
36.165594
 20
247.827466
 30
0.0
  0
VERTEX
  5
15A8
100
AcDbEntity
  8
ALPHA
100
AcDbVertex
100
AcDb2dVertex
 10
36.290822
 20
247.621305
 30
0.0
  0
VERTEX
  5
15A9
100
AcDbEntity
  8
ALPHA
100
AcDbVertex
100
AcDb2dVertex
 10
36.396099
 20
247.402719
 30
0.0
  0
VERTEX
  5
15AA
100
AcDbEntity
  8
ALPHA
100
AcDbVertex
100
AcDb2dVertex
 10
36.480168
 20
247.172962
 30
0.0
  0
VERTEX
  5
15AB
100
AcDbEntity
  8
ALPHA
100
AcDbVertex
100
AcDb2dVertex
 10
36.541774
 20
246.933289
 30
0.0
  0
VERTEX
  5
15AC
100
AcDbEntity
  8
ALPHA
100
AcDbVertex
100
AcDb2dVertex
 10
36.579659
 20
246.684953
 30
0.0
  0
VERTEX
  5
15AD
100
AcDbEntity
  8
ALPHA
100
AcDbVertex
100
AcDb2dVertex
 10
36.592566
 20
246.429211
 30
0.0
  0
VERTEX
  5
15AE
100
AcDbEntity
  8
ALPHA
100
AcDbVertex
100
AcDb2dVertex
 10
36.55523
 20
245.996421
 30
0.0
  0
VERTEX
  5
15AF
100
AcDbEntity
  8
ALPHA
100
AcDbVertex
100
AcDb2dVertex
 10
36.447355
 20
245.587918
 30
0.0
  0
SEQEND
  5
15B0
100
AcDbEntity
  8
ALPHA
  0
POLYLINE
  5
15B1
100
AcDbEntity
  8
ALPHA
100
AcDb2dPolyline
 66
     1
 10
0.0
 20
0.0
 30
0.0
  0
VERTEX
  5
15B2
100
AcDbEntity
  8
ALPHA
100
AcDbVertex
100
AcDb2dVertex
 10
36.092338
 20
246.429555
 30
0.0
 42
1.0
  0
VERTEX
  5
15B3
100
AcDbEntity
  8
ALPHA
100
AcDbVertex
100
AcDb2dVertex
 10
32.092582
 20
246.429555
 30
0.0
 42
1.0
  0
VERTEX
  5
15B4
100
AcDbEntity
  8
ALPHA
100
AcDbVertex
100
AcDb2dVertex
 10
36.092338
 20
246.429555
 30
0.0
  0
SEQEND
  5
15B5
100
AcDbEntity
  8
ALPHA
  0
POLYLINE
  5
15B6
100
AcDbEntity
  8
ALPHA
100
AcDb2dPolyline
 66
     1
 10
0.0
 20
0.0
 30
0.0
  0
VERTEX
  5
15B7
100
AcDbEntity
  8
ALPHA
100
AcDbVertex
100
AcDb2dVertex
 10
0.092468
 20
398.42958
 30
0.0
  0
VERTEX
  5
15B8
100
AcDbEntity
  8
ALPHA
100
AcDbVertex
100
AcDb2dVertex
 10
50.092517
 20
448.429628
 30
0.0
  0
SEQEND
  5
15B9
100
AcDbEntity
  8
ALPHA
  0
POLYLINE
  5
15BA
100
AcDbEntity
  8
ALPHA
100
AcDb2dPolyline
 66
     1
 10
0.0
 20
0.0
 30
0.0
  0
VERTEX
  5
15BB
100
AcDbEntity
  8
ALPHA
100
AcDbVertex
100
AcDb2dVertex
 10
62.119173
 20
240.92946
 30
0.0
  0
VERTEX
  5
15BC
100
AcDbEntity
  8
ALPHA
100
AcDbVertex
100
AcDb2dVertex
 10
69.720604
 20
240.92946
 30
0.0
  0
VERTEX
  5
15BD
100
AcDbEntity
  8
ALPHA
100
AcDbVertex
100
AcDb2dVertex
 10
69.788714
 20
240.925378
 30
0.0
  0
VERTEX
  5
15BE
100
AcDbEntity
  8
ALPHA
100
AcDbVertex
100
AcDb2dVertex
 10
69.850876
 20
240.913196
 30
0.0
  0
VERTEX
  5
15BF
100
AcDbEntity
  8
ALPHA
100
AcDbVertex
100
AcDb2dVertex
 10
69.907246
 20
240.893013
 30
0.0
  0
VERTEX
  5
15C0
100
AcDbEntity
  8
ALPHA
100
AcDbVertex
100
AcDb2dVertex
 10
69.95798
 20
240.864927
 30
0.0
  0
VERTEX
  5
15C1
100
AcDbEntity
  8
ALPHA
100
AcDbVertex
100
AcDb2dVertex
 10
70.003233
 20
240.829036
 30
0.0
  0
VERTEX
  5
15C2
100
AcDbEntity
  8
ALPHA
100
AcDbVertex
100
AcDb2dVertex
 10
70.043163
 20
240.785438
 30
0.0
  0
VERTEX
  5
15C3
100
AcDbEntity
  8
ALPHA
100
AcDbVertex
100
AcDb2dVertex
 10
70.077925
 20
240.734232
 30
0.0
  0
VERTEX
  5
15C4
100
AcDbEntity
  8
ALPHA
100
AcDbVertex
100
AcDb2dVertex
 10
70.107676
 20
240.675515
 30
0.0
  0
VERTEX
  5
15C5
100
AcDbEntity
  8
ALPHA
100
AcDbVertex
100
AcDb2dVertex
 10
70.13257
 20
240.609386
 30
0.0
  0
VERTEX
  5
15C6
100
AcDbEntity
  8
ALPHA
100
AcDbVertex
100
AcDb2dVertex
 10
70.152764
 20
240.535943
 30
0.0
  0
VERTEX
  5
15C7
100
AcDbEntity
  8
ALPHA
100
AcDbVertex
100
AcDb2dVertex
 10
70.179677
 20
240.367508
 30
0.0
  0
VERTEX
  5
15C8
100
AcDbEntity
  8
ALPHA
100
AcDbVertex
100
AcDb2dVertex
 10
70.18397
 20
239.947188
 30
0.0
  0
VERTEX
  5
15C9
100
AcDbEntity
  8
ALPHA
100
AcDbVertex
100
AcDb2dVertex
 10
69.723748
 20
237.268443
 30
0.0
  0
VERTEX
  5
15CA
100
AcDbEntity
  8
ALPHA
100
AcDbVertex
100
AcDb2dVertex
 10
68.978983
 20
233.295333
 30
0.0
  0
VERTEX
  5
15CB
100
AcDbEntity
  8
ALPHA
100
AcDbVertex
100
AcDb2dVertex
 10
68.588718
 20
228.429965
 30
0.0
  0
VERTEX
  5
15CC
100
AcDbEntity
  8
ALPHA
100
AcDbVertex
100
AcDb2dVertex
 10
68.978983
 20
223.564198
 30
0.0
  0
VERTEX
  5
15CD
100
AcDbEntity
  8
ALPHA
100
AcDbVertex
100
AcDb2dVertex
 10
69.723748
 20
219.590883
 30
0.0
  0
VERTEX
  5
15CE
100
AcDbEntity
  8
ALPHA
100
AcDbVertex
100
AcDb2dVertex
 10
70.18397
 20
216.912063
 30
0.0
  0
VERTEX
  5
15CF
100
AcDbEntity
  8
ALPHA
100
AcDbVertex
100
AcDb2dVertex
 10
70.179677
 20
216.491737
 30
0.0
  0
VERTEX
  5
15D0
100
AcDbEntity
  8
ALPHA
100
AcDbVertex
100
AcDb2dVertex
 10
70.152764
 20
216.3233
 30
0.0
  0
VERTEX
  5
15D1
100
AcDbEntity
  8
ALPHA
100
AcDbVertex
100
AcDb2dVertex
 10
70.13257
 20
216.249856
 30
0.0
  0
VERTEX
  5
15D2
100
AcDbEntity
  8
ALPHA
100
AcDbVertex
100
AcDb2dVertex
 10
70.107676
 20
216.183727
 30
0.0
  0
VERTEX
  5
15D3
100
AcDbEntity
  8
ALPHA
100
AcDbVertex
100
AcDb2dVertex
 10
70.077925
 20
216.12501
 30
0.0
  0
VERTEX
  5
15D4
100
AcDbEntity
  8
ALPHA
100
AcDbVertex
100
AcDb2dVertex
 10
70.043163
 20
216.073803
 30
0.0
  0
VERTEX
  5
15D5
100
AcDbEntity
  8
ALPHA
100
AcDbVertex
100
AcDb2dVertex
 10
70.003233
 20
216.030205
 30
0.0
  0
VERTEX
  5
15D6
100
AcDbEntity
  8
ALPHA
100
AcDbVertex
100
AcDb2dVertex
 10
69.95798
 20
215.994314
 30
0.0
  0
VERTEX
  5
15D7
100
AcDbEntity
  8
ALPHA
100
AcDbVertex
100
AcDb2dVertex
 10
69.907246
 20
215.966228
 30
0.0
  0
VERTEX
  5
15D8
100
AcDbEntity
  8
ALPHA
100
AcDbVertex
100
AcDb2dVertex
 10
69.850876
 20
215.946045
 30
0.0
  0
VERTEX
  5
15D9
100
AcDbEntity
  8
ALPHA
100
AcDbVertex
100
AcDb2dVertex
 10
69.788714
 20
215.933863
 30
0.0
  0
VERTEX
  5
15DA
100
AcDbEntity
  8
ALPHA
100
AcDbVertex
100
AcDb2dVertex
 10
69.720604
 20
215.92978
 30
0.0
  0
VERTEX
  5
15DB
100
AcDbEntity
  8
ALPHA
100
AcDbVertex
100
AcDb2dVertex
 10
62.119173
 20
215.92978
 30
0.0
  0
SEQEND
  5
15DC
100
AcDbEntity
  8
ALPHA
  0
POLYLINE
  5
15DD
100
AcDbEntity
  8
ALPHA
100
AcDb2dPolyline
 66
     1
 10
0.0
 20
0.0
 30
0.0
  0
VERTEX
  5
15DE
100
AcDbEntity
  8
ALPHA
100
AcDbVertex
100
AcDb2dVertex
 10
148.468597
 20
249.160138
 30
0.0
  0
VERTEX
  5
15DF
100
AcDbEntity
  8
ALPHA
100
AcDbVertex
100
AcDb2dVertex
 10
146.121913
 20
247.333526
 30
0.0
  0
VERTEX
  5
15E0
100
AcDbEntity
  8
ALPHA
100
AcDbVertex
100
AcDb2dVertex
 10
144.009693
 20
245.239355
 30
0.0
  0
VERTEX
  5
15E1
100
AcDbEntity
  8
ALPHA
100
AcDbVertex
100
AcDb2dVertex
 10
142.15611
 20
242.902168
 30
0.0
  0
VERTEX
  5
15E2
100
AcDbEntity
  8
ALPHA
100
AcDbVertex
100
AcDb2dVertex
 10
140.585336
 20
240.346507
 30
0.0
  0
VERTEX
  5
15E3
100
AcDbEntity
  8
ALPHA
100
AcDbVertex
100
AcDb2dVertex
 10
139.321544
 20
237.596914
 30
0.0
  0
VERTEX
  5
15E4
100
AcDbEntity
  8
ALPHA
100
AcDbVertex
100
AcDb2dVertex
 10
138.388907
 20
234.677931
 30
0.0
  0
VERTEX
  5
15E5
100
AcDbEntity
  8
ALPHA
100
AcDbVertex
100
AcDb2dVertex
 10
137.811598
 20
231.6141
 30
0.0
  0
VERTEX
  5
15E6
100
AcDbEntity
  8
ALPHA
100
AcDbVertex
100
AcDb2dVertex
 10
137.61379
 20
228.429965
 30
0.0
  0
VERTEX
  5
15E7
100
AcDbEntity
  8
ALPHA
100
AcDbVertex
100
AcDb2dVertex
 10
137.80707
 20
225.282169
 30
0.0
  0
VERTEX
  5
15E8
100
AcDbEntity
  8
ALPHA
100
AcDbVertex
100
AcDb2dVertex
 10
138.371353
 20
222.251606
 30
0.0
  0
VERTEX
  5
15E9
100
AcDbEntity
  8
ALPHA
100
AcDbVertex
100
AcDb2dVertex
 10
139.283301
 20
219.361974
 30
0.0
  0
VERTEX
  5
15EA
100
AcDbEntity
  8
ALPHA
100
AcDbVertex
100
AcDb2dVertex
 10
140.519577
 20
216.636972
 30
0.0
  0
VERTEX
  5
15EB
100
AcDbEntity
  8
ALPHA
100
AcDbVertex
100
AcDb2dVertex
 10
142.056845
 20
214.100299
 30
0.0
  0
VERTEX
  5
15EC
100
AcDbEntity
  8
ALPHA
100
AcDbVertex
100
AcDb2dVertex
 10
143.871766
 20
211.775652
 30
0.0
  0
VERTEX
  5
15ED
100
AcDbEntity
  8
ALPHA
100
AcDbVertex
100
AcDb2dVertex
 10
145.941003
 20
209.68673
 30
0.0
  0
VERTEX
  5
15EE
100
AcDbEntity
  8
ALPHA
100
AcDbVertex
100
AcDb2dVertex
 10
148.241221
 20
207.857233
 30
0.0
  0
SEQEND
  5
15EF
100
AcDbEntity
  8
ALPHA
  0
POLYLINE
  5
15F0
100
AcDbEntity
  8
ALPHA
100
AcDb2dPolyline
 66
     1
 10
0.0
 20
0.0
 30
0.0
  0
VERTEX
  5
15F1
100
AcDbEntity
  8
ALPHA
100
AcDbVertex
100
AcDb2dVertex
 10
148.243288
 20
210.340802
 30
0.0
  0
VERTEX
  5
15F2
100
AcDbEntity
  8
ALPHA
100
AcDbVertex
100
AcDb2dVertex
 10
146.357193
 20
212.025983
 30
0.0
  0
VERTEX
  5
15F3
100
AcDbEntity
  8
ALPHA
100
AcDbVertex
100
AcDb2dVertex
 10
144.665553
 20
213.911423
 30
0.0
  0
VERTEX
  5
15F4
100
AcDbEntity
  8
ALPHA
100
AcDbVertex
100
AcDb2dVertex
 10
143.185944
 20
215.979272
 30
0.0
  0
VERTEX
  5
15F5
100
AcDbEntity
  8
ALPHA
100
AcDbVertex
100
AcDb2dVertex
 10
141.935942
 20
218.211682
 30
0.0
  0
VERTEX
  5
15F6
100
AcDbEntity
  8
ALPHA
100
AcDbVertex
100
AcDb2dVertex
 10
140.933123
 20
220.590806
 30
0.0
  0
VERTEX
  5
15F7
100
AcDbEntity
  8
ALPHA
100
AcDbVertex
100
AcDb2dVertex
 10
140.195063
 20
223.098793
 30
0.0
  0
VERTEX
  5
15F8
100
AcDbEntity
  8
ALPHA
100
AcDbVertex
100
AcDb2dVertex
 10
139.739338
 20
225.717795
 30
0.0
  0
VERTEX
  5
15F9
100
AcDbEntity
  8
ALPHA
100
AcDbVertex
100
AcDb2dVertex
 10
139.583523
 20
228.429965
 30
0.0
  0
VERTEX
  5
15FA
100
AcDbEntity
  8
ALPHA
100
AcDbVertex
100
AcDb2dVertex
 10
139.739329
 20
231.142006
 30
0.0
  0
VERTEX
  5
15FB
100
AcDbEntity
  8
ALPHA
100
AcDbVertex
100
AcDb2dVertex
 10
140.195028
 20
233.760884
 30
0.0
  0
VERTEX
  5
15FC
100
AcDbEntity
  8
ALPHA
100
AcDbVertex
100
AcDb2dVertex
 10
140.933041
 20
236.268755
 30
0.0
  0
VERTEX
  5
15FD
100
AcDbEntity
  8
ALPHA
100
AcDbVertex
100
AcDb2dVertex
 10
141.935791
 20
238.647774
 30
0.0
  0
VERTEX
  5
15FE
100
AcDbEntity
  8
ALPHA
100
AcDbVertex
100
AcDb2dVertex
 10
143.1857
 20
240.880096
 30
0.0
  0
VERTEX
  5
15FF
100
AcDbEntity
  8
ALPHA
100
AcDbVertex
100
AcDb2dVertex
 10
144.66519
 20
242.947877
 30
0.0
  0
VERTEX
  5
1600
100
AcDbEntity
  8
ALPHA
100
AcDbVertex
100
AcDb2dVertex
 10
146.356682
 20
244.833273
 30
0.0
  0
VERTEX
  5
1601
100
AcDbEntity
  8
ALPHA
100
AcDbVertex
100
AcDb2dVertex
 10
148.242599
 20
246.518439
 30
0.0
  0
SEQEND
  5
1602
100
AcDbEntity
  8
ALPHA
  0
POLYLINE
  5
1603
100
AcDbEntity
  8
ALPHA
100
AcDb2dPolyline
 66
     1
 10
0.0
 20
0.0
 30
0.0
  0
VERTEX
  5
1604
100
AcDbEntity
  8
ALPHA
100
AcDbVertex
100
AcDb2dVertex
 10
69.998623
 20
216.032444
 30
0.0
  0
VERTEX
  5
1605
100
AcDbEntity
  8
ALPHA
100
AcDbVertex
100
AcDb2dVertex
 10
68.179812
 20
218.735886
 30
0.0
  0
VERTEX
  5
1606
100
AcDbEntity
  8
ALPHA
100
AcDbVertex
100
AcDb2dVertex
 10
66.81824
 20
221.737436
 30
0.0
  0
VERTEX
  5
1607
100
AcDbEntity
  8
ALPHA
100
AcDbVertex
100
AcDb2dVertex
 10
65.964325
 20
224.985871
 30
0.0
  0
VERTEX
  5
1608
100
AcDbEntity
  8
ALPHA
100
AcDbVertex
100
AcDb2dVertex
 10
65.668483
 20
228.429965
 30
0.0
  0
VERTEX
  5
1609
100
AcDbEntity
  8
ALPHA
100
AcDbVertex
100
AcDb2dVertex
 10
65.964325
 20
231.873672
 30
0.0
  0
VERTEX
  5
160A
100
AcDbEntity
  8
ALPHA
100
AcDbVertex
100
AcDb2dVertex
 10
66.81824
 20
235.121977
 30
0.0
  0
VERTEX
  5
160B
100
AcDbEntity
  8
ALPHA
100
AcDbVertex
100
AcDb2dVertex
 10
68.179812
 20
238.123656
 30
0.0
  0
VERTEX
  5
160C
100
AcDbEntity
  8
ALPHA
100
AcDbVertex
100
AcDb2dVertex
 10
69.998623
 20
240.827485
 30
0.0
  0
SEQEND
  5
160D
100
AcDbEntity
  8
ALPHA
  0
POLYLINE
  5
160E
100
AcDbEntity
  8
ALPHA
100
AcDb2dPolyline
 66
     1
 10
0.0
 20
0.0
 30
0.0
  0
VERTEX
  5
160F
100
AcDbEntity
  8
ALPHA
100
AcDbVertex
100
AcDb2dVertex
 10
36.842335
 20
246.4299
 30
0.0
 42
1.0
  0
VERTEX
  5
1610
100
AcDbEntity
  8
ALPHA
100
AcDbVertex
100
AcDb2dVertex
 10
31.342585
 20
246.4299
 30
0.0
 42
1.0
  0
VERTEX
  5
1611
100
AcDbEntity
  8
ALPHA
100
AcDbVertex
100
AcDb2dVertex
 10
36.842335
 20
246.4299
 30
0.0
  0
SEQEND
  5
1612
100
AcDbEntity
  8
ALPHA
  0
POLYLINE
  5
1613
100
AcDbEntity
  8
ALPHA
100
AcDb2dPolyline
 66
     1
 10
0.0
 20
0.0
 30
0.0
  0
VERTEX
  5
1614
100
AcDbEntity
  8
ALPHA
100
AcDbVertex
100
AcDb2dVertex
 10
36.842335
 20
210.43003
 30
0.0
 42
1.0
  0
VERTEX
  5
1615
100
AcDbEntity
  8
ALPHA
100
AcDbVertex
100
AcDb2dVertex
 10
31.342585
 20
210.43003
 30
0.0
 42
1.0
  0
VERTEX
  5
1616
100
AcDbEntity
  8
ALPHA
100
AcDbVertex
100
AcDb2dVertex
 10
36.842335
 20
210.43003
 30
0.0
  0
SEQEND
  5
1617
100
AcDbEntity
  8
ALPHA
  0
POLYLINE
  5
1618
100
AcDbEntity
  8
ALPHA
100
AcDb2dPolyline
 66
     1
 10
0.0
 20
0.0
 30
0.0
  0
VERTEX
  5
1619
100
AcDbEntity
  8
ALPHA
100
AcDbVertex
100
AcDb2dVertex
 10
187.010603
 20
183.071838
 30
0.0
  0
VERTEX
  5
161A
100
AcDbEntity
  8
ALPHA
100
AcDbVertex
100
AcDb2dVertex
 10
185.790322
 20
183.0107
 30
0.0
  0
VERTEX
  5
161B
100
AcDbEntity
  8
ALPHA
100
AcDbVertex
100
AcDb2dVertex
 10
184.53943
 20
182.819559
 30
0.0
  0
VERTEX
  5
161C
100
AcDbEntity
  8
ALPHA
100
AcDbVertex
100
AcDb2dVertex
 10
183.273784
 20
182.488558
 30
0.0
  0
VERTEX
  5
161D
100
AcDbEntity
  8
ALPHA
100
AcDbVertex
100
AcDb2dVertex
 10
182.011654
 20
182.010937
 30
0.0
  0
VERTEX
  5
161E
100
AcDbEntity
  8
ALPHA
100
AcDbVertex
100
AcDb2dVertex
 10
180.773111
 20
181.383835
 30
0.0
  0
VERTEX
  5
161F
100
AcDbEntity
  8
ALPHA
100
AcDbVertex
100
AcDb2dVertex
 10
179.579179
 20
180.608907
 30
0.0
  0
VERTEX
  5
1620
100
AcDbEntity
  8
ALPHA
100
AcDbVertex
100
AcDb2dVertex
 10
178.450801
 20
179.692654
 30
0.0
  0
VERTEX
  5
1621
100
AcDbEntity
  8
ALPHA
100
AcDbVertex
100
AcDb2dVertex
 10
177.407707
 20
178.646405
 30
0.0
  0
VERTEX
  5
1622
100
AcDbEntity
  8
ALPHA
100
AcDbVertex
100
AcDb2dVertex
 10
176.467315
 20
177.485902
 30
0.0
  0
VERTEX
  5
1623
100
AcDbEntity
  8
ALPHA
100
AcDbVertex
100
AcDb2dVertex
 10
175.643774
 20
176.230521
 30
0.0
  0
VERTEX
  5
1624
100
AcDbEntity
  8
ALPHA
100
AcDbVertex
100
AcDb2dVertex
 10
174.947266
 20
174.902216
 30
0.0
  0
VERTEX
  5
1625
100
AcDbEntity
  8
ALPHA
100
AcDbVertex
100
AcDb2dVertex
 10
174.383634
 20
173.524284
 30
0.0
  0
VERTEX
  5
1626
100
AcDbEntity
  8
ALPHA
100
AcDbVertex
100
AcDb2dVertex
 10
173.954365
 20
172.120117
 30
0.0
  0
VERTEX
  5
1627
100
AcDbEntity
  8
ALPHA
100
AcDbVertex
100
AcDb2dVertex
 10
173.656885
 20
170.712044
 30
0.0
  0
VERTEX
  5
1628
100
AcDbEntity
  8
ALPHA
100
AcDbVertex
100
AcDb2dVertex
 10
173.430208
 20
167.962795
 30
0.0
  0
VERTEX
  5
1629
100
AcDbEntity
  8
ALPHA
100
AcDbVertex
100
AcDb2dVertex
 10
173.656979
 20
165.213553
 30
0.0
  0
VERTEX
  5
162A
100
AcDbEntity
  8
ALPHA
100
AcDbVertex
100
AcDb2dVertex
 10
173.954507
 20
163.80549
 30
0.0
  0
VERTEX
  5
162B
100
AcDbEntity
  8
ALPHA
100
AcDbVertex
100
AcDb2dVertex
 10
174.383824
 20
162.401338
 30
0.0
  0
VERTEX
  5
162C
100
AcDbEntity
  8
ALPHA
100
AcDbVertex
100
AcDb2dVertex
 10
174.947503
 20
161.023426
 30
0.0
  0
VERTEX
  5
162D
100
AcDbEntity
  8
ALPHA
100
AcDbVertex
100
AcDb2dVertex
 10
175.644057
 20
159.695144
 30
0.0
  0
VERTEX
  5
162E
100
AcDbEntity
  8
ALPHA
100
AcDbVertex
100
AcDb2dVertex
 10
176.467641
 20
158.439791
 30
0.0
  0
VERTEX
  5
162F
100
AcDbEntity
  8
ALPHA
100
AcDbVertex
100
AcDb2dVertex
 10
177.408072
 20
157.27932
 30
0.0
  0
VERTEX
  5
1630
100
AcDbEntity
  8
ALPHA
100
AcDbVertex
100
AcDb2dVertex
 10
178.451202
 20
156.233107
 30
0.0
  0
VERTEX
  5
1631
100
AcDbEntity
  8
ALPHA
100
AcDbVertex
100
AcDb2dVertex
 10
179.579612
 20
155.316893
 30
0.0
  0
VERTEX
  5
1632
100
AcDbEntity
  8
ALPHA
100
AcDbVertex
100
AcDb2dVertex
 10
180.77357
 20
154.542005
 30
0.0
  0
VERTEX
  5
1633
100
AcDbEntity
  8
ALPHA
100
AcDbVertex
100
AcDb2dVertex
 10
182.012135
 20
153.914946
 30
0.0
  0
VERTEX
  5
1634
100
AcDbEntity
  8
ALPHA
100
AcDbVertex
100
AcDb2dVertex
 10
183.274281
 20
153.437368
 30
0.0
  0
VERTEX
  5
1635
100
AcDbEntity
  8
ALPHA
100
AcDbVertex
100
AcDb2dVertex
 10
184.539938
 20
153.10641
 30
0.0
  0
VERTEX
  5
1636
100
AcDbEntity
  8
ALPHA
100
AcDbVertex
100
AcDb2dVertex
 10
185.790836
 20
152.915312
 30
0.0
  0
VERTEX
  5
1637
100
AcDbEntity
  8
ALPHA
100
AcDbVertex
100
AcDb2dVertex
 10
187.011119
 20
152.854216
 30
0.0
  0
VERTEX
  5
1638
100
AcDbEntity
  8
ALPHA
100
AcDbVertex
100
AcDb2dVertex
 10
188.2314
 20
152.915354
 30
0.0
  0
VERTEX
  5
1639
100
AcDbEntity
  8
ALPHA
100
AcDbVertex
100
AcDb2dVertex
 10
189.482292
 20
153.106494
 30
0.0
  0
VERTEX
  5
163A
100
AcDbEntity
  8
ALPHA
100
AcDbVertex
100
AcDb2dVertex
 10
190.747938
 20
153.437496
 30
0.0
  0
VERTEX
  5
163B
100
AcDbEntity
  8
ALPHA
100
AcDbVertex
100
AcDb2dVertex
 10
192.010068
 20
153.915117
 30
0.0
  0
VERTEX
  5
163C
100
AcDbEntity
  8
ALPHA
100
AcDbVertex
100
AcDb2dVertex
 10
193.248611
 20
154.542219
 30
0.0
  0
VERTEX
  5
163D
100
AcDbEntity
  8
ALPHA
100
AcDbVertex
100
AcDb2dVertex
 10
194.442543
 20
155.317147
 30
0.0
  0
VERTEX
  5
163E
100
AcDbEntity
  8
ALPHA
100
AcDbVertex
100
AcDb2dVertex
 10
195.570921
 20
156.2334
 30
0.0
  0
VERTEX
  5
163F
100
AcDbEntity
  8
ALPHA
100
AcDbVertex
100
AcDb2dVertex
 10
196.614015
 20
157.279649
 30
0.0
  0
VERTEX
  5
1640
100
AcDbEntity
  8
ALPHA
100
AcDbVertex
100
AcDb2dVertex
 10
197.554407
 20
158.440152
 30
0.0
  0
VERTEX
  5
1641
100
AcDbEntity
  8
ALPHA
100
AcDbVertex
100
AcDb2dVertex
 10
198.377948
 20
159.695533
 30
0.0
  0
VERTEX
  5
1642
100
AcDbEntity
  8
ALPHA
100
AcDbVertex
100
AcDb2dVertex
 10
199.074456
 20
161.023838
 30
0.0
  0
VERTEX
  5
1643
100
AcDbEntity
  8
ALPHA
100
AcDbVertex
100
AcDb2dVertex
 10
199.638088
 20
162.40177
 30
0.0
  0
VERTEX
  5
1644
100
AcDbEntity
  8
ALPHA
100
AcDbVertex
100
AcDb2dVertex
 10
200.067357
 20
163.805937
 30
0.0
  0
VERTEX
  5
1645
100
AcDbEntity
  8
ALPHA
100
AcDbVertex
100
AcDb2dVertex
 10
200.364837
 20
165.21401
 30
0.0
  0
VERTEX
  5
1646
100
AcDbEntity
  8
ALPHA
100
AcDbVertex
100
AcDb2dVertex
 10
200.591514
 20
167.963259
 30
0.0
  0
VERTEX
  5
1647
100
AcDbEntity
  8
ALPHA
100
AcDbVertex
100
AcDb2dVertex
 10
200.364743
 20
170.712501
 30
0.0
  0
VERTEX
  5
1648
100
AcDbEntity
  8
ALPHA
100
AcDbVertex
100
AcDb2dVertex
 10
200.067215
 20
172.120564
 30
0.0
  0
VERTEX
  5
1649
100
AcDbEntity
  8
ALPHA
100
AcDbVertex
100
AcDb2dVertex
 10
199.637898
 20
173.524716
 30
0.0
  0
VERTEX
  5
164A
100
AcDbEntity
  8
ALPHA
100
AcDbVertex
100
AcDb2dVertex
 10
199.074219
 20
174.902628
 30
0.0
  0
VERTEX
  5
164B
100
AcDbEntity
  8
ALPHA
100
AcDbVertex
100
AcDb2dVertex
 10
198.377665
 20
176.23091
 30
0.0
  0
VERTEX
  5
164C
100
AcDbEntity
  8
ALPHA
100
AcDbVertex
100
AcDb2dVertex
 10
197.554081
 20
177.486262
 30
0.0
  0
VERTEX
  5
164D
100
AcDbEntity
  8
ALPHA
100
AcDbVertex
100
AcDb2dVertex
 10
196.61365
 20
178.646734
 30
0.0
  0
VERTEX
  5
164E
100
AcDbEntity
  8
ALPHA
100
AcDbVertex
100
AcDb2dVertex
 10
195.57052
 20
179.692947
 30
0.0
  0
VERTEX
  5
164F
100
AcDbEntity
  8
ALPHA
100
AcDbVertex
100
AcDb2dVertex
 10
194.44211
 20
180.609161
 30
0.0
  0
VERTEX
  5
1650
100
AcDbEntity
  8
ALPHA
100
AcDbVertex
100
AcDb2dVertex
 10
193.248152
 20
181.384049
 30
0.0
  0
VERTEX
  5
1651
100
AcDbEntity
  8
ALPHA
100
AcDbVertex
100
AcDb2dVertex
 10
192.009587
 20
182.011108
 30
0.0
  0
VERTEX
  5
1652
100
AcDbEntity
  8
ALPHA
100
AcDbVertex
100
AcDb2dVertex
 10
190.747441
 20
182.488686
 30
0.0
  0
VERTEX
  5
1653
100
AcDbEntity
  8
ALPHA
100
AcDbVertex
100
AcDb2dVertex
 10
189.481784
 20
182.819644
 30
0.0
  0
VERTEX
  5
1654
100
AcDbEntity
  8
ALPHA
100
AcDbVertex
100
AcDb2dVertex
 10
188.230886
 20
183.010742
 30
0.0
  0
VERTEX
  5
1655
100
AcDbEntity
  8
ALPHA
100
AcDbVertex
100
AcDb2dVertex
 10
187.010603
 20
183.071838
 30
0.0
  0
SEQEND
  5
1656
100
AcDbEntity
  8
ALPHA
  0
POLYLINE
  5
1657
100
AcDbEntity
  8
ALPHA
100
AcDb2dPolyline
 66
     1
 10
0.0
 20
0.0
 30
0.0
  0
VERTEX
  5
1658
100
AcDbEntity
  8
ALPHA
100
AcDbVertex
100
AcDb2dVertex
 10
187.010603
 20
213.286703
 30
0.0
  0
VERTEX
  5
1659
100
AcDbEntity
  8
ALPHA
100
AcDbVertex
100
AcDb2dVertex
 10
185.790322
 20
213.225566
 30
0.0
  0
VERTEX
  5
165A
100
AcDbEntity
  8
ALPHA
100
AcDbVertex
100
AcDb2dVertex
 10
184.53943
 20
213.034425
 30
0.0
  0
VERTEX
  5
165B
100
AcDbEntity
  8
ALPHA
100
AcDbVertex
100
AcDb2dVertex
 10
183.273784
 20
212.703423
 30
0.0
  0
VERTEX
  5
165C
100
AcDbEntity
  8
ALPHA
100
AcDbVertex
100
AcDb2dVertex
 10
182.011654
 20
212.225802
 30
0.0
  0
VERTEX
  5
165D
100
AcDbEntity
  8
ALPHA
100
AcDbVertex
100
AcDb2dVertex
 10
180.773111
 20
211.598701
 30
0.0
  0
VERTEX
  5
165E
100
AcDbEntity
  8
ALPHA
100
AcDbVertex
100
AcDb2dVertex
 10
179.579179
 20
210.823772
 30
0.0
  0
VERTEX
  5
165F
100
AcDbEntity
  8
ALPHA
100
AcDbVertex
100
AcDb2dVertex
 10
178.450801
 20
209.907519
 30
0.0
  0
VERTEX
  5
1660
100
AcDbEntity
  8
ALPHA
100
AcDbVertex
100
AcDb2dVertex
 10
177.407707
 20
208.861271
 30
0.0
  0
VERTEX
  5
1661
100
AcDbEntity
  8
ALPHA
100
AcDbVertex
100
AcDb2dVertex
 10
176.467315
 20
207.700767
 30
0.0
  0
VERTEX
  5
1662
100
AcDbEntity
  8
ALPHA
100
AcDbVertex
100
AcDb2dVertex
 10
175.643774
 20
206.445387
 30
0.0
  0
VERTEX
  5
1663
100
AcDbEntity
  8
ALPHA
100
AcDbVertex
100
AcDb2dVertex
 10
174.947266
 20
205.117081
 30
0.0
  0
VERTEX
  5
1664
100
AcDbEntity
  8
ALPHA
100
AcDbVertex
100
AcDb2dVertex
 10
174.383634
 20
203.73915
 30
0.0
  0
VERTEX
  5
1665
100
AcDbEntity
  8
ALPHA
100
AcDbVertex
100
AcDb2dVertex
 10
173.954365
 20
202.334982
 30
0.0
  0
VERTEX
  5
1666
100
AcDbEntity
  8
ALPHA
100
AcDbVertex
100
AcDb2dVertex
 10
173.656885
 20
200.926909
 30
0.0
  0
VERTEX
  5
1667
100
AcDbEntity
  8
ALPHA
100
AcDbVertex
100
AcDb2dVertex
 10
173.430208
 20
198.17766
 30
0.0
  0
VERTEX
  5
1668
100
AcDbEntity
  8
ALPHA
100
AcDbVertex
100
AcDb2dVertex
 10
173.656979
 20
195.428419
 30
0.0
  0
VERTEX
  5
1669
100
AcDbEntity
  8
ALPHA
100
AcDbVertex
100
AcDb2dVertex
 10
173.954507
 20
194.020356
 30
0.0
  0
VERTEX
  5
166A
100
AcDbEntity
  8
ALPHA
100
AcDbVertex
100
AcDb2dVertex
 10
174.383824
 20
192.616203
 30
0.0
  0
VERTEX
  5
166B
100
AcDbEntity
  8
ALPHA
100
AcDbVertex
100
AcDb2dVertex
 10
174.947503
 20
191.238291
 30
0.0
  0
VERTEX
  5
166C
100
AcDbEntity
  8
ALPHA
100
AcDbVertex
100
AcDb2dVertex
 10
175.644057
 20
189.910009
 30
0.0
  0
VERTEX
  5
166D
100
AcDbEntity
  8
ALPHA
100
AcDbVertex
100
AcDb2dVertex
 10
176.467641
 20
188.654657
 30
0.0
  0
VERTEX
  5
166E
100
AcDbEntity
  8
ALPHA
100
AcDbVertex
100
AcDb2dVertex
 10
177.408072
 20
187.494186
 30
0.0
  0
VERTEX
  5
166F
100
AcDbEntity
  8
ALPHA
100
AcDbVertex
100
AcDb2dVertex
 10
178.451202
 20
186.447973
 30
0.0
  0
VERTEX
  5
1670
100
AcDbEntity
  8
ALPHA
100
AcDbVertex
100
AcDb2dVertex
 10
179.579612
 20
185.531758
 30
0.0
  0
VERTEX
  5
1671
100
AcDbEntity
  8
ALPHA
100
AcDbVertex
100
AcDb2dVertex
 10
180.77357
 20
184.756871
 30
0.0
  0
VERTEX
  5
1672
100
AcDbEntity
  8
ALPHA
100
AcDbVertex
100
AcDb2dVertex
 10
182.012135
 20
184.129811
 30
0.0
  0
VERTEX
  5
1673
100
AcDbEntity
  8
ALPHA
100
AcDbVertex
100
AcDb2dVertex
 10
183.274281
 20
183.652234
 30
0.0
  0
VERTEX
  5
1674
100
AcDbEntity
  8
ALPHA
100
AcDbVertex
100
AcDb2dVertex
 10
184.539938
 20
183.321275
 30
0.0
  0
VERTEX
  5
1675
100
AcDbEntity
  8
ALPHA
100
AcDbVertex
100
AcDb2dVertex
 10
185.790836
 20
183.130177
 30
0.0
  0
VERTEX
  5
1676
100
AcDbEntity
  8
ALPHA
100
AcDbVertex
100
AcDb2dVertex
 10
187.011119
 20
183.069082
 30
0.0
  0
VERTEX
  5
1677
100
AcDbEntity
  8
ALPHA
100
AcDbVertex
100
AcDb2dVertex
 10
188.2314
 20
183.130219
 30
0.0
  0
VERTEX
  5
1678
100
AcDbEntity
  8
ALPHA
100
AcDbVertex
100
AcDb2dVertex
 10
189.482292
 20
183.32136
 30
0.0
  0
VERTEX
  5
1679
100
AcDbEntity
  8
ALPHA
100
AcDbVertex
100
AcDb2dVertex
 10
190.747938
 20
183.652361
 30
0.0
  0
VERTEX
  5
167A
100
AcDbEntity
  8
ALPHA
100
AcDbVertex
100
AcDb2dVertex
 10
192.010068
 20
184.129982
 30
0.0
  0
VERTEX
  5
167B
100
AcDbEntity
  8
ALPHA
100
AcDbVertex
100
AcDb2dVertex
 10
193.248611
 20
184.757084
 30
0.0
  0
VERTEX
  5
167C
100
AcDbEntity
  8
ALPHA
100
AcDbVertex
100
AcDb2dVertex
 10
194.442543
 20
185.532013
 30
0.0
  0
VERTEX
  5
167D
100
AcDbEntity
  8
ALPHA
100
AcDbVertex
100
AcDb2dVertex
 10
195.570921
 20
186.448265
 30
0.0
  0
VERTEX
  5
167E
100
AcDbEntity
  8
ALPHA
100
AcDbVertex
100
AcDb2dVertex
 10
196.614015
 20
187.494514
 30
0.0
  0
VERTEX
  5
167F
100
AcDbEntity
  8
ALPHA
100
AcDbVertex
100
AcDb2dVertex
 10
197.554407
 20
188.655018
 30
0.0
  0
VERTEX
  5
1680
100
AcDbEntity
  8
ALPHA
100
AcDbVertex
100
AcDb2dVertex
 10
198.377948
 20
189.910398
 30
0.0
  0
VERTEX
  5
1681
100
AcDbEntity
  8
ALPHA
100
AcDbVertex
100
AcDb2dVertex
 10
199.074456
 20
191.238704
 30
0.0
  0
VERTEX
  5
1682
100
AcDbEntity
  8
ALPHA
100
AcDbVertex
100
AcDb2dVertex
 10
199.638088
 20
192.616635
 30
0.0
  0
VERTEX
  5
1683
100
AcDbEntity
  8
ALPHA
100
AcDbVertex
100
AcDb2dVertex
 10
200.067357
 20
194.020802
 30
0.0
  0
VERTEX
  5
1684
100
AcDbEntity
  8
ALPHA
100
AcDbVertex
100
AcDb2dVertex
 10
200.364837
 20
195.428875
 30
0.0
  0
VERTEX
  5
1685
100
AcDbEntity
  8
ALPHA
100
AcDbVertex
100
AcDb2dVertex
 10
200.591514
 20
198.178125
 30
0.0
  0
VERTEX
  5
1686
100
AcDbEntity
  8
ALPHA
100
AcDbVertex
100
AcDb2dVertex
 10
200.364743
 20
200.927366
 30
0.0
  0
VERTEX
  5
1687
100
AcDbEntity
  8
ALPHA
100
AcDbVertex
100
AcDb2dVertex
 10
200.067215
 20
202.335429
 30
0.0
  0
VERTEX
  5
1688
100
AcDbEntity
  8
ALPHA
100
AcDbVertex
100
AcDb2dVertex
 10
199.637898
 20
203.739582
 30
0.0
  0
VERTEX
  5
1689
100
AcDbEntity
  8
ALPHA
100
AcDbVertex
100
AcDb2dVertex
 10
199.074219
 20
205.117494
 30
0.0
  0
VERTEX
  5
168A
100
AcDbEntity
  8
ALPHA
100
AcDbVertex
100
AcDb2dVertex
 10
198.377665
 20
206.445775
 30
0.0
  0
VERTEX
  5
168B
100
AcDbEntity
  8
ALPHA
100
AcDbVertex
100
AcDb2dVertex
 10
197.554081
 20
207.701128
 30
0.0
  0
VERTEX
  5
168C
100
AcDbEntity
  8
ALPHA
100
AcDbVertex
100
AcDb2dVertex
 10
196.61365
 20
208.861599
 30
0.0
  0
VERTEX
  5
168D
100
AcDbEntity
  8
ALPHA
100
AcDbVertex
100
AcDb2dVertex
 10
195.57052
 20
209.907812
 30
0.0
  0
VERTEX
  5
168E
100
AcDbEntity
  8
ALPHA
100
AcDbVertex
100
AcDb2dVertex
 10
194.44211
 20
210.824026
 30
0.0
  0
VERTEX
  5
168F
100
AcDbEntity
  8
ALPHA
100
AcDbVertex
100
AcDb2dVertex
 10
193.248152
 20
211.598914
 30
0.0
  0
VERTEX
  5
1690
100
AcDbEntity
  8
ALPHA
100
AcDbVertex
100
AcDb2dVertex
 10
192.009587
 20
212.225973
 30
0.0
  0
VERTEX
  5
1691
100
AcDbEntity
  8
ALPHA
100
AcDbVertex
100
AcDb2dVertex
 10
190.747441
 20
212.703551
 30
0.0
  0
VERTEX
  5
1692
100
AcDbEntity
  8
ALPHA
100
AcDbVertex
100
AcDb2dVertex
 10
189.481784
 20
213.034509
 30
0.0
  0
VERTEX
  5
1693
100
AcDbEntity
  8
ALPHA
100
AcDbVertex
100
AcDb2dVertex
 10
188.230886
 20
213.225607
 30
0.0
  0
VERTEX
  5
1694
100
AcDbEntity
  8
ALPHA
100
AcDbVertex
100
AcDb2dVertex
 10
187.010603
 20
213.286703
 30
0.0
  0
SEQEND
  5
1695
100
AcDbEntity
  8
ALPHA
  0
POLYLINE
  5
1696
100
AcDbEntity
  8
ALPHA
100
AcDb2dPolyline
 66
     1
 10
0.0
 20
0.0
 30
0.0
  0
VERTEX
  5
1697
100
AcDbEntity
  8
ALPHA
100
AcDbVertex
100
AcDb2dVertex
 10
187.010603
 20
304.007436
 30
0.0
  0
VERTEX
  5
1698
100
AcDbEntity
  8
ALPHA
100
AcDbVertex
100
AcDb2dVertex
 10
185.790297
 20
303.946311
 30
0.0
  0
VERTEX
  5
1699
100
AcDbEntity
  8
ALPHA
100
AcDbVertex
100
AcDb2dVertex
 10
184.539379
 20
303.755163
 30
0.0
  0
VERTEX
  5
169A
100
AcDbEntity
  8
ALPHA
100
AcDbVertex
100
AcDb2dVertex
 10
183.273703
 20
303.424134
 30
0.0
  0
VERTEX
  5
169B
100
AcDbEntity
  8
ALPHA
100
AcDbVertex
100
AcDb2dVertex
 10
182.011541
 20
302.946464
 30
0.0
  0
VERTEX
  5
169C
100
AcDbEntity
  8
ALPHA
100
AcDbVertex
100
AcDb2dVertex
 10
180.772964
 20
302.31929
 30
0.0
  0
VERTEX
  5
169D
100
AcDbEntity
  8
ALPHA
100
AcDbVertex
100
AcDb2dVertex
 10
179.578996
 20
301.544267
 30
0.0
  0
VERTEX
  5
169E
100
AcDbEntity
  8
ALPHA
100
AcDbVertex
100
AcDb2dVertex
 10
178.45058
 20
300.627898
 30
0.0
  0
VERTEX
  5
169F
100
AcDbEntity
  8
ALPHA
100
AcDbVertex
100
AcDb2dVertex
 10
177.407448
 20
299.581512
 30
0.0
  0
VERTEX
  5
16A0
100
AcDbEntity
  8
ALPHA
100
AcDbVertex
100
AcDb2dVertex
 10
176.467019
 20
298.420853
 30
0.0
  0
VERTEX
  5
16A1
100
AcDbEntity
  8
ALPHA
100
AcDbVertex
100
AcDb2dVertex
 10
175.643441
 20
297.1653
 30
0.0
  0
VERTEX
  5
16A2
100
AcDbEntity
  8
ALPHA
100
AcDbVertex
100
AcDb2dVertex
 10
174.946897
 20
295.83681
 30
0.0
  0
VERTEX
  5
16A3
100
AcDbEntity
  8
ALPHA
100
AcDbVertex
100
AcDb2dVertex
 10
174.38323
 20
294.458684
 30
0.0
  0
VERTEX
  5
16A4
100
AcDbEntity
  8
ALPHA
100
AcDbVertex
100
AcDb2dVertex
 10
173.953929
 20
293.054316
 30
0.0
  0
VERTEX
  5
16A5
100
AcDbEntity
  8
ALPHA
100
AcDbVertex
100
AcDb2dVertex
 10
173.65642
 20
291.646039
 30
0.0
  0
VERTEX
  5
16A6
100
AcDbEntity
  8
ALPHA
100
AcDbVertex
100
AcDb2dVertex
 10
173.429692
 20
288.896386
 30
0.0
  0
VERTEX
  5
16A7
100
AcDbEntity
  8
ALPHA
100
AcDbVertex
100
AcDb2dVertex
 10
173.65642
 20
286.146733
 30
0.0
  0
VERTEX
  5
16A8
100
AcDbEntity
  8
ALPHA
100
AcDbVertex
100
AcDb2dVertex
 10
173.953929
 20
284.738456
 30
0.0
  0
VERTEX
  5
16A9
100
AcDbEntity
  8
ALPHA
100
AcDbVertex
100
AcDb2dVertex
 10
174.38323
 20
283.334088
 30
0.0
  0
VERTEX
  5
16AA
100
AcDbEntity
  8
ALPHA
100
AcDbVertex
100
AcDb2dVertex
 10
174.946897
 20
281.955962
 30
0.0
  0
VERTEX
  5
16AB
100
AcDbEntity
  8
ALPHA
100
AcDbVertex
100
AcDb2dVertex
 10
175.643441
 20
280.627472
 30
0.0
  0
VERTEX
  5
16AC
100
AcDbEntity
  8
ALPHA
100
AcDbVertex
100
AcDb2dVertex
 10
176.467019
 20
279.371919
 30
0.0
  0
VERTEX
  5
16AD
100
AcDbEntity
  8
ALPHA
100
AcDbVertex
100
AcDb2dVertex
 10
177.407448
 20
278.21126
 30
0.0
  0
VERTEX
  5
16AE
100
AcDbEntity
  8
ALPHA
100
AcDbVertex
100
AcDb2dVertex
 10
178.45058
 20
277.164874
 30
0.0
  0
VERTEX
  5
16AF
100
AcDbEntity
  8
ALPHA
100
AcDbVertex
100
AcDb2dVertex
 10
179.578996
 20
276.248505
 30
0.0
  0
VERTEX
  5
16B0
100
AcDbEntity
  8
ALPHA
100
AcDbVertex
100
AcDb2dVertex
 10
180.772964
 20
275.473482
 30
0.0
  0
VERTEX
  5
16B1
100
AcDbEntity
  8
ALPHA
100
AcDbVertex
100
AcDb2dVertex
 10
182.011541
 20
274.846308
 30
0.0
  0
VERTEX
  5
16B2
100
AcDbEntity
  8
ALPHA
100
AcDbVertex
100
AcDb2dVertex
 10
183.273703
 20
274.368638
 30
0.0
  0
VERTEX
  5
16B3
100
AcDbEntity
  8
ALPHA
100
AcDbVertex
100
AcDb2dVertex
 10
184.539379
 20
274.037609
 30
0.0
  0
VERTEX
  5
16B4
100
AcDbEntity
  8
ALPHA
100
AcDbVertex
100
AcDb2dVertex
 10
185.790297
 20
273.846462
 30
0.0
  0
VERTEX
  5
16B5
100
AcDbEntity
  8
ALPHA
100
AcDbVertex
100
AcDb2dVertex
 10
187.010603
 20
273.785336
 30
0.0
  0
VERTEX
  5
16B6
100
AcDbEntity
  8
ALPHA
100
AcDbVertex
100
AcDb2dVertex
 10
188.230908
 20
273.846462
 30
0.0
  0
VERTEX
  5
16B7
100
AcDbEntity
  8
ALPHA
100
AcDbVertex
100
AcDb2dVertex
 10
189.481827
 20
274.037609
 30
0.0
  0
VERTEX
  5
16B8
100
AcDbEntity
  8
ALPHA
100
AcDbVertex
100
AcDb2dVertex
 10
190.747502
 20
274.368638
 30
0.0
  0
VERTEX
  5
16B9
100
AcDbEntity
  8
ALPHA
100
AcDbVertex
100
AcDb2dVertex
 10
192.009664
 20
274.846308
 30
0.0
  0
VERTEX
  5
16BA
100
AcDbEntity
  8
ALPHA
100
AcDbVertex
100
AcDb2dVertex
 10
193.248242
 20
275.473482
 30
0.0
  0
VERTEX
  5
16BB
100
AcDbEntity
  8
ALPHA
100
AcDbVertex
100
AcDb2dVertex
 10
194.44221
 20
276.248505
 30
0.0
  0
VERTEX
  5
16BC
100
AcDbEntity
  8
ALPHA
100
AcDbVertex
100
AcDb2dVertex
 10
195.570625
 20
277.164874
 30
0.0
  0
VERTEX
  5
16BD
100
AcDbEntity
  8
ALPHA
100
AcDbVertex
100
AcDb2dVertex
 10
196.613757
 20
278.21126
 30
0.0
  0
VERTEX
  5
16BE
100
AcDbEntity
  8
ALPHA
100
AcDbVertex
100
AcDb2dVertex
 10
197.554186
 20
279.371919
 30
0.0
  0
VERTEX
  5
16BF
100
AcDbEntity
  8
ALPHA
100
AcDbVertex
100
AcDb2dVertex
 10
198.377764
 20
280.627472
 30
0.0
  0
VERTEX
  5
16C0
100
AcDbEntity
  8
ALPHA
100
AcDbVertex
100
AcDb2dVertex
 10
199.074309
 20
281.955962
 30
0.0
  0
VERTEX
  5
16C1
100
AcDbEntity
  8
ALPHA
100
AcDbVertex
100
AcDb2dVertex
 10
199.637975
 20
283.334088
 30
0.0
  0
VERTEX
  5
16C2
100
AcDbEntity
  8
ALPHA
100
AcDbVertex
100
AcDb2dVertex
 10
200.067276
 20
284.738456
 30
0.0
  0
VERTEX
  5
16C3
100
AcDbEntity
  8
ALPHA
100
AcDbVertex
100
AcDb2dVertex
 10
200.364785
 20
286.146733
 30
0.0
  0
VERTEX
  5
16C4
100
AcDbEntity
  8
ALPHA
100
AcDbVertex
100
AcDb2dVertex
 10
200.591514
 20
288.896386
 30
0.0
  0
VERTEX
  5
16C5
100
AcDbEntity
  8
ALPHA
100
AcDbVertex
100
AcDb2dVertex
 10
200.364785
 20
291.646039
 30
0.0
  0
VERTEX
  5
16C6
100
AcDbEntity
  8
ALPHA
100
AcDbVertex
100
AcDb2dVertex
 10
200.067276
 20
293.054316
 30
0.0
  0
VERTEX
  5
16C7
100
AcDbEntity
  8
ALPHA
100
AcDbVertex
100
AcDb2dVertex
 10
199.637975
 20
294.458684
 30
0.0
  0
VERTEX
  5
16C8
100
AcDbEntity
  8
ALPHA
100
AcDbVertex
100
AcDb2dVertex
 10
199.074309
 20
295.83681
 30
0.0
  0
VERTEX
  5
16C9
100
AcDbEntity
  8
ALPHA
100
AcDbVertex
100
AcDb2dVertex
 10
198.377764
 20
297.1653
 30
0.0
  0
VERTEX
  5
16CA
100
AcDbEntity
  8
ALPHA
100
AcDbVertex
100
AcDb2dVertex
 10
197.554186
 20
298.420853
 30
0.0
  0
VERTEX
  5
16CB
100
AcDbEntity
  8
ALPHA
100
AcDbVertex
100
AcDb2dVertex
 10
196.613757
 20
299.581512
 30
0.0
  0
VERTEX
  5
16CC
100
AcDbEntity
  8
ALPHA
100
AcDbVertex
100
AcDb2dVertex
 10
195.570625
 20
300.627898
 30
0.0
  0
VERTEX
  5
16CD
100
AcDbEntity
  8
ALPHA
100
AcDbVertex
100
AcDb2dVertex
 10
194.44221
 20
301.544267
 30
0.0
  0
VERTEX
  5
16CE
100
AcDbEntity
  8
ALPHA
100
AcDbVertex
100
AcDb2dVertex
 10
193.248242
 20
302.31929
 30
0.0
  0
VERTEX
  5
16CF
100
AcDbEntity
  8
ALPHA
100
AcDbVertex
100
AcDb2dVertex
 10
192.009664
 20
302.946464
 30
0.0
  0
VERTEX
  5
16D0
100
AcDbEntity
  8
ALPHA
100
AcDbVertex
100
AcDb2dVertex
 10
190.747502
 20
303.424134
 30
0.0
  0
VERTEX
  5
16D1
100
AcDbEntity
  8
ALPHA
100
AcDbVertex
100
AcDb2dVertex
 10
189.481827
 20
303.755163
 30
0.0
  0
VERTEX
  5
16D2
100
AcDbEntity
  8
ALPHA
100
AcDbVertex
100
AcDb2dVertex
 10
188.230908
 20
303.946311
 30
0.0
  0
VERTEX
  5
16D3
100
AcDbEntity
  8
ALPHA
100
AcDbVertex
100
AcDb2dVertex
 10
187.010603
 20
304.007436
 30
0.0
  0
SEQEND
  5
16D4
100
AcDbEntity
  8
ALPHA
  0
POLYLINE
  5
16D5
100
AcDbEntity
  8
ALPHA
100
AcDb2dPolyline
 66
     1
 10
0.0
 20
0.0
 30
0.0
  0
VERTEX
  5
16D6
100
AcDbEntity
  8
ALPHA
100
AcDbVertex
100
AcDb2dVertex
 10
187.010603
 20
273.792571
 30
0.0
  0
VERTEX
  5
16D7
100
AcDbEntity
  8
ALPHA
100
AcDbVertex
100
AcDb2dVertex
 10
185.790297
 20
273.731453
 30
0.0
  0
VERTEX
  5
16D8
100
AcDbEntity
  8
ALPHA
100
AcDbVertex
100
AcDb2dVertex
 10
184.539379
 20
273.540329
 30
0.0
  0
VERTEX
  5
16D9
100
AcDbEntity
  8
ALPHA
100
AcDbVertex
100
AcDb2dVertex
 10
183.273703
 20
273.209342
 30
0.0
  0
VERTEX
  5
16DA
100
AcDbEntity
  8
ALPHA
100
AcDbVertex
100
AcDb2dVertex
 10
182.011541
 20
272.731731
 30
0.0
  0
VERTEX
  5
16DB
100
AcDbEntity
  8
ALPHA
100
AcDbVertex
100
AcDb2dVertex
 10
180.772964
 20
272.104636
 30
0.0
  0
VERTEX
  5
16DC
100
AcDbEntity
  8
ALPHA
100
AcDbVertex
100
AcDb2dVertex
 10
179.578996
 20
271.329711
 30
0.0
  0
VERTEX
  5
16DD
100
AcDbEntity
  8
ALPHA
100
AcDbVertex
100
AcDb2dVertex
 10
178.45058
 20
270.413456
 30
0.0
  0
VERTEX
  5
16DE
100
AcDbEntity
  8
ALPHA
100
AcDbVertex
100
AcDb2dVertex
 10
177.407448
 20
269.367202
 30
0.0
  0
VERTEX
  5
16DF
100
AcDbEntity
  8
ALPHA
100
AcDbVertex
100
AcDb2dVertex
 10
176.467019
 20
268.206688
 30
0.0
  0
VERTEX
  5
16E0
100
AcDbEntity
  8
ALPHA
100
AcDbVertex
100
AcDb2dVertex
 10
175.643441
 20
266.951293
 30
0.0
  0
VERTEX
  5
16E1
100
AcDbEntity
  8
ALPHA
100
AcDbVertex
100
AcDb2dVertex
 10
174.946897
 20
265.622969
 30
0.0
  0
VERTEX
  5
16E2
100
AcDbEntity
  8
ALPHA
100
AcDbVertex
100
AcDb2dVertex
 10
174.383231
 20
264.245015
 30
0.0
  0
VERTEX
  5
16E3
100
AcDbEntity
  8
ALPHA
100
AcDbVertex
100
AcDb2dVertex
 10
173.953929
 20
262.840824
 30
0.0
  0
VERTEX
  5
16E4
100
AcDbEntity
  8
ALPHA
100
AcDbVertex
100
AcDb2dVertex
 10
173.65642
 20
261.432723
 30
0.0
  0
VERTEX
  5
16E5
100
AcDbEntity
  8
ALPHA
100
AcDbVertex
100
AcDb2dVertex
 10
173.429692
 20
258.683415
 30
0.0
  0
VERTEX
  5
16E6
100
AcDbEntity
  8
ALPHA
100
AcDbVertex
100
AcDb2dVertex
 10
173.65642
 20
255.934107
 30
0.0
  0
VERTEX
  5
16E7
100
AcDbEntity
  8
ALPHA
100
AcDbVertex
100
AcDb2dVertex
 10
173.953929
 20
254.526007
 30
0.0
  0
VERTEX
  5
16E8
100
AcDbEntity
  8
ALPHA
100
AcDbVertex
100
AcDb2dVertex
 10
174.383231
 20
253.121815
 30
0.0
  0
VERTEX
  5
16E9
100
AcDbEntity
  8
ALPHA
100
AcDbVertex
100
AcDb2dVertex
 10
174.946897
 20
251.743862
 30
0.0
  0
VERTEX
  5
16EA
100
AcDbEntity
  8
ALPHA
100
AcDbVertex
100
AcDb2dVertex
 10
175.643441
 20
250.415538
 30
0.0
  0
VERTEX
  5
16EB
100
AcDbEntity
  8
ALPHA
100
AcDbVertex
100
AcDb2dVertex
 10
176.467019
 20
249.160143
 30
0.0
  0
VERTEX
  5
16EC
100
AcDbEntity
  8
ALPHA
100
AcDbVertex
100
AcDb2dVertex
 10
177.407448
 20
247.999629
 30
0.0
  0
VERTEX
  5
16ED
100
AcDbEntity
  8
ALPHA
100
AcDbVertex
100
AcDb2dVertex
 10
178.45058
 20
246.953375
 30
0.0
  0
VERTEX
  5
16EE
100
AcDbEntity
  8
ALPHA
100
AcDbVertex
100
AcDb2dVertex
 10
179.578996
 20
246.03712
 30
0.0
  0
VERTEX
  5
16EF
100
AcDbEntity
  8
ALPHA
100
AcDbVertex
100
AcDb2dVertex
 10
180.772964
 20
245.262194
 30
0.0
  0
VERTEX
  5
16F0
100
AcDbEntity
  8
ALPHA
100
AcDbVertex
100
AcDb2dVertex
 10
182.011541
 20
244.6351
 30
0.0
  0
VERTEX
  5
16F1
100
AcDbEntity
  8
ALPHA
100
AcDbVertex
100
AcDb2dVertex
 10
183.273703
 20
244.157489
 30
0.0
  0
VERTEX
  5
16F2
100
AcDbEntity
  8
ALPHA
100
AcDbVertex
100
AcDb2dVertex
 10
184.539379
 20
243.826502
 30
0.0
  0
VERTEX
  5
16F3
100
AcDbEntity
  8
ALPHA
100
AcDbVertex
100
AcDb2dVertex
 10
185.790297
 20
243.635378
 30
0.0
  0
VERTEX
  5
16F4
100
AcDbEntity
  8
ALPHA
100
AcDbVertex
100
AcDb2dVertex
 10
187.010603
 20
243.57426
 30
0.0
  0
VERTEX
  5
16F5
100
AcDbEntity
  8
ALPHA
100
AcDbVertex
100
AcDb2dVertex
 10
188.230908
 20
243.635378
 30
0.0
  0
VERTEX
  5
16F6
100
AcDbEntity
  8
ALPHA
100
AcDbVertex
100
AcDb2dVertex
 10
189.481827
 20
243.826502
 30
0.0
  0
VERTEX
  5
16F7
100
AcDbEntity
  8
ALPHA
100
AcDbVertex
100
AcDb2dVertex
 10
190.747502
 20
244.157489
 30
0.0
  0
VERTEX
  5
16F8
100
AcDbEntity
  8
ALPHA
100
AcDbVertex
100
AcDb2dVertex
 10
192.009664
 20
244.6351
 30
0.0
  0
VERTEX
  5
16F9
100
AcDbEntity
  8
ALPHA
100
AcDbVertex
100
AcDb2dVertex
 10
193.248242
 20
245.262194
 30
0.0
  0
VERTEX
  5
16FA
100
AcDbEntity
  8
ALPHA
100
AcDbVertex
100
AcDb2dVertex
 10
194.44221
 20
246.03712
 30
0.0
  0
VERTEX
  5
16FB
100
AcDbEntity
  8
ALPHA
100
AcDbVertex
100
AcDb2dVertex
 10
195.570625
 20
246.953375
 30
0.0
  0
VERTEX
  5
16FC
100
AcDbEntity
  8
ALPHA
100
AcDbVertex
100
AcDb2dVertex
 10
196.613757
 20
247.999629
 30
0.0
  0
VERTEX
  5
16FD
100
AcDbEntity
  8
ALPHA
100
AcDbVertex
100
AcDb2dVertex
 10
197.554186
 20
249.160143
 30
0.0
  0
VERTEX
  5
16FE
100
AcDbEntity
  8
ALPHA
100
AcDbVertex
100
AcDb2dVertex
 10
198.377764
 20
250.415538
 30
0.0
  0
VERTEX
  5
16FF
100
AcDbEntity
  8
ALPHA
100
AcDbVertex
100
AcDb2dVertex
 10
199.074309
 20
251.743862
 30
0.0
  0
VERTEX
  5
1700
100
AcDbEntity
  8
ALPHA
100
AcDbVertex
100
AcDb2dVertex
 10
199.637975
 20
253.121815
 30
0.0
  0
VERTEX
  5
1701
100
AcDbEntity
  8
ALPHA
100
AcDbVertex
100
AcDb2dVertex
 10
200.067276
 20
254.526007
 30
0.0
  0
VERTEX
  5
1702
100
AcDbEntity
  8
ALPHA
100
AcDbVertex
100
AcDb2dVertex
 10
200.364785
 20
255.934107
 30
0.0
  0
VERTEX
  5
1703
100
AcDbEntity
  8
ALPHA
100
AcDbVertex
100
AcDb2dVertex
 10
200.591514
 20
258.683415
 30
0.0
  0
VERTEX
  5
1704
100
AcDbEntity
  8
ALPHA
100
AcDbVertex
100
AcDb2dVertex
 10
200.364785
 20
261.432723
 30
0.0
  0
VERTEX
  5
1705
100
AcDbEntity
  8
ALPHA
100
AcDbVertex
100
AcDb2dVertex
 10
200.067276
 20
262.840824
 30
0.0
  0
VERTEX
  5
1706
100
AcDbEntity
  8
ALPHA
100
AcDbVertex
100
AcDb2dVertex
 10
199.637975
 20
264.245015
 30
0.0
  0
VERTEX
  5
1707
100
AcDbEntity
  8
ALPHA
100
AcDbVertex
100
AcDb2dVertex
 10
199.074309
 20
265.622969
 30
0.0
  0
VERTEX
  5
1708
100
AcDbEntity
  8
ALPHA
100
AcDbVertex
100
AcDb2dVertex
 10
198.377764
 20
266.951293
 30
0.0
  0
VERTEX
  5
1709
100
AcDbEntity
  8
ALPHA
100
AcDbVertex
100
AcDb2dVertex
 10
197.554186
 20
268.206688
 30
0.0
  0
VERTEX
  5
170A
100
AcDbEntity
  8
ALPHA
100
AcDbVertex
100
AcDb2dVertex
 10
196.613757
 20
269.367202
 30
0.0
  0
VERTEX
  5
170B
100
AcDbEntity
  8
ALPHA
100
AcDbVertex
100
AcDb2dVertex
 10
195.570625
 20
270.413456
 30
0.0
  0
VERTEX
  5
170C
100
AcDbEntity
  8
ALPHA
100
AcDbVertex
100
AcDb2dVertex
 10
194.44221
 20
271.329711
 30
0.0
  0
VERTEX
  5
170D
100
AcDbEntity
  8
ALPHA
100
AcDbVertex
100
AcDb2dVertex
 10
193.248242
 20
272.104636
 30
0.0
  0
VERTEX
  5
170E
100
AcDbEntity
  8
ALPHA
100
AcDbVertex
100
AcDb2dVertex
 10
192.009664
 20
272.731731
 30
0.0
  0
VERTEX
  5
170F
100
AcDbEntity
  8
ALPHA
100
AcDbVertex
100
AcDb2dVertex
 10
190.747502
 20
273.209342
 30
0.0
  0
VERTEX
  5
1710
100
AcDbEntity
  8
ALPHA
100
AcDbVertex
100
AcDb2dVertex
 10
189.481827
 20
273.540329
 30
0.0
  0
VERTEX
  5
1711
100
AcDbEntity
  8
ALPHA
100
AcDbVertex
100
AcDb2dVertex
 10
188.230908
 20
273.731453
 30
0.0
  0
VERTEX
  5
1712
100
AcDbEntity
  8
ALPHA
100
AcDbVertex
100
AcDb2dVertex
 10
187.010603
 20
273.792571
 30
0.0
  0
SEQEND
  5
1713
100
AcDbEntity
  8
ALPHA
  0
POLYLINE
  5
1714
100
AcDbEntity
  8
ALPHA
100
AcDb2dPolyline
 66
     1
 10
0.0
 20
0.0
 30
0.0
  0
VERTEX
  5
1715
100
AcDbEntity
  8
ALPHA
100
AcDbVertex
100
AcDb2dVertex
 10
204.096898
 20
247.701829
 30
0.0
  0
VERTEX
  5
1716
100
AcDbEntity
  8
ALPHA
100
AcDbVertex
100
AcDb2dVertex
 10
202.549345
 20
247.624321
 30
0.0
  0
VERTEX
  5
1717
100
AcDbEntity
  8
ALPHA
100
AcDbVertex
100
AcDb2dVertex
 10
200.962968
 20
247.381944
 30
0.0
  0
VERTEX
  5
1718
100
AcDbEntity
  8
ALPHA
100
AcDbVertex
100
AcDb2dVertex
 10
199.357878
 20
246.962197
 30
0.0
  0
VERTEX
  5
1719
100
AcDbEntity
  8
ALPHA
100
AcDbVertex
100
AcDb2dVertex
 10
197.757242
 20
246.356507
 30
0.0
  0
VERTEX
  5
171A
100
AcDbEntity
  8
ALPHA
100
AcDbVertex
100
AcDb2dVertex
 10
196.186516
 20
245.561246
 30
0.0
  0
VERTEX
  5
171B
100
AcDbEntity
  8
ALPHA
100
AcDbVertex
100
AcDb2dVertex
 10
194.672363
 20
244.578511
 30
0.0
  0
VERTEX
  5
171C
100
AcDbEntity
  8
ALPHA
100
AcDbVertex
100
AcDb2dVertex
 10
193.241341
 20
243.416548
 30
0.0
  0
VERTEX
  5
171D
100
AcDbEntity
  8
ALPHA
100
AcDbVertex
100
AcDb2dVertex
 10
191.918473
 20
242.089722
 30
0.0
  0
VERTEX
  5
171E
100
AcDbEntity
  8
ALPHA
100
AcDbVertex
100
AcDb2dVertex
 10
190.72585
 20
240.617997
 30
0.0
  0
VERTEX
  5
171F
100
AcDbEntity
  8
ALPHA
100
AcDbVertex
100
AcDb2dVertex
 10
189.681414
 20
239.025946
 30
0.0
  0
VERTEX
  5
1720
100
AcDbEntity
  8
ALPHA
100
AcDbVertex
100
AcDb2dVertex
 10
188.798077
 20
237.341409
 30
0.0
  0
VERTEX
  5
1721
100
AcDbEntity
  8
ALPHA
100
AcDbVertex
100
AcDb2dVertex
 10
188.083253
 20
235.593935
 30
0.0
  0
VERTEX
  5
1722
100
AcDbEntity
  8
ALPHA
100
AcDbVertex
100
AcDb2dVertex
 10
187.538826
 20
233.813185
 30
0.0
  0
VERTEX
  5
1723
100
AcDbEntity
  8
ALPHA
100
AcDbVertex
100
AcDb2dVertex
 10
187.161534
 20
232.027479
 30
0.0
  0
VERTEX
  5
1724
100
AcDbEntity
  8
ALPHA
100
AcDbVertex
100
AcDb2dVertex
 10
186.874005
 20
228.540897
 30
0.0
  0
VERTEX
  5
1725
100
AcDbEntity
  8
ALPHA
100
AcDbVertex
100
AcDb2dVertex
 10
187.161534
 20
225.054315
 30
0.0
  0
VERTEX
  5
1726
100
AcDbEntity
  8
ALPHA
100
AcDbVertex
100
AcDb2dVertex
 10
187.538826
 20
223.268609
 30
0.0
  0
VERTEX
  5
1727
100
AcDbEntity
  8
ALPHA
100
AcDbVertex
100
AcDb2dVertex
 10
188.083253
 20
221.487859
 30
0.0
  0
VERTEX
  5
1728
100
AcDbEntity
  8
ALPHA
100
AcDbVertex
100
AcDb2dVertex
 10
188.798077
 20
219.740384
 30
0.0
  0
VERTEX
  5
1729
100
AcDbEntity
  8
ALPHA
100
AcDbVertex
100
AcDb2dVertex
 10
189.681414
 20
218.055848
 30
0.0
  0
VERTEX
  5
172A
100
AcDbEntity
  8
ALPHA
100
AcDbVertex
100
AcDb2dVertex
 10
190.72585
 20
216.463797
 30
0.0
  0
VERTEX
  5
172B
100
AcDbEntity
  8
ALPHA
100
AcDbVertex
100
AcDb2dVertex
 10
191.918473
 20
214.992072
 30
0.0
  0
VERTEX
  5
172C
100
AcDbEntity
  8
ALPHA
100
AcDbVertex
100
AcDb2dVertex
 10
193.241341
 20
213.665246
 30
0.0
  0
VERTEX
  5
172D
100
AcDbEntity
  8
ALPHA
100
AcDbVertex
100
AcDb2dVertex
 10
194.672363
 20
212.503283
 30
0.0
  0
VERTEX
  5
172E
100
AcDbEntity
  8
ALPHA
100
AcDbVertex
100
AcDb2dVertex
 10
196.186516
 20
211.520547
 30
0.0
  0
VERTEX
  5
172F
100
AcDbEntity
  8
ALPHA
100
AcDbVertex
100
AcDb2dVertex
 10
197.757242
 20
210.725286
 30
0.0
  0
VERTEX
  5
1730
100
AcDbEntity
  8
ALPHA
100
AcDbVertex
100
AcDb2dVertex
 10
199.357878
 20
210.119597
 30
0.0
  0
VERTEX
  5
1731
100
AcDbEntity
  8
ALPHA
100
AcDbVertex
100
AcDb2dVertex
 10
200.962968
 20
209.69985
 30
0.0
  0
VERTEX
  5
1732
100
AcDbEntity
  8
ALPHA
100
AcDbVertex
100
AcDb2dVertex
 10
202.549345
 20
209.457473
 30
0.0
  0
VERTEX
  5
1733
100
AcDbEntity
  8
ALPHA
100
AcDbVertex
100
AcDb2dVertex
 10
204.096898
 20
209.379965
 30
0.0
  0
VERTEX
  5
1734
100
AcDbEntity
  8
ALPHA
100
AcDbVertex
100
AcDb2dVertex
 10
205.644452
 20
209.457473
 30
0.0
  0
VERTEX
  5
1735
100
AcDbEntity
  8
ALPHA
100
AcDbVertex
100
AcDb2dVertex
 10
207.230828
 20
209.69985
 30
0.0
  0
VERTEX
  5
1736
100
AcDbEntity
  8
ALPHA
100
AcDbVertex
100
AcDb2dVertex
 10
208.835919
 20
210.119597
 30
0.0
  0
VERTEX
  5
1737
100
AcDbEntity
  8
ALPHA
100
AcDbVertex
100
AcDb2dVertex
 10
210.436554
 20
210.725286
 30
0.0
  0
VERTEX
  5
1738
100
AcDbEntity
  8
ALPHA
100
AcDbVertex
100
AcDb2dVertex
 10
212.00728
 20
211.520547
 30
0.0
  0
VERTEX
  5
1739
100
AcDbEntity
  8
ALPHA
100
AcDbVertex
100
AcDb2dVertex
 10
213.521434
 20
212.503283
 30
0.0
  0
VERTEX
  5
173A
100
AcDbEntity
  8
ALPHA
100
AcDbVertex
100
AcDb2dVertex
 10
214.952456
 20
213.665246
 30
0.0
  0
VERTEX
  5
173B
100
AcDbEntity
  8
ALPHA
100
AcDbVertex
100
AcDb2dVertex
 10
216.275323
 20
214.992072
 30
0.0
  0
VERTEX
  5
173C
100
AcDbEntity
  8
ALPHA
100
AcDbVertex
100
AcDb2dVertex
 10
217.467947
 20
216.463797
 30
0.0
  0
VERTEX
  5
173D
100
AcDbEntity
  8
ALPHA
100
AcDbVertex
100
AcDb2dVertex
 10
218.512383
 20
218.055848
 30
0.0
  0
VERTEX
  5
173E
100
AcDbEntity
  8
ALPHA
100
AcDbVertex
100
AcDb2dVertex
 10
219.395719
 20
219.740384
 30
0.0
  0
VERTEX
  5
173F
100
AcDbEntity
  8
ALPHA
100
AcDbVertex
100
AcDb2dVertex
 10
220.110543
 20
221.487859
 30
0.0
  0
VERTEX
  5
1740
100
AcDbEntity
  8
ALPHA
100
AcDbVertex
100
AcDb2dVertex
 10
220.65497
 20
223.268609
 30
0.0
  0
VERTEX
  5
1741
100
AcDbEntity
  8
ALPHA
100
AcDbVertex
100
AcDb2dVertex
 10
221.032262
 20
225.054315
 30
0.0
  0
VERTEX
  5
1742
100
AcDbEntity
  8
ALPHA
100
AcDbVertex
100
AcDb2dVertex
 10
221.319792
 20
228.540897
 30
0.0
  0
VERTEX
  5
1743
100
AcDbEntity
  8
ALPHA
100
AcDbVertex
100
AcDb2dVertex
 10
221.032262
 20
232.027479
 30
0.0
  0
VERTEX
  5
1744
100
AcDbEntity
  8
ALPHA
100
AcDbVertex
100
AcDb2dVertex
 10
220.65497
 20
233.813185
 30
0.0
  0
VERTEX
  5
1745
100
AcDbEntity
  8
ALPHA
100
AcDbVertex
100
AcDb2dVertex
 10
220.110543
 20
235.593935
 30
0.0
  0
VERTEX
  5
1746
100
AcDbEntity
  8
ALPHA
100
AcDbVertex
100
AcDb2dVertex
 10
219.395719
 20
237.341409
 30
0.0
  0
VERTEX
  5
1747
100
AcDbEntity
  8
ALPHA
100
AcDbVertex
100
AcDb2dVertex
 10
218.512383
 20
239.025946
 30
0.0
  0
VERTEX
  5
1748
100
AcDbEntity
  8
ALPHA
100
AcDbVertex
100
AcDb2dVertex
 10
217.467947
 20
240.617997
 30
0.0
  0
VERTEX
  5
1749
100
AcDbEntity
  8
ALPHA
100
AcDbVertex
100
AcDb2dVertex
 10
216.275323
 20
242.089722
 30
0.0
  0
VERTEX
  5
174A
100
AcDbEntity
  8
ALPHA
100
AcDbVertex
100
AcDb2dVertex
 10
214.952456
 20
243.416548
 30
0.0
  0
VERTEX
  5
174B
100
AcDbEntity
  8
ALPHA
100
AcDbVertex
100
AcDb2dVertex
 10
213.521434
 20
244.578511
 30
0.0
  0
VERTEX
  5
174C
100
AcDbEntity
  8
ALPHA
100
AcDbVertex
100
AcDb2dVertex
 10
212.00728
 20
245.561246
 30
0.0
  0
VERTEX
  5
174D
100
AcDbEntity
  8
ALPHA
100
AcDbVertex
100
AcDb2dVertex
 10
210.436554
 20
246.356507
 30
0.0
  0
VERTEX
  5
174E
100
AcDbEntity
  8
ALPHA
100
AcDbVertex
100
AcDb2dVertex
 10
208.835919
 20
246.962197
 30
0.0
  0
VERTEX
  5
174F
100
AcDbEntity
  8
ALPHA
100
AcDbVertex
100
AcDb2dVertex
 10
207.230828
 20
247.381944
 30
0.0
  0
VERTEX
  5
1750
100
AcDbEntity
  8
ALPHA
100
AcDbVertex
100
AcDb2dVertex
 10
205.644452
 20
247.624321
 30
0.0
  0
VERTEX
  5
1751
100
AcDbEntity
  8
ALPHA
100
AcDbVertex
100
AcDb2dVertex
 10
204.096898
 20
247.701829
 30
0.0
  0
SEQEND
  5
1752
100
AcDbEntity
  8
ALPHA
  0
POLYLINE
  5
1753
100
AcDbEntity
  8
ALPHA
100
AcDb2dPolyline
 66
     1
 10
0.0
 20
0.0
 30
0.0
  0
VERTEX
  5
1754
100
AcDbEntity
  8
ALPHA
100
AcDbVertex
100
AcDb2dVertex
 10
276.279917
 20
318.60844
 30
0.0
  0
VERTEX
  5
1755
100
AcDbEntity
  8
ALPHA
100
AcDbVertex
100
AcDb2dVertex
 10
276.279917
 20
138.251145
 30
0.0
  0
SEQEND
  5
1756
100
AcDbEntity
  8
ALPHA
  0
POLYLINE
  5
1757
100
AcDbEntity
  8
ALPHA
100
AcDb2dPolyline
 66
     1
 10
0.0
 20
0.0
 30
0.0
  0
VERTEX
  5
1758
100
AcDbEntity
  8
ALPHA
100
AcDbVertex
100
AcDb2dVertex
 10
291.975772
 20
328.970943
 30
0.0
  0
VERTEX
  5
1759
100
AcDbEntity
  8
ALPHA
100
AcDbVertex
100
AcDb2dVertex
 10
291.975772
 20
128.383014
 30
0.0
  0
SEQEND
  5
175A
100
AcDbEntity
  8
ALPHA
  0
POLYLINE
  5
175B
100
AcDbEntity
  8
ALPHA
100
AcDb2dPolyline
 66
     1
 10
0.0
 20
0.0
 30
0.0
  0
VERTEX
  5
175C
100
AcDbEntity
  8
ALPHA
100
AcDbVertex
100
AcDb2dVertex
 10
158.453862
 20
108.080377
 30
0.0
  0
VERTEX
  5
175D
100
AcDbEntity
  8
ALPHA
100
AcDbVertex
100
AcDb2dVertex
 10
277.933218
 20
115.038092
 30
0.0
  0
SEQEND
  5
175E
100
AcDbEntity
  8
ALPHA
  0
POLYLINE
  5
175F
100
AcDbEntity
  8
ALPHA
100
AcDb2dPolyline
 66
     1
 10
0.0
 20
0.0
 30
0.0
  0
VERTEX
  5
1760
100
AcDbEntity
  8
ALPHA
100
AcDbVertex
100
AcDb2dVertex
 10
164.680183
 20
318.60844
 30
0.0
  0
VERTEX
  5
1761
100
AcDbEntity
  8
ALPHA
100
AcDbVertex
100
AcDb2dVertex
 10
164.680183
 20
138.251145
 30
0.0
  0
SEQEND
  5
1762
100
AcDbEntity
  8
ALPHA
  0
POLYLINE
  5
1763
100
AcDbEntity
  8
ALPHA
100
AcDb2dPolyline
 66
     1
 10
0.0
 20
0.0
 30
0.0
  0
VERTEX
  5
1764
100
AcDbEntity
  8
ALPHA
100
AcDbVertex
100
AcDb2dVertex
 10
267.377962
 20
318.60844
 30
0.0
  0
VERTEX
  5
1765
100
AcDbEntity
  8
ALPHA
100
AcDbVertex
100
AcDb2dVertex
 10
267.377962
 20
138.251145
 30
0.0
  0
SEQEND
  5
1766
100
AcDbEntity
  8
ALPHA
  0
POLYLINE
  5
1767
100
AcDbEntity
  8
ALPHA
100
AcDb2dPolyline
 66
     1
 10
0.0
 20
0.0
 30
0.0
  0
VERTEX
  5
1768
100
AcDbEntity
  8
ALPHA
100
AcDbVertex
100
AcDb2dVertex
 10
158.453862
 20
348.779553
 30
0.0
  0
VERTEX
  5
1769
100
AcDbEntity
  8
ALPHA
100
AcDbVertex
100
AcDb2dVertex
 10
277.933218
 20
341.821493
 30
0.0
  0
SEQEND
  5
176A
100
AcDbEntity
  8
ALPHA
  0
POLYLINE
  5
176B
100
AcDbEntity
  8
ALPHA
100
AcDb2dPolyline
 66
     1
 10
0.0
 20
0.0
 30
0.0
  0
VERTEX
  5
176C
100
AcDbEntity
  8
ALPHA
100
AcDbVertex
100
AcDb2dVertex
 10
148.242599
 20
318.60844
 30
0.0
  0
VERTEX
  5
176D
100
AcDbEntity
  8
ALPHA
100
AcDbVertex
100
AcDb2dVertex
 10
284.442726
 20
318.60844
 30
0.0
  0
SEQEND
  5
176E
100
AcDbEntity
  8
ALPHA
  0
POLYLINE
  5
176F
100
AcDbEntity
  8
ALPHA
100
AcDb2dPolyline
 66
     1
 10
0.0
 20
0.0
 30
0.0
  0
VERTEX
  5
1770
100
AcDbEntity
  8
ALPHA
100
AcDbVertex
100
AcDb2dVertex
 10
148.242599
 20
138.251145
 30
0.0
  0
VERTEX
  5
1771
100
AcDbEntity
  8
ALPHA
100
AcDbVertex
100
AcDb2dVertex
 10
284.442726
 20
138.251145
 30
0.0
  0
SEQEND
  5
1772
100
AcDbEntity
  8
ALPHA
  0
POLYLINE
  5
1773
100
AcDbEntity
  8
ALPHA
100
AcDb2dPolyline
 66
     1
 10
0.0
 20
0.0
 30
0.0
  0
VERTEX
  5
1774
100
AcDbEntity
  8
ALPHA
100
AcDbVertex
100
AcDb2dVertex
 10
284.442726
 20
138.251145
 30
0.0
  0
VERTEX
  5
1775
100
AcDbEntity
  8
ALPHA
100
AcDbVertex
100
AcDb2dVertex
 10
284.442726
 20
111.038336
 30
0.0
  0
SEQEND
  5
1776
100
AcDbEntity
  8
ALPHA
  0
POLYLINE
  5
1777
100
AcDbEntity
  8
ALPHA
100
AcDb2dPolyline
 66
     1
 10
0.0
 20
0.0
 30
0.0
  0
VERTEX
  5
1778
100
AcDbEntity
  8
ALPHA
100
AcDbVertex
100
AcDb2dVertex
 10
284.442726
 20
111.038336
 30
0.0
  0
VERTEX
  5
1779
100
AcDbEntity
  8
ALPHA
100
AcDbVertex
100
AcDb2dVertex
 10
265.901911
 20
57.876379
 30
0.0
  0
SEQEND
  5
177A
100
AcDbEntity
  8
ALPHA
  0
POLYLINE
  5
177B
100
AcDbEntity
  8
ALPHA
100
AcDb2dPolyline
 66
     1
 10
0.0
 20
0.0
 30
0.0
  0
VERTEX
  5
177C
100
AcDbEntity
  8
ALPHA
100
AcDbVertex
100
AcDb2dVertex
 10
265.901911
 20
57.876379
 30
0.0
  0
VERTEX
  5
177D
100
AcDbEntity
  8
ALPHA
100
AcDbVertex
100
AcDb2dVertex
 10
265.898993
 20
57.868283
 30
0.0
  0
VERTEX
  5
177E
100
AcDbEntity
  8
ALPHA
100
AcDbVertex
100
AcDb2dVertex
 10
265.890255
 20
57.844164
 30
0.0
  0
VERTEX
  5
177F
100
AcDbEntity
  8
ALPHA
100
AcDbVertex
100
AcDb2dVertex
 10
265.855399
 20
57.748877
 30
0.0
  0
VERTEX
  5
1780
100
AcDbEntity
  8
ALPHA
100
AcDbVertex
100
AcDb2dVertex
 10
265.71678
 20
57.377223
 30
0.0
  0
VERTEX
  5
1781
100
AcDbEntity
  8
ALPHA
100
AcDbVertex
100
AcDb2dVertex
 10
265.168724
 20
55.966566
 30
0.0
  0
VERTEX
  5
1782
100
AcDbEntity
  8
ALPHA
100
AcDbVertex
100
AcDb2dVertex
 10
263.027867
 20
50.931604
 30
0.0
  0
VERTEX
  5
1783
100
AcDbEntity
  8
ALPHA
100
AcDbVertex
100
AcDb2dVertex
 10
254.875366
 20
35.653101
 30
0.0
  0
VERTEX
  5
1784
100
AcDbEntity
  8
ALPHA
100
AcDbVertex
100
AcDb2dVertex
 10
249.039834
 20
27.492992
 30
0.0
  0
VERTEX
  5
1785
100
AcDbEntity
  8
ALPHA
100
AcDbVertex
100
AcDb2dVertex
 10
245.720772
 20
23.738473
 30
0.0
  0
VERTEX
  5
1786
100
AcDbEntity
  8
ALPHA
100
AcDbVertex
100
AcDb2dVertex
 10
242.148855
 20
20.374598
 30
0.0
  0
VERTEX
  5
1787
100
AcDbEntity
  8
ALPHA
100
AcDbVertex
100
AcDb2dVertex
 10
238.335091
 20
17.531581
 30
0.0
  0
VERTEX
  5
1788
100
AcDbEntity
  8
ALPHA
100
AcDbVertex
100
AcDb2dVertex
 10
234.290485
 20
15.339637
 30
0.0
  0
VERTEX
  5
1789
100
AcDbEntity
  8
ALPHA
100
AcDbVertex
100
AcDb2dVertex
 10
232.185057
 20
14.528509
 30
0.0
  0
VERTEX
  5
178A
100
AcDbEntity
  8
ALPHA
100
AcDbVertex
100
AcDb2dVertex
 10
230.026046
 20
13.928979
 30
0.0
  0
VERTEX
  5
178B
100
AcDbEntity
  8
ALPHA
100
AcDbVertex
100
AcDb2dVertex
 10
227.814829
 20
13.557326
 30
0.0
  0
VERTEX
  5
178C
100
AcDbEntity
  8
ALPHA
100
AcDbVertex
100
AcDb2dVertex
 10
225.552781
 20
13.429824
 30
0.0
  0
SEQEND
  5
178D
100
AcDbEntity
  8
ALPHA
  0
POLYLINE
  5
178E
100
AcDbEntity
  8
ALPHA
100
AcDb2dPolyline
 66
     1
 10
0.0
 20
0.0
 30
0.0
  0
VERTEX
  5
178F
100
AcDbEntity
  8
ALPHA
100
AcDbVertex
100
AcDb2dVertex
 10
225.552781
 20
13.429824
 30
0.0
  0
VERTEX
  5
1790
100
AcDbEntity
  8
ALPHA
100
AcDbVertex
100
AcDb2dVertex
 10
150.743049
 20
13.429824
 30
0.0
  0
SEQEND
  5
1791
100
AcDbEntity
  8
ALPHA
  0
POLYLINE
  5
1792
100
AcDbEntity
  8
ALPHA
100
AcDb2dPolyline
 66
     1
 10
0.0
 20
0.0
 30
0.0
  0
VERTEX
  5
1793
100
AcDbEntity
  8
ALPHA
100
AcDbVertex
100
AcDb2dVertex
 10
150.743049
 20
13.429824
 30
0.0
  0
VERTEX
  5
1794
100
AcDbEntity
  8
ALPHA
100
AcDbVertex
100
AcDb2dVertex
 10
150.487618
 20
13.442791
 30
0.0
  0
VERTEX
  5
1795
100
AcDbEntity
  8
ALPHA
100
AcDbVertex
100
AcDb2dVertex
 10
150.239515
 20
13.480849
 30
0.0
  0
VERTEX
  5
1796
100
AcDbEntity
  8
ALPHA
100
AcDbVertex
100
AcDb2dVertex
 10
150.000001
 20
13.542735
 30
0.0
  0
VERTEX
  5
1797
100
AcDbEntity
  8
ALPHA
100
AcDbVertex
100
AcDb2dVertex
 10
149.77034
 20
13.627185
 30
0.0
  0
VERTEX
  5
1798
100
AcDbEntity
  8
ALPHA
100
AcDbVertex
100
AcDb2dVertex
 10
149.551794
 20
13.732935
 30
0.0
  0
VERTEX
  5
1799
100
AcDbEntity
  8
ALPHA
100
AcDbVertex
100
AcDb2dVertex
 10
149.345626
 20
13.858722
 30
0.0
  0
VERTEX
  5
179A
100
AcDbEntity
  8
ALPHA
100
AcDbVertex
100
AcDb2dVertex
 10
149.1531
 20
14.003282
 30
0.0
  0
VERTEX
  5
179B
100
AcDbEntity
  8
ALPHA
100
AcDbVertex
100
AcDb2dVertex
 10
148.975478
 20
14.165352
 30
0.0
  0
VERTEX
  5
179C
100
AcDbEntity
  8
ALPHA
100
AcDbVertex
100
AcDb2dVertex
 10
148.814023
 20
14.343667
 30
0.0
  0
VERTEX
  5
179D
100
AcDbEntity
  8
ALPHA
100
AcDbVertex
100
AcDb2dVertex
 10
148.669998
 20
14.536964
 30
0.0
  0
VERTEX
  5
179E
100
AcDbEntity
  8
ALPHA
100
AcDbVertex
100
AcDb2dVertex
 10
148.544666
 20
14.74398
 30
0.0
  0
VERTEX
  5
179F
100
AcDbEntity
  8
ALPHA
100
AcDbVertex
100
AcDb2dVertex
 10
148.439289
 20
14.963451
 30
0.0
  0
VERTEX
  5
17A0
100
AcDbEntity
  8
ALPHA
100
AcDbVertex
100
AcDb2dVertex
 10
148.355131
 20
15.194113
 30
0.0
  0
VERTEX
  5
17A1
100
AcDbEntity
  8
ALPHA
100
AcDbVertex
100
AcDb2dVertex
 10
148.293455
 20
15.434702
 30
0.0
  0
VERTEX
  5
17A2
100
AcDbEntity
  8
ALPHA
100
AcDbVertex
100
AcDb2dVertex
 10
148.255523
 20
15.683956
 30
0.0
  0
VERTEX
  5
17A3
100
AcDbEntity
  8
ALPHA
100
AcDbVertex
100
AcDb2dVertex
 10
148.242599
 20
15.940609
 30
0.0
  0
SEQEND
  5
17A4
100
AcDbEntity
  8
ALPHA
  0
POLYLINE
  5
17A5
100
AcDbEntity
  8
ALPHA
100
AcDb2dPolyline
 66
     1
 10
0.0
 20
0.0
 30
0.0
  0
VERTEX
  5
17A6
100
AcDbEntity
  8
ALPHA
100
AcDbVertex
100
AcDb2dVertex
 10
148.242599
 20
15.940609
 30
0.0
  0
VERTEX
  5
17A7
100
AcDbEntity
  8
ALPHA
100
AcDbVertex
100
AcDb2dVertex
 10
148.242599
 20
440.918976
 30
0.0
  0
SEQEND
  5
17A8
100
AcDbEntity
  8
ALPHA
  0
POLYLINE
  5
17A9
100
AcDbEntity
  8
ALPHA
100
AcDb2dPolyline
 66
     1
 10
0.0
 20
0.0
 30
0.0
  0
VERTEX
  5
17AA
100
AcDbEntity
  8
ALPHA
100
AcDbVertex
100
AcDb2dVertex
 10
148.242599
 20
440.918976
 30
0.0
  0
VERTEX
  5
17AB
100
AcDbEntity
  8
ALPHA
100
AcDbVertex
100
AcDb2dVertex
 10
148.255523
 20
441.175573
 30
0.0
  0
VERTEX
  5
17AC
100
AcDbEntity
  8
ALPHA
100
AcDbVertex
100
AcDb2dVertex
 10
148.293455
 20
441.424784
 30
0.0
  0
VERTEX
  5
17AD
100
AcDbEntity
  8
ALPHA
100
AcDbVertex
100
AcDb2dVertex
 10
148.355131
 20
441.665344
 30
0.0
  0
VERTEX
  5
17AE
100
AcDbEntity
  8
ALPHA
100
AcDbVertex
100
AcDb2dVertex
 10
148.439289
 20
441.895989
 30
0.0
  0
VERTEX
  5
17AF
100
AcDbEntity
  8
ALPHA
100
AcDbVertex
100
AcDb2dVertex
 10
148.544666
 20
442.115452
 30
0.0
  0
VERTEX
  5
17B0
100
AcDbEntity
  8
ALPHA
100
AcDbVertex
100
AcDb2dVertex
 10
148.669998
 20
442.322469
 30
0.0
  0
VERTEX
  5
17B1
100
AcDbEntity
  8
ALPHA
100
AcDbVertex
100
AcDb2dVertex
 10
148.814023
 20
442.515775
 30
0.0
  0
VERTEX
  5
17B2
100
AcDbEntity
  8
ALPHA
100
AcDbVertex
100
AcDb2dVertex
 10
148.975478
 20
442.694104
 30
0.0
  0
VERTEX
  5
17B3
100
AcDbEntity
  8
ALPHA
100
AcDbVertex
100
AcDb2dVertex
 10
149.1531
 20
442.856192
 30
0.0
  0
VERTEX
  5
17B4
100
AcDbEntity
  8
ALPHA
100
AcDbVertex
100
AcDb2dVertex
 10
149.345626
 20
443.000772
 30
0.0
  0
VERTEX
  5
17B5
100
AcDbEntity
  8
ALPHA
100
AcDbVertex
100
AcDb2dVertex
 10
149.551794
 20
443.126581
 30
0.0
  0
VERTEX
  5
17B6
100
AcDbEntity
  8
ALPHA
100
AcDbVertex
100
AcDb2dVertex
 10
149.77034
 20
443.232352
 30
0.0
  0
VERTEX
  5
17B7
100
AcDbEntity
  8
ALPHA
100
AcDbVertex
100
AcDb2dVertex
 10
150.000001
 20
443.316821
 30
0.0
  0
VERTEX
  5
17B8
100
AcDbEntity
  8
ALPHA
100
AcDbVertex
100
AcDb2dVertex
 10
150.239515
 20
443.378722
 30
0.0
  0
VERTEX
  5
17B9
100
AcDbEntity
  8
ALPHA
100
AcDbVertex
100
AcDb2dVertex
 10
150.487618
 20
443.416791
 30
0.0
  0
VERTEX
  5
17BA
100
AcDbEntity
  8
ALPHA
100
AcDbVertex
100
AcDb2dVertex
 10
150.743049
 20
443.429761
 30
0.0
  0
SEQEND
  5
17BB
100
AcDbEntity
  8
ALPHA
  0
POLYLINE
  5
17BC
100
AcDbEntity
  8
ALPHA
100
AcDb2dPolyline
 66
     1
 10
0.0
 20
0.0
 30
0.0
  0
VERTEX
  5
17BD
100
AcDbEntity
  8
ALPHA
100
AcDbVertex
100
AcDb2dVertex
 10
150.743049
 20
443.429761
 30
0.0
  0
VERTEX
  5
17BE
100
AcDbEntity
  8
ALPHA
100
AcDbVertex
100
AcDb2dVertex
 10
225.552781
 20
443.429761
 30
0.0
  0
SEQEND
  5
17BF
100
AcDbEntity
  8
ALPHA
  0
POLYLINE
  5
17C0
100
AcDbEntity
  8
ALPHA
100
AcDb2dPolyline
 66
     1
 10
0.0
 20
0.0
 30
0.0
  0
VERTEX
  5
17C1
100
AcDbEntity
  8
ALPHA
100
AcDbVertex
100
AcDb2dVertex
 10
225.552781
 20
443.429761
 30
0.0
  0
VERTEX
  5
17C2
100
AcDbEntity
  8
ALPHA
100
AcDbVertex
100
AcDb2dVertex
 10
227.814829
 20
443.302259
 30
0.0
  0
VERTEX
  5
17C3
100
AcDbEntity
  8
ALPHA
100
AcDbVertex
100
AcDb2dVertex
 10
230.026046
 20
442.930602
 30
0.0
  0
VERTEX
  5
17C4
100
AcDbEntity
  8
ALPHA
100
AcDbVertex
100
AcDb2dVertex
 10
232.185057
 20
442.331068
 30
0.0
  0
VERTEX
  5
17C5
100
AcDbEntity
  8
ALPHA
100
AcDbVertex
100
AcDb2dVertex
 10
234.290485
 20
441.519934
 30
0.0
  0
VERTEX
  5
17C6
100
AcDbEntity
  8
ALPHA
100
AcDbVertex
100
AcDb2dVertex
 10
238.335091
 20
439.327972
 30
0.0
  0
VERTEX
  5
17C7
100
AcDbEntity
  8
ALPHA
100
AcDbVertex
100
AcDb2dVertex
 10
242.148855
 20
436.484933
 30
0.0
  0
VERTEX
  5
17C8
100
AcDbEntity
  8
ALPHA
100
AcDbVertex
100
AcDb2dVertex
 10
245.720772
 20
433.121032
 30
0.0
  0
VERTEX
  5
17C9
100
AcDbEntity
  8
ALPHA
100
AcDbVertex
100
AcDb2dVertex
 10
249.039834
 20
429.366485
 30
0.0
  0
VERTEX
  5
17CA
100
AcDbEntity
  8
ALPHA
100
AcDbVertex
100
AcDb2dVertex
 10
254.875366
 20
421.206312
 30
0.0
  0
VERTEX
  5
17CB
100
AcDbEntity
  8
ALPHA
100
AcDbVertex
100
AcDb2dVertex
 10
263.027867
 20
405.92769
 30
0.0
  0
VERTEX
  5
17CC
100
AcDbEntity
  8
ALPHA
100
AcDbVertex
100
AcDb2dVertex
 10
265.168724
 20
400.89269
 30
0.0
  0
VERTEX
  5
17CD
100
AcDbEntity
  8
ALPHA
100
AcDbVertex
100
AcDb2dVertex
 10
265.71678
 20
399.482022
 30
0.0
  0
VERTEX
  5
17CE
100
AcDbEntity
  8
ALPHA
100
AcDbVertex
100
AcDb2dVertex
 10
265.855399
 20
399.110365
 30
0.0
  0
VERTEX
  5
17CF
100
AcDbEntity
  8
ALPHA
100
AcDbVertex
100
AcDb2dVertex
 10
265.890255
 20
399.015077
 30
0.0
  0
VERTEX
  5
17D0
100
AcDbEntity
  8
ALPHA
100
AcDbVertex
100
AcDb2dVertex
 10
265.898993
 20
398.990958
 30
0.0
  0
VERTEX
  5
17D1
100
AcDbEntity
  8
ALPHA
100
AcDbVertex
100
AcDb2dVertex
 10
265.901911
 20
398.982862
 30
0.0
  0
SEQEND
  5
17D2
100
AcDbEntity
  8
ALPHA
  0
POLYLINE
  5
17D3
100
AcDbEntity
  8
ALPHA
100
AcDb2dPolyline
 66
     1
 10
0.0
 20
0.0
 30
0.0
  0
VERTEX
  5
17D4
100
AcDbEntity
  8
ALPHA
100
AcDbVertex
100
AcDb2dVertex
 10
265.901911
 20
398.982862
 30
0.0
  0
VERTEX
  5
17D5
100
AcDbEntity
  8
ALPHA
100
AcDbVertex
100
AcDb2dVertex
 10
284.442726
 20
345.821594
 30
0.0
  0
SEQEND
  5
17D6
100
AcDbEntity
  8
ALPHA
  0
POLYLINE
  5
17D7
100
AcDbEntity
  8
ALPHA
100
AcDb2dPolyline
 66
     1
 10
0.0
 20
0.0
 30
0.0
  0
VERTEX
  5
17D8
100
AcDbEntity
  8
ALPHA
100
AcDbVertex
100
AcDb2dVertex
 10
284.442726
 20
345.821594
 30
0.0
  0
VERTEX
  5
17D9
100
AcDbEntity
  8
ALPHA
100
AcDbVertex
100
AcDb2dVertex
 10
284.442726
 20
318.60844
 30
0.0
  0
SEQEND
  5
17DA
100
AcDbEntity
  8
ALPHA
  0
POLYLINE
  5
17DB
100
AcDbEntity
  8
ALPHA
100
AcDb2dPolyline
 66
     1
 10
0.0
 20
0.0
 30
0.0
  0
VERTEX
  5
17DC
100
AcDbEntity
  8
ALPHA
100
AcDbVertex
100
AcDb2dVertex
 10
163.908309
 20
13.429824
 30
0.0
  0
VERTEX
  5
17DD
100
AcDbEntity
  8
ALPHA
100
AcDbVertex
100
AcDb2dVertex
 10
176.408321
 20
0.929639
 30
0.0
  0
SEQEND
  5
17DE
100
AcDbEntity
  8
ALPHA
  0
POLYLINE
  5
17DF
100
AcDbEntity
  8
ALPHA
100
AcDb2dPolyline
 66
     1
 10
0.0
 20
0.0
 30
0.0
  0
VERTEX
  5
17E0
100
AcDbEntity
  8
ALPHA
100
AcDbVertex
100
AcDb2dVertex
 10
176.408321
 20
0.929639
 30
0.0
  0
VERTEX
  5
17E1
100
AcDbEntity
  8
ALPHA
100
AcDbVertex
100
AcDb2dVertex
 10
248.242696
 20
0.929639
 30
0.0
  0
SEQEND
  5
17E2
100
AcDbEntity
  8
ALPHA
  0
POLYLINE
  5
17E3
100
AcDbEntity
  8
ALPHA
100
AcDb2dPolyline
 66
     1
 10
0.0
 20
0.0
 30
0.0
  0
VERTEX
  5
17E4
100
AcDbEntity
  8
ALPHA
100
AcDbVertex
100
AcDb2dVertex
 10
248.242696
 20
0.929639
 30
0.0
  0
VERTEX
  5
17E5
100
AcDbEntity
  8
ALPHA
100
AcDbVertex
100
AcDb2dVertex
 10
255.399801
 20
1.291041
 30
0.0
  0
VERTEX
  5
17E6
100
AcDbEntity
  8
ALPHA
100
AcDbVertex
100
AcDb2dVertex
 10
262.350159
 20
2.35179
 30
0.0
  0
VERTEX
  5
17E7
100
AcDbEntity
  8
ALPHA
100
AcDbVertex
100
AcDb2dVertex
 10
269.058583
 20
4.076699
 30
0.0
  0
VERTEX
  5
17E8
100
AcDbEntity
  8
ALPHA
100
AcDbVertex
100
AcDb2dVertex
 10
275.489889
 20
6.430585
 30
0.0
  0
VERTEX
  5
17E9
100
AcDbEntity
  8
ALPHA
100
AcDbVertex
100
AcDb2dVertex
 10
281.608891
 20
9.378261
 30
0.0
  0
VERTEX
  5
17EA
100
AcDbEntity
  8
ALPHA
100
AcDbVertex
100
AcDb2dVertex
 10
287.380402
 20
12.884542
 30
0.0
  0
VERTEX
  5
17EB
100
AcDbEntity
  8
ALPHA
100
AcDbVertex
100
AcDb2dVertex
 10
292.769238
 20
16.914243
 30
0.0
  0
VERTEX
  5
17EC
100
AcDbEntity
  8
ALPHA
100
AcDbVertex
100
AcDb2dVertex
 10
297.740213
 20
21.432178
 30
0.0
  0
VERTEX
  5
17ED
100
AcDbEntity
  8
ALPHA
100
AcDbVertex
100
AcDb2dVertex
 10
302.258141
 20
26.403162
 30
0.0
  0
VERTEX
  5
17EE
100
AcDbEntity
  8
ALPHA
100
AcDbVertex
100
AcDb2dVertex
 10
306.287837
 20
31.792009
 30
0.0
  0
VERTEX
  5
17EF
100
AcDbEntity
  8
ALPHA
100
AcDbVertex
100
AcDb2dVertex
 10
309.794114
 20
37.563535
 30
0.0
  0
VERTEX
  5
17F0
100
AcDbEntity
  8
ALPHA
100
AcDbVertex
100
AcDb2dVertex
 10
312.741787
 20
43.682553
 30
0.0
  0
VERTEX
  5
17F1
100
AcDbEntity
  8
ALPHA
100
AcDbVertex
100
AcDb2dVertex
 10
315.095671
 20
50.113879
 30
0.0
  0
VERTEX
  5
17F2
100
AcDbEntity
  8
ALPHA
100
AcDbVertex
100
AcDb2dVertex
 10
316.82058
 20
56.822326
 30
0.0
  0
VERTEX
  5
17F3
100
AcDbEntity
  8
ALPHA
100
AcDbVertex
100
AcDb2dVertex
 10
317.881328
 20
63.77271
 30
0.0
  0
VERTEX
  5
17F4
100
AcDbEntity
  8
ALPHA
100
AcDbVertex
100
AcDb2dVertex
 10
318.24273
 20
70.929845
 30
0.0
  0
SEQEND
  5
17F5
100
AcDbEntity
  8
ALPHA
  0
POLYLINE
  5
17F6
100
AcDbEntity
  8
ALPHA
100
AcDb2dPolyline
 66
     1
 10
0.0
 20
0.0
 30
0.0
  0
VERTEX
  5
17F7
100
AcDbEntity
  8
ALPHA
100
AcDbVertex
100
AcDb2dVertex
 10
318.24273
 20
70.929845
 30
0.0
  0
VERTEX
  5
17F8
100
AcDbEntity
  8
ALPHA
100
AcDbVertex
100
AcDb2dVertex
 10
318.24273
 20
385.92974
 30
0.0
  0
SEQEND
  5
17F9
100
AcDbEntity
  8
ALPHA
  0
POLYLINE
  5
17FA
100
AcDbEntity
  8
ALPHA
100
AcDb2dPolyline
 66
     1
 10
0.0
 20
0.0
 30
0.0
  0
VERTEX
  5
17FB
100
AcDbEntity
  8
ALPHA
100
AcDbVertex
100
AcDb2dVertex
 10
318.24273
 20
385.92974
 30
0.0
  0
VERTEX
  5
17FC
100
AcDbEntity
  8
ALPHA
100
AcDbVertex
100
AcDb2dVertex
 10
317.881328
 20
393.086814
 30
0.0
  0
VERTEX
  5
17FD
100
AcDbEntity
  8
ALPHA
100
AcDbVertex
100
AcDb2dVertex
 10
316.82058
 20
400.037145
 30
0.0
  0
VERTEX
  5
17FE
100
AcDbEntity
  8
ALPHA
100
AcDbVertex
100
AcDb2dVertex
 10
315.095671
 20
406.745547
 30
0.0
  0
VERTEX
  5
17FF
100
AcDbEntity
  8
ALPHA
100
AcDbVertex
100
AcDb2dVertex
 10
312.741787
 20
413.176833
 30
0.0
  0
VERTEX
  5
1800
100
AcDbEntity
  8
ALPHA
100
AcDbVertex
100
AcDb2dVertex
 10
309.794114
 20
419.295818
 30
0.0
  0
VERTEX
  5
1801
100
AcDbEntity
  8
ALPHA
100
AcDbVertex
100
AcDb2dVertex
 10
306.287837
 20
425.067316
 30
0.0
  0
VERTEX
  5
1802
100
AcDbEntity
  8
ALPHA
100
AcDbVertex
100
AcDb2dVertex
 10
302.258141
 20
430.45614
 30
0.0
  0
VERTEX
  5
1803
100
AcDbEntity
  8
ALPHA
100
AcDbVertex
100
AcDb2dVertex
 10
297.740213
 20
435.427106
 30
0.0
  0
VERTEX
  5
1804
100
AcDbEntity
  8
ALPHA
100
AcDbVertex
100
AcDb2dVertex
 10
292.769238
 20
439.945027
 30
0.0
  0
VERTEX
  5
1805
100
AcDbEntity
  8
ALPHA
100
AcDbVertex
100
AcDb2dVertex
 10
287.380402
 20
443.974717
 30
0.0
  0
VERTEX
  5
1806
100
AcDbEntity
  8
ALPHA
100
AcDbVertex
100
AcDb2dVertex
 10
281.608891
 20
447.48099
 30
0.0
  0
VERTEX
  5
1807
100
AcDbEntity
  8
ALPHA
100
AcDbVertex
100
AcDb2dVertex
 10
275.489889
 20
450.428661
 30
0.0
  0
VERTEX
  5
1808
100
AcDbEntity
  8
ALPHA
100
AcDbVertex
100
AcDb2dVertex
 10
269.058583
 20
452.782544
 30
0.0
  0
VERTEX
  5
1809
100
AcDbEntity
  8
ALPHA
100
AcDbVertex
100
AcDb2dVertex
 10
262.350159
 20
454.507452
 30
0.0
  0
VERTEX
  5
180A
100
AcDbEntity
  8
ALPHA
100
AcDbVertex
100
AcDb2dVertex
 10
255.399801
 20
455.5682
 30
0.0
  0
VERTEX
  5
180B
100
AcDbEntity
  8
ALPHA
100
AcDbVertex
100
AcDb2dVertex
 10
248.242696
 20
455.929601
 30
0.0
  0
SEQEND
  5
180C
100
AcDbEntity
  8
ALPHA
  0
POLYLINE
  5
180D
100
AcDbEntity
  8
ALPHA
100
AcDb2dPolyline
 66
     1
 10
0.0
 20
0.0
 30
0.0
  0
VERTEX
  5
180E
100
AcDbEntity
  8
ALPHA
100
AcDbVertex
100
AcDb2dVertex
 10
248.242696
 20
455.929601
 30
0.0
  0
VERTEX
  5
180F
100
AcDbEntity
  8
ALPHA
100
AcDbVertex
100
AcDb2dVertex
 10
176.408321
 20
455.929601
 30
0.0
  0
SEQEND
  5
1810
100
AcDbEntity
  8
ALPHA
  0
POLYLINE
  5
1811
100
AcDbEntity
  8
ALPHA
100
AcDb2dPolyline
 66
     1
 10
0.0
 20
0.0
 30
0.0
  0
VERTEX
  5
1812
100
AcDbEntity
  8
ALPHA
100
AcDbVertex
100
AcDb2dVertex
 10
176.408321
 20
455.929601
 30
0.0
  0
VERTEX
  5
1813
100
AcDbEntity
  8
ALPHA
100
AcDbVertex
100
AcDb2dVertex
 10
163.908309
 20
443.429761
 30
0.0
  0
SEQEND
  5
1814
100
AcDbEntity
  8
ALPHA
  0
POLYLINE
  5
1815
100
AcDbEntity
  8
ALPHA
100
AcDb2dPolyline
 66
     1
 10
0.0
 20
0.0
 30
0.0
  0
VERTEX
  5
1816
100
AcDbEntity
  8
ALPHA
100
AcDbVertex
100
AcDb2dVertex
 10
248.242696
 20
27.197114
 30
0.0
  0
VERTEX
  5
1817
100
AcDbEntity
  8
ALPHA
100
AcDbVertex
100
AcDb2dVertex
 10
252.70778
 20
27.423326
 30
0.0
  0
VERTEX
  5
1818
100
AcDbEntity
  8
ALPHA
100
AcDbVertex
100
AcDb2dVertex
 10
257.04534
 20
28.087192
 30
0.0
  0
VERTEX
  5
1819
100
AcDbEntity
  8
ALPHA
100
AcDbVertex
100
AcDb2dVertex
 10
261.233224
 20
29.166562
 30
0.0
  0
VERTEX
  5
181A
100
AcDbEntity
  8
ALPHA
100
AcDbVertex
100
AcDb2dVertex
 10
265.249278
 20
30.639282
 30
0.0
  0
VERTEX
  5
181B
100
AcDbEntity
  8
ALPHA
100
AcDbVertex
100
AcDb2dVertex
 10
269.071351
 20
32.4832
 30
0.0
  0
VERTEX
  5
181C
100
AcDbEntity
  8
ALPHA
100
AcDbVertex
100
AcDb2dVertex
 10
272.677291
 20
34.676164
 30
0.0
  0
VERTEX
  5
181D
100
AcDbEntity
  8
ALPHA
100
AcDbVertex
100
AcDb2dVertex
 10
276.044944
 20
37.196022
 30
0.0
  0
VERTEX
  5
181E
100
AcDbEntity
  8
ALPHA
100
AcDbVertex
100
AcDb2dVertex
 10
279.152158
 20
40.020621
 30
0.0
  0
VERTEX
  5
181F
100
AcDbEntity
  8
ALPHA
100
AcDbVertex
100
AcDb2dVertex
 10
281.97678
 20
43.12781
 30
0.0
  0
VERTEX
  5
1820
100
AcDbEntity
  8
ALPHA
100
AcDbVertex
100
AcDb2dVertex
 10
284.496659
 20
46.495436
 30
0.0
  0
VERTEX
  5
1821
100
AcDbEntity
  8
ALPHA
100
AcDbVertex
100
AcDb2dVertex
 10
286.689641
 20
50.101347
 30
0.0
  0
VERTEX
  5
1822
100
AcDbEntity
  8
ALPHA
100
AcDbVertex
100
AcDb2dVertex
 10
288.533575
 20
53.92339
 30
0.0
  0
VERTEX
  5
1823
100
AcDbEntity
  8
ALPHA
100
AcDbVertex
100
AcDb2dVertex
 10
290.006307
 20
57.939414
 30
0.0
  0
VERTEX
  5
1824
100
AcDbEntity
  8
ALPHA
100
AcDbVertex
100
AcDb2dVertex
 10
291.085686
 20
62.127266
 30
0.0
  0
VERTEX
  5
1825
100
AcDbEntity
  8
ALPHA
100
AcDbVertex
100
AcDb2dVertex
 10
291.749558
 20
66.464794
 30
0.0
  0
VERTEX
  5
1826
100
AcDbEntity
  8
ALPHA
100
AcDbVertex
100
AcDb2dVertex
 10
291.975772
 20
70.929845
 30
0.0
  0
SEQEND
  5
1827
100
AcDbEntity
  8
ALPHA
  0
POLYLINE
  5
1828
100
AcDbEntity
  8
ALPHA
100
AcDb2dPolyline
 66
     1
 10
0.0
 20
0.0
 30
0.0
  0
VERTEX
  5
1829
100
AcDbEntity
  8
ALPHA
100
AcDbVertex
100
AcDb2dVertex
 10
291.975772
 20
70.929845
 30
0.0
  0
VERTEX
  5
182A
100
AcDbEntity
  8
ALPHA
100
AcDbVertex
100
AcDb2dVertex
 10
291.975772
 20
123.008665
 30
0.0
  0
SEQEND
  5
182B
100
AcDbEntity
  8
ALPHA
  0
POLYLINE
  5
182C
100
AcDbEntity
  8
ALPHA
100
AcDb2dPolyline
 66
     1
 10
0.0
 20
0.0
 30
0.0
  0
VERTEX
  5
182D
100
AcDbEntity
  8
ALPHA
100
AcDbVertex
100
AcDb2dVertex
 10
248.242696
 20
429.662815
 30
0.0
  0
VERTEX
  5
182E
100
AcDbEntity
  8
ALPHA
100
AcDbVertex
100
AcDb2dVertex
 10
252.70778
 20
429.436604
 30
0.0
  0
VERTEX
  5
182F
100
AcDbEntity
  8
ALPHA
100
AcDbVertex
100
AcDb2dVertex
 10
257.04534
 20
428.772737
 30
0.0
  0
VERTEX
  5
1830
100
AcDbEntity
  8
ALPHA
100
AcDbVertex
100
AcDb2dVertex
 10
261.233224
 20
427.693366
 30
0.0
  0
VERTEX
  5
1831
100
AcDbEntity
  8
ALPHA
100
AcDbVertex
100
AcDb2dVertex
 10
265.249278
 20
426.220643
 30
0.0
  0
VERTEX
  5
1832
100
AcDbEntity
  8
ALPHA
100
AcDbVertex
100
AcDb2dVertex
 10
269.071351
 20
424.37672
 30
0.0
  0
VERTEX
  5
1833
100
AcDbEntity
  8
ALPHA
100
AcDbVertex
100
AcDb2dVertex
 10
272.677291
 20
422.183748
 30
0.0
  0
VERTEX
  5
1834
100
AcDbEntity
  8
ALPHA
100
AcDbVertex
100
AcDb2dVertex
 10
276.044944
 20
419.663879
 30
0.0
  0
VERTEX
  5
1835
100
AcDbEntity
  8
ALPHA
100
AcDbVertex
100
AcDb2dVertex
 10
279.152158
 20
416.839266
 30
0.0
  0
VERTEX
  5
1836
100
AcDbEntity
  8
ALPHA
100
AcDbVertex
100
AcDb2dVertex
 10
281.97678
 20
413.732059
 30
0.0
  0
VERTEX
  5
1837
100
AcDbEntity
  8
ALPHA
100
AcDbVertex
100
AcDb2dVertex
 10
284.496659
 20
410.36441
 30
0.0
  0
VERTEX
  5
1838
100
AcDbEntity
  8
ALPHA
100
AcDbVertex
100
AcDb2dVertex
 10
286.689641
 20
406.758471
 30
0.0
  0
VERTEX
  5
1839
100
AcDbEntity
  8
ALPHA
100
AcDbVertex
100
AcDb2dVertex
 10
288.533575
 20
402.936394
 30
0.0
  0
VERTEX
  5
183A
100
AcDbEntity
  8
ALPHA
100
AcDbVertex
100
AcDb2dVertex
 10
290.006307
 20
398.920331
 30
0.0
  0
VERTEX
  5
183B
100
AcDbEntity
  8
ALPHA
100
AcDbVertex
100
AcDb2dVertex
 10
291.085686
 20
394.732433
 30
0.0
  0
VERTEX
  5
183C
100
AcDbEntity
  8
ALPHA
100
AcDbVertex
100
AcDb2dVertex
 10
291.749558
 20
390.394852
 30
0.0
  0
VERTEX
  5
183D
100
AcDbEntity
  8
ALPHA
100
AcDbVertex
100
AcDb2dVertex
 10
291.975772
 20
385.92974
 30
0.0
  0
SEQEND
  5
183E
100
AcDbEntity
  8
ALPHA
  0
POLYLINE
  5
183F
100
AcDbEntity
  8
ALPHA
100
AcDb2dPolyline
 66
     1
 10
0.0
 20
0.0
 30
0.0
  0
VERTEX
  5
1840
100
AcDbEntity
  8
ALPHA
100
AcDbVertex
100
AcDb2dVertex
 10
291.975772
 20
385.92974
 30
0.0
  0
VERTEX
  5
1841
100
AcDbEntity
  8
ALPHA
100
AcDbVertex
100
AcDb2dVertex
 10
291.975772
 20
334.346669
 30
0.0
  0
SEQEND
  5
1842
100
AcDbEntity
  8
ALPHA
  0
POLYLINE
  5
1843
100
AcDbEntity
  8
ALPHA
100
AcDb2dPolyline
 66
     1
 10
0.0
 20
0.0
 30
0.0
  0
VERTEX
  5
1844
100
AcDbEntity
  8
ALPHA
100
AcDbVertex
100
AcDb2dVertex
 10
296.715879
 20
328.970943
 30
0.0
  0
VERTEX
  5
1845
100
AcDbEntity
  8
ALPHA
100
AcDbVertex
100
AcDb2dVertex
 10
296.715879
 20
334.346669
 30
0.0
  0
SEQEND
  5
1846
100
AcDbEntity
  8
ALPHA
  0
POLYLINE
  5
1847
100
AcDbEntity
  8
ALPHA
100
AcDb2dPolyline
 66
     1
 10
0.0
 20
0.0
 30
0.0
  0
VERTEX
  5
1848
100
AcDbEntity
  8
ALPHA
100
AcDbVertex
100
AcDb2dVertex
 10
296.715879
 20
334.346669
 30
0.0
  0
VERTEX
  5
1849
100
AcDbEntity
  8
ALPHA
100
AcDbVertex
100
AcDb2dVertex
 10
284.442726
 20
334.346669
 30
0.0
  0
SEQEND
  5
184A
100
AcDbEntity
  8
ALPHA
  0
POLYLINE
  5
184B
100
AcDbEntity
  8
ALPHA
100
AcDb2dPolyline
 66
     1
 10
0.0
 20
0.0
 30
0.0
  0
VERTEX
  5
184C
100
AcDbEntity
  8
ALPHA
100
AcDbVertex
100
AcDb2dVertex
 10
284.442726
 20
334.346669
 30
0.0
  0
VERTEX
  5
184D
100
AcDbEntity
  8
ALPHA
100
AcDbVertex
100
AcDb2dVertex
 10
284.442726
 20
328.970943
 30
0.0
  0
SEQEND
  5
184E
100
AcDbEntity
  8
ALPHA
  0
POLYLINE
  5
184F
100
AcDbEntity
  8
ALPHA
100
AcDb2dPolyline
 66
     1
 10
0.0
 20
0.0
 30
0.0
  0
VERTEX
  5
1850
100
AcDbEntity
  8
ALPHA
100
AcDbVertex
100
AcDb2dVertex
 10
284.442726
 20
328.970943
 30
0.0
  0
VERTEX
  5
1851
100
AcDbEntity
  8
ALPHA
100
AcDbVertex
100
AcDb2dVertex
 10
296.715879
 20
328.970943
 30
0.0
  0
SEQEND
  5
1852
100
AcDbEntity
  8
ALPHA
  0
POLYLINE
  5
1853
100
AcDbEntity
  8
ALPHA
100
AcDb2dPolyline
 66
     1
 10
0.0
 20
0.0
 30
0.0
  0
VERTEX
  5
1854
100
AcDbEntity
  8
ALPHA
100
AcDbVertex
100
AcDb2dVertex
 10
296.715879
 20
123.008665
 30
0.0
  0
VERTEX
  5
1855
100
AcDbEntity
  8
ALPHA
100
AcDbVertex
100
AcDb2dVertex
 10
296.715879
 20
128.383014
 30
0.0
  0
SEQEND
  5
1856
100
AcDbEntity
  8
ALPHA
  0
POLYLINE
  5
1857
100
AcDbEntity
  8
ALPHA
100
AcDb2dPolyline
 66
     1
 10
0.0
 20
0.0
 30
0.0
  0
VERTEX
  5
1858
100
AcDbEntity
  8
ALPHA
100
AcDbVertex
100
AcDb2dVertex
 10
296.715879
 20
128.383014
 30
0.0
  0
VERTEX
  5
1859
100
AcDbEntity
  8
ALPHA
100
AcDbVertex
100
AcDb2dVertex
 10
284.442726
 20
128.383014
 30
0.0
  0
SEQEND
  5
185A
100
AcDbEntity
  8
ALPHA
  0
POLYLINE
  5
185B
100
AcDbEntity
  8
ALPHA
100
AcDb2dPolyline
 66
     1
 10
0.0
 20
0.0
 30
0.0
  0
VERTEX
  5
185C
100
AcDbEntity
  8
ALPHA
100
AcDbVertex
100
AcDb2dVertex
 10
284.442726
 20
128.383014
 30
0.0
  0
VERTEX
  5
185D
100
AcDbEntity
  8
ALPHA
100
AcDbVertex
100
AcDb2dVertex
 10
284.442726
 20
123.008665
 30
0.0
  0
SEQEND
  5
185E
100
AcDbEntity
  8
ALPHA
  0
POLYLINE
  5
185F
100
AcDbEntity
  8
ALPHA
100
AcDb2dPolyline
 66
     1
 10
0.0
 20
0.0
 30
0.0
  0
VERTEX
  5
1860
100
AcDbEntity
  8
ALPHA
100
AcDbVertex
100
AcDb2dVertex
 10
284.442726
 20
123.008665
 30
0.0
  0
VERTEX
  5
1861
100
AcDbEntity
  8
ALPHA
100
AcDbVertex
100
AcDb2dVertex
 10
296.715879
 20
123.008665
 30
0.0
  0
SEQEND
  5
1862
100
AcDbEntity
  8
ALPHA
  0
POLYLINE
  5
1863
100
AcDbEntity
  8
ALPHA
100
AcDb2dPolyline
 66
     1
 10
0.0
 20
0.0
 30
0.0
  0
VERTEX
  5
1864
100
AcDbEntity
  8
ALPHA
100
AcDbVertex
100
AcDb2dVertex
 10
193.515287
 20
213.428641
 30
0.0
  0
VERTEX
  5
1865
100
AcDbEntity
  8
ALPHA
100
AcDbVertex
100
AcDb2dVertex
 10
185.864936
 20
213.428641
 30
0.0
  0
SEQEND
  5
1866
100
AcDbEntity
  8
ALPHA
  0
POLYLINE
  5
1867
100
AcDbEntity
  8
ALPHA
100
AcDb2dPolyline
 66
     1
 10
0.0
 20
0.0
 30
0.0
  0
VERTEX
  5
1868
100
AcDbEntity
  8
ALPHA
100
AcDbVertex
100
AcDb2dVertex
 10
185.864936
 20
213.428641
 30
0.0
  0
VERTEX
  5
1869
100
AcDbEntity
  8
ALPHA
100
AcDbVertex
100
AcDb2dVertex
 10
184.476646
 20
213.506651
 30
0.0
  0
VERTEX
  5
186A
100
AcDbEntity
  8
ALPHA
100
AcDbVertex
100
AcDb2dVertex
 10
183.128193
 20
213.73562
 30
0.0
  0
VERTEX
  5
186B
100
AcDbEntity
  8
ALPHA
100
AcDbVertex
100
AcDb2dVertex
 10
181.82644
 20
214.107958
 30
0.0
  0
VERTEX
  5
186C
100
AcDbEntity
  8
ALPHA
100
AcDbVertex
100
AcDb2dVertex
 10
180.578249
 20
214.616074
 30
0.0
  0
VERTEX
  5
186D
100
AcDbEntity
  8
ALPHA
100
AcDbVertex
100
AcDb2dVertex
 10
179.39048
 20
215.252378
 30
0.0
  0
VERTEX
  5
186E
100
AcDbEntity
  8
ALPHA
100
AcDbVertex
100
AcDb2dVertex
 10
178.269996
 20
216.009279
 30
0.0
  0
VERTEX
  5
186F
100
AcDbEntity
  8
ALPHA
100
AcDbVertex
100
AcDb2dVertex
 10
177.223659
 20
216.879188
 30
0.0
  0
VERTEX
  5
1870
100
AcDbEntity
  8
ALPHA
100
AcDbVertex
100
AcDb2dVertex
 10
176.25833
 20
217.854512
 30
0.0
  0
VERTEX
  5
1871
100
AcDbEntity
  8
ALPHA
100
AcDbVertex
100
AcDb2dVertex
 10
175.380872
 20
218.927663
 30
0.0
  0
VERTEX
  5
1872
100
AcDbEntity
  8
ALPHA
100
AcDbVertex
100
AcDb2dVertex
 10
174.598145
 20
220.091049
 30
0.0
  0
VERTEX
  5
1873
100
AcDbEntity
  8
ALPHA
100
AcDbVertex
100
AcDb2dVertex
 10
173.917012
 20
221.33708
 30
0.0
  0
VERTEX
  5
1874
100
AcDbEntity
  8
ALPHA
100
AcDbVertex
100
AcDb2dVertex
 10
173.344334
 20
222.658165
 30
0.0
  0
VERTEX
  5
1875
100
AcDbEntity
  8
ALPHA
100
AcDbVertex
100
AcDb2dVertex
 10
172.886974
 20
224.046714
 30
0.0
  0
VERTEX
  5
1876
100
AcDbEntity
  8
ALPHA
100
AcDbVertex
100
AcDb2dVertex
 10
172.551792
 20
225.495137
 30
0.0
  0
VERTEX
  5
1877
100
AcDbEntity
  8
ALPHA
100
AcDbVertex
100
AcDb2dVertex
 10
172.345651
 20
226.995843
 30
0.0
  0
VERTEX
  5
1878
100
AcDbEntity
  8
ALPHA
100
AcDbVertex
100
AcDb2dVertex
 10
172.275412
 20
228.541241
 30
0.0
  0
VERTEX
  5
1879
100
AcDbEntity
  8
ALPHA
100
AcDbVertex
100
AcDb2dVertex
 10
172.345651
 20
230.085693
 30
0.0
  0
VERTEX
  5
187A
100
AcDbEntity
  8
ALPHA
100
AcDbVertex
100
AcDb2dVertex
 10
172.551792
 20
231.585615
 30
0.0
  0
VERTEX
  5
187B
100
AcDbEntity
  8
ALPHA
100
AcDbVertex
100
AcDb2dVertex
 10
172.886974
 20
233.033404
 30
0.0
  0
VERTEX
  5
187C
100
AcDbEntity
  8
ALPHA
100
AcDbVertex
100
AcDb2dVertex
 10
173.344334
 20
234.421454
 30
0.0
  0
VERTEX
  5
187D
100
AcDbEntity
  8
ALPHA
100
AcDbVertex
100
AcDb2dVertex
 10
173.917012
 20
235.742162
 30
0.0
  0
VERTEX
  5
187E
100
AcDbEntity
  8
ALPHA
100
AcDbVertex
100
AcDb2dVertex
 10
174.598145
 20
236.987922
 30
0.0
  0
VERTEX
  5
187F
100
AcDbEntity
  8
ALPHA
100
AcDbVertex
100
AcDb2dVertex
 10
175.380872
 20
238.15113
 30
0.0
  0
VERTEX
  5
1880
100
AcDbEntity
  8
ALPHA
100
AcDbVertex
100
AcDb2dVertex
 10
176.25833
 20
239.224181
 30
0.0
  0
VERTEX
  5
1881
100
AcDbEntity
  8
ALPHA
100
AcDbVertex
100
AcDb2dVertex
 10
177.223659
 20
240.199471
 30
0.0
  0
VERTEX
  5
1882
100
AcDbEntity
  8
ALPHA
100
AcDbVertex
100
AcDb2dVertex
 10
178.269996
 20
241.069395
 30
0.0
  0
VERTEX
  5
1883
100
AcDbEntity
  8
ALPHA
100
AcDbVertex
100
AcDb2dVertex
 10
179.39048
 20
241.826349
 30
0.0
  0
VERTEX
  5
1884
100
AcDbEntity
  8
ALPHA
100
AcDbVertex
100
AcDb2dVertex
 10
180.578249
 20
242.462727
 30
0.0
  0
VERTEX
  5
1885
100
AcDbEntity
  8
ALPHA
100
AcDbVertex
100
AcDb2dVertex
 10
181.82644
 20
242.970926
 30
0.0
  0
VERTEX
  5
1886
100
AcDbEntity
  8
ALPHA
100
AcDbVertex
100
AcDb2dVertex
 10
183.128193
 20
243.34334
 30
0.0
  0
VERTEX
  5
1887
100
AcDbEntity
  8
ALPHA
100
AcDbVertex
100
AcDb2dVertex
 10
184.476646
 20
243.572365
 30
0.0
  0
VERTEX
  5
1888
100
AcDbEntity
  8
ALPHA
100
AcDbVertex
100
AcDb2dVertex
 10
185.864936
 20
243.650397
 30
0.0
  0
SEQEND
  5
1889
100
AcDbEntity
  8
ALPHA
  0
POLYLINE
  5
188A
100
AcDbEntity
  8
ALPHA
100
AcDb2dPolyline
 66
     1
 10
0.0
 20
0.0
 30
0.0
  0
VERTEX
  5
188B
100
AcDbEntity
  8
ALPHA
100
AcDbVertex
100
AcDb2dVertex
 10
185.864936
 20
243.650397
 30
0.0
  0
VERTEX
  5
188C
100
AcDbEntity
  8
ALPHA
100
AcDbVertex
100
AcDb2dVertex
 10
193.512876
 20
243.606299
 30
0.0
  0
SEQEND
  5
188D
100
AcDbEntity
  8
ALPHA
  0
POLYLINE
  5
188E
100
AcDbEntity
  8
ALPHA
100
AcDb2dPolyline
 66
     1
 10
0.0
 20
0.0
 30
0.0
  0
VERTEX
  5
188F
100
AcDbEntity
  8
ALPHA
100
AcDbVertex
100
AcDb2dVertex
 10
38.54783
 20
205.55522
 30
0.0
  0
VERTEX
  5
1890
100
AcDbEntity
  8
ALPHA
100
AcDbVertex
100
AcDb2dVertex
 10
38.54783
 20
210.43003
 30
0.0
  0
SEQEND
  5
1891
100
AcDbEntity
  8
ALPHA
  0
POLYLINE
  5
1892
100
AcDbEntity
  8
ALPHA
100
AcDb2dPolyline
 66
     1
 10
0.0
 20
0.0
 30
0.0
  0
VERTEX
  5
1893
100
AcDbEntity
  8
ALPHA
100
AcDbVertex
100
AcDb2dVertex
 10
38.54783
 20
210.43003
 30
0.0
  0
VERTEX
  5
1894
100
AcDbEntity
  8
ALPHA
100
AcDbVertex
100
AcDb2dVertex
 10
38.524828
 20
210.8856
 30
0.0
  0
VERTEX
  5
1895
100
AcDbEntity
  8
ALPHA
100
AcDbVertex
100
AcDb2dVertex
 10
38.457314
 20
211.328007
 30
0.0
  0
VERTEX
  5
1896
100
AcDbEntity
  8
ALPHA
100
AcDbVertex
100
AcDb2dVertex
 10
38.347528
 20
211.75501
 30
0.0
  0
VERTEX
  5
1897
100
AcDbEntity
  8
ALPHA
100
AcDbVertex
100
AcDb2dVertex
 10
38.197709
 20
212.164372
 30
0.0
  0
VERTEX
  5
1898
100
AcDbEntity
  8
ALPHA
100
AcDbVertex
100
AcDb2dVertex
 10
38.010096
 20
212.553852
 30
0.0
  0
VERTEX
  5
1899
100
AcDbEntity
  8
ALPHA
100
AcDbVertex
100
AcDb2dVertex
 10
37.78693
 20
212.921211
 30
0.0
  0
VERTEX
  5
189A
100
AcDbEntity
  8
ALPHA
100
AcDbVertex
100
AcDb2dVertex
 10
37.530449
 20
213.264212
 30
0.0
  0
VERTEX
  5
189B
100
AcDbEntity
  8
ALPHA
100
AcDbVertex
100
AcDb2dVertex
 10
37.242892
 20
213.580613
 30
0.0
  0
VERTEX
  5
189C
100
AcDbEntity
  8
ALPHA
100
AcDbVertex
100
AcDb2dVertex
 10
36.9265
 20
213.868176
 30
0.0
  0
VERTEX
  5
189D
100
AcDbEntity
  8
ALPHA
100
AcDbVertex
100
AcDb2dVertex
 10
36.583512
 20
214.124663
 30
0.0
  0
VERTEX
  5
189E
100
AcDbEntity
  8
ALPHA
100
AcDbVertex
100
AcDb2dVertex
 10
36.216166
 20
214.347833
 30
0.0
  0
VERTEX
  5
189F
100
AcDbEntity
  8
ALPHA
100
AcDbVertex
100
AcDb2dVertex
 10
35.826702
 20
214.535448
 30
0.0
  0
VERTEX
  5
18A0
100
AcDbEntity
  8
ALPHA
100
AcDbVertex
100
AcDb2dVertex
 10
35.417361
 20
214.685268
 30
0.0
  0
VERTEX
  5
18A1
100
AcDbEntity
  8
ALPHA
100
AcDbVertex
100
AcDb2dVertex
 10
34.99038
 20
214.795055
 30
0.0
  0
VERTEX
  5
18A2
100
AcDbEntity
  8
ALPHA
100
AcDbVertex
100
AcDb2dVertex
 10
34.548
 20
214.86257
 30
0.0
  0
VERTEX
  5
18A3
100
AcDbEntity
  8
ALPHA
100
AcDbVertex
100
AcDb2dVertex
 10
34.09246
 20
214.885572
 30
0.0
  0
VERTEX
  5
18A4
100
AcDbEntity
  8
ALPHA
100
AcDbVertex
100
AcDb2dVertex
 10
33.63692
 20
214.86257
 30
0.0
  0
VERTEX
  5
18A5
100
AcDbEntity
  8
ALPHA
100
AcDbVertex
100
AcDb2dVertex
 10
33.19454
 20
214.795055
 30
0.0
  0
VERTEX
  5
18A6
100
AcDbEntity
  8
ALPHA
100
AcDbVertex
100
AcDb2dVertex
 10
32.76756
 20
214.685268
 30
0.0
  0
VERTEX
  5
18A7
100
AcDbEntity
  8
ALPHA
100
AcDbVertex
100
AcDb2dVertex
 10
32.358218
 20
214.535448
 30
0.0
  0
VERTEX
  5
18A8
100
AcDbEntity
  8
ALPHA
100
AcDbVertex
100
AcDb2dVertex
 10
31.968755
 20
214.347833
 30
0.0
  0
VERTEX
  5
18A9
100
AcDbEntity
  8
ALPHA
100
AcDbVertex
100
AcDb2dVertex
 10
31.601409
 20
214.124663
 30
0.0
  0
VERTEX
  5
18AA
100
AcDbEntity
  8
ALPHA
100
AcDbVertex
100
AcDb2dVertex
 10
31.25842
 20
213.868176
 30
0.0
  0
VERTEX
  5
18AB
100
AcDbEntity
  8
ALPHA
100
AcDbVertex
100
AcDb2dVertex
 10
30.942028
 20
213.580613
 30
0.0
  0
VERTEX
  5
18AC
100
AcDbEntity
  8
ALPHA
100
AcDbVertex
100
AcDb2dVertex
 10
30.654472
 20
213.264212
 30
0.0
  0
VERTEX
  5
18AD
100
AcDbEntity
  8
ALPHA
100
AcDbVertex
100
AcDb2dVertex
 10
30.397991
 20
212.921211
 30
0.0
  0
VERTEX
  5
18AE
100
AcDbEntity
  8
ALPHA
100
AcDbVertex
100
AcDb2dVertex
 10
30.174824
 20
212.553852
 30
0.0
  0
VERTEX
  5
18AF
100
AcDbEntity
  8
ALPHA
100
AcDbVertex
100
AcDb2dVertex
 10
29.987212
 20
212.164372
 30
0.0
  0
VERTEX
  5
18B0
100
AcDbEntity
  8
ALPHA
100
AcDbVertex
100
AcDb2dVertex
 10
29.837393
 20
211.75501
 30
0.0
  0
VERTEX
  5
18B1
100
AcDbEntity
  8
ALPHA
100
AcDbVertex
100
AcDb2dVertex
 10
29.727607
 20
211.328007
 30
0.0
  0
VERTEX
  5
18B2
100
AcDbEntity
  8
ALPHA
100
AcDbVertex
100
AcDb2dVertex
 10
29.660093
 20
210.8856
 30
0.0
  0
VERTEX
  5
18B3
100
AcDbEntity
  8
ALPHA
100
AcDbVertex
100
AcDb2dVertex
 10
29.637091
 20
210.43003
 30
0.0
  0
SEQEND
  5
18B4
100
AcDbEntity
  8
ALPHA
  0
POLYLINE
  5
18B5
100
AcDbEntity
  8
ALPHA
100
AcDb2dPolyline
 66
     1
 10
0.0
 20
0.0
 30
0.0
  0
VERTEX
  5
18B6
100
AcDbEntity
  8
ALPHA
100
AcDbVertex
100
AcDb2dVertex
 10
29.637091
 20
210.43003
 30
0.0
  0
VERTEX
  5
18B7
100
AcDbEntity
  8
ALPHA
100
AcDbVertex
100
AcDb2dVertex
 10
29.637091
 20
205.55522
 30
0.0
  0
SEQEND
  5
18B8
100
AcDbEntity
  8
ALPHA
  0
POLYLINE
  5
18B9
100
AcDbEntity
  8
ALPHA
100
AcDb2dPolyline
 66
     1
 10
0.0
 20
0.0
 30
0.0
  0
VERTEX
  5
18BA
100
AcDbEntity
  8
ALPHA
100
AcDbVertex
100
AcDb2dVertex
 10
38.54783
 20
251.30471
 30
0.0
  0
VERTEX
  5
18BB
100
AcDbEntity
  8
ALPHA
100
AcDbVertex
100
AcDb2dVertex
 10
38.54783
 20
246.4299
 30
0.0
  0
SEQEND
  5
18BC
100
AcDbEntity
  8
ALPHA
  0
POLYLINE
  5
18BD
100
AcDbEntity
  8
ALPHA
100
AcDb2dPolyline
 66
     1
 10
0.0
 20
0.0
 30
0.0
  0
VERTEX
  5
18BE
100
AcDbEntity
  8
ALPHA
100
AcDbVertex
100
AcDb2dVertex
 10
38.54783
 20
246.4299
 30
0.0
  0
VERTEX
  5
18BF
100
AcDbEntity
  8
ALPHA
100
AcDbVertex
100
AcDb2dVertex
 10
38.524828
 20
245.974329
 30
0.0
  0
VERTEX
  5
18C0
100
AcDbEntity
  8
ALPHA
100
AcDbVertex
100
AcDb2dVertex
 10
38.457314
 20
245.531923
 30
0.0
  0
VERTEX
  5
18C1
100
AcDbEntity
  8
ALPHA
100
AcDbVertex
100
AcDb2dVertex
 10
38.347528
 20
245.104919
 30
0.0
  0
VERTEX
  5
18C2
100
AcDbEntity
  8
ALPHA
100
AcDbVertex
100
AcDb2dVertex
 10
38.197709
 20
244.695558
 30
0.0
  0
VERTEX
  5
18C3
100
AcDbEntity
  8
ALPHA
100
AcDbVertex
100
AcDb2dVertex
 10
38.010096
 20
244.306078
 30
0.0
  0
VERTEX
  5
18C4
100
AcDbEntity
  8
ALPHA
100
AcDbVertex
100
AcDb2dVertex
 10
37.78693
 20
243.938718
 30
0.0
  0
VERTEX
  5
18C5
100
AcDbEntity
  8
ALPHA
100
AcDbVertex
100
AcDb2dVertex
 10
37.530449
 20
243.595718
 30
0.0
  0
VERTEX
  5
18C6
100
AcDbEntity
  8
ALPHA
100
AcDbVertex
100
AcDb2dVertex
 10
37.242892
 20
243.279317
 30
0.0
  0
VERTEX
  5
18C7
100
AcDbEntity
  8
ALPHA
100
AcDbVertex
100
AcDb2dVertex
 10
36.9265
 20
242.991753
 30
0.0
  0
VERTEX
  5
18C8
100
AcDbEntity
  8
ALPHA
100
AcDbVertex
100
AcDb2dVertex
 10
36.583512
 20
242.735267
 30
0.0
  0
VERTEX
  5
18C9
100
AcDbEntity
  8
ALPHA
100
AcDbVertex
100
AcDb2dVertex
 10
36.216166
 20
242.512097
 30
0.0
  0
VERTEX
  5
18CA
100
AcDbEntity
  8
ALPHA
100
AcDbVertex
100
AcDb2dVertex
 10
35.826702
 20
242.324482
 30
0.0
  0
VERTEX
  5
18CB
100
AcDbEntity
  8
ALPHA
100
AcDbVertex
100
AcDb2dVertex
 10
35.417361
 20
242.174661
 30
0.0
  0
VERTEX
  5
18CC
100
AcDbEntity
  8
ALPHA
100
AcDbVertex
100
AcDb2dVertex
 10
34.99038
 20
242.064874
 30
0.0
  0
VERTEX
  5
18CD
100
AcDbEntity
  8
ALPHA
100
AcDbVertex
100
AcDb2dVertex
 10
34.548
 20
241.99736
 30
0.0
  0
VERTEX
  5
18CE
100
AcDbEntity
  8
ALPHA
100
AcDbVertex
100
AcDb2dVertex
 10
34.09246
 20
241.974358
 30
0.0
  0
VERTEX
  5
18CF
100
AcDbEntity
  8
ALPHA
100
AcDbVertex
100
AcDb2dVertex
 10
33.63692
 20
241.99736
 30
0.0
  0
VERTEX
  5
18D0
100
AcDbEntity
  8
ALPHA
100
AcDbVertex
100
AcDb2dVertex
 10
33.19454
 20
242.064874
 30
0.0
  0
VERTEX
  5
18D1
100
AcDbEntity
  8
ALPHA
100
AcDbVertex
100
AcDb2dVertex
 10
32.76756
 20
242.174661
 30
0.0
  0
VERTEX
  5
18D2
100
AcDbEntity
  8
ALPHA
100
AcDbVertex
100
AcDb2dVertex
 10
32.358218
 20
242.324482
 30
0.0
  0
VERTEX
  5
18D3
100
AcDbEntity
  8
ALPHA
100
AcDbVertex
100
AcDb2dVertex
 10
31.968755
 20
242.512097
 30
0.0
  0
VERTEX
  5
18D4
100
AcDbEntity
  8
ALPHA
100
AcDbVertex
100
AcDb2dVertex
 10
31.601409
 20
242.735267
 30
0.0
  0
VERTEX
  5
18D5
100
AcDbEntity
  8
ALPHA
100
AcDbVertex
100
AcDb2dVertex
 10
31.25842
 20
242.991753
 30
0.0
  0
VERTEX
  5
18D6
100
AcDbEntity
  8
ALPHA
100
AcDbVertex
100
AcDb2dVertex
 10
30.942028
 20
243.279317
 30
0.0
  0
VERTEX
  5
18D7
100
AcDbEntity
  8
ALPHA
100
AcDbVertex
100
AcDb2dVertex
 10
30.654472
 20
243.595718
 30
0.0
  0
VERTEX
  5
18D8
100
AcDbEntity
  8
ALPHA
100
AcDbVertex
100
AcDb2dVertex
 10
30.397991
 20
243.938718
 30
0.0
  0
VERTEX
  5
18D9
100
AcDbEntity
  8
ALPHA
100
AcDbVertex
100
AcDb2dVertex
 10
30.174824
 20
244.306078
 30
0.0
  0
VERTEX
  5
18DA
100
AcDbEntity
  8
ALPHA
100
AcDbVertex
100
AcDb2dVertex
 10
29.987212
 20
244.695558
 30
0.0
  0
VERTEX
  5
18DB
100
AcDbEntity
  8
ALPHA
100
AcDbVertex
100
AcDb2dVertex
 10
29.837393
 20
245.104919
 30
0.0
  0
VERTEX
  5
18DC
100
AcDbEntity
  8
ALPHA
100
AcDbVertex
100
AcDb2dVertex
 10
29.727607
 20
245.531923
 30
0.0
  0
VERTEX
  5
18DD
100
AcDbEntity
  8
ALPHA
100
AcDbVertex
100
AcDb2dVertex
 10
29.660093
 20
245.974329
 30
0.0
  0
VERTEX
  5
18DE
100
AcDbEntity
  8
ALPHA
100
AcDbVertex
100
AcDb2dVertex
 10
29.637091
 20
246.4299
 30
0.0
  0
SEQEND
  5
18DF
100
AcDbEntity
  8
ALPHA
  0
POLYLINE
  5
18E0
100
AcDbEntity
  8
ALPHA
100
AcDb2dPolyline
 66
     1
 10
0.0
 20
0.0
 30
0.0
  0
VERTEX
  5
18E1
100
AcDbEntity
  8
ALPHA
100
AcDbVertex
100
AcDb2dVertex
 10
29.637091
 20
246.4299
 30
0.0
  0
VERTEX
  5
18E2
100
AcDbEntity
  8
ALPHA
100
AcDbVertex
100
AcDb2dVertex
 10
29.637091
 20
251.30471
 30
0.0
  0
SEQEND
  5
18E3
100
AcDbEntity
  8
ALPHA
  0
POLYLINE
  5
18E4
100
AcDbEntity
  8
ALPHA
100
AcDb2dPolyline
 66
     1
 10
0.0
 20
0.0
 30
0.0
  0
VERTEX
  5
18E5
100
AcDbEntity
  8
ALPHA
100
AcDbVertex
100
AcDb2dVertex
 10
41.033811
 20
205.55522
 30
0.0
  0
VERTEX
  5
18E6
100
AcDbEntity
  8
ALPHA
100
AcDbVertex
100
AcDb2dVertex
 10
27.150937
 20
205.55522
 30
0.0
  0
SEQEND
  5
18E7
100
AcDbEntity
  8
ALPHA
  0
POLYLINE
  5
18E8
100
AcDbEntity
  8
ALPHA
100
AcDb2dPolyline
 66
     1
 10
0.0
 20
0.0
 30
0.0
  0
VERTEX
  5
18E9
100
AcDbEntity
  8
ALPHA
100
AcDbVertex
100
AcDb2dVertex
 10
27.150937
 20
205.55522
 30
0.0
  0
VERTEX
  5
18EA
100
AcDbEntity
  8
ALPHA
100
AcDbVertex
100
AcDb2dVertex
 10
27.150937
 20
251.30471
 30
0.0
  0
SEQEND
  5
18EB
100
AcDbEntity
  8
ALPHA
  0
POLYLINE
  5
18EC
100
AcDbEntity
  8
ALPHA
100
AcDb2dPolyline
 66
     1
 10
0.0
 20
0.0
 30
0.0
  0
VERTEX
  5
18ED
100
AcDbEntity
  8
ALPHA
100
AcDbVertex
100
AcDb2dVertex
 10
27.150937
 20
251.30471
 30
0.0
  0
VERTEX
  5
18EE
100
AcDbEntity
  8
ALPHA
100
AcDbVertex
100
AcDb2dVertex
 10
41.033811
 20
251.30471
 30
0.0
  0
SEQEND
  5
18EF
100
AcDbEntity
  8
ALPHA
  0
POLYLINE
  5
18F0
100
AcDbEntity
  8
ALPHA
100
AcDb2dPolyline
 66
     1
 10
0.0
 20
0.0
 30
0.0
  0
VERTEX
  5
18F1
100
AcDbEntity
  8
ALPHA
100
AcDbVertex
100
AcDb2dVertex
 10
41.033811
 20
251.30471
 30
0.0
  0
VERTEX
  5
18F2
100
AcDbEntity
  8
ALPHA
100
AcDbVertex
100
AcDb2dVertex
 10
41.033811
 20
205.55522
 30
0.0
  0
SEQEND
  5
18F3
100
AcDbEntity
  8
ALPHA
  0
POLYLINE
  5
18F4
100
AcDbEntity
  8
ALPHA
100
AcDb2dPolyline
 66
     1
 10
0.0
 20
0.0
 30
0.0
  0
VERTEX
  5
18F5
100
AcDbEntity
  8
ALPHA
100
AcDbVertex
100
AcDb2dVertex
 10
41.033811
 20
240.728956
 30
0.0
  0
VERTEX
  5
18F6
100
AcDbEntity
  8
ALPHA
100
AcDbVertex
100
AcDb2dVertex
 10
44.851838
 20
240.728956
 30
0.0
  0
SEQEND
  5
18F7
100
AcDbEntity
  8
ALPHA
  0
POLYLINE
  5
18F8
100
AcDbEntity
  8
ALPHA
100
AcDb2dPolyline
 66
     1
 10
0.0
 20
0.0
 30
0.0
  0
VERTEX
  5
18F9
100
AcDbEntity
  8
ALPHA
100
AcDbVertex
100
AcDb2dVertex
 10
44.851838
 20
240.728956
 30
0.0
  0
VERTEX
  5
18FA
100
AcDbEntity
  8
ALPHA
100
AcDbVertex
100
AcDb2dVertex
 10
44.851838
 20
216.130974
 30
0.0
  0
SEQEND
  5
18FB
100
AcDbEntity
  8
ALPHA
  0
POLYLINE
  5
18FC
100
AcDbEntity
  8
ALPHA
100
AcDb2dPolyline
 66
     1
 10
0.0
 20
0.0
 30
0.0
  0
VERTEX
  5
18FD
100
AcDbEntity
  8
ALPHA
100
AcDbVertex
100
AcDb2dVertex
 10
44.851838
 20
216.130974
 30
0.0
  0
VERTEX
  5
18FE
100
AcDbEntity
  8
ALPHA
100
AcDbVertex
100
AcDb2dVertex
 10
41.033811
 20
216.130974
 30
0.0
  0
SEQEND
  5
18FF
100
AcDbEntity
  8
ALPHA
  0
POLYLINE
  5
1900
100
AcDbEntity
  8
ALPHA
100
AcDb2dPolyline
 66
     1
 10
0.0
 20
0.0
 30
0.0
  0
VERTEX
  5
1901
100
AcDbEntity
  8
ALPHA
100
AcDbVertex
100
AcDb2dVertex
 10
27.150937
 20
216.130974
 30
0.0
  0
VERTEX
  5
1902
100
AcDbEntity
  8
ALPHA
100
AcDbVertex
100
AcDb2dVertex
 10
23.331015
 20
216.130974
 30
0.0
  0
SEQEND
  5
1903
100
AcDbEntity
  8
ALPHA
  0
POLYLINE
  5
1904
100
AcDbEntity
  8
ALPHA
100
AcDb2dPolyline
 66
     1
 10
0.0
 20
0.0
 30
0.0
  0
VERTEX
  5
1905
100
AcDbEntity
  8
ALPHA
100
AcDbVertex
100
AcDb2dVertex
 10
23.331015
 20
216.130974
 30
0.0
  0
VERTEX
  5
1906
100
AcDbEntity
  8
ALPHA
100
AcDbVertex
100
AcDb2dVertex
 10
23.331015
 20
240.728956
 30
0.0
  0
SEQEND
  5
1907
100
AcDbEntity
  8
ALPHA
  0
POLYLINE
  5
1908
100
AcDbEntity
  8
ALPHA
100
AcDb2dPolyline
 66
     1
 10
0.0
 20
0.0
 30
0.0
  0
VERTEX
  5
1909
100
AcDbEntity
  8
ALPHA
100
AcDbVertex
100
AcDb2dVertex
 10
23.331015
 20
240.728956
 30
0.0
  0
VERTEX
  5
190A
100
AcDbEntity
  8
ALPHA
100
AcDbVertex
100
AcDb2dVertex
 10
27.150937
 20
240.728956
 30
0.0
  0
SEQEND
  5
190B
100
AcDbEntity
  8
ALPHA
  0
POLYLINE
  5
190C
100
AcDbEntity
  8
ALPHA
100
AcDb2dPolyline
 66
     1
 10
0.0
 20
0.0
 30
0.0
  0
VERTEX
  5
190D
100
AcDbEntity
  8
ALPHA
100
AcDbVertex
100
AcDb2dVertex
 10
62.119173
 20
240.92946
 30
0.0
  0
VERTEX
  5
190E
100
AcDbEntity
  8
ALPHA
100
AcDbVertex
100
AcDb2dVertex
 10
63.883835
 20
243.611384
 30
0.0
  0
VERTEX
  5
190F
100
AcDbEntity
  8
ALPHA
100
AcDbVertex
100
AcDb2dVertex
 10
65.964968
 20
246.034166
 30
0.0
  0
VERTEX
  5
1910
100
AcDbEntity
  8
ALPHA
100
AcDbVertex
100
AcDb2dVertex
 10
68.332926
 20
248.167463
 30
0.0
  0
VERTEX
  5
1911
100
AcDbEntity
  8
ALPHA
100
AcDbVertex
100
AcDb2dVertex
 10
70.958061
 20
249.980932
 30
0.0
  0
VERTEX
  5
1912
100
AcDbEntity
  8
ALPHA
100
AcDbVertex
100
AcDb2dVertex
 10
73.810726
 20
251.444228
 30
0.0
  0
VERTEX
  5
1913
100
AcDbEntity
  8
ALPHA
100
AcDbVertex
100
AcDb2dVertex
 10
76.861272
 20
252.527008
 30
0.0
  0
VERTEX
  5
1914
100
AcDbEntity
  8
ALPHA
100
AcDbVertex
100
AcDb2dVertex
 10
80.080054
 20
253.198928
 30
0.0
  0
VERTEX
  5
1915
100
AcDbEntity
  8
ALPHA
100
AcDbVertex
100
AcDb2dVertex
 10
83.437424
 20
253.429645
 30
0.0
  0
SEQEND
  5
1916
100
AcDbEntity
  8
ALPHA
  0
POLYLINE
  5
1917
100
AcDbEntity
  8
ALPHA
100
AcDb2dPolyline
 66
     1
 10
0.0
 20
0.0
 30
0.0
  0
VERTEX
  5
1918
100
AcDbEntity
  8
ALPHA
100
AcDbVertex
100
AcDb2dVertex
 10
83.437424
 20
253.429645
 30
0.0
  0
VERTEX
  5
1919
100
AcDbEntity
  8
ALPHA
100
AcDbVertex
100
AcDb2dVertex
 10
148.242599
 20
253.429645
 30
0.0
  0
SEQEND
  5
191A
100
AcDbEntity
  8
ALPHA
  0
POLYLINE
  5
191B
100
AcDbEntity
  8
ALPHA
100
AcDb2dPolyline
 66
     1
 10
0.0
 20
0.0
 30
0.0
  0
VERTEX
  5
191C
100
AcDbEntity
  8
ALPHA
100
AcDbVertex
100
AcDb2dVertex
 10
148.242599
 20
203.429596
 30
0.0
  0
VERTEX
  5
191D
100
AcDbEntity
  8
ALPHA
100
AcDbVertex
100
AcDb2dVertex
 10
83.437424
 20
203.429596
 30
0.0
  0
SEQEND
  5
191E
100
AcDbEntity
  8
ALPHA
  0
POLYLINE
  5
191F
100
AcDbEntity
  8
ALPHA
100
AcDb2dPolyline
 66
     1
 10
0.0
 20
0.0
 30
0.0
  0
VERTEX
  5
1920
100
AcDbEntity
  8
ALPHA
100
AcDbVertex
100
AcDb2dVertex
 10
83.437424
 20
203.429596
 30
0.0
  0
VERTEX
  5
1921
100
AcDbEntity
  8
ALPHA
100
AcDbVertex
100
AcDb2dVertex
 10
80.080054
 20
203.660312
 30
0.0
  0
VERTEX
  5
1922
100
AcDbEntity
  8
ALPHA
100
AcDbVertex
100
AcDb2dVertex
 10
76.861272
 20
204.332232
 30
0.0
  0
VERTEX
  5
1923
100
AcDbEntity
  8
ALPHA
100
AcDbVertex
100
AcDb2dVertex
 10
73.810726
 20
205.415013
 30
0.0
  0
VERTEX
  5
1924
100
AcDbEntity
  8
ALPHA
100
AcDbVertex
100
AcDb2dVertex
 10
70.958061
 20
206.878309
 30
0.0
  0
VERTEX
  5
1925
100
AcDbEntity
  8
ALPHA
100
AcDbVertex
100
AcDb2dVertex
 10
68.332926
 20
208.691777
 30
0.0
  0
VERTEX
  5
1926
100
AcDbEntity
  8
ALPHA
100
AcDbVertex
100
AcDb2dVertex
 10
65.964968
 20
210.825075
 30
0.0
  0
VERTEX
  5
1927
100
AcDbEntity
  8
ALPHA
100
AcDbVertex
100
AcDb2dVertex
 10
63.883835
 20
213.247857
 30
0.0
  0
VERTEX
  5
1928
100
AcDbEntity
  8
ALPHA
100
AcDbVertex
100
AcDb2dVertex
 10
62.119173
 20
215.92978
 30
0.0
  0
SEQEND
  5
1929
100
AcDbEntity
  8
ALPHA
  0
POLYLINE
  5
192A
100
AcDbEntity
  8
ALPHA
100
AcDb2dPolyline
 66
     1
 10
0.0
 20
0.0
 30
0.0
  0
VERTEX
  5
192B
100
AcDbEntity
  8
ALPHA
100
AcDbVertex
100
AcDb2dVertex
 10
168.908521
 20
8.429612
 30
0.0
  0
VERTEX
  5
192C
100
AcDbEntity
  8
ALPHA
100
AcDbVertex
100
AcDb2dVertex
 10
10.092547
 20
8.429612
 30
0.0
  0
SEQEND
  5
192D
100
AcDbEntity
  8
ALPHA
  0
POLYLINE
  5
192E
100
AcDbEntity
  8
ALPHA
100
AcDb2dPolyline
 66
     1
 10
0.0
 20
0.0
 30
0.0
  0
VERTEX
  5
192F
100
AcDbEntity
  8
ALPHA
100
AcDbVertex
100
AcDb2dVertex
 10
10.092547
 20
8.429612
 30
0.0
  0
VERTEX
  5
1930
100
AcDbEntity
  8
ALPHA
100
AcDbVertex
100
AcDb2dVertex
 10
0.092468
 20
18.430035
 30
0.0
  0
SEQEND
  5
1931
100
AcDbEntity
  8
ALPHA
  0
POLYLINE
  5
1932
100
AcDbEntity
  8
ALPHA
100
AcDb2dPolyline
 66
     1
 10
0.0
 20
0.0
 30
0.0
  0
VERTEX
  5
1933
100
AcDbEntity
  8
ALPHA
100
AcDbVertex
100
AcDb2dVertex
 10
0.092468
 20
18.430035
 30
0.0
  0
VERTEX
  5
1934
100
AcDbEntity
  8
ALPHA
100
AcDbVertex
100
AcDb2dVertex
 10
0.092468
 20
438.429894
 30
0.0
  0
SEQEND
  5
1935
100
AcDbEntity
  8
ALPHA
  0
POLYLINE
  5
1936
100
AcDbEntity
  8
ALPHA
100
AcDb2dPolyline
 66
     1
 10
0.0
 20
0.0
 30
0.0
  0
VERTEX
  5
1937
100
AcDbEntity
  8
ALPHA
100
AcDbVertex
100
AcDb2dVertex
 10
0.092468
 20
438.429894
 30
0.0
  0
VERTEX
  5
1938
100
AcDbEntity
  8
ALPHA
100
AcDbVertex
100
AcDb2dVertex
 10
10.092547
 20
448.429628
 30
0.0
  0
SEQEND
  5
1939
100
AcDbEntity
  8
ALPHA
  0
POLYLINE
  5
193A
100
AcDbEntity
  8
ALPHA
100
AcDb2dPolyline
 66
     1
 10
0.0
 20
0.0
 30
0.0
  0
VERTEX
  5
193B
100
AcDbEntity
  8
ALPHA
100
AcDbVertex
100
AcDb2dVertex
 10
10.092547
 20
448.429628
 30
0.0
  0
VERTEX
  5
193C
100
AcDbEntity
  8
ALPHA
100
AcDbVertex
100
AcDb2dVertex
 10
168.908176
 20
448.429628
 30
0.0
  0
SEQEND
  5
193D
100
AcDbEntity
  8
ALPHA
  0
POLYLINE
  5
193E
100
AcDbEntity
  8
ALPHA
100
AcDb2dPolyline
 66
     1
 10
0.0
 20
0.0
 30
0.0
  0
VERTEX
  5
193F
100
AcDbEntity
  8
ALPHA
100
AcDbVertex
100
AcDb2dVertex
 10
279.792536
 20
448.429628
 30
0.0
  0
VERTEX
  5
1940
100
AcDbEntity
  8
ALPHA
100
AcDbVertex
100
AcDb2dVertex
 10
320.092402
 20
448.429628
 30
0.0
  0
SEQEND
  5
1941
100
AcDbEntity
  8
ALPHA
  0
POLYLINE
  5
1942
100
AcDbEntity
  8
ALPHA
100
AcDb2dPolyline
 66
     1
 10
0.0
 20
0.0
 30
0.0
  0
VERTEX
  5
1943
100
AcDbEntity
  8
ALPHA
100
AcDbVertex
100
AcDb2dVertex
 10
320.092402
 20
448.429628
 30
0.0
  0
VERTEX
  5
1944
100
AcDbEntity
  8
ALPHA
100
AcDbVertex
100
AcDb2dVertex
 10
330.092481
 20
438.429894
 30
0.0
  0
SEQEND
  5
1945
100
AcDbEntity
  8
ALPHA
  0
POLYLINE
  5
1946
100
AcDbEntity
  8
ALPHA
100
AcDb2dPolyline
 66
     1
 10
0.0
 20
0.0
 30
0.0
  0
VERTEX
  5
1947
100
AcDbEntity
  8
ALPHA
100
AcDbVertex
100
AcDb2dVertex
 10
330.092481
 20
438.429894
 30
0.0
  0
VERTEX
  5
1948
100
AcDbEntity
  8
ALPHA
100
AcDbVertex
100
AcDb2dVertex
 10
330.092481
 20
18.430035
 30
0.0
  0
SEQEND
  5
1949
100
AcDbEntity
  8
ALPHA
  0
POLYLINE
  5
194A
100
AcDbEntity
  8
ALPHA
100
AcDb2dPolyline
 66
     1
 10
0.0
 20
0.0
 30
0.0
  0
VERTEX
  5
194B
100
AcDbEntity
  8
ALPHA
100
AcDbVertex
100
AcDb2dVertex
 10
330.092481
 20
18.430035
 30
0.0
  0
VERTEX
  5
194C
100
AcDbEntity
  8
ALPHA
100
AcDbVertex
100
AcDb2dVertex
 10
320.092402
 20
8.429612
 30
0.0
  0
SEQEND
  5
194D
100
AcDbEntity
  8
ALPHA
  0
POLYLINE
  5
194E
100
AcDbEntity
  8
ALPHA
100
AcDb2dPolyline
 66
     1
 10
0.0
 20
0.0
 30
0.0
  0
VERTEX
  5
194F
100
AcDbEntity
  8
ALPHA
100
AcDbVertex
100
AcDb2dVertex
 10
320.092402
 20
8.429612
 30
0.0
  0
VERTEX
  5
1950
100
AcDbEntity
  8
ALPHA
100
AcDbVertex
100
AcDb2dVertex
 10
279.792536
 20
8.429612
 30
0.0
  0
SEQEND
  5
1951
100
AcDbEntity
  8
ALPHA
  0
DIMENSION
  5
1963
100
AcDbEntity
  8
COTATION1
100
AcDbDimension
  2
*D7
 10
-13.969024
 20
414.429637
 30
0.0
 11
-16.219024
 21
431.429633
 31
0.0
 70
    32
  1
=
  3
SC_STAND
100
AcDbAlignedDimension
 13
30.285402
 23
448.429628
 33
0.0
 14
34.09246
 24
414.429637
 34
0.0
 50
90.0
100
AcDbRotatedDimension
  0
DIMENSION
  5
1970
100
AcDbEntity
  8
COTATION1
100
AcDbDimension
  2
*D8
 10
-13.969024
 20
42.429604
 30
0.0
 11
-16.219024
 21
25.429608
 31
0.0
 70
    32
  1
=
  3
SC_STAND
100
AcDbAlignedDimension
 13
31.924455
 23
8.429612
 33
0.0
 14
34.09246
 24
42.429604
 34
0.0
 50
90.0
100
AcDbRotatedDimension
  0
DIMENSION
  5
197D
100
AcDbEntity
  8
COTATION1
100
AcDbDimension
  2
*D9
 10
-13.969024
 20
414.429637
 30
0.0
 11
-16.219024
 21
228.42962
 31
0.0
 70
    32
  3
SC_STAND
100
AcDbAlignedDimension
 13
0.092468
 23
42.429604
 33
0.0
 14
0.092468
 24
414.429637
 34
0.0
 50
90.0
100
AcDbRotatedDimension
  0
LEADER
  5
19AA
100
AcDbEntity
  8
COTATION1
100
AcDbLeader
  3
SC_STAND
 73
     0
 74
     0
 75
     1
 40
2.5
 41
13.333333
 76
     3
 10
38.083211
 20
421.363006
 30
0.0
 10
65.078082
 20
468.262806
 30
0.0
 10
68.078082
 20
468.262806
 30
0.0
 77
   256
340
19AB
  0
MTEXT
  5
19AB
102
{ACAD_REACTORS
330
19AA
102
}
100
AcDbEntity
  8
COTATION1
100
AcDbMText
 10
69.078082
 20
470.512806
 30
0.0
 40
2.5
 41
0.0
 71
     4
 72
     1
  1
\A1;2x %%c16
  0
DIMENSION
  5
19B8
100
AcDbEntity
  8
COTATION1
100
AcDbDimension
  2
*D10
 10
148.242599
 20
467.453291
 30
0.0
 11
216.342662
 21
469.703291
 31
0.0
 70
    32
  3
SC_STAND
100
AcDbAlignedDimension
 13
284.442726
 23
345.821594
 33
0.0
 14
148.242599
 24
440.918976
 34
0.0
100
AcDbRotatedDimension
  0
DIMENSION
  5
19DB
100
AcDbEntity
  8
COTATION1
100
AcDbDimension
  2
*D11
 10
351.812924
 20
0.929639
 30
0.0
 11
349.562924
 21
228.42962
 31
0.0
 70
    32
  3
SC_STAND
100
AcDbAlignedDimension
 13
248.242696
 23
455.929601
 33
0.0
 14
248.242696
 24
0.929639
 34
0.0
 50
90.0
100
AcDbRotatedDimension
  0
DIMENSION
  5
19E8
100
AcDbEntity
  8
COTATION1
100
AcDbDimension
  2
*D12
 10
0.092468
 20
-10.762411
 30
0.0
 11
165.092474
 21
-8.512411
 31
0.0
 70
    32
  3
SC_STAND
100
AcDbAlignedDimension
 13
330.092481
 23
30.896403
 33
0.0
 14
0.092468
 24
30.896403
 34
0.0
100
AcDbRotatedDimension
  0
DIMENSION
  5
19F5
100
AcDbEntity
  8
COTATION1
100
AcDbDimension
  2
*D13
 10
34.09246
 20
-2.065919
 30
0.0
 11
17.092464
 21
0.184081
 31
0.0
 70
    32
  3
SC_STAND
100
AcDbAlignedDimension
 13
0.092468
 23
30.896403
 33
0.0
 14
34.09246
 24
42.429604
 34
0.0
100
AcDbRotatedDimension
  0
DIMENSION
  5
1A02
100
AcDbEntity
  8
COTATION1
100
AcDbDimension
  2
*D14
 10
343.925734
 20
8.429612
 30
0.0
 11
341.675734
 21
228.42962
 31
0.0
 70
    32
  3
SC_STAND
100
AcDbAlignedDimension
 13
313.167425
 23
448.429628
 33
0.0
 14
313.167425
 24
8.429612
 34
0.0
 50
90.0
100
AcDbRotatedDimension
  0
ENDSEC
  0
SECTION
  2
OBJECTS
  0
DICTIONARY
  5
F8
100
AcDbDictionary
  3
ACAD_GROUP
350
F9
  3
ACAD_MLINESTYLE
350
106
  3
ACDBVARIABLEDICTIONARY
350
143
  0
DICTIONARY
  5
F9
102
{ACAD_REACTORS
330
F8
102
}
100
AcDbDictionary
  0
DICTIONARY
  5
106
102
{ACAD_REACTORS
330
F8
102
}
100
AcDbDictionary
  3
STANDARD
350
107
  0
DICTIONARY
  5
143
102
{ACAD_REACTORS
330
F8
102
}
100
AcDbDictionary
  3
DIMADEC
350
144
  0
MLINESTYLE
  5
107
102
{ACAD_REACTORS
330
106
102
}
100
AcDbMlineStyle
  2
STANDARD
 70
     0
  3

 62
   256
 51
90.0
 52
90.0
 71
     2
 49
0.5
 62
   256
  6
BYLAYER
 49
-0.5
 62
   256
  6
BYLAYER
  0
DICTIONARYVAR
  5
144
102
{ACAD_REACTORS
330
143
102
}
100
DictionaryVariables
280
     0
  1
0
  0
ENDSEC
  0
EOF
