  0
SECTION
  2
HEADER
  9
$ACADVER
  1
AC1009
  9
$INSBASE
 10
402.590624
 20
-1.041018
 30
0.0
  9
$EXTMIN
 10
950.114668
 20
2.667355
 30
0.0
  9
$EXTMAX
 10
1076.209115
 20
149.667355
 30
0.0
  9
$LIMMIN
 10
-407.970438
 20
-367.832444
  9
$LIMMAX
 10
429.804077
 20
234.370848
  9
$ORTHOMODE
 70
     1
  9
$REGENMODE
 70
     1
  9
$FILLMODE
 70
     1
  9
$QTEXTMODE
 70
     0
  9
$MIRRTEXT
 70
     1
  9
$DRAGMODE
 70
     2
  9
$LTSCALE
 40
10.0
  9
$OSMODE
 70
    37
  9
$ATTMODE
 70
     1
  9
$TEXTSIZE
 40
6.0
  9
$TRACEWID
 40
1.0
  9
$TEXTSTYLE
  7
ROMANS
  9
$CLAYER
  8
ALPHA
  9
$CELTYPE
  6
BYLAYER
  9
$CECOLOR
 62
   256
  9
$DIMSCALE
 40
1.0
  9
$DIMASZ
 40
5.0
  9
$DIMEXO
 40
2.0
  9
$DIMDLI
 40
0.38
  9
$DIMRND
 40
0.0
  9
$DIMDLE
 40
0.0
  9
$DIMEXE
 40
2.5
  9
$DIMTP
 40
0.0
  9
$DIMTM
 40
0.0
  9
$DIMTXT
 40
2.5
  9
$DIMCEN
 40
0.0
  9
$DIMTSZ
 40
0.0
  9
$DIMTOL
 70
     0
  9
$DIMLIM
 70
     0
  9
$DIMTIH
 70
     1
  9
$DIMTOH
 70
     1
  9
$DIMSE1
 70
     0
  9
$DIMSE2
 70
     0
  9
$DIMTAD
 70
     1
  9
$DIMZIN
 70
    12
  9
$DIMBLK
  1
OPEN30
  9
$DIMASO
 70
     1
  9
$DIMSHO
 70
     1
  9
$DIMPOST
  1

  9
$DIMAPOST
  1

  9
$DIMALT
 70
     0
  9
$DIMALTD
 70
     2
  9
$DIMALTF
 40
25.4
  9
$DIMLFAC
 40
1.0
  9
$DIMTOFL
 70
     0
  9
$DIMTVP
 40
0.0
  9
$DIMTIX
 70
     0
  9
$DIMSOXD
 70
     0
  9
$DIMSAH
 70
     0
  9
$DIMBLK1
  1

  9
$DIMBLK2
  1

  9
$DIMSTYLE
  2
SC_DEFAUT
  9
$DIMCLRD
 70
     0
  9
$DIMCLRE
 70
     0
  9
$DIMCLRT
 70
     0
  9
$DIMTFAC
 40
1.0
  9
$DIMGAP
 40
2.0
  9
$LUNITS
 70
     2
  9
$LUPREC
 70
     1
  9
$SKETCHINC
 40
0.1
  9
$FILLETRAD
 40
0.0
  9
$AUNITS
 70
     0
  9
$AUPREC
 70
     0
  9
$MENU
  1
acad
  9
$ELEVATION
 40
0.0
  9
$PELEVATION
 40
0.0
  9
$THICKNESS
 40
0.0
  9
$LIMCHECK
 70
     0
  9
$BLIPMODE
 70
     0
  9
$CHAMFERA
 40
0.0
  9
$CHAMFERB
 40
0.0
  9
$SKPOLY
 70
     0
  9
$TDCREATE
 40
2450373.687919
  9
$TDUPDATE
 40
2452850.683047
  9
$TDINDWG
 40
0.801956
  9
$TDUSRTIMER
 40
0.801956
  9
$USRTIMER
 70
     1
  9
$ANGBASE
 50
0.0
  9
$ANGDIR
 70
     0
  9
$PDMODE
 70
    32
  9
$PDSIZE
 40
0.0
  9
$PLINEWID
 40
0.0
  9
$COORDS
 70
     1
  9
$SPLFRAME
 70
     0
  9
$SPLINETYPE
 70
     6
  9
$SPLINESEGS
 70
     8
  9
$ATTDIA
 70
     0
  9
$ATTREQ
 70
     1
  9
$HANDLING
 70
     1
  9
$HANDSEED
  5
74BC
  9
$SURFTAB1
 70
     6
  9
$SURFTAB2
 70
     6
  9
$SURFTYPE
 70
     6
  9
$SURFU
 70
     6
  9
$SURFV
 70
     6
  9
$UCSNAME
  2

  9
$UCSORG
 10
0.0
 20
0.0
 30
0.0
  9
$UCSXDIR
 10
1.0
 20
0.0
 30
0.0
  9
$UCSYDIR
 10
0.0
 20
1.0
 30
0.0
  9
$PUCSNAME
  2

  9
$PUCSORG
 10
0.0
 20
0.0
 30
0.0
  9
$PUCSXDIR
 10
1.0
 20
0.0
 30
0.0
  9
$PUCSYDIR
 10
0.0
 20
1.0
 30
0.0
  9
$USERI1
 70
     0
  9
$USERI2
 70
     0
  9
$USERI3
 70
     0
  9
$USERI4
 70
     0
  9
$USERI5
 70
     0
  9
$USERR1
 40
0.0
  9
$USERR2
 40
0.0
  9
$USERR3
 40
0.0
  9
$USERR4
 40
0.0
  9
$USERR5
 40
0.0
  9
$WORLDVIEW
 70
     1
  9
$SHADEDGE
 70
     3
  9
$SHADEDIF
 70
    70
  9
$TILEMODE
 70
     1
  9
$MAXACTVP
 70
    16
  9
$PLIMCHECK
 70
     0
  9
$PEXTMIN
 10
-1.452248
 20
-0.437698
 30
0.0
  9
$PEXTMAX
 10
12.749749
 20
8.310198
 30
0.0
  9
$PLIMMIN
 10
0.0
 20
0.0
  9
$PLIMMAX
 10
12.0
 20
9.0
  9
$UNITMODE
 70
     0
  9
$VISRETAIN
 70
     0
  9
$PLINEGEN
 70
     0
  9
$PSLTSCALE
 70
     0
  0
ENDSEC
  0
SECTION
  2
TABLES
  0
TABLE
  2
VPORT
 70
     2
  0
VPORT
  2
*ACTIVE
 70
     0
 10
0.0
 20
0.0
 11
1.0
 21
1.0
 12
1013.171181
 22
76.15649
 13
0.0
 23
0.0
 14
1.0
 24
1.0
 15
10.0
 25
10.0
 16
0.0
 26
0.0
 36
1.0
 17
0.0
 27
0.0
 37
0.0
 40
148.280681
 41
1.56
 42
50.0
 43
0.0
 44
0.0
 50
0.0
 51
0.0
 71
     0
 72
   100
 73
     1
 74
     0
 75
     0
 76
     0
 77
     0
 78
     0
  0
ENDTAB
  0
TABLE
  2
LTYPE
 70
     3
  0
LTYPE
  2
CONTINUOUS
 70
     0
  3
Solid line
 72
    65
 73
     0
 40
0.0
  0
LTYPE
  2
AXES2
 70
     0
  3
___ _ ___ _ ___ _ ___ _ ___ _ ___ _ ___ _ ___ _
 72
    65
 73
     4
 40
1.125
 49
0.75
 49
-0.125
 49
0.125
 49
-0.125
  0
LTYPE
  2
CACHE2
 70
     0
  3
Caché (x.5) _ _ _ _ _ _ _ _ _ _ _ _ _ _ _ _ _
 72
    65
 73
     2
 40
0.1875
 49
0.125
 49
-0.0625
  0
ENDTAB
  0
TABLE
  2
LAYER
 70
     7
  0
LAYER
  2
0
 70
     0
 62
   255
  6
CONTINUOUS
  0
LAYER
  2
COTATION1
 70
     0
 62
     2
  6
CONTINUOUS
  0
LAYER
  2
AXE
 70
     0
 62
    80
  6
AXES2
  0
LAYER
  2
DEFPOINTS
 70
     0
 62
     7
  6
CONTINUOUS
  0
LAYER
  2
ALPHA
 70
     0
 62
   254
  6
CONTINUOUS
  0
LAYER
  2
POINTILLE_COURT
 70
     0
 62
    41
  6
CACHE2
  0
LAYER
  2
ALPHA_FIN
 70
     0
 62
   255
  6
CONTINUOUS
  0
ENDTAB
  0
TABLE
  2
STYLE
 70
     2
  0
STYLE
  2
ROMANS
 70
     0
 40
0.0
 41
1.0
 50
0.0
 71
     0
 42
6.0
  3
romans
  4

  0
STYLE
  2
STANDARD
 70
     0
 40
0.2
 41
1.0
 50
0.0
 71
     0
 42
0.2
  3
txt
  4

  0
ENDTAB
  0
TABLE
  2
VIEW
 70
     0
  0
ENDTAB
  0
TABLE
  2
UCS
 70
     0
  0
ENDTAB
  0
TABLE
  2
APPID
 70
     1
  0
APPID
  2
ACAD
 70
     0
  0
ENDTAB
  0
TABLE
  2
DIMSTYLE
 70
     1
  0
DIMSTYLE
  2
SC_DEFAUT
 70
     0
  3

  4

  5
OPEN30
  6

  7

 40
1.0
 41
5.0
 42
2.0
 43
0.38
 44
2.5
 45
0.0
 46
0.0
 47
0.0
 48
0.0
140
2.5
141
0.0
142
0.0
143
25.4
144
1.0
145
0.0
146
1.0
147
2.0
 71
     0
 72
     0
 73
     1
 74
     1
 75
     0
 76
     0
 77
     1
 78
    12
170
     0
171
     2
172
     0
173
     0
174
     0
175
     0
176
     0
177
     0
178
     0
  0
ENDTAB
  0
ENDSEC
  0
SECTION
  2
BLOCKS
  0
BLOCK
  8
0
  2
$MODEL_SPACE
 70
     0
 10
0.0
 20
0.0
 30
0.0
  3
$MODEL_SPACE
  1

  0
ENDBLK
  5
7469
  8
0
  0
BLOCK
 67
     1
  8
0
  2
$PAPER_SPACE
 70
     0
 10
0.0
 20
0.0
 30
0.0
  3
$PAPER_SPACE
  1

  0
ENDBLK
  5
7467
 67
     1
  8
0
  0
BLOCK
  8
0
  2
COTE
 70
     0
 10
0.0
 20
0.0
 30
0.0
  3
COTE
  1

  0
ENDBLK
  5
F
  8
0
  0
BLOCK
  8
0
  2
FOND
 70
     0
 10
0.0
 20
0.0
 30
0.0
  3
FOND
  1

  0
ENDBLK
  5
75
  8
0
  0
BLOCK
  8
0
  2
_OPEN30
 70
     0
 10
0.0
 20
0.0
 30
0.0
  3
_OPEN30
  1

  0
LINE
  5
4B05
  8
COTATION1
 62
     0
 10
-1.0
 20
0.267949
 30
0.0
 11
0.0
 21
0.0
 31
0.0
1001
ACAD
1000
RTLwPs
1070
   158
  0
LINE
  5
4B06
  8
COTATION1
 62
     0
 10
0.0
 20
0.0
 30
0.0
 11
-1.0
 21
-0.267949
 31
0.0
1001
ACAD
1000
RTLwPs
1070
   158
  0
LINE
  5
4B07
  8
COTATION1
 62
     0
 10
0.0
 20
0.0
 30
0.0
 11
-1.0
 21
0.0
 31
0.0
1001
ACAD
1000
RTLwPs
1070
   158
  0
ENDBLK
  5
4B09
  8
0
  0
BLOCK
  8
0
  2
*D3
 70
     1
 10
0.0
 20
0.0
 30
0.0
  3
*D3
  1

  0
LINE
  5
72C3
  8
COTATION1
 62
     0
 10
992.209115
 20
118.317355
 30
0.0
 11
992.209115
 21
147.667355
 31
0.0
1001
ACAD
1000
RTLwPs
1070
   158
  0
LINE
  5
72C4
  8
COTATION1
 62
     0
 10
1014.209115
 20
118.317355
 30
0.0
 11
1014.209115
 21
147.667355
 31
0.0
1001
ACAD
1000
RTLwPs
1070
   158
  0
LINE
  5
72C5
  8
COTATION1
 62
     0
 10
997.209115
 20
145.167355
 30
0.0
 11
1009.209115
 21
145.167355
 31
0.0
1001
ACAD
1000
RTLwPs
1070
   158
  0
INSERT
  5
72C6
  8
COTATION1
 62
     0
  2
_OPEN30
 10
992.209115
 20
145.167355
 30
0.0
 41
5.0
 42
5.0
 43
5.0
 50
180.0
1001
ACAD
1000
RTLwPs
1070
   158
  0
INSERT
  5
72C7
  8
COTATION1
 62
     0
  2
_OPEN30
 10
1014.209115
 20
145.167355
 30
0.0
 41
5.0
 42
5.0
 43
5.0
1001
ACAD
1000
RTLwPs
1070
   158
  0
TEXT
  5
72C8
  8
COTATION1
 62
     0
 10
1000.828163
 20
147.167355
 30
0.0
 40
2.5
  1
22
1001
ACAD
1000
MTEXTBEGIN
1070
    73
1070
     1
1070
    44
1040
1.0
1070
    74
1070
     0
1000
MTEXTEND
  0
POINT
  5
72C9
  8
DEFPOINTS
 62
     0
 10
992.209115
 20
116.317355
 30
0.0
  0
POINT
  5
72CA
  8
DEFPOINTS
 62
     0
 10
1014.209115
 20
116.317355
 30
0.0
  0
POINT
  5
72CB
  8
DEFPOINTS
 62
     0
 10
1014.209115
 20
145.167355
 30
0.0
  0
ENDBLK
  5
7072
  8
0
  0
BLOCK
  8
0
  2
*D4
 70
     1
 10
0.0
 20
0.0
 30
0.0
  3
*D4
  1

  0
LINE
  5
72BA
  8
COTATION1
 62
     0
 10
993.209115
 20
116.317355
 30
0.0
 11
993.209115
 21
137.667355
 31
0.0
1001
ACAD
1000
RTLwPs
1070
   158
  0
LINE
  5
72BB
  8
COTATION1
 62
     0
 10
1013.209115
 20
116.317355
 30
0.0
 11
1013.209115
 21
137.667355
 31
0.0
1001
ACAD
1000
RTLwPs
1070
   158
  0
LINE
  5
72BC
  8
COTATION1
 62
     0
 10
998.209115
 20
135.167355
 30
0.0
 11
1008.209115
 21
135.167355
 31
0.0
1001
ACAD
1000
RTLwPs
1070
   158
  0
INSERT
  5
72BD
  8
COTATION1
 62
     0
  2
_OPEN30
 10
993.209115
 20
135.167355
 30
0.0
 41
5.0
 42
5.0
 43
5.0
 50
180.0
1001
ACAD
1000
RTLwPs
1070
   158
  0
INSERT
  5
72BE
  8
COTATION1
 62
     0
  2
_OPEN30
 10
1013.209115
 20
135.167355
 30
0.0
 41
5.0
 42
5.0
 43
5.0
1001
ACAD
1000
RTLwPs
1070
   158
  0
TEXT
  5
72BF
  8
COTATION1
 62
     0
 10
1000.828163
 20
137.167355
 30
0.0
 40
2.5
  1
20
1001
ACAD
1000
MTEXTBEGIN
1070
    73
1070
     1
1070
    44
1040
1.0
1070
    74
1070
     0
1000
MTEXTEND
  0
POINT
  5
72C0
  8
DEFPOINTS
 62
     0
 10
993.209115
 20
114.317355
 30
0.0
  0
POINT
  5
72C1
  8
DEFPOINTS
 62
     0
 10
1013.209115
 20
114.317355
 30
0.0
  0
POINT
  5
72C2
  8
DEFPOINTS
 62
     0
 10
1013.209115
 20
135.167355
 30
0.0
  0
ENDBLK
  5
707E
  8
0
  0
BLOCK
  8
0
  2
*D5
 70
     1
 10
0.0
 20
0.0
 30
0.0
  3
*D5
  1

  0
LINE
  5
73CC
  8
COTATION1
 62
     0
 10
1005.209115
 20
120.167355
 30
0.0
 11
1056.209115
 21
120.167355
 31
0.0
  0
LINE
  5
73CD
  8
COTATION1
 62
     0
 10
1019.359115
 20
110.167355
 30
0.0
 11
1056.209115
 21
110.167355
 31
0.0
  0
LINE
  5
73CE
  8
COTATION1
 62
     0
 10
1053.709115
 20
125.167355
 30
0.0
 11
1053.709115
 21
130.167355
 31
0.0
  0
LINE
  5
73CF
  8
COTATION1
 62
     0
 10
1053.709115
 20
105.167355
 30
0.0
 11
1053.709115
 21
100.167355
 31
0.0
  0
TEXT
  5
73D0
  8
COTATION1
 62
     0
 10
1051.149591
 20
113.917355
 30
0.0
 40
2.5
  1
10
  0
INSERT
  5
73D1
  8
COTATION1
 62
     0
  2
_OPEN30
 10
1053.709115
 20
120.167355
 30
0.0
 41
5.0
 42
5.0
 43
5.0
 50
270.0
  0
INSERT
  5
73D2
  8
COTATION1
 62
     0
  2
_OPEN30
 10
1053.709115
 20
110.167355
 30
0.0
 41
5.0
 42
5.0
 43
5.0
 50
90.0
  0
POINT
  5
73D3
  8
DEFPOINTS
 62
     0
 10
1003.209115
 20
120.167355
 30
0.0
  0
POINT
  5
73D4
  8
DEFPOINTS
 62
     0
 10
1017.359115
 20
110.167355
 30
0.0
  0
POINT
  5
73D5
  8
DEFPOINTS
 62
     0
 10
1053.709115
 20
110.167355
 30
0.0
  0
ENDBLK
  5
7098
  8
0
  0
BLOCK
  8
0
  2
*D6
 70
     1
 10
0.0
 20
0.0
 30
0.0
  3
*D6
  1

  0
LINE
  5
729E
  8
COTATION1
 62
     0
 10
1005.209115
 20
120.167355
 30
0.0
 11
1066.209115
 21
120.167355
 31
0.0
1001
ACAD
1000
RTLwPs
1070
   158
  0
LINE
  5
729F
  8
COTATION1
 62
     0
 10
1020.709115
 20
55.167355
 30
0.0
 11
1066.209115
 21
55.167355
 31
0.0
1001
ACAD
1000
RTLwPs
1070
   158
  0
LINE
  5
72A0
  8
COTATION1
 62
     0
 10
1063.709115
 20
115.167355
 30
0.0
 11
1063.709115
 21
90.917355
 31
0.0
1001
ACAD
1000
RTLwPs
1070
   158
  0
LINE
  5
72A1
  8
COTATION1
 62
     0
 10
1063.709115
 20
60.167355
 30
0.0
 11
1063.709115
 21
84.417355
 31
0.0
1001
ACAD
1000
RTLwPs
1070
   158
  0
INSERT
  5
72A2
  8
COTATION1
 62
     0
  2
_OPEN30
 10
1063.709115
 20
120.167355
 30
0.0
 41
5.0
 42
5.0
 43
5.0
 50
90.0
1001
ACAD
1000
RTLwPs
1070
   158
  0
INSERT
  5
72A3
  8
COTATION1
 62
     0
  2
_OPEN30
 10
1063.709115
 20
55.167355
 30
0.0
 41
5.0
 42
5.0
 43
5.0
 50
270.0
1001
ACAD
1000
RTLwPs
1070
   158
  0
TEXT
  5
72A4
  8
COTATION1
 62
     0
 10
1061.268639
 20
86.417355
 30
0.0
 40
2.5
  1
65
1001
ACAD
1000
MTEXTBEGIN
1070
    73
1070
     1
1070
    44
1040
1.0
1070
    74
1070
     0
1000
MTEXTEND
  0
POINT
  5
72A5
  8
DEFPOINTS
 62
     0
 10
1003.209115
 20
120.167355
 30
0.0
  0
POINT
  5
72A6
  8
DEFPOINTS
 62
     0
 10
1018.709115
 20
55.167355
 30
0.0
  0
POINT
  5
72A7
  8
DEFPOINTS
 62
     0
 10
1063.709115
 20
55.167355
 30
0.0
  0
ENDBLK
  5
70A5
  8
0
  0
BLOCK
  8
0
  2
*D7
 70
     1
 10
0.0
 20
0.0
 30
0.0
  3
*D7
  1

  0
LINE
  5
71EC
  8
COTATION1
 62
     0
 10
1018.19695
 20
118.101971
 30
0.0
 11
1027.531181
 21
131.992987
 31
0.0
1001
ACAD
1000
RTLwPs
1070
   158
  0
LINE
  5
71ED
  8
COTATION1
 62
     0
 10
1027.531181
 20
131.992987
 30
0.0
 11
1049.412133
 21
131.992987
 31
0.0
1001
ACAD
1000
RTLwPs
1070
   158
  0
INSERT
  5
71EE
  8
COTATION1
 62
     0
  2
_OPEN30
 10
1015.408254
 20
113.95189
 30
0.0
 41
5.0
 42
5.0
 43
5.0
 50
236.10041
1001
ACAD
1000
RTLwPs
1070
   158
  0
TEXT
  5
71EF
  8
COTATION1
 62
     0
 10
1029.174038
 20
133.992987
 30
0.0
 40
2.5
  1
2x%%c4.3x6.3
1001
ACAD
1000
MTEXTBEGIN
1070
    73
1070
     1
1070
    44
1040
1.0
1070
    74
1070
     0
1000
MTEXTEND
  0
POINT
  5
71F0
  8
DEFPOINTS
 62
     0
 10
1015.408254
 20
113.95189
 30
0.0
  0
POINT
  5
71F1
  8
DEFPOINTS
 62
     0
 10
1013.009976
 20
110.38282
 30
0.0
  0
ENDBLK
  5
70AF
  8
0
  0
BLOCK
  8
0
  2
*D8
 70
     1
 10
0.0
 20
0.0
 30
0.0
  3
*D8
  1

  0
LINE
  5
71F2
  8
COTATION1
 62
     0
 10
987.709115
 20
53.167355
 30
0.0
 11
987.709115
 21
2.667355
 31
0.0
1001
ACAD
1000
RTLwPs
1070
   158
  0
LINE
  5
71F3
  8
COTATION1
 62
     0
 10
1018.709115
 20
53.167355
 30
0.0
 11
1018.709115
 21
2.667355
 31
0.0
1001
ACAD
1000
RTLwPs
1070
   158
  0
LINE
  5
71F4
  8
COTATION1
 62
     0
 10
992.709115
 20
5.167355
 30
0.0
 11
1013.709115
 21
5.167355
 31
0.0
1001
ACAD
1000
RTLwPs
1070
   158
  0
INSERT
  5
71F5
  8
COTATION1
 62
     0
  2
_OPEN30
 10
987.709115
 20
5.167355
 30
0.0
 41
5.0
 42
5.0
 43
5.0
 50
180.0
1001
ACAD
1000
RTLwPs
1070
   158
  0
INSERT
  5
71F6
  8
COTATION1
 62
     0
  2
_OPEN30
 10
1018.709115
 20
5.167355
 30
0.0
 41
5.0
 42
5.0
 43
5.0
1001
ACAD
1000
RTLwPs
1070
   158
  0
TEXT
  5
71F7
  8
COTATION1
 62
     0
 10
1001.185305
 20
7.167355
 30
0.0
 40
2.5
  1
31
1001
ACAD
1000
MTEXTBEGIN
1070
    73
1070
     1
1070
    44
1040
1.0
1070
    74
1070
     0
1000
MTEXTEND
  0
POINT
  5
71F8
  8
DEFPOINTS
 62
     0
 10
987.709115
 20
55.167355
 30
0.0
  0
POINT
  5
71F9
  8
DEFPOINTS
 62
     0
 10
1018.709115
 20
55.167355
 30
0.0
  0
POINT
  5
71FA
  8
DEFPOINTS
 62
     0
 10
1018.709115
 20
5.167355
 30
0.0
  0
ENDBLK
  5
70BB
  8
0
  0
BLOCK
  8
0
  2
*D9
 70
     1
 10
0.0
 20
0.0
 30
0.0
  3
*D9
  1

  0
LINE
  5
71FB
  8
COTATION1
 62
     0
 10
993.709115
 20
52.667355
 30
0.0
 11
993.709115
 21
12.667355
 31
0.0
1001
ACAD
1000
RTLwPs
1070
   158
  0
LINE
  5
71FC
  8
COTATION1
 62
     0
 10
1012.709115
 20
52.667355
 30
0.0
 11
1012.709115
 21
12.667355
 31
0.0
1001
ACAD
1000
RTLwPs
1070
   158
  0
LINE
  5
71FD
  8
COTATION1
 62
     0
 10
998.709115
 20
15.167355
 30
0.0
 11
1007.709115
 21
15.167355
 31
0.0
1001
ACAD
1000
RTLwPs
1070
   158
  0
INSERT
  5
71FE
  8
COTATION1
 62
     0
  2
_OPEN30
 10
993.709115
 20
15.167355
 30
0.0
 41
5.0
 42
5.0
 43
5.0
 50
180.0
1001
ACAD
1000
RTLwPs
1070
   158
  0
INSERT
  5
71FF
  8
COTATION1
 62
     0
  2
_OPEN30
 10
1012.709115
 20
15.167355
 30
0.0
 41
5.0
 42
5.0
 43
5.0
1001
ACAD
1000
RTLwPs
1070
   158
  0
TEXT
  5
7200
  8
COTATION1
 62
     0
 10
1000.709115
 20
17.167355
 30
0.0
 40
2.5
  1
19
1001
ACAD
1000
MTEXTBEGIN
1070
    73
1070
     1
1070
    44
1040
1.0
1070
    74
1070
     0
1000
MTEXTEND
  0
POINT
  5
7201
  8
DEFPOINTS
 62
     0
 10
993.709115
 20
54.667355
 30
0.0
  0
POINT
  5
7202
  8
DEFPOINTS
 62
     0
 10
1012.709115
 20
54.667355
 30
0.0
  0
POINT
  5
7203
  8
DEFPOINTS
 62
     0
 10
1012.709115
 20
15.167355
 30
0.0
  0
ENDBLK
  5
70C7
  8
0
  0
BLOCK
  8
0
  2
*D10
 70
     1
 10
0.0
 20
0.0
 30
0.0
  3
*D10
  1

  0
LINE
  5
7204
  8
COTATION1
 62
     0
 10
988.307329
 20
62.782699
 30
0.0
 11
967.973868
 21
76.391617
 31
0.0
1001
ACAD
1000
RTLwPs
1070
   158
  0
LINE
  5
7205
  8
COTATION1
 62
     0
 10
967.973868
 20
76.391617
 30
0.0
 11
957.640535
 21
76.391617
 31
0.0
1001
ACAD
1000
RTLwPs
1070
   158
  0
INSERT
  5
7206
  8
COTATION1
 62
     0
  2
_OPEN30
 10
992.462549
 20
60.001665
 30
0.0
 41
5.0
 42
5.0
 43
5.0
 50
326.206126
1001
ACAD
1000
RTLwPs
1070
   158
  0
TEXT
  5
7207
  8
COTATION1
 62
     0
 10
957.283392
 20
78.391617
 30
0.0
 40
2.5
  1
2x%%c3
1001
ACAD
1000
MTEXTBEGIN
1070
    73
1070
     1
1070
    44
1040
1.0
1070
    74
1070
     0
1000
MTEXTEND
  0
POINT
  5
7208
  8
DEFPOINTS
 62
     0
 10
992.462549
 20
60.001665
 30
0.0
  0
POINT
  5
7209
  8
DEFPOINTS
 62
     0
 10
994.955681
 20
58.333044
 30
0.0
  0
ENDBLK
  5
70D1
  8
0
  0
BLOCK
  8
0
  2
*D11
 70
     1
 10
0.0
 20
0.0
 30
0.0
  3
*D11
  1

  0
LINE
  5
720A
  8
COTATION1
 62
     0
 10
986.892535
 20
106.817232
 30
0.0
 11
964.01943
 21
94.686028
 31
0.0
1001
ACAD
1000
RTLwPs
1070
   158
  0
LINE
  5
720B
  8
COTATION1
 62
     0
 10
964.01943
 20
94.686028
 30
0.0
 11
950.114668
 21
94.686028
 31
0.0
1001
ACAD
1000
RTLwPs
1070
   158
  0
INSERT
  5
720C
  8
COTATION1
 62
     0
  2
_OPEN30
 10
991.309724
 20
109.159975
 30
0.0
 41
5.0
 42
5.0
 43
5.0
 50
27.940128
1001
ACAD
1000
RTLwPs
1070
   158
  0
TEXT
  5
720D
  8
COTATION1
 62
     0
 10
949.757525
 20
96.686028
 30
0.0
 40
2.5
  1
2x%%c4.3
1001
ACAD
1000
MTEXTBEGIN
1070
    73
1070
     1
1070
    44
1040
1.0
1070
    74
1070
     0
1000
MTEXTEND
  0
POINT
  5
720E
  8
DEFPOINTS
 62
     0
 10
991.309724
 20
109.159975
 30
0.0
  0
POINT
  5
720F
  8
DEFPOINTS
 62
     0
 10
995.108506
 20
111.174734
 30
0.0
  0
ENDBLK
  5
70DB
  8
0
  0
BLOCK
  8
0
  2
*D12
 70
     1
 10
0.0
 20
0.0
 30
0.0
  3
*D12
  1

  0
LINE
  5
7210
  8
COTATION1
 62
     0
 10
1019.359115
 20
110.167355
 30
0.0
 11
1056.209115
 21
110.167355
 31
0.0
1001
ACAD
1000
RTLwPs
1070
   158
  0
LINE
  5
7211
  8
COTATION1
 62
     0
 10
1019.209115
 20
59.167355
 30
0.0
 11
1056.209115
 21
59.167355
 31
0.0
1001
ACAD
1000
RTLwPs
1070
   158
  0
LINE
  5
7212
  8
COTATION1
 62
     0
 10
1053.709115
 20
105.167355
 30
0.0
 11
1053.709115
 21
87.917355
 31
0.0
1001
ACAD
1000
RTLwPs
1070
   158
  0
LINE
  5
7213
  8
COTATION1
 62
     0
 10
1053.709115
 20
64.167355
 30
0.0
 11
1053.709115
 21
81.417355
 31
0.0
1001
ACAD
1000
RTLwPs
1070
   158
  0
INSERT
  5
7214
  8
COTATION1
 62
     0
  2
_OPEN30
 10
1053.709115
 20
110.167355
 30
0.0
 41
5.0
 42
5.0
 43
5.0
 50
90.0
1001
ACAD
1000
RTLwPs
1070
   158
  0
INSERT
  5
7215
  8
COTATION1
 62
     0
  2
_OPEN30
 10
1053.709115
 20
59.167355
 30
0.0
 41
5.0
 42
5.0
 43
5.0
 50
270.0
1001
ACAD
1000
RTLwPs
1070
   158
  0
TEXT
  5
7216
  8
COTATION1
 62
     0
 10
1051.685305
 20
83.417355
 30
0.0
 40
2.5
  1
51
1001
ACAD
1000
MTEXTBEGIN
1070
    73
1070
     1
1070
    44
1040
1.0
1070
    74
1070
     0
1000
MTEXTEND
  0
POINT
  5
7217
  8
DEFPOINTS
 62
     0
 10
1017.359115
 20
110.167355
 30
0.0
  0
POINT
  5
7218
  8
DEFPOINTS
 62
     0
 10
1017.209115
 20
59.167355
 30
0.0
  0
POINT
  5
7219
  8
DEFPOINTS
 62
     0
 10
1053.709115
 20
59.167355
 30
0.0
  0
ENDBLK
  5
70E8
  8
0
  0
BLOCK
  8
0
  2
*D13
 70
     1
 10
0.0
 20
0.0
 30
0.0
  3
*D13
  1

  0
LINE
  5
73D6
  8
COTATION1
 62
     0
 10
1020.359115
 20
112.167355
 30
0.0
 11
1046.209115
 21
112.167355
 31
0.0
  0
LINE
  5
73D7
  8
COTATION1
 62
     0
 10
1019.359115
 20
110.167355
 30
0.0
 11
1046.209115
 21
110.167355
 31
0.0
  0
LINE
  5
73D8
  8
COTATION1
 62
     0
 10
1043.709115
 20
117.167355
 30
0.0
 11
1043.709115
 21
122.167355
 31
0.0
  0
LINE
  5
73D9
  8
COTATION1
 62
     0
 10
1043.709115
 20
105.167355
 30
0.0
 11
1043.709115
 21
100.167355
 31
0.0
  0
TEXT
  5
73DA
  8
COTATION1
 62
     0
 10
1039.685305
 20
100.519095
 30
0.0
 40
2.5
  1
2
  0
INSERT
  5
73DB
  8
COTATION1
 62
     0
  2
_OPEN30
 10
1043.709115
 20
112.167355
 30
0.0
 41
5.0
 42
5.0
 43
5.0
 50
270.0
  0
INSERT
  5
73DC
  8
COTATION1
 62
     0
  2
_OPEN30
 10
1043.709115
 20
110.167355
 30
0.0
 41
5.0
 42
5.0
 43
5.0
 50
90.0
  0
POINT
  5
73DD
  8
DEFPOINTS
 62
     0
 10
1018.359115
 20
112.167355
 30
0.0
  0
POINT
  5
73DE
  8
DEFPOINTS
 62
     0
 10
1017.359115
 20
110.167355
 30
0.0
  0
POINT
  5
73DF
  8
DEFPOINTS
 62
     0
 10
1043.709115
 20
110.167355
 30
0.0
  0
ENDBLK
  5
70F5
  8
0
  0
BLOCK
  8
0
  2
*D14
 70
     1
 10
0.0
 20
0.0
 30
0.0
  3
*D14
  1

  0
LINE
  5
7294
  8
COTATION1
 62
     0
 10
1015.209115
 20
120.167355
 30
0.0
 11
1076.209115
 21
120.167355
 31
0.0
1001
ACAD
1000
RTLwPs
1070
   158
  0
LINE
  5
7295
  8
COTATION1
 62
     0
 10
1009.477064
 20
43.167355
 30
0.0
 11
1076.209115
 21
43.167355
 31
0.0
1001
ACAD
1000
RTLwPs
1070
   158
  0
LINE
  5
7296
  8
COTATION1
 62
     0
 10
1073.709115
 20
115.167355
 30
0.0
 11
1073.709115
 21
84.917355
 31
0.0
1001
ACAD
1000
RTLwPs
1070
   158
  0
LINE
  5
7297
  8
COTATION1
 62
     0
 10
1073.709115
 20
48.167355
 30
0.0
 11
1073.709115
 21
78.417355
 31
0.0
1001
ACAD
1000
RTLwPs
1070
   158
  0
INSERT
  5
7298
  8
COTATION1
 62
     0
  2
_OPEN30
 10
1073.709115
 20
120.167355
 30
0.0
 41
5.0
 42
5.0
 43
5.0
 50
90.0
1001
ACAD
1000
RTLwPs
1070
   158
  0
INSERT
  5
7299
  8
COTATION1
 62
     0
  2
_OPEN30
 10
1073.709115
 20
43.167355
 30
0.0
 41
5.0
 42
5.0
 43
5.0
 50
270.0
1001
ACAD
1000
RTLwPs
1070
   158
  0
TEXT
  5
729A
  8
COTATION1
 62
     0
 10
1071.328163
 20
80.417355
 30
0.0
 40
2.5
  1
77
1001
ACAD
1000
MTEXTBEGIN
1070
    73
1070
     1
1070
    44
1040
1.0
1070
    74
1070
     0
1000
MTEXTEND
  0
POINT
  5
729B
  8
DEFPOINTS
 62
     0
 10
1013.209115
 20
120.167355
 30
0.0
  0
POINT
  5
729C
  8
DEFPOINTS
 62
     0
 10
1007.477064
 20
43.167355
 30
0.0
  0
POINT
  5
729D
  8
DEFPOINTS
 62
     0
 10
1073.709115
 20
43.167355
 30
0.0
  0
ENDBLK
  5
7289
  8
0
  0
ENDSEC
  0
SECTION
  2
ENTITIES
  0
INSERT
  5
A
  8
0
  2
COTE
 10
0.0
 20
0.0
 30
0.0
  0
INSERT
  5
17
  8
0
  2
COTE
 10
284.010391
 20
6.373258
 30
0.0
  0
INSERT
  5
72
  8
0
  2
FOND
 10
0.0
 20
0.0
 30
0.0
  0
DIMENSION
  5
6FE9
  8
COTATION1
  2
*D3
 10
1014.209115
 20
145.167355
 30
0.0
 11
1003.209115
 21
148.417355
 31
0.0
 13
992.209115
 23
116.317355
 33
0.0
 14
1014.209115
 24
116.317355
 34
0.0
  0
DIMENSION
  5
6FEA
  8
COTATION1
  2
*D4
 10
1013.209115
 20
135.167355
 30
0.0
 11
1003.209115
 21
138.417355
 31
0.0
 13
993.209115
 23
114.317355
 33
0.0
 14
1013.209115
 24
114.317355
 34
0.0
  0
LINE
  5
6FEB
  8
AXE
 10
1003.209115
 20
125.167355
 30
0.0
 11
1003.209115
 21
25.167355
 31
0.0
  0
DIMENSION
  5
6FEF
  8
COTATION1
  2
*D5
 10
1053.709115
 20
110.167355
 30
0.0
 11
1053.709115
 21
115.167355
 31
0.0
 70
   128
 13
1003.209115
 23
120.167355
 33
0.0
 14
1017.359115
 24
110.167355
 34
0.0
 50
90.0
1001
ACAD
1000
DSTYLE
1002
{
1070
   287
1070
     5
1070
   287
1070
     5
1070
   287
1070
     5
1070
   279
1070
     2
1070
   289
1070
     3
1002
}
  0
DIMENSION
  5
6FF0
  8
COTATION1
  2
*D6
 10
1063.709115
 20
55.167355
 30
0.0
 11
1063.709115
 21
87.667355
 31
0.0
 13
1003.209115
 23
120.167355
 33
0.0
 14
1018.709115
 24
55.167355
 34
0.0
 50
90.0
  0
DIMENSION
  5
6FF1
  8
COTATION1
  2
*D7
 10
1013.009976
 20
110.38282
 30
0.0
 11
1039.471657
 21
131.992987
 31
0.0
 70
   131
  1
2x<>x6.3
 15
1015.408254
 25
113.95189
 35
0.0
 40
0.0
1001
ACAD
1000
DSTYLE
1002
{
1070
   288
1070
     1
1002
}
  0
ARC
  5
6FF2
  8
ALPHA
 10
1014.209115
 20
112.167355
 30
0.0
 40
2.15
 50
0.0
 51
180.0
  0
LINE
  5
6FF3
  8
AXE
 10
1017.359115
 20
110.167355
 30
0.0
 11
1009.059115
 21
110.167355
 31
0.0
  0
LINE
  5
6FF4
  8
ALPHA
 10
1014.209115
 20
108.017355
 30
0.0
 11
1013.209115
 21
108.017355
 31
0.0
  0
LINE
  5
6FF5
  8
AXE
 10
1008.209115
 20
59.167355
 30
0.0
 11
1017.209115
 21
59.167355
 31
0.0
  0
CIRCLE
  5
6FF6
  8
POINTILLE_COURT
 10
1012.709115
 20
59.167355
 30
0.0
 40
1.5
  0
LINE
  5
6FF7
  8
ALPHA
 10
1015.709115
 20
60.219673
 30
0.0
 11
1003.209115
 21
60.219673
 31
0.0
  0
LINE
  5
6FF8
  8
ALPHA
 10
1014.209115
 20
60.219673
 30
0.0
 11
1013.196315
 21
56.167355
 31
0.0
  0
LINE
  5
6FF9
  8
ALPHA
 10
992.209115
 20
56.167355
 30
0.0
 11
1014.209115
 21
56.167355
 31
0.0
  0
LINE
  5
6FFA
  8
ALPHA
 10
987.709115
 20
55.167355
 30
0.0
 11
1018.709115
 21
55.167355
 31
0.0
  0
ARC
  5
6FFB
  8
ALPHA
 10
1003.209115
 20
65.67226
 30
0.0
 40
54.495095
 50
73.978407
 51
106.021593
  0
LINE
  5
6FFC
  8
AXE
 10
1018.359115
 20
112.167355
 30
0.0
 11
1010.059115
 21
112.167355
 31
0.0
  0
DIMENSION
  5
6FFD
  8
COTATION1
  2
*D8
 10
1018.709115
 20
5.167355
 30
0.0
 11
1003.209115
 21
8.417355
 31
0.0
 13
987.709115
 23
55.167355
 33
0.0
 14
1018.709115
 24
55.167355
 34
0.0
  0
POLYLINE
  5
6FFE
  8
ALPHA
 66
     1
 10
0.0
 20
0.0
 30
0.0
 70
   128
  0
VERTEX
  5
746F
  8
ALPHA
 10
1018.709115
 20
103.452986
 30
0.0
  0
VERTEX
  5
7470
  8
ALPHA
 10
1018.488961
 20
103.953945
 30
0.0
  0
VERTEX
  5
7471
  8
ALPHA
 10
1018.089729
 20
104.279259
 30
0.0
  0
VERTEX
  5
7472
  8
ALPHA
 10
1016.961187
 20
104.66996
 30
0.0
  0
VERTEX
  5
7473
  8
ALPHA
 10
1015.567573
 20
105.045
 30
0.0
  0
VERTEX
  5
7474
  8
ALPHA
 10
1012.097255
 20
105.703179
 30
0.0
  0
VERTEX
  5
7475
  8
ALPHA
 10
1007.90302
 20
106.163963
 30
0.0
  0
VERTEX
  5
7476
  8
ALPHA
 10
1003.209115
 20
106.337521
 30
0.0
  0
VERTEX
  5
7477
  8
ALPHA
 10
998.515201
 20
106.163963
 30
0.0
  0
VERTEX
  5
7478
  8
ALPHA
 10
994.320906
 20
105.703179
 30
0.0
  0
VERTEX
  5
7479
  8
ALPHA
 10
990.850425
 20
105.045
 30
0.0
  0
VERTEX
  5
747A
  8
ALPHA
 10
989.456675
 20
104.66996
 30
0.0
  0
VERTEX
  5
747B
  8
ALPHA
 10
988.327952
 20
104.279259
 30
0.0
  0
VERTEX
  5
747C
  8
ALPHA
 10
987.928582
 20
103.953945
 30
0.0
  0
VERTEX
  5
747D
  8
ALPHA
 10
987.709115
 20
103.452986
 30
0.0
  0
SEQEND
  5
747E
  8
ALPHA
  0
LINE
  5
6FFF
  8
AXE
 10
983.709115
 20
87.667355
 30
0.0
 11
1033.709115
 21
87.667355
 31
0.0
  0
TEXT
  5
7000
  8
AXE
 10
995.732925
 20
25.167355
 30
0.0
 40
8.0
  1
Y
 72
     2
 11
1002.209115
 21
25.167355
 31
0.0
  0
DIMENSION
  5
7001
  8
COTATION1
  2
*D9
 10
1012.709115
 20
15.167355
 30
0.0
 11
1003.209115
 21
18.417355
 31
0.0
 13
993.709115
 23
54.667355
 33
0.0
 14
1012.709115
 24
54.667355
 34
0.0
  0
DIMENSION
  5
7002
  8
COTATION1
  2
*D10
 10
994.955681
 20
58.333044
 30
0.0
 11
961.807201
 21
76.391617
 31
0.0
 70
   131
  1
2x<>
 15
992.462549
 25
60.001665
 35
0.0
 40
0.0
  0
LINE
  5
7003
  8
ALPHA
 10
987.709115
 20
117.467355
 30
0.0
 11
987.709115
 21
55.167355
 31
0.0
  0
LINE
  5
7004
  8
ALPHA
 10
997.209115
 20
44.167355
 30
0.0
 11
997.209115
 21
55.167355
 31
0.0
  0
LINE
  5
7005
  8
ALPHA_FIN
 10
998.282624
 20
55.167355
 30
0.0
 11
998.282624
 21
43.547564
 31
0.0
  0
LINE
  5
7006
  8
ALPHA
 10
1009.209115
 20
44.167355
 30
0.0
 11
1009.209115
 21
55.167355
 31
0.0
  0
LINE
  5
7007
  8
ALPHA_FIN
 10
1008.135606
 20
55.167355
 30
0.0
 11
1008.135606
 21
43.547564
 31
0.0
  0
LINE
  5
7008
  8
ALPHA
 10
997.209115
 20
44.167355
 30
0.0
 11
998.941166
 21
43.167355
 31
0.0
  0
LINE
  5
7009
  8
ALPHA
 10
1003.209115
 20
44.167355
 30
0.0
 11
997.209115
 21
44.167355
 31
0.0
  0
LINE
  5
700A
  8
ALPHA
 10
1003.209115
 20
43.167355
 30
0.0
 11
998.941166
 21
43.167355
 31
0.0
  0
LINE
  5
700B
  8
ALPHA
 10
1003.209115
 20
43.167355
 30
0.0
 11
1007.477064
 21
43.167355
 31
0.0
  0
LINE
  5
700C
  8
ALPHA
 10
1003.209115
 20
44.167355
 30
0.0
 11
1009.209115
 21
44.167355
 31
0.0
  0
LINE
  5
700D
  8
ALPHA
 10
1009.209115
 20
44.167355
 30
0.0
 11
1007.477064
 21
43.167355
 31
0.0
  0
LINE
  5
700E
  8
AXE
 10
998.209115
 20
59.167355
 30
0.0
 11
989.209115
 21
59.167355
 31
0.0
  0
LINE
  5
700F
  8
ALPHA
 10
990.709115
 20
60.219673
 30
0.0
 11
1003.209115
 21
60.219673
 31
0.0
  0
CIRCLE
  5
7010
  8
POINTILLE_COURT
 10
993.709115
 20
59.167355
 30
0.0
 40
1.5
  0
LINE
  5
7011
  8
ALPHA
 10
992.209115
 20
56.167355
 30
0.0
 11
992.209115
 21
60.219673
 31
0.0
  0
LINE
  5
7012
  8
ALPHA
 10
990.709115
 20
56.167355
 30
0.0
 11
990.709115
 21
60.219673
 31
0.0
  0
LINE
  5
7013
  8
ALPHA
 10
992.209115
 20
60.219673
 30
0.0
 11
993.221915
 21
56.167355
 31
0.0
  0
LINE
  5
7014
  8
ALPHA
 10
987.709115
 20
56.167355
 30
0.0
 11
990.709115
 21
56.167355
 31
0.0
  0
LINE
  5
7015
  8
AXE
 10
993.709115
 20
54.667355
 30
0.0
 11
993.709115
 21
63.667355
 31
0.0
  0
LINE
  5
7016
  8
AXE
 10
1012.709115
 20
54.667355
 30
0.0
 11
1012.709115
 21
63.667355
 31
0.0
  0
DIMENSION
  5
7017
  8
COTATION1
  2
*D11
 10
995.108506
 20
111.174734
 30
0.0
 11
956.067049
 21
94.686028
 31
0.0
 70
   131
  1
2x<>
 15
991.309724
 25
109.159975
 35
0.0
 40
0.0
1001
ACAD
1000
DSTYLE
1002
{
1070
   288
1070
     1
1002
}
  0
ARC
  5
7018
  8
ALPHA
 10
1013.209115
 20
110.167355
 30
0.0
 40
2.15
 50
122.336026
 51
270.0
  0
LINE
  5
7019
  8
ALPHA
 10
990.059115
 20
112.167355
 30
0.0
 11
990.059115
 21
110.167355
 31
0.0
  0
ARC
  5
701A
  8
ALPHA
 10
993.209115
 20
110.167355
 30
0.0
 40
2.15
 50
270.0
 51
57.663974
  0
LINE
  5
701B
  8
AXE
 10
993.209115
 20
106.017355
 30
0.0
 11
993.209115
 21
114.317355
 31
0.0
  0
LINE
  5
701C
  8
AXE
 10
992.209115
 20
108.017355
 30
0.0
 11
992.209115
 21
116.317355
 31
0.0
  0
CIRCLE
  5
701D
  8
ALPHA
 10
1003.209115
 20
109.167355
 30
0.0
 40
2.735279
  0
LINE
  5
701E
  8
ALPHA
 10
1004.66595
 20
111.46943
 30
0.0
 11
1003.209115
 21
110.012595
 31
0.0
  0
LINE
  5
701F
  8
AXE
 10
1013.209115
 20
106.017355
 30
0.0
 11
1013.209115
 21
114.317355
 31
0.0
  0
POLYLINE
  5
7020
  8
ALPHA
 66
     1
 10
0.0
 20
0.0
 30
0.0
 70
   128
210
0.0
220
0.0
230
-1.0
  0
VERTEX
  5
747F
  8
ALPHA
 10
-1011.652165
 20
105.765781
 30
0.0
  0
VERTEX
  5
7480
  8
ALPHA
 10
-1010.635472
 20
106.13968
 30
0.0
  0
VERTEX
  5
7481
  8
ALPHA
 10
-1009.765975
 20
107.015361
 30
0.0
  0
VERTEX
  5
7482
  8
ALPHA
 10
-1006.775545
 20
113.359056
 30
0.0
  0
VERTEX
  5
7483
  8
ALPHA
 10
-1005.944976
 20
114.708995
 30
0.0
  0
VERTEX
  5
7484
  8
ALPHA
 10
-1005.075591
 20
115.784618
 30
0.0
  0
VERTEX
  5
7485
  8
ALPHA
 10
-1004.164576
 20
116.495964
 30
0.0
  0
VERTEX
  5
7486
  8
ALPHA
 10
-1003.209115
 20
116.75307
 30
0.0
  0
VERTEX
  5
7487
  8
ALPHA
 10
-1002.253493
 20
116.495964
 30
0.0
  0
VERTEX
  5
7488
  8
ALPHA
 10
-1001.342381
 20
115.784618
 30
0.0
  0
VERTEX
  5
7489
  8
ALPHA
 10
-1000.472926
 20
114.708995
 30
0.0
  0
VERTEX
  5
748A
  8
ALPHA
 10
-999.642273
 20
113.359056
 30
0.0
  0
VERTEX
  5
748B
  8
ALPHA
 10
-996.650606
 20
107.015361
 30
0.0
  0
VERTEX
  5
748C
  8
ALPHA
 10
-995.781727
 20
106.13968
 30
0.0
  0
VERTEX
  5
748D
  8
ALPHA
 10
-994.766066
 20
105.765781
 30
0.0
  0
SEQEND
  5
748E
  8
ALPHA
  0
LINE
  5
7021
  8
ALPHA
 10
992.209115
 20
108.017355
 30
0.0
 11
993.209115
 21
108.017355
 31
0.0
  0
ARC
  5
7022
  8
ALPHA
 10
992.209115
 20
110.167355
 30
0.0
 40
2.15
 50
180.0
 51
270.0
  0
LINE
  5
7023
  8
AXE
 10
989.059115
 20
110.167355
 30
0.0
 11
997.359115
 21
110.167355
 31
0.0
  0
LINE
  5
7024
  8
ALPHA
 10
1005.520261
 20
110.614571
 30
0.0
 11
1004.063426
 21
109.156634
 31
0.0
  0
LINE
  5
7025
  8
ALPHA
 10
1004.063426
 20
109.156634
 30
0.0
 11
1004.636815
 21
108.584895
 31
0.0
  0
LINE
  5
7026
  8
ALPHA
 10
1004.636815
 20
108.584895
 30
0.0
 11
1003.792398
 21
107.740481
 31
0.0
  0
LINE
  5
7027
  8
ALPHA
 10
1003.219012
 20
108.313318
 30
0.0
 11
1001.756678
 21
106.850988
 31
0.0
  0
LINE
  5
7028
  8
ALPHA
 10
1003.209115
 20
110.012595
 30
0.0
 11
1002.635726
 21
110.584334
 31
0.0
  0
LINE
  5
7029
  8
ALPHA
 10
1002.635726
 20
110.584334
 30
0.0
 11
1001.791312
 21
109.741018
 31
0.0
  0
LINE
  5
702A
  8
ALPHA
 10
1001.791312
 20
109.741018
 30
0.0
 11
1002.364701
 21
109.168178
 31
0.0
  0
LINE
  5
702B
  8
ALPHA
 10
1003.792398
 20
107.740481
 30
0.0
 11
1003.219012
 21
108.313318
 31
0.0
  0
LINE
  5
702C
  8
ALPHA
 10
1002.364701
 20
109.168178
 30
0.0
 11
1000.902916
 21
107.705298
 31
0.0
  0
POLYLINE
  5
702F
  8
ALPHA
 66
     1
 10
0.0
 20
0.0
 30
0.0
 70
   128
210
0.0
220
0.0
230
-1.0
  0
VERTEX
  5
748F
  8
ALPHA
 10
-999.23003
 20
114.106028
 30
0.0
  0
VERTEX
  5
7490
  8
ALPHA
 10
-998.093397
 20
114.289816
 30
0.0
  0
VERTEX
  5
7491
  8
ALPHA
 10
-996.816424
 20
114.762016
 30
0.0
  0
VERTEX
  5
7492
  8
ALPHA
 10
-995.627377
 20
115.403883
 30
0.0
  0
VERTEX
  5
7493
  8
ALPHA
 10
-994.754521
 20
116.09667
 30
0.0
  0
SEQEND
  5
7494
  8
ALPHA
  0
POLYLINE
  5
7030
  8
ALPHA
 66
     1
 10
0.0
 20
0.0
 30
0.0
 70
   128
  0
VERTEX
  5
7495
  8
ALPHA
 10
994.754521
 20
118.085113
 30
0.0
  0
VERTEX
  5
7496
  8
ALPHA
 10
994.94458
 20
118.085113
 30
0.0
  0
VERTEX
  5
7497
  8
ALPHA
 10
995.481702
 20
118.085113
 30
0.0
  0
VERTEX
  5
7498
  8
ALPHA
 10
996.316307
 20
118.085113
 30
0.0
  0
VERTEX
  5
7499
  8
ALPHA
 10
997.398815
 20
118.085113
 30
0.0
  0
VERTEX
  5
749A
  8
ALPHA
 10
1000.109216
 20
118.085113
 30
0.0
  0
VERTEX
  5
749B
  8
ALPHA
 10
1003.216262
 20
118.085113
 30
0.0
  0
VERTEX
  5
749C
  8
ALPHA
 10
1006.323307
 20
118.085113
 30
0.0
  0
VERTEX
  5
749D
  8
ALPHA
 10
1009.033709
 20
118.085113
 30
0.0
  0
VERTEX
  5
749E
  8
ALPHA
 10
1010.116217
 20
118.085113
 30
0.0
  0
VERTEX
  5
749F
  8
ALPHA
 10
1010.950822
 20
118.085113
 30
0.0
  0
VERTEX
  5
74A0
  8
ALPHA
 10
1011.487944
 20
118.085113
 30
0.0
  0
VERTEX
  5
74A1
  8
ALPHA
 10
1011.678003
 20
118.085113
 30
0.0
  0
SEQEND
  5
74A2
  8
ALPHA
  0
LINE
  5
7031
  8
ALPHA
 10
994.740227
 20
118.085113
 30
0.0
 11
994.740227
 21
116.095571
 31
0.0
  0
LINE
  5
7032
  8
ALPHA
 10
992.765528
 20
116.095571
 30
0.0
 11
992.765528
 21
118.085113
 31
0.0
  0
LINE
  5
7033
  8
ALPHA
 10
994.740227
 20
116.095571
 30
0.0
 11
992.765528
 21
116.095571
 31
0.0
  0
LINE
  5
7034
  8
ALPHA
 10
994.359115
 20
112.167355
 30
0.0
 11
994.359115
 21
111.983945
 31
0.0
  0
LINE
  5
7035
  8
AXE
 10
988.059115
 20
112.167355
 30
0.0
 11
996.359115
 21
112.167355
 31
0.0
  0
ARC
  5
7036
  8
ALPHA
 10
992.209115
 20
112.167355
 30
0.0
 40
2.15
 50
0.0
 51
180.0
  0
LINE
  5
7037
  8
ALPHA
 10
994.720985
 20
117.49853
 30
0.0
 11
992.791366
 21
117.49853
 31
0.0
  0
LINE
  5
7038
  8
ALPHA
 10
992.765528
 20
118.085113
 30
0.0
 11
994.740227
 21
118.085113
 31
0.0
  0
ARC
  5
7039
  8
ALPHA
 10
988.309115
 20
117.467355
 30
0.0
 40
0.6
 50
103.554708
 51
180.0
  0
POLYLINE
  5
703C
  8
ALPHA
 66
     1
 10
0.0
 20
0.0
 30
0.0
 70
   128
  0
VERTEX
  5
74A3
  8
ALPHA
 10
994.754521
 20
116.09667
 30
0.0
  0
VERTEX
  5
74A4
  8
ALPHA
 10
994.754521
 20
116.407364
 30
0.0
  0
VERTEX
  5
74A5
  8
ALPHA
 10
994.754521
 20
117.090891
 30
0.0
  0
VERTEX
  5
74A6
  8
ALPHA
 10
994.754521
 20
117.774419
 30
0.0
  0
VERTEX
  5
74A7
  8
ALPHA
 10
994.754521
 20
118.085113
 30
0.0
  0
SEQEND
  5
74A8
  8
ALPHA
  0
LINE
  5
703D
  8
ALPHA
 10
1011.678003
 20
116.096668
 30
0.0
 11
1013.652702
 21
116.096668
 31
0.0
  0
LINE
  5
703E
  8
ALPHA
 10
1011.696144
 20
117.49853
 30
0.0
 11
1013.626864
 21
117.49853
 31
0.0
  0
LINE
  5
703F
  8
ALPHA
 10
1013.652702
 20
118.086211
 30
0.0
 11
1011.678003
 21
118.086211
 31
0.0
  0
LINE
  5
7040
  8
ALPHA
 10
1011.678003
 20
118.086211
 30
0.0
 11
1011.678003
 21
116.096668
 31
0.0
  0
LINE
  5
7041
  8
ALPHA
 10
1012.059115
 20
112.167355
 30
0.0
 11
1012.059115
 21
111.983945
 31
0.0
  0
LINE
  5
7042
  8
ALPHA
 10
1013.652702
 20
116.096668
 30
0.0
 11
1013.652702
 21
118.086211
 31
0.0
  0
POLYLINE
  5
7047
  8
ALPHA
 66
     1
 10
0.0
 20
0.0
 30
0.0
 70
   128
  0
VERTEX
  5
74A9
  8
ALPHA
 10
1000.079607
 20
114.106028
 30
0.0
  0
VERTEX
  5
74AA
  8
ALPHA
 10
999.475011
 20
114.106028
 30
0.0
  0
VERTEX
  5
74AB
  8
ALPHA
 10
999.23003
 20
114.106028
 30
0.0
  0
SEQEND
  5
74AC
  8
ALPHA
  0
POLYLINE
  5
7048
  8
ALPHA
 66
     1
 10
0.0
 20
0.0
 30
0.0
 70
   128
  0
VERTEX
  5
74AD
  8
ALPHA
 10
1007.202494
 20
114.106028
 30
0.0
  0
VERTEX
  5
74AE
  8
ALPHA
 10
1006.952983
 20
114.106028
 30
0.0
  0
VERTEX
  5
74AF
  8
ALPHA
 10
1006.338259
 20
114.106028
 30
0.0
  0
SEQEND
  5
74B0
  8
ALPHA
  0
POLYLINE
  5
7049
  8
ALPHA
 66
     1
 10
0.0
 20
0.0
 30
0.0
 70
   128
  0
VERTEX
  5
74B1
  8
ALPHA
 10
1011.678003
 20
118.085113
 30
0.0
  0
VERTEX
  5
74B2
  8
ALPHA
 10
1011.678003
 20
117.774419
 30
0.0
  0
VERTEX
  5
74B3
  8
ALPHA
 10
1011.678003
 20
117.090891
 30
0.0
  0
VERTEX
  5
74B4
  8
ALPHA
 10
1011.678003
 20
116.407364
 30
0.0
  0
VERTEX
  5
74B5
  8
ALPHA
 10
1011.678003
 20
116.09667
 30
0.0
  0
VERTEX
  5
74B6
  8
ALPHA
 10
1010.805533
 20
115.403883
 30
0.0
  0
VERTEX
  5
74B7
  8
ALPHA
 10
1009.616718
 20
114.762016
 30
0.0
  0
VERTEX
  5
74B8
  8
ALPHA
 10
1008.339667
 20
114.289816
 30
0.0
  0
VERTEX
  5
74B9
  8
ALPHA
 10
1007.202494
 20
114.106028
 30
0.0
  0
SEQEND
  5
74BA
  8
ALPHA
  0
LINE
  5
704A
  8
ALPHA
 10
1018.709115
 20
117.467355
 30
0.0
 11
1018.709115
 21
55.167355
 31
0.0
  0
DIMENSION
  5
704B
  8
COTATION1
  2
*D12
 10
1053.709115
 20
59.167355
 30
0.0
 11
1053.709115
 21
84.667355
 31
0.0
 13
1017.359115
 23
110.167355
 33
0.0
 14
1017.209115
 24
59.167355
 34
0.0
 50
90.0
  0
LINE
  5
704C
  8
ALPHA
 10
1015.709115
 20
56.167355
 30
0.0
 11
1015.709115
 21
60.219673
 31
0.0
  0
LINE
  5
704D
  8
ALPHA
 10
1014.209115
 20
56.167355
 30
0.0
 11
1014.209115
 21
60.219673
 31
0.0
  0
LINE
  5
704E
  8
ALPHA
 10
1015.709115
 20
56.167355
 30
0.0
 11
1018.709115
 21
56.167355
 31
0.0
  0
TEXT
  5
704F
  8
AXE
 10
1027.232925
 20
88.667355
 30
0.0
 40
8.0
  1
X
 72
     2
 11
1033.709115
 21
88.667355
 31
0.0
  0
LINE
  5
7050
  8
AXE
 10
1014.209115
 20
108.017355
 30
0.0
 11
1014.209115
 21
116.317355
 31
0.0
  0
LINE
  5
7051
  8
ALPHA
 10
1016.359115
 20
112.167355
 30
0.0
 11
1016.359115
 21
110.167355
 31
0.0
  0
DIMENSION
  5
7052
  8
COTATION1
  2
*D13
 10
1043.709115
 20
110.167355
 30
0.0
 11
1040.875782
 21
101.769095
 31
0.0
 70
   128
 13
1018.359115
 23
112.167355
 33
0.0
 14
1017.359115
 24
110.167355
 34
0.0
 50
90.0
1001
ACAD
1000
DSTYLE
1002
{
1070
   287
1070
     5
1070
   287
1070
     5
1070
   287
1070
     5
1070
   279
1070
     2
1070
   289
1070
     3
1002
}
  0
ARC
  5
7053
  8
ALPHA
 10
1014.209115
 20
110.167355
 30
0.0
 40
2.15
 50
270.0
 51
0.0
  0
ARC
  5
7054
  8
ALPHA
 10
1018.109115
 20
117.467355
 30
0.0
 40
0.6
 50
0.0
 51
76.445292
  0
DIMENSION
  5
727C
  8
COTATION1
  2
*D14
 10
1073.709115
 20
43.167355
 30
0.0
 11
1073.709115
 21
81.667355
 31
0.0
 13
1013.209115
 23
120.167355
 33
0.0
 14
1007.477064
 24
43.167355
 34
0.0
 50
90.0
  0
VIEWPORT
  5
494D
 67
     1
  8
0
 10
4.995325
 20
6.556512
 30
0.0
 40
22.70986
 41
13.988421
 68
    -1
 69
     1
1001
ACAD
1000
MVIEW
1002
{
1070
    16
1010
0.0
1020
0.0
1030
0.0
1010
0.0
1020
0.0
1030
1.0
1040
0.0
1040
13.988421
1040
4.995325
1040
6.556512
1040
50.0
1040
0.0
1040
0.0
1070
     0
1070
   100
1070
     1
1070
     1
1070
     0
1070
     0
1070
     0
1070
     0
1040
0.0
1040
0.0
1040
0.0
1040
10.0
1040
10.0
1040
10.0
1040
10.0
1070
     0
1002
{
1002
}
1002
}
  0
ENDSEC
  0
EOF
